  0
SECTION
  2
HEADER
  9
$ACADVER
  1
AC1018
  9
$ACADMAINTVER
 70
   104
  9
$DWGCODEPAGE
  3
ANSI_1252
  9
$LASTSAVEDBY
  1
V498957
  9
$INSBASE
 10
0.0
 20
0.0
 30
0.0
  9
$EXTMIN
 10
-3340.881293470393
 20
-2010.898230016203
 30
0.0
  9
$EXTMAX
 10
4405.908511983442
 20
545.4043674635413
 30
0.0
  9
$LIMMIN
 10
0.0
 20
0.0
  9
$LIMMAX
 10
420.0
 20
297.0
  9
$ORTHOMODE
 70
     0
  9
$REGENMODE
 70
     1
  9
$FILLMODE
 70
     1
  9
$QTEXTMODE
 70
     0
  9
$MIRRTEXT
 70
     0
  9
$LTSCALE
 40
1.0
  9
$ATTMODE
 70
     1
  9
$TEXTSIZE
 40
2.5
  9
$TRACEWID
 40
1.0
  9
$TEXTSTYLE
  7
Standard
  9
$CLAYER
  8
Hilfslinie
  9
$CELTYPE
  6
ByLayer
  9
$CECOLOR
 62
   256
  9
$CELTSCALE
 40
1.0
  9
$DISPSILH
 70
     0
  9
$DIMSCALE
 40
1.0
  9
$DIMASZ
 40
2.5
  9
$DIMEXO
 40
0.625
  9
$DIMDLI
 40
3.75
  9
$DIMRND
 40
0.0
  9
$DIMDLE
 40
0.0
  9
$DIMEXE
 40
1.25
  9
$DIMTP
 40
0.0
  9
$DIMTM
 40
0.0
  9
$DIMTXT
 40
2.5
  9
$DIMCEN
 40
2.5
  9
$DIMTSZ
 40
0.0
  9
$DIMTOL
 70
     0
  9
$DIMLIM
 70
     0
  9
$DIMTIH
 70
     0
  9
$DIMTOH
 70
     0
  9
$DIMSE1
 70
     0
  9
$DIMSE2
 70
     0
  9
$DIMTAD
 70
     1
  9
$DIMZIN
 70
     8
  9
$DIMBLK
  1

  9
$DIMASO
 70
     1
  9
$DIMSHO
 70
     1
  9
$DIMPOST
  1

  9
$DIMAPOST
  1

  9
$DIMALT
 70
     0
  9
$DIMALTD
 70
     3
  9
$DIMALTF
 40
0.03937007874016
  9
$DIMLFAC
 40
1.0
  9
$DIMTOFL
 70
     1
  9
$DIMTVP
 40
0.0
  9
$DIMTIX
 70
     0
  9
$DIMSOXD
 70
     0
  9
$DIMSAH
 70
     0
  9
$DIMBLK1
  1

  9
$DIMBLK2
  1

  9
$DIMSTYLE
  2
ISO-25
  9
$DIMCLRD
 70
     0
  9
$DIMCLRE
 70
     0
  9
$DIMCLRT
 70
     0
  9
$DIMTFAC
 40
1.0
  9
$DIMGAP
 40
0.625
  9
$DIMJUST
 70
     0
  9
$DIMSD1
 70
     0
  9
$DIMSD2
 70
     0
  9
$DIMTOLJ
 70
     0
  9
$DIMTZIN
 70
     8
  9
$DIMALTZ
 70
     0
  9
$DIMALTTZ
 70
     0
  9
$DIMUPT
 70
     0
  9
$DIMDEC
 70
     2
  9
$DIMTDEC
 70
     2
  9
$DIMALTU
 70
     2
  9
$DIMALTTD
 70
     3
  9
$DIMTXSTY
  7
Standard
  9
$DIMAUNIT
 70
     0
  9
$DIMADEC
 70
     0
  9
$DIMALTRND
 40
0.0
  9
$DIMAZIN
 70
     0
  9
$DIMDSEP
 70
    44
  9
$DIMATFIT
 70
     3
  9
$DIMFRAC
 70
     0
  9
$DIMLDRBLK
  1

  9
$DIMLUNIT
 70
     2
  9
$DIMLWD
 70
    -2
  9
$DIMLWE
 70
    -2
  9
$DIMTMOVE
 70
     0
  9
$LUNITS
 70
     2
  9
$LUPREC
 70
     4
  9
$SKETCHINC
 40
1.0
  9
$FILLETRAD
 40
0.0
  9
$AUNITS
 70
     0
  9
$AUPREC
 70
     0
  9
$MENU
  1
.
  9
$ELEVATION
 40
0.0
  9
$PELEVATION
 40
0.0
  9
$THICKNESS
 40
0.0
  9
$LIMCHECK
 70
     0
  9
$CHAMFERA
 40
10.0
  9
$CHAMFERB
 40
10.0
  9
$CHAMFERC
 40
20.0
  9
$CHAMFERD
 40
0.0
  9
$SKPOLY
 70
     0
  9
$TDCREATE
 40
2453488.584891840
  9
$TDUCREATE
 40
2453488.501558507
  9
$TDUPDATE
 40
2455092.413977951
  9
$TDUUPDATE
 40
2455092.330644618
  9
$TDINDWG
 40
0.7802073843
  9
$TDUSRTIMER
 40
0.7802073843
  9
$USRTIMER
 70
     1
  9
$ANGBASE
 50
0.0
  9
$ANGDIR
 70
     0
  9
$PDMODE
 70
     0
  9
$PDSIZE
 40
0.0
  9
$PLINEWID
 40
0.0
  9
$SPLFRAME
 70
     0
  9
$SPLINETYPE
 70
     6
  9
$SPLINESEGS
 70
   500
  9
$HANDSEED
  5
750F
  9
$SURFTAB1
 70
     6
  9
$SURFTAB2
 70
     6
  9
$SURFTYPE
 70
     6
  9
$SURFU
 70
     6
  9
$SURFV
 70
     6
  9
$UCSBASE
  2

  9
$UCSNAME
  2

  9
$UCSORG
 10
0.0
 20
0.0
 30
0.0
  9
$UCSXDIR
 10
1.0
 20
0.0
 30
0.0
  9
$UCSYDIR
 10
0.0
 20
1.0
 30
0.0
  9
$UCSORTHOREF
  2

  9
$UCSORTHOVIEW
 70
     0
  9
$UCSORGTOP
 10
0.0
 20
0.0
 30
0.0
  9
$UCSORGBOTTOM
 10
0.0
 20
0.0
 30
0.0
  9
$UCSORGLEFT
 10
0.0
 20
0.0
 30
0.0
  9
$UCSORGRIGHT
 10
0.0
 20
0.0
 30
0.0
  9
$UCSORGFRONT
 10
0.0
 20
0.0
 30
0.0
  9
$UCSORGBACK
 10
0.0
 20
0.0
 30
0.0
  9
$PUCSBASE
  2

  9
$PUCSNAME
  2

  9
$PUCSORG
 10
0.0
 20
0.0
 30
0.0
  9
$PUCSXDIR
 10
1.0
 20
0.0
 30
0.0
  9
$PUCSYDIR
 10
0.0
 20
1.0
 30
0.0
  9
$PUCSORTHOREF
  2

  9
$PUCSORTHOVIEW
 70
     0
  9
$PUCSORGTOP
 10
0.0
 20
0.0
 30
0.0
  9
$PUCSORGBOTTOM
 10
0.0
 20
0.0
 30
0.0
  9
$PUCSORGLEFT
 10
0.0
 20
0.0
 30
0.0
  9
$PUCSORGRIGHT
 10
0.0
 20
0.0
 30
0.0
  9
$PUCSORGFRONT
 10
0.0
 20
0.0
 30
0.0
  9
$PUCSORGBACK
 10
0.0
 20
0.0
 30
0.0
  9
$USERI1
 70
     0
  9
$USERI2
 70
     0
  9
$USERI3
 70
     0
  9
$USERI4
 70
     0
  9
$USERI5
 70
     0
  9
$USERR1
 40
0.0
  9
$USERR2
 40
0.0
  9
$USERR3
 40
0.0
  9
$USERR4
 40
0.0
  9
$USERR5
 40
0.0
  9
$WORLDVIEW
 70
     1
  9
$SHADEDGE
 70
     3
  9
$SHADEDIF
 70
    70
  9
$TILEMODE
 70
     1
  9
$MAXACTVP
 70
    64
  9
$PINSBASE
 10
0.0
 20
0.0
 30
0.0
  9
$PLIMCHECK
 70
     0
  9
$PEXTMIN
 10
1.000000000000000E+20
 20
1.000000000000000E+20
 30
1.000000000000000E+20
  9
$PEXTMAX
 10
-1.000000000000000E+20
 20
-1.000000000000000E+20
 30
-1.000000000000000E+20
  9
$PLIMMIN
 10
-5.027069091796875
 20
-6.805083274841308
  9
$PLIMMAX
 10
291.89892578125
 20
203.1682443618775
  9
$UNITMODE
 70
     0
  9
$VISRETAIN
 70
     1
  9
$PLINEGEN
 70
     0
  9
$PSLTSCALE
 70
     1
  9
$TREEDEPTH
 70
  3020
  9
$CMLSTYLE
  2
Standard
  9
$CMLJUST
 70
     0
  9
$CMLSCALE
 40
20.0
  9
$PROXYGRAPHICS
 70
     1
  9
$MEASUREMENT
 70
     1
  9
$CELWEIGHT
370
    -1
  9
$ENDCAPS
280
     0
  9
$JOINSTYLE
280
     0
  9
$LWDISPLAY
290
     0
  9
$INSUNITS
 70
     4
  9
$HYPERLINKBASE
  1

  9
$STYLESHEET
  1

  9
$XEDIT
290
     1
  9
$CEPSNTYPE
380
     0
  9
$PSTYLEMODE
290
     1
  9
$FINGERPRINTGUID
  2
{FDEAD578-A652-11D2-9A35-0060089B3A3F}
  9
$VERSIONGUID
  2
{8267AC42-D70D-43F6-9FF1-4D8FA6D1D548}
  9
$EXTNAMES
290
     1
  9
$PSVPSCALE
 40
0.0
  9
$OLESTARTUP
290
     0
  9
$SORTENTS
280
   127
  9
$INDEXCTL
280
     0
  9
$HIDETEXT
280
     1
  9
$XCLIPFRAME
290
     0
  9
$HALOGAP
280
     0
  9
$OBSCOLOR
 70
   257
  9
$OBSLTYPE
280
     0
  9
$INTERSECTIONDISPLAY
280
     0
  9
$INTERSECTIONCOLOR
 70
   257
  9
$DIMASSOC
280
     2
  9
$PROJECTNAME
  1

  0
ENDSEC
  0
SECTION
  2
CLASSES
  0
CLASS
  1
ACDBDICTIONARYWDFLT
  2
AcDbDictionaryWithDefault
  3
ObjectDBX Classes
 90
        0
 91
        1
280
     0
281
     0
  0
CLASS
  1
DICTIONARYVAR
  2
AcDbDictionaryVar
  3
ObjectDBX Classes
 90
        0
 91
        9
280
     0
281
     0
  0
CLASS
  1
DIMASSOC
  2
AcDbDimAssoc
  3
"AcDbDimAssoc|Product Desc:     AcDim ARX App For Dimension|Company:          Autodesk, Inc.|WEB Address:      www.autodesk.com"
 90
        0
 91
        7
280
     0
281
     0
  0
CLASS
  1
RASTERVARIABLES
  2
AcDbRasterVariables
  3
ISM
 90
        0
 91
        1
280
     0
281
     0
  0
CLASS
  1
IMAGEDEF
  2
AcDbRasterImageDef
  3
ISM
 90
        0
 91
        2
280
     0
281
     0
  0
CLASS
  1
IMAGEDEF_REACTOR
  2
AcDbRasterImageDefReactor
  3
ISM
 90
        1
 91
        2
280
     0
281
     0
  0
CLASS
  1
IMAGE
  2
AcDbRasterImage
  3
ISM
 90
     2175
 91
        2
280
     0
281
     1
  0
CLASS
  1
TABLESTYLE
  2
AcDbTableStyle
  3
ObjectDBX Classes
 90
     4095
 91
        1
280
     0
281
     0
  0
CLASS
  1
MATERIAL
  2
AcDbMaterial
  3
ObjectDBX Classes
 90
     1153
 91
        3
280
     0
281
     0
  0
CLASS
  1
VISUALSTYLE
  2
AcDbVisualStyle
  3
ObjectDBX Classes
 90
     4095
 91
       16
280
     0
281
     0
  0
CLASS
  1
EXACXREFPANELOBJECT
  2
ExAcXREFPanelObject
  3
EXAC_ESW
 90
     1025
 91
        0
280
     0
281
     0
  0
CLASS
  1
NPOCOLLECTION
  2
AcDbImpNonPersistentObjectsCollection
  3
ObjectDBX Classes
 90
     1153
 91
        0
280
     0
281
     0
  0
CLASS
  1
SCALE
  2
AcDbScale
  3
ObjectDBX Classes
 90
     1153
 91
       17
280
     0
281
     0
  0
CLASS
  1
MLEADERSTYLE
  2
AcDbMLeaderStyle
  3
ACDB_MLEADERSTYLE_CLASS
 90
     4095
 91
        1
280
     0
281
     0
  0
CLASS
  1
CELLSTYLEMAP
  2
AcDbCellStyleMap
  3
ObjectDBX Classes
 90
     1152
 91
       14
280
     0
281
     0
  0
CLASS
  1
SORTENTSTABLE
  2
AcDbSortentsTable
  3
ObjectDBX Classes
 90
        0
 91
        1
280
     0
281
     0
  0
ENDSEC
  0
SECTION
  2
TABLES
  0
TABLE
  2
VPORT
  5
8
102
{ACAD_XDICTIONARY
360
4526
102
}
330
0
100
AcDbSymbolTable
 70
     1
  0
VPORT
  5
38A2
330
8
100
AcDbSymbolTableRecord
100
AcDbViewportTableRecord
  2
*Active
 70
     0
 10
0.0
 20
0.0
 11
1.0
 21
1.0
 12
1167.272940253685
 22
-803.2017170909675
 13
0.0
 23
0.0
 14
10.0
 24
10.0
 15
10.0
 25
10.0
 16
0.0
 26
0.0
 36
1.0
 17
0.0
 27
0.0
 37
0.0
 40
6398.242451061186
 41
1.788313120176405
 42
50.0
 43
0.0
 44
0.0
 50
0.0
 51
0.0
 71
     0
 72
  1000
 73
     1
 74
     3
 75
     0
 76
     0
 77
     0
 78
     0
281
     0
 65
     1
110
0.0
120
0.0
130
0.0
111
1.0
121
0.0
131
0.0
112
0.0
122
1.0
132
0.0
 79
     0
146
0.0
  0
ENDTAB
  0
TABLE
  2
LTYPE
  5
5
330
0
100
AcDbSymbolTable
 70
     4
  0
LTYPE
  5
14
330
5
100
AcDbSymbolTableRecord
100
AcDbLinetypeTableRecord
  2
ByBlock
 70
     0
  3

 72
    65
 73
     0
 40
0.0
  0
LTYPE
  5
15
330
5
100
AcDbSymbolTableRecord
100
AcDbLinetypeTableRecord
  2
ByLayer
 70
     0
  3

 72
    65
 73
     0
 40
0.0
  0
LTYPE
  5
16
330
5
100
AcDbSymbolTableRecord
100
AcDbLinetypeTableRecord
  2
Continuous
 70
     0
  3
Solid line
 72
    65
 73
     0
 40
0.0
  0
LTYPE
  5
86
330
5
100
AcDbSymbolTableRecord
100
AcDbLinetypeTableRecord
  2
STRICHPUNKT
 70
     0
  3
Strichpunkt __ . __ . __ . __ . __ . __ . __ . 
 72
    65
 73
     4
 40
1.0
 49
0.5
 74
     0
 49
-0.25
 74
     0
 49
0.0
 74
     0
 49
-0.25
 74
     0
  0
LTYPE
  5
844
330
5
100
AcDbSymbolTableRecord
100
AcDbLinetypeTableRecord
  2
STRICHLINIE
 70
     0
  3
Strichlinie __ __ __ __ __ __ __ __ __ __ __ __
 72
    65
 73
     2
 40
19.05
 49
12.7
 74
     0
 49
-6.349999999999999
 74
     0
  0
LTYPE
  5
5207
330
5
100
AcDbSymbolTableRecord
100
AcDbLinetypeTableRecord
  2
VERDECKT
 70
     0
  3
Verdeckt __ __ __ __ __ __ __ __ __ __ __ __ __
 72
    65
 73
     2
 40
9.524999999999998
 49
6.349999999999999
 74
     0
 49
-3.174999999999999
 74
     0
  0
ENDTAB
  0
TABLE
  2
LAYER
  5
2
102
{ACAD_XDICTIONARY
360
3637
102
}
330
0
100
AcDbSymbolTable
 70
    16
  0
LAYER
  5
10
102
{ACAD_XDICTIONARY
360
49F9
102
}
330
2
100
AcDbSymbolTableRecord
100
AcDbLayerTableRecord
  2
0
 70
     0
 62
     7
  6
Continuous
370
    -3
390
F
  0
LAYER
  5
87
102
{ACAD_XDICTIONARY
360
49FB
102
}
330
2
100
AcDbSymbolTableRecord
100
AcDbLayerTableRecord
  2
18
 70
     0
 62
     1
  6
Continuous
370
    -3
390
F
  0
LAYER
  5
89
102
{ACAD_XDICTIONARY
360
49FD
102
}
330
2
100
AcDbSymbolTableRecord
100
AcDbLayerTableRecord
  2
KOTIERUNG
 70
     0
 62
     7
  6
Continuous
370
    -3
390
F
  0
LAYER
  5
241
330
2
100
AcDbSymbolTableRecord
100
AcDbLayerTableRecord
  2
DEFPOINTS
 70
     0
 62
     7
  6
Continuous
290
     0
370
    -3
390
F
  0
LAYER
  5
242
102
{ACAD_XDICTIONARY
360
49FF
102
}
330
2
100
AcDbSymbolTableRecord
100
AcDbLayerTableRecord
  2
50
 70
     0
 62
    33
  6
Continuous
370
    -3
390
F
  0
LAYER
  5
12C2
102
{ACAD_XDICTIONARY
360
4A01
102
}
330
2
100
AcDbSymbolTableRecord
100
AcDbLayerTableRecord
  2
35
 70
     0
 62
     2
  6
Continuous
370
    -3
390
F
  0
LAYER
  5
1653
102
{ACAD_XDICTIONARY
360
4A03
102
}
330
2
100
AcDbSymbolTableRecord
100
AcDbLayerTableRecord
  2
25
 70
     0
 62
     7
  6
Continuous
370
    -3
390
F
  0
LAYER
  5
1654
102
{ACAD_XDICTIONARY
360
4A05
102
}
330
2
100
AcDbSymbolTableRecord
100
AcDbLayerTableRecord
  2
Fenster
 70
     0
 62
     4
  6
Continuous
290
     0
370
    -3
390
F
  0
LAYER
  5
168F
102
{ACAD_XDICTIONARY
360
4A07
102
}
330
2
100
AcDbSymbolTableRecord
100
AcDbLayerTableRecord
  2
Hilfslinie
 70
     0
 62
     3
  6
Continuous
290
     0
370
    -3
390
F
  0
LAYER
  5
2038
102
{ACAD_XDICTIONARY
360
4A09
102
}
330
2
100
AcDbSymbolTableRecord
100
AcDbLayerTableRecord
  2
BLATTTEXT
 70
     0
 62
     7
  6
Continuous
370
    -3
390
F
  0
LAYER
  5
2A27
102
{ACAD_XDICTIONARY
360
4A0B
102
}
330
2
100
AcDbSymbolTableRecord
100
AcDbLayerTableRecord
  2
A4-BLATT
 70
     0
 62
     2
  6
Continuous
370
    -3
390
F
  0
LAYER
  5
3304
102
{ACAD_XDICTIONARY
360
4A0D
102
}
330
2
100
AcDbSymbolTableRecord
100
AcDbLayerTableRecord
  2
HILFSLINIEN
 70
     0
 62
    -3
  6
Continuous
290
     0
370
    -3
390
F
  0
LAYER
  5
3305
102
{ACAD_XDICTIONARY
360
4A0F
102
}
330
2
100
AcDbSymbolTableRecord
100
AcDbLayerTableRecord
  2
BLATTHILFSLINIEN
 70
     0
 62
   252
  6
Continuous
290
     0
370
    -3
390
F
  0
LAYER
  5
3680
102
{ACAD_XDICTIONARY
360
4A11
102
}
330
2
100
AcDbSymbolTableRecord
100
AcDbLayerTableRecord
  2
ZUSATZTEXTE
 70
     0
 62
     7
  6
Continuous
370
    -3
390
F
  0
LAYER
  5
5208
102
{ACAD_XDICTIONARY
360
5209
102
}
330
2
100
AcDbSymbolTableRecord
100
AcDbLayerTableRecord
  2
PLANKOPF
 70
     0
 62
     7
  6
Continuous
370
    -3
390
F
  0
LAYER
  5
71DF
330
2
100
AcDbSymbolTableRecord
100
AcDbLayerTableRecord
  2
LS
 70
     0
 62
     2
  6
Continuous
370
    -3
390
F
  0
ENDTAB
  0
TABLE
  2
STYLE
  5
3
330
0
100
AcDbSymbolTable
 70
     9
  0
STYLE
  5
11
330
3
100
AcDbSymbolTableRecord
100
AcDbTextStyleTableRecord
  2
Standard
 70
     0
 40
0.0
 41
1.0
 50
0.0
 71
     0
 42
2.5
  3
txt
  4

  0
STYLE
  5
8A
330
3
100
AcDbSymbolTableRecord
100
AcDbTextStyleTableRecord
  2
VOEST
 70
     0
 40
0.0
 41
1.0
 50
0.0
 71
     0
 42
35.0
  3
ARIALN.TTF
  4

1001
ACAD
1000
Arial Narrow
1071
       34
  0
STYLE
  5
243
330
3
100
AcDbSymbolTableRecord
100
AcDbTextStyleTableRecord
  2
STYLE1
 70
     0
 40
0.0
 41
1.0
 50
0.0
 71
     0
 42
15.0
  3
ARIALN.TTF
  4

1001
ACAD
1000
Arial Narrow
1071
       34
  0
STYLE
  5
2039
330
3
100
AcDbSymbolTableRecord
100
AcDbTextStyleTableRecord
  2
VOESTB
 70
     0
 40
0.0
 41
1.0
 50
0.0
 71
     0
 42
4.0
  3
ARIALNB.TTF
  4

1001
ACAD
1000
Arial Narrow
1071
 33554466
  0
STYLE
  5
2A28
330
3
100
AcDbSymbolTableRecord
100
AcDbTextStyleTableRecord
  2
LOGO1
 70
     0
 40
0.0
 41
1.175
 50
0.0
 71
     0
 42
6.158564712355089
  3
swissb.ttf
  4

1001
ACAD
1000
Swis721 BT
1071
 33554466
  0
STYLE
  5
2A29
330
3
100
AcDbSymbolTableRecord
100
AcDbTextStyleTableRecord
  2
LOGO3
 70
     0
 40
0.0
 41
1.175
 50
0.0
 71
     0
 42
6.158564712355089
  3
swissel.ttf
  4

1001
ACAD
1000
Swis721 LtEx BT
1071
       34
  0
STYLE
  5
2A2A
330
3
100
AcDbSymbolTableRecord
100
AcDbTextStyleTableRecord
  2
LOGO2
 70
     0
 40
0.0
 41
1.175
 50
0.0
 71
     0
 42
6.158564712355089
  3
swiss.ttf
  4

1001
ACAD
1000
Swis721 BT
1071
       34
  0
STYLE
  5
334A
330
3
100
AcDbSymbolTableRecord
100
AcDbTextStyleTableRecord
  2
ARIALFETT
 70
     0
 40
0.0
 41
1.0
 50
0.0
 71
     0
 42
4.0
  3
ARIALN.TTF
  4

1001
ACAD
1000
Arial Narrow
1071
       34
  0
STYLE
  5
334B
330
3
100
AcDbSymbolTableRecord
100
AcDbTextStyleTableRecord
  2
AN150
 70
     0
 40
0.0
 41
1.5
 50
0.0
 71
     0
 42
4.0
  3
ARIALN.TTF
  4

1001
ACAD
1000
Arial Narrow
1071
       34
  0
ENDTAB
  0
TABLE
  2
VIEW
  5
6
330
0
100
AcDbSymbolTable
 70
     2
  0
ENDTAB
  0
TABLE
  2
UCS
  5
7
330
0
100
AcDbSymbolTable
 70
     0
  0
ENDTAB
  0
TABLE
  2
APPID
  5
9
330
0
100
AcDbSymbolTable
 70
     8
  0
APPID
  5
12
330
9
100
AcDbSymbolTableRecord
100
AcDbRegAppTableRecord
  2
ACAD
 70
     0
  0
APPID
  5
3815
330
9
100
AcDbSymbolTableRecord
100
AcDbRegAppTableRecord
  2
ACAD_PSEXT
 70
     0
  0
APPID
  5
473E
330
9
100
AcDbSymbolTableRecord
100
AcDbRegAppTableRecord
  2
ACAD_MATERIAL_MAPPER
 70
     0
  0
APPID
  5
498B
330
9
100
AcDbSymbolTableRecord
100
AcDbRegAppTableRecord
  2
ACAD_MLEADERVER
 70
     0
  0
APPID
  5
49F7
330
9
100
AcDbSymbolTableRecord
100
AcDbRegAppTableRecord
  2
ACAD_EXEMPT_FROM_CAD_STANDARDS
 70
     0
  0
APPID
  5
520B
330
9
100
AcDbSymbolTableRecord
100
AcDbRegAppTableRecord
  2
AcAecLayerStandard
 70
     0
  0
APPID
  5
520C
330
9
100
AcDbSymbolTableRecord
100
AcDbRegAppTableRecord
  2
ACAD_DSTYLE_DIMJAG
 70
     0
  0
APPID
  5
520D
330
9
100
AcDbSymbolTableRecord
100
AcDbRegAppTableRecord
  2
ACAD_DSTYLE_DIMTALN
 70
     0
  0
ENDTAB
  0
TABLE
  2
DIMSTYLE
  5
A
330
0
100
AcDbSymbolTable
 70
    10
100
AcDbDimStyleTable
 71
     3
340
27
340
22EF
340
172E
  0
DIMSTYLE
105
27
330
A
100
AcDbSymbolTableRecord
100
AcDbDimStyleTableRecord
  2
ISO-25
 70
     0
 41
2.5
 42
0.625
 43
3.75
 44
1.25
 73
     0
 74
     0
 77
     1
 78
     8
140
2.5
141
2.5
143
0.03937007874016
147
0.625
171
     3
172
     1
271
     2
272
     2
274
     3
278
    44
283
     0
284
     8
340
11
  0
DIMSTYLE
105
245
330
A
100
AcDbSymbolTableRecord
100
AcDbDimStyleTableRecord
  2
STANDARD
 70
     0
 40
5.0
 41
2.5
 42
5.0
 43
5.0
 44
1.25
 73
     0
 74
     0
 77
     1
 78
    12
140
2.5
141
2.5
143
0.0394
147
0.625
171
     4
172
     1
271
     0
272
     1
273
     8
274
     4
340
243
  0
DIMSTYLE
105
172E
102
{ACAD_REACTORS
330
529D
330
52A0
330
52FB
330
7376
102
}
330
A
100
AcDbSymbolTableRecord
100
AcDbDimStyleTableRecord
  2
TYPENBLATT_M10
 70
     0
 40
142.85
 41
0.25
 42
0.5
 43
0.5
 44
0.25
 73
     0
 74
     0
 77
     1
140
0.25
147
0.075
271
     0
272
     0
340
8A
  0
DIMSTYLE
105
22EF
102
{ACAD_REACTORS
330
52D3
330
52D4
330
52D5
102
}
330
A
100
AcDbSymbolTableRecord
100
AcDbDimStyleTableRecord
  2
TYPENBLATT_M50
 70
     0
 40
666.666
 41
0.25
 42
0.1
 43
0.5
 44
0.25
 73
     0
 74
     0
 77
     1
140
0.25
147
0.075
271
     0
272
     0
340
8A
  0
DIMSTYLE
105
334C
330
A
100
AcDbSymbolTableRecord
100
AcDbDimStyleTableRecord
  2
TYPENBLATT
 70
     0
 40
100.0
 41
0.25
 42
0.5
 43
0.5
 44
0.25
 73
     0
 74
     0
140
0.25
147
0.125
271
     0
340
8A
  0
DIMSTYLE
105
3603
330
A
100
AcDbSymbolTableRecord
100
AcDbDimStyleTableRecord
  2
STIL1
 70
     0
 40
0.1
 41
35.0
 42
35.0
 43
75.0
 44
17.5
 73
     0
 74
     0
140
35.0
141
0.0
147
5.0
271
     0
272
     0
340
8A
  0
DIMSTYLE
105
3604
330
A
100
AcDbSymbolTableRecord
100
AcDbDimStyleTableRecord
  2
STIL2
 70
     0
 40
2.0
 41
4.0
 42
1.0
 43
1.0
 44
1.0
 73
     0
 74
     0
140
3.5
141
0.0
147
1.0
271
     0
272
     0
340
8A
  0
DIMSTYLE
105
3681
330
A
100
AcDbSymbolTableRecord
100
AcDbDimStyleTableRecord
  2
STIL2.5
 70
     0
 40
2.5
 41
5.0
 42
1.0
 43
1.0
 44
1.0
 73
     0
 74
     0
140
3.5
147
1.0
271
     0
272
     0
340
8A
341
367C
  0
DIMSTYLE
105
520A
330
A
100
AcDbSymbolTableRecord
100
AcDbDimStyleTableRecord
  2
STIL5
 70
     0
 40
5.0
 41
5.0
 42
1.0
 43
1.0
 44
1.0
 73
     0
 74
     0
140
3.5
147
1.0
271
     0
272
     0
340
8A
1001
ACAD_DSTYLE_DIMJAG
1070
   388
1040
1.5
1001
ACAD_DSTYLE_DIMTALN
1070
   392
1070
     0
  0
DIMSTYLE
105
54D2
330
A
100
AcDbSymbolTableRecord
100
AcDbDimStyleTableRecord
  2
VAKF
 70
     0
 41
20.0
 42
20.0
 43
60.0
 44
10.0
 73
     0
 74
     0
140
25.0
147
2.0
271
     0
272
     0
340
11
  0
ENDTAB
  0
TABLE
  2
BLOCK_RECORD
  5
1
330
0
100
AcDbSymbolTable
 70
    40
  0
BLOCK_RECORD
  5
1F
102
{ACAD_XDICTIONARY
360
5926
102
}
330
1
100
AcDbSymbolTableRecord
100
AcDbBlockTableRecord
  2
*Model_Space
340
22
  0
BLOCK_RECORD
  5
71CB
330
1
100
AcDbSymbolTableRecord
100
AcDbBlockTableRecord
  2
*Paper_Space
340
71CC
  0
BLOCK_RECORD
  5
1675
330
1
100
AcDbSymbolTableRecord
100
AcDbBlockTableRecord
  2
*D0
340
0
  0
BLOCK_RECORD
  5
1738
330
1
100
AcDbSymbolTableRecord
100
AcDbBlockTableRecord
  2
*D1
340
0
  0
BLOCK_RECORD
  5
186D
330
1
100
AcDbSymbolTableRecord
100
AcDbBlockTableRecord
  2
*D2
340
0
  0
BLOCK_RECORD
  5
18A9
330
1
100
AcDbSymbolTableRecord
100
AcDbBlockTableRecord
  2
*D3
340
0
  0
BLOCK_RECORD
  5
2867
330
1
100
AcDbSymbolTableRecord
100
AcDbBlockTableRecord
  2
*D4
340
0
  0
BLOCK_RECORD
  5
28B5
330
1
100
AcDbSymbolTableRecord
100
AcDbBlockTableRecord
  2
*D5
340
0
  0
BLOCK_RECORD
  5
28D6
330
1
100
AcDbSymbolTableRecord
100
AcDbBlockTableRecord
  2
*D6
340
0
  0
BLOCK_RECORD
  5
2A1D
330
1
100
AcDbSymbolTableRecord
100
AcDbBlockTableRecord
  2
VOESTALPINE LOGO
340
0
310
2800000020000000200000000100080000000000000400000000000000000000000000000000000000000000000080000080000000808000800000008000800080800000C0C0C000C0DCC000F0CAA6000020400000206000002080000020A0000020C0000020E00000400000004020000040400000406000004080000040A0
310
000040C0000040E00000600000006020000060400000606000006080000060A0000060C0000060E00000800000008020000080400000806000008080000080A0000080C0000080E00000A0000000A0200000A0400000A0600000A0800000A0A00000A0C00000A0E00000C0000000C0200000C0400000C0600000C0800000C0
310
A00000C0C00000C0E00000E0000000E0200000E0400000E0600000E0800000E0A00000E0C00000E0E00040000000400020004000400040006000400080004000A0004000C0004000E00040200000402020004020400040206000402080004020A0004020C0004020E000404000004040200040404000404060004040800040
310
40A0004040C0004040E00040600000406020004060400040606000406080004060A0004060C0004060E00040800000408020004080400040806000408080004080A0004080C0004080E00040A0000040A0200040A0400040A0600040A0800040A0A00040A0C00040A0E00040C0000040C0200040C0400040C0600040C08000
310
40C0A00040C0C00040C0E00040E0000040E0200040E0400040E0600040E0800040E0A00040E0C00040E0E00080000000800020008000400080006000800080008000A0008000C0008000E00080200000802020008020400080206000802080008020A0008020C0008020E00080400000804020008040400080406000804080
310
008040A0008040C0008040E00080600000806020008060400080606000806080008060A0008060C0008060E00080800000808020008080400080806000808080008080A0008080C0008080E00080A0000080A0200080A0400080A0600080A0800080A0A00080A0C00080A0E00080C0000080C0200080C0400080C0600080C0
310
800080C0A00080C0C00080C0E00080E0000080E0200080E0400080E0600080E0800080E0A00080E0C00080E0E000C0000000C0002000C0004000C0006000C0008000C000A000C000C000C000E000C0200000C0202000C0204000C0206000C0208000C020A000C020C000C020E000C0400000C0402000C0404000C0406000C0
310
408000C040A000C040C000C040E000C0600000C0602000C0604000C0606000C0608000C060A000C060C000C060E000C0800000C0802000C0804000C0806000C0808000C080A000C080C000C080E000C0A00000C0A02000C0A04000C0A06000C0A08000C0A0A000C0A0C000C0A0E000C0C00000C0C02000C0C04000C0C06000
310
C0C08000C0C0A000F0FBFF00A4A0A000808080000000FF0000FF000000FFFF00FF000000FF00FF00FFFF0000FFFFFF0000000000000000000000000000000000000000000000000000000000000000000000000000000000000000000000000000000000000000000000000000000000000000000000000000000000000000
310
00000000000000000000000000000000000000000000000000000000000000000000000000000000000000000000000000000000000000000000000000000000000000000000000000000000000000000000000000000000000000000000000000000000000000000000000000000000000000000000000000000000000000
310
00000000000000000000000000000000000000000000000000000000000000000000000000000000000000000000000000000000000000000000000000000000000000000000000000000000000000000000000000000000000000000000000000000000000000000000000000000000000000000000000000000000000000
310
000000000000000000000000000000000000000000000000000000000000000000000000000000000000000000000000000000000000000000000000000000000000000000000000000000000000000000000000000000000000000000000000000000000000000000000000000000000000000000FFFFFFFFFFFFFFFFFFFF
310
FFFFFFFFFFFFFFFFFFFFFFFFFF000000000000000000FFFF00FF00FF00FF00FFA2A2A2A2A2A2A2A2A200000000000000000000000000FFFFFFFFFFFFFFFFFFFFA2A2A2A2A2A2A2A2A2A20000000000000000000000FFFFFFFFFFFFFFFFFFFFFFA2A2A2A2A2A2A2A2A2A2000000000000000000000000000000000000000000
310
00000000000000000000000000000000000000000000000000000000000000000000000000000000000000000000000000000000000000000000000000000000000000000000000000000000000000000000000000000000000000000000000000000000000000000000000000000000000000000000000000000000000000
310
00000000000000000000000000000000000000000000000000000000000000000000000000000000000000000000000000000000000000000000000000000000000000000000000000000000000000000000000000000000000000000000000000000000000000000000000000000000000000000000000000000000000000
310
00000000000000000000000000000000000000000000000000000000000000000000000000000000000000000000000000000000000000000000000000000000000000000000000000000000000000000000000000000000000000000000000000000000000000000000000000000000000000000000000000000000000000
310
0000000000000000000000000000000000000000000000000000000000000000000000000000000000000000000000000000000000000000
102
{BLKREFS
331
2A25
102
}
1001
ACAD
1000
DesignCenter Data
1002
{
1070
     1
1070
     4
1002
}
  0
BLOCK_RECORD
  5
2A23
330
1
100
AcDbSymbolTableRecord
100
AcDbBlockTableRecord
  2
LOGO ACAD
340
0
1001
ACAD
1000
DesignCenter Data
1002
{
1070
     1
1070
     4
1002
}
  0
BLOCK_RECORD
  5
355E
330
1
100
AcDbSymbolTableRecord
100
AcDbBlockTableRecord
  2
*D9
340
0
  0
BLOCK_RECORD
  5
357F
330
1
100
AcDbSymbolTableRecord
100
AcDbBlockTableRecord
  2
*D10
340
0
  0
BLOCK_RECORD
  5
367C
330
1
100
AcDbSymbolTableRecord
100
AcDbBlockTableRecord
  2
_DotSmall
340
0
  0
BLOCK_RECORD
  5
461D
330
1
100
AcDbSymbolTableRecord
100
AcDbBlockTableRecord
  2
A$C5AE76184
340
0
  0
BLOCK_RECORD
  5
519F
330
1
100
AcDbSymbolTableRecord
100
AcDbBlockTableRecord
  2
*D15
340
0
  0
BLOCK_RECORD
  5
51AC
330
1
100
AcDbSymbolTableRecord
100
AcDbBlockTableRecord
  2
*D16
340
0
  0
BLOCK_RECORD
  5
51B9
330
1
100
AcDbSymbolTableRecord
100
AcDbBlockTableRecord
  2
*D17
340
0
  0
BLOCK_RECORD
  5
51C6
330
1
100
AcDbSymbolTableRecord
100
AcDbBlockTableRecord
  2
*D18
340
0
  0
BLOCK_RECORD
  5
51D3
330
1
100
AcDbSymbolTableRecord
100
AcDbBlockTableRecord
  2
*D19
340
0
  0
BLOCK_RECORD
  5
51E0
330
1
100
AcDbSymbolTableRecord
100
AcDbBlockTableRecord
  2
*D20
340
0
  0
BLOCK_RECORD
  5
51ED
330
1
100
AcDbSymbolTableRecord
100
AcDbBlockTableRecord
  2
*D21
340
0
  0
BLOCK_RECORD
  5
51FA
330
1
100
AcDbSymbolTableRecord
100
AcDbBlockTableRecord
  2
*D22
340
0
  0
BLOCK_RECORD
  5
52FE
330
1
100
AcDbSymbolTableRecord
100
AcDbBlockTableRecord
  2
*D23
340
0
  0
BLOCK_RECORD
  5
530B
330
1
100
AcDbSymbolTableRecord
100
AcDbBlockTableRecord
  2
*D24
340
0
  0
BLOCK_RECORD
  5
5318
330
1
100
AcDbSymbolTableRecord
100
AcDbBlockTableRecord
  2
*D25
340
0
  0
BLOCK_RECORD
  5
5325
330
1
100
AcDbSymbolTableRecord
100
AcDbBlockTableRecord
  2
*D26
340
0
  0
BLOCK_RECORD
  5
5332
330
1
100
AcDbSymbolTableRecord
100
AcDbBlockTableRecord
  2
*D27
340
0
  0
BLOCK_RECORD
  5
5349
330
1
100
AcDbSymbolTableRecord
100
AcDbBlockTableRecord
  2
*D28
340
0
  0
BLOCK_RECORD
  5
5356
330
1
100
AcDbSymbolTableRecord
100
AcDbBlockTableRecord
  2
*D29
340
0
  0
BLOCK_RECORD
  5
5381
330
1
100
AcDbSymbolTableRecord
100
AcDbBlockTableRecord
  2
*D30
340
0
  0
BLOCK_RECORD
  5
58F8
330
1
100
AcDbSymbolTableRecord
100
AcDbBlockTableRecord
  2
*D31
340
0
  0
BLOCK_RECORD
  5
72C2
330
1
100
AcDbSymbolTableRecord
100
AcDbBlockTableRecord
  2
*D34
340
0
  0
BLOCK_RECORD
  5
72CE
330
1
100
AcDbSymbolTableRecord
100
AcDbBlockTableRecord
  2
*D35
340
0
  0
BLOCK_RECORD
  5
72EC
330
1
100
AcDbSymbolTableRecord
100
AcDbBlockTableRecord
  2
*D36
340
0
  0
BLOCK_RECORD
  5
72F8
330
1
100
AcDbSymbolTableRecord
100
AcDbBlockTableRecord
  2
*D37
340
0
  0
BLOCK_RECORD
  5
7304
330
1
100
AcDbSymbolTableRecord
100
AcDbBlockTableRecord
  2
*D38
340
0
  0
BLOCK_RECORD
  5
7379
330
1
100
AcDbSymbolTableRecord
100
AcDbBlockTableRecord
  2
*D39
340
0
  0
ENDTAB
  0
ENDSEC
  0
SECTION
  2
BLOCKS
  0
BLOCK
  5
20
330
1F
100
AcDbEntity
  8
0
100
AcDbBlockBegin
  2
*Model_Space
 70
     0
 10
0.0
 20
0.0
 30
0.0
  3
*Model_Space
  1

  0
ENDBLK
  5
21
330
1F
100
AcDbEntity
  8
0
100
AcDbBlockEnd
  0
BLOCK
  5
71CD
330
71CB
100
AcDbEntity
 67
     1
  8
0
100
AcDbBlockBegin
  2
*Paper_Space
 70
     0
 10
0.0
 20
0.0
 30
0.0
  3
*Paper_Space
  1

  0
ENDBLK
  5
71CE
330
71CB
100
AcDbEntity
 67
     1
  8
0
100
AcDbBlockEnd
  0
BLOCK
  5
167F
330
1675
100
AcDbEntity
  8
0
100
AcDbBlockBegin
  2
*D0
 70
     1
 10
0.0
 20
0.0
 30
0.0
  3
*D0
  1

  0
LINE
  5
53A3
330
1675
100
AcDbEntity
  8
0
 62
     0
370
    -2
100
AcDbLine
 10
-17203.6728051118
 20
427.63014512815
 30
0.0
 11
-16913.54085721139
 21
427.6301451281499
 31
0.0
  0
LINE
  5
53A4
330
1675
100
AcDbEntity
  8
0
 62
     0
370
    -2
100
AcDbLine
 10
-16972.95499810736
 20
362.630145128151
 30
0.0
 11
-16913.54085721139
 21
362.630145128151
 31
0.0
  0
LINE
  5
53A5
330
1675
100
AcDbEntity
  8
0
 62
     0
370
    -2
100
AcDbLine
 10
-16946.04085721139
 20
460.1301451281499
 30
0.0
 11
-16946.04085721139
 21
492.6301451281499
 31
0.0
  0
LINE
  5
53A6
330
1675
100
AcDbEntity
  8
0
 62
     0
370
    -2
100
AcDbLine
 10
-16946.04085721139
 20
330.130145128151
 30
0.0
 11
-16946.04085721139
 21
297.630145128151
 31
0.0
  0
SOLID
  5
53A7
330
1675
100
AcDbEntity
  8
0
 62
     0
100
AcDbTrace
 10
-16951.45752387806
 20
460.1301451281499
 30
0.0
 11
-16940.62419054473
 21
460.1301451281499
 31
0.0
 12
-16946.04085721139
 22
427.6301451281499
 32
0.0
 13
-16946.04085721139
 23
427.6301451281499
 33
0.0
  0
SOLID
  5
53A8
330
1675
100
AcDbEntity
  8
0
 62
     0
100
AcDbTrace
 10
-16951.45752387806
 20
330.130145128151
 30
0.0
 11
-16940.62419054473
 21
330.130145128151
 31
0.0
 12
-16946.04085721139
 22
362.630145128151
 32
0.0
 13
-16946.04085721139
 23
362.630145128151
 33
0.0
  0
MTEXT
  5
53A9
330
1675
100
AcDbEntity
  8
0
 62
     0
100
AcDbMText
 10
-16972.38447931235
 20
395.1301451281478
 30
0.0
 40
32.5
 41
0.0
 71
     5
 72
     1
  1
\A1;65
  7
VOEST
 11
0.0000000000000001
 21
1.0
 31
0.0
 73
     1
 44
1.0
  0
POINT
  5
53AA
330
1675
100
AcDbEntity
  8
DEFPOINTS
 62
     0
100
AcDbPoint
 10
-17268.6728051118
 20
427.63014512815
 30
0.0
  0
POINT
  5
53AB
330
1675
100
AcDbEntity
  8
DEFPOINTS
 62
     0
100
AcDbPoint
 10
-17037.95499810736
 20
362.6301451281511
 30
0.0
  0
POINT
  5
53AC
330
1675
100
AcDbEntity
  8
DEFPOINTS
 62
     0
100
AcDbPoint
 10
-16946.04085721139
 20
362.630145128151
 30
0.0
  0
ENDBLK
  5
1680
330
1675
100
AcDbEntity
  8
0
100
AcDbBlockEnd
  0
BLOCK
  5
1742
330
1738
100
AcDbEntity
  8
0
100
AcDbBlockBegin
  2
*D1
 70
     1
 10
0.0
 20
0.0
 30
0.0
  3
*D1
  1

  0
LINE
  5
53AD
330
1738
100
AcDbEntity
  8
0
 62
     0
370
    -2
100
AcDbLine
 10
-16972.95499810736
 20
362.630145128151
 30
0.0
 11
-16913.54085721139
 21
362.630145128151
 31
0.0
  0
LINE
  5
53AE
330
1738
100
AcDbEntity
  8
0
 62
     0
370
    -2
100
AcDbLine
 10
-16972.95499810736
 20
-322.3698548718499
 30
0.0
 11
-16913.54085721139
 21
-322.3698548718499
 31
0.0
  0
LINE
  5
53AF
330
1738
100
AcDbEntity
  8
0
 62
     0
370
    -2
100
AcDbLine
 10
-16946.04085721139
 20
330.130145128151
 30
0.0
 11
-16946.04085721139
 21
-289.8698548718499
 31
0.0
  0
SOLID
  5
53B0
330
1738
100
AcDbEntity
  8
0
 62
     0
100
AcDbTrace
 10
-16951.45752387806
 20
330.130145128151
 30
0.0
 11
-16940.62419054473
 21
330.130145128151
 31
0.0
 12
-16946.04085721139
 22
362.630145128151
 32
0.0
 13
-16946.04085721139
 23
362.630145128151
 33
0.0
  0
SOLID
  5
53B1
330
1738
100
AcDbEntity
  8
0
 62
     0
100
AcDbTrace
 10
-16951.45752387806
 20
-289.8698548718499
 30
0.0
 11
-16940.62419054473
 21
-289.8698548718499
 31
0.0
 12
-16946.04085721139
 22
-322.3698548718499
 32
0.0
 13
-16946.04085721139
 23
-322.3698548718499
 33
0.0
  0
MTEXT
  5
53B2
330
1738
100
AcDbEntity
  8
0
 62
     0
100
AcDbMText
 10
-16972.38447931235
 20
20.13014512814785
 30
0.0
 40
32.5
 41
0.0
 71
     5
 72
     1
  1
\A1;685
  7
VOEST
 11
0.0000000000000001
 21
1.0
 31
0.0
 73
     1
 44
1.0
  0
POINT
  5
53B3
330
1738
100
AcDbEntity
  8
DEFPOINTS
 62
     0
100
AcDbPoint
 10
-17037.95499810736
 20
362.6301451281511
 30
0.0
  0
POINT
  5
53B4
330
1738
100
AcDbEntity
  8
DEFPOINTS
 62
     0
100
AcDbPoint
 10
-17037.95499810736
 20
-322.3698548718498
 30
0.0
  0
POINT
  5
53B5
330
1738
100
AcDbEntity
  8
DEFPOINTS
 62
     0
100
AcDbPoint
 10
-16946.04085721139
 20
-322.3698548718499
 30
0.0
  0
ENDBLK
  5
1743
330
1738
100
AcDbEntity
  8
0
100
AcDbBlockEnd
  0
BLOCK
  5
1877
330
186D
100
AcDbEntity
  8
0
100
AcDbBlockBegin
  2
*D2
 70
     1
 10
0.0
 20
0.0
 30
0.0
  3
*D2
  1

  0
LINE
  5
53B6
330
186D
100
AcDbEntity
  8
0
 62
     0
370
    -2
100
AcDbLine
 10
-17333.6728051118
 20
427.63014512815
 30
0.0
 11
-17438.29190748355
 21
427.63014512815
 31
0.0
  0
LINE
  5
53B7
330
186D
100
AcDbEntity
  8
0
 62
     0
370
    -2
100
AcDbLine
 10
-17333.6728051118
 20
-322.3698548718499
 30
0.0
 11
-17438.29190748355
 21
-322.3698548718499
 31
0.0
  0
LINE
  5
53B8
330
186D
100
AcDbEntity
  8
0
 62
     0
370
    -2
100
AcDbLine
 10
-17405.79190748355
 20
395.1301451281501
 30
0.0
 11
-17405.79190748355
 21
-289.8698548718499
 31
0.0
  0
SOLID
  5
53B9
330
186D
100
AcDbEntity
  8
0
 62
     0
100
AcDbTrace
 10
-17411.20857415022
 20
395.1301451281501
 30
0.0
 11
-17400.37524081688
 21
395.1301451281501
 31
0.0
 12
-17405.79190748355
 22
427.63014512815
 32
0.0
 13
-17405.79190748355
 23
427.63014512815
 33
0.0
  0
SOLID
  5
53BA
330
186D
100
AcDbEntity
  8
0
 62
     0
100
AcDbTrace
 10
-17411.20857415022
 20
-289.8698548718499
 30
0.0
 11
-17400.37524081688
 21
-289.8698548718499
 31
0.0
 12
-17405.79190748355
 22
-322.3698548718499
 32
0.0
 13
-17405.79190748355
 23
-322.3698548718499
 33
0.0
  0
MTEXT
  5
53BB
102
{ACAD_XDICTIONARY
360
74FB
102
}
330
186D
100
AcDbEntity
  8
0
 62
     0
100
AcDbMText
 10
-17432.1355295845
 20
52.63014512814727
 30
0.0
 40
32.5
 41
0.0
 71
     5
 72
     1
  1
\A1;750\U+00B140
  7
VOEST
 11
0.0000000000000001
 21
1.0
 31
0.0
 73
     1
 44
1.0
  0
POINT
  5
53BC
330
186D
100
AcDbEntity
  8
DEFPOINTS
 62
     0
100
AcDbPoint
 10
-17268.6728051118
 20
427.63014512815
 30
0.0
  0
POINT
  5
53BD
330
186D
100
AcDbEntity
  8
DEFPOINTS
 62
     0
100
AcDbPoint
 10
-17268.6728051118
 20
-322.36985487185
 30
0.0
  0
POINT
  5
53BE
330
186D
100
AcDbEntity
  8
DEFPOINTS
 62
     0
100
AcDbPoint
 10
-17405.79190748355
 20
-322.3698548718499
 30
0.0
  0
ENDBLK
  5
1878
330
186D
100
AcDbEntity
  8
0
100
AcDbBlockEnd
  0
BLOCK
  5
18B3
330
18A9
100
AcDbEntity
  8
0
100
AcDbBlockBegin
  2
*D3
 70
     1
 10
0.0
 20
0.0
 30
0.0
  3
*D3
  1

  0
LINE
  5
53F5
330
18A9
100
AcDbEntity
  8
0
 62
     0
370
    -2
100
AcDbLine
 10
-17337.95499810736
 20
305.1787126547329
 30
0.0
 11
-17337.95499810736
 21
-10.04096117643217
 31
0.0
  0
LINE
  5
53F6
330
18A9
100
AcDbEntity
  8
0
 62
     0
370
    -2
100
AcDbLine
 10
-17177.95499810736
 20
32.63014512815164
 30
0.0
 11
-17177.95499810736
 21
54.95903882356782
 31
0.0
  0
LINE
  5
53F7
330
18A9
100
AcDbEntity
  8
0
 62
     0
370
    -2
100
AcDbLine
 10
-17305.45499810736
 20
22.45903882356782
 30
0.0
 11
-17210.45499810736
 21
22.45903882356782
 31
0.0
  0
SOLID
  5
53F8
330
18A9
100
AcDbEntity
  8
0
 62
     0
100
AcDbTrace
 10
-17305.45499810736
 20
27.87570549023449
 30
0.0
 11
-17305.45499810736
 21
17.04237215690115
 31
0.0
 12
-17337.95499810736
 22
22.45903882356782
 32
0.0
 13
-17337.95499810736
 23
22.45903882356782
 33
0.0
  0
SOLID
  5
53F9
330
18A9
100
AcDbEntity
  8
0
 62
     0
100
AcDbTrace
 10
-17210.45499810736
 20
27.87570549023449
 30
0.0
 11
-17210.45499810736
 21
17.04237215690115
 31
0.0
 12
-17177.95499810736
 22
22.45903882356782
 32
0.0
 13
-17177.95499810736
 23
22.45903882356782
 33
0.0
  0
MTEXT
  5
53FA
330
18A9
100
AcDbEntity
  8
0
 62
     0
100
AcDbMText
 10
-17257.95499810736
 20
48.8026609245228
 30
0.0
 40
32.5
 41
0.0
 71
     5
 72
     1
  1
\A1;160
  7
VOEST
 73
     1
 44
1.0
  0
POINT
  5
53FB
330
18A9
100
AcDbEntity
  8
DEFPOINTS
 62
     0
100
AcDbPoint
 10
-17337.95499810736
 20
370.1787126547329
 30
0.0
  0
POINT
  5
53FC
330
18A9
100
AcDbEntity
  8
DEFPOINTS
 62
     0
100
AcDbPoint
 10
-17177.95499810736
 20
-32.36985487184836
 30
0.0
  0
POINT
  5
53FD
330
18A9
100
AcDbEntity
  8
DEFPOINTS
 62
     0
100
AcDbPoint
 10
-17177.95499810736
 20
22.45903882356782
 30
0.0
  0
ENDBLK
  5
18B4
330
18A9
100
AcDbEntity
  8
0
100
AcDbBlockEnd
  0
BLOCK
  5
2871
330
2867
100
AcDbEntity
  8
0
100
AcDbBlockBegin
  2
*D4
 70
     1
 10
0.0
 20
0.0
 30
0.0
  3
*D4
  1

  0
LINE
  5
53C8
330
2867
100
AcDbEntity
  8
0
 62
     0
370
    -2
100
AcDbLine
 10
-11431.72166729482
 20
-1655.065926001118
 30
0.0
 11
-11431.72166729482
 21
-1300.618160864219
 31
0.0
  0
LINE
  5
53C9
330
2867
100
AcDbEntity
  8
0
 62
     0
370
    -2
100
AcDbLine
 10
-15231.72166729483
 20
-1655.065926001118
 30
0.0
 11
-15231.72166729483
 21
-1300.618160864219
 31
0.0
  0
LINE
  5
53CA
330
2867
100
AcDbEntity
  8
0
 62
     0
370
    -2
100
AcDbLine
 10
-11556.72166729482
 20
-1425.618160864219
 30
0.0
 11
-15106.72166729482
 21
-1425.618160864219
 31
0.0
  0
SOLID
  5
53CB
330
2867
100
AcDbEntity
  8
0
 62
     0
100
AcDbTrace
 10
-11556.72166729482
 20
-1404.784827530886
 30
0.0
 11
-11556.72166729482
 21
-1446.451494197552
 31
0.0
 12
-11431.72166729482
 22
-1425.618160864219
 32
0.0
 13
-11431.72166729482
 23
-1425.618160864219
 33
0.0
  0
SOLID
  5
53CC
330
2867
100
AcDbEntity
  8
0
 62
     0
100
AcDbTrace
 10
-15106.72166729482
 20
-1404.784827530886
 30
0.0
 11
-15106.72166729482
 21
-1446.451494197552
 31
0.0
 12
-15231.72166729483
 22
-1425.618160864219
 32
0.0
 13
-15231.72166729483
 23
-1425.618160864219
 33
0.0
  0
MTEXT
  5
53CD
102
{ACAD_XDICTIONARY
360
74FD
102
}
330
2867
100
AcDbEntity
  8
0
 62
     0
100
AcDbMText
 10
-14713.37780606429
 20
-1324.296537399008
 30
0.0
 40
125.0
 41
0.0
 71
     5
 72
     1
  1
\A1;3800\U+00B19
  7
VOEST
 73
     1
 44
1.0
  0
POINT
  5
53CE
330
2867
100
AcDbEntity
  8
DEFPOINTS
 62
     0
100
AcDbPoint
 10
-11431.72166729482
 20
-1705.065926001118
 30
0.0
  0
POINT
  5
53CF
330
2867
100
AcDbEntity
  8
DEFPOINTS
 62
     0
100
AcDbPoint
 10
-15231.72166729483
 20
-1705.065926001118
 30
0.0
  0
POINT
  5
53D0
330
2867
100
AcDbEntity
  8
DEFPOINTS
 62
     0
100
AcDbPoint
 10
-15231.72166729483
 20
-1425.618160864219
 30
0.0
  0
ENDBLK
  5
2872
330
2867
100
AcDbEntity
  8
0
100
AcDbBlockEnd
  0
BLOCK
  5
28BF
330
28B5
100
AcDbEntity
  8
0
100
AcDbBlockBegin
  2
*D5
 70
     1
 10
0.0
 20
0.0
 30
0.0
  3
*D5
  1

  0
LINE
  5
53D1
330
28B5
100
AcDbEntity
  8
0
 62
     0
370
    -2
100
AcDbLine
 10
-15231.72166729483
 20
-1655.065926001118
 30
0.0
 11
-15231.72166729483
 21
-1300.618160864219
 31
0.0
  0
LINE
  5
53D2
330
28B5
100
AcDbEntity
  8
0
 62
     0
370
    -2
100
AcDbLine
 10
-19031.72166729483
 20
-1655.065926001118
 30
0.0
 11
-19031.72166729483
 21
-1300.618160864219
 31
0.0
  0
LINE
  5
53D3
330
28B5
100
AcDbEntity
  8
0
 62
     0
370
    -2
100
AcDbLine
 10
-15356.72166729483
 20
-1425.618160864219
 30
0.0
 11
-18906.72166729483
 21
-1425.618160864219
 31
0.0
  0
SOLID
  5
53D4
330
28B5
100
AcDbEntity
  8
0
 62
     0
100
AcDbTrace
 10
-15356.72166729483
 20
-1404.784827530886
 30
0.0
 11
-15356.72166729483
 21
-1446.451494197552
 31
0.0
 12
-15231.72166729483
 22
-1425.618160864219
 32
0.0
 13
-15231.72166729483
 23
-1425.618160864219
 33
0.0
  0
SOLID
  5
53D5
330
28B5
100
AcDbEntity
  8
0
 62
     0
100
AcDbTrace
 10
-18906.72166729483
 20
-1404.784827530886
 30
0.0
 11
-18906.72166729483
 21
-1446.451494197552
 31
0.0
 12
-19031.72166729483
 22
-1425.618160864219
 32
0.0
 13
-19031.72166729483
 23
-1425.618160864219
 33
0.0
  0
MTEXT
  5
53D6
102
{ACAD_XDICTIONARY
360
74FF
102
}
330
28B5
100
AcDbEntity
  8
0
 62
     0
100
AcDbMText
 10
-17131.72166729482
 20
-1324.296537399008
 30
0.0
 40
125.0
 41
0.0
 71
     5
 72
     1
  1
\A1;3800\U+00B19
  7
VOEST
 73
     1
 44
1.0
  0
POINT
  5
53D7
330
28B5
100
AcDbEntity
  8
DEFPOINTS
 62
     0
100
AcDbPoint
 10
-15231.72166729483
 20
-1705.065926001118
 30
0.0
  0
POINT
  5
53D8
330
28B5
100
AcDbEntity
  8
DEFPOINTS
 62
     0
100
AcDbPoint
 10
-19031.72166729483
 20
-1705.065926001118
 30
0.0
  0
POINT
  5
53D9
330
28B5
100
AcDbEntity
  8
DEFPOINTS
 62
     0
100
AcDbPoint
 10
-19031.72166729483
 20
-1425.618160864219
 30
0.0
  0
ENDBLK
  5
28C0
330
28B5
100
AcDbEntity
  8
0
100
AcDbBlockEnd
  0
BLOCK
  5
28E0
330
28D6
100
AcDbEntity
  8
0
100
AcDbBlockBegin
  2
*D6
 70
     1
 10
0.0
 20
0.0
 30
0.0
  3
*D6
  1

  0
LINE
  5
53DA
330
28D6
100
AcDbEntity
  8
0
 62
     0
370
    -2
100
AcDbLine
 10
-19031.72166729483
 20
-1655.065926001118
 30
0.0
 11
-19031.72166729483
 21
-1300.618160864219
 31
0.0
  0
LINE
  5
53DB
330
28D6
100
AcDbEntity
  8
0
 62
     0
370
    -2
100
AcDbLine
 10
-22831.72166729483
 20
-1655.065926001118
 30
0.0
 11
-22831.72166729483
 21
-1300.618160864219
 31
0.0
  0
LINE
  5
53DC
330
28D6
100
AcDbEntity
  8
0
 62
     0
370
    -2
100
AcDbLine
 10
-19156.72166729482
 20
-1425.618160864219
 30
0.0
 11
-22706.72166729483
 21
-1425.618160864219
 31
0.0
  0
SOLID
  5
53DD
330
28D6
100
AcDbEntity
  8
0
 62
     0
100
AcDbTrace
 10
-19156.72166729482
 20
-1404.784827530886
 30
0.0
 11
-19156.72166729482
 21
-1446.451494197552
 31
0.0
 12
-19031.72166729483
 22
-1425.618160864219
 32
0.0
 13
-19031.72166729483
 23
-1425.618160864219
 33
0.0
  0
SOLID
  5
53DE
330
28D6
100
AcDbEntity
  8
0
 62
     0
100
AcDbTrace
 10
-22706.72166729483
 20
-1404.784827530886
 30
0.0
 11
-22706.72166729483
 21
-1446.451494197552
 31
0.0
 12
-22831.72166729483
 22
-1425.618160864219
 32
0.0
 13
-22831.72166729483
 23
-1425.618160864219
 33
0.0
  0
MTEXT
  5
53DF
102
{ACAD_XDICTIONARY
360
7501
102
}
330
28D6
100
AcDbEntity
  8
0
 62
     0
100
AcDbMText
 10
-19615.7083637844
 20
-1324.296537399008
 30
0.0
 40
125.0
 41
0.0
 71
     5
 72
     1
  1
\A1;3800\U+00B19
  7
VOEST
 73
     1
 44
1.0
  0
POINT
  5
53E0
330
28D6
100
AcDbEntity
  8
DEFPOINTS
 62
     0
100
AcDbPoint
 10
-19031.72166729483
 20
-1705.065926001118
 30
0.0
  0
POINT
  5
53E1
330
28D6
100
AcDbEntity
  8
DEFPOINTS
 62
     0
100
AcDbPoint
 10
-22831.72166729483
 20
-1705.065926001118
 30
0.0
  0
POINT
  5
53E2
330
28D6
100
AcDbEntity
  8
DEFPOINTS
 62
     0
100
AcDbPoint
 10
-22831.72166729483
 20
-1425.618160864219
 30
0.0
  0
ENDBLK
  5
28E1
330
28D6
100
AcDbEntity
  8
0
100
AcDbBlockEnd
  0
BLOCK
  5
2A1E
330
2A1D
100
AcDbEntity
  8
0
100
AcDbBlockBegin
  2
VOESTALPINE LOGO
 70
     0
 10
0.0
 20
0.0
 30
0.0
  3
VOESTALPINE LOGO
  1

  0
TEXT
  5
2A1F
330
2A1D
100
AcDbEntity
  8
0
 62
   155
100
AcDbText
 10
-2.022376810040597
 20
1.345163130846486
 30
0.0
 40
4.761899999999999
  1
alpine
 41
1.29
  7
LOGO2
100
AcDbText
  0
TEXT
  5
2A20
330
2A1D
100
AcDbEntity
  8
0
 62
     7
100
AcDbText
 10
-24.96332103124969
 20
-3.319987708589252
 30
0.0
 40
2.050802049214244
  1
KREMS FINALTECHNIK GMBH
 41
1.219999999999999
  7
LOGO3
100
AcDbText
  0
TEXT
  5
2A21
330
2A1D
100
AcDbEntity
  8
0
 62
     7
100
AcDbText
 10
-25.59751279130563
 20
1.29203428188444
 30
0.0
 40
4.761899999999999
  1
voest
 41
1.379999999999999
  7
LOGO1
100
AcDbText
  0
ENDBLK
  5
2A22
330
2A1D
100
AcDbEntity
  8
0
100
AcDbBlockEnd
  0
BLOCK
  5
2A24
330
2A23
100
AcDbEntity
  8
0
100
AcDbBlockBegin
  2
LOGO ACAD
 70
     0
 10
0.0
 20
0.0
 30
0.0
  3
LOGO ACAD
  1

  0
INSERT
  5
2A25
330
2A23
100
AcDbEntity
  8
0
100
AcDbBlockReference
  2
VOESTALPINE LOGO
 10
25.66052293085149
 20
-5.598002378525222
 30
0.0
  0
ENDBLK
  5
2A26
330
2A23
100
AcDbEntity
  8
0
100
AcDbBlockEnd
  0
BLOCK
  5
3568
330
355E
100
AcDbEntity
  8
0
100
AcDbBlockBegin
  2
*D9
 70
     1
 10
0.0
 20
0.0
 30
0.0
  3
*D9
  1

  0
LINE
  5
53E3
330
355E
100
AcDbEntity
  8
0
 62
     0
370
    -2
100
AcDbLine
 10
-17037.95499810736
 20
377.9936214819267
 30
0.0
 11
-17037.95499810736
 21
542.6184294089856
 31
0.0
  0
LINE
  5
53E4
330
355E
100
AcDbEntity
  8
0
 62
     0
370
    -2
100
AcDbLine
 10
-17337.95499810736
 20
435.1787126547328
 30
0.0
 11
-17337.95499810736
 21
542.6184294089856
 31
0.0
  0
LINE
  5
53E5
330
355E
100
AcDbEntity
  8
0
 62
     0
370
    -2
100
AcDbLine
 10
-17070.45499810736
 20
510.1184294089856
 30
0.0
 11
-17305.45499810736
 21
510.1184294089856
 31
0.0
  0
SOLID
  5
53E6
330
355E
100
AcDbEntity
  8
0
 62
     0
100
AcDbTrace
 10
-17070.45499810736
 20
515.5350960756522
 30
0.0
 11
-17070.45499810736
 21
504.701762742319
 31
0.0
 12
-17037.95499810736
 22
510.1184294089856
 32
0.0
 13
-17037.95499810736
 23
510.1184294089856
 33
0.0
  0
SOLID
  5
53E7
330
355E
100
AcDbEntity
  8
0
 62
     0
100
AcDbTrace
 10
-17305.45499810736
 20
515.5350960756522
 30
0.0
 11
-17305.45499810736
 21
504.701762742319
 31
0.0
 12
-17337.95499810736
 22
510.1184294089856
 32
0.0
 13
-17337.95499810736
 23
510.1184294089856
 33
0.0
  0
MTEXT
  5
53E8
330
355E
100
AcDbEntity
  8
0
 62
     0
100
AcDbMText
 10
-17187.95499810736
 20
536.4620515099407
 30
0.0
 40
32.5
 41
0.0
 71
     5
 72
     1
  1
\A1;300
  7
VOEST
 73
     1
 44
1.0
  0
POINT
  5
53E9
330
355E
100
AcDbEntity
  8
DEFPOINTS
 62
     0
100
AcDbPoint
 10
-17037.95499810736
 20
312.9936214819267
 30
0.0
  0
POINT
  5
53EA
330
355E
100
AcDbEntity
  8
DEFPOINTS
 62
     0
100
AcDbPoint
 10
-17337.95499810736
 20
370.1787126547328
 30
0.0
  0
POINT
  5
53EB
330
355E
100
AcDbEntity
  8
DEFPOINTS
 62
     0
100
AcDbPoint
 10
-17337.95499810736
 20
510.1184294089856
 30
0.0
  0
ENDBLK
  5
3569
330
355E
100
AcDbEntity
  8
0
100
AcDbBlockEnd
  0
BLOCK
  5
3589
330
357F
100
AcDbEntity
  8
0
100
AcDbBlockBegin
  2
*D10
 70
     1
 10
0.0
 20
0.0
 30
0.0
  3
*D10
  1

  0
LINE
  5
53EC
330
357F
100
AcDbEntity
  8
0
 62
     0
370
    -2
100
AcDbLine
 10
-17177.95499810736
 20
-32.36985487184842
 30
0.0
 11
-17177.95499810736
 21
-10.04096117643218
 31
0.0
  0
LINE
  5
53ED
330
357F
100
AcDbEntity
  8
0
 62
     0
370
    -2
100
AcDbLine
 10
-17037.95499810736
 20
-32.3698548718485
 30
0.0
 11
-17037.95499810736
 21
-10.04096117643218
 31
0.0
  0
LINE
  5
53EE
330
357F
100
AcDbEntity
  8
0
 62
     0
370
    -2
100
AcDbLine
 10
-17145.45499810736
 20
22.45903882356782
 30
0.0
 11
-17070.45499810736
 21
22.45903882356782
 31
0.0
  0
SOLID
  5
53EF
330
357F
100
AcDbEntity
  8
0
 62
     0
100
AcDbTrace
 10
-17145.45499810736
 20
27.87570549023449
 30
0.0
 11
-17145.45499810736
 21
17.04237215690115
 31
0.0
 12
-17177.95499810736
 22
22.45903882356782
 32
0.0
 13
-17177.95499810736
 23
22.45903882356782
 33
0.0
  0
SOLID
  5
53F0
330
357F
100
AcDbEntity
  8
0
 62
     0
100
AcDbTrace
 10
-17070.45499810736
 20
27.87570549023449
 30
0.0
 11
-17070.45499810736
 21
17.04237215690115
 31
0.0
 12
-17037.95499810736
 22
22.45903882356782
 32
0.0
 13
-17037.95499810736
 23
22.45903882356782
 33
0.0
  0
MTEXT
  5
53F1
330
357F
100
AcDbEntity
  8
0
 62
     0
100
AcDbMText
 10
-17107.95499810736
 20
48.8026609245228
 30
0.0
 40
32.5
 41
0.0
 71
     5
 72
     1
  1
\A1;140
  7
VOEST
 73
     1
 44
1.0
  0
POINT
  5
53F2
330
357F
100
AcDbEntity
  8
DEFPOINTS
 62
     0
100
AcDbPoint
 10
-17177.95499810736
 20
32.63014512815158
 30
0.0
  0
POINT
  5
53F3
330
357F
100
AcDbEntity
  8
DEFPOINTS
 62
     0
100
AcDbPoint
 10
-17037.95499810736
 20
32.6301451281515
 30
0.0
  0
POINT
  5
53F4
330
357F
100
AcDbEntity
  8
DEFPOINTS
 62
     0
100
AcDbPoint
 10
-17037.95499810736
 20
22.45903882356782
 30
0.0
  0
ENDBLK
  5
358A
330
357F
100
AcDbEntity
  8
0
100
AcDbBlockEnd
  0
BLOCK
  5
367D
330
367C
100
AcDbEntity
  8
0
100
AcDbBlockBegin
  2
_DotSmall
 70
     0
 10
0.0
 20
0.0
 30
0.0
  3
_DotSmall
  1

  0
LWPOLYLINE
  5
367E
330
367C
100
AcDbEntity
  8
0
 62
     0
100
AcDbPolyline
 90
        2
 70
     1
 43
0.5
 10
-0.0625
 20
0.0
 42
1.0
 10
0.0625
 20
0.0
 42
1.0
  0
ENDBLK
  5
367F
330
367C
100
AcDbEntity
  8
0
100
AcDbBlockEnd
  0
BLOCK
  5
4621
330
461D
100
AcDbEntity
  8
0
100
AcDbBlockBegin
  2
A$C5AE76184
 70
     0
 10
0.0
 20
0.0
 30
0.0
  3
A$C5AE76184
  1

  0
TEXT
  5
461E
330
461D
100
AcDbEntity
  8
BLATTTEXT
 62
     2
100
AcDbText
 10
4.05287935202204
 20
18.00000007688402
 30
0.0
 40
4.0
  1
KB 1 MH1 - stred cesty
  7
VOEST
100
AcDbText
  0
LINE
  5
461F
330
461D
100
AcDbEntity
  8
BLATTHILFSLINIEN
100
AcDbLine
 10
4.052879352022039
 20
22.05287988070154
 30
0.0
 11
4.052879352022038
 21
0.0000000768840209
 31
0.0
  0
LINE
  5
4620
330
461D
100
AcDbEntity
  8
BLATTHILFSLINIEN
100
AcDbLine
 10
8.105759155839564
 20
18.00000007688402
 30
0.0
 11
-0.0000004517954864
 21
18.00000007688402
 31
0.0
  0
ENDBLK
  5
4622
330
461D
100
AcDbEntity
  8
0
100
AcDbBlockEnd
  0
BLOCK
  5
51A0
330
519F
100
AcDbEntity
  8
0
100
AcDbBlockBegin
  2
*D15
 70
     1
 10
0.0
 20
0.0
 30
0.0
  3
*D15
  1

  0
LINE
  5
51A1
330
519F
100
AcDbEntity
  8
PLANKOPF
 62
     0
370
    -2
100
AcDbLine
 10
-18299.52109900414
 20
-2713.751355166531
 30
0.0
 11
-18299.52109900414
 21
-2582.737990008409
 31
0.0
  0
LINE
  5
51A2
330
519F
100
AcDbEntity
  8
PLANKOPF
 62
     0
370
    -2
100
AcDbLine
 10
-18165.31103042482
 20
-2768.587203963861
 30
0.0
 11
-18165.31103042482
 21
-2582.737990008409
 31
0.0
  0
LINE
  5
51A3
330
519F
100
AcDbEntity
  8
PLANKOPF
 62
     0
370
    -2
100
AcDbLine
 10
-18274.52109900414
 20
-2587.737990008409
 30
0.0
 11
-18252.64798831612
 21
-2587.737990008409
 31
0.0
  0
LINE
  5
51A4
330
519F
100
AcDbEntity
  8
PLANKOPF
 62
     0
370
    -2
100
AcDbLine
 10
-18190.31103042482
 20
-2587.737990008409
 30
0.0
 11
-18212.18414111284
 21
-2587.737990008409
 31
0.0
  0
SOLID
  5
51A5
330
519F
100
AcDbEntity
  8
PLANKOPF
 62
     0
100
AcDbTrace
 10
-18274.52109900414
 20
-2583.571323341742
 30
0.0
 11
-18274.52109900414
 21
-2591.904656675076
 31
0.0
 12
-18299.52109900414
 22
-2587.737990008409
 32
0.0
 13
-18299.52109900414
 23
-2587.737990008409
 33
0.0
  0
SOLID
  5
51A6
330
519F
100
AcDbEntity
  8
PLANKOPF
 62
     0
100
AcDbTrace
 10
-18190.31103042482
 20
-2583.571323341742
 30
0.0
 11
-18190.31103042482
 21
-2591.904656675076
 31
0.0
 12
-18165.31103042482
 22
-2587.737990008409
 32
0.0
 13
-18165.31103042482
 23
-2587.737990008409
 33
0.0
  0
MTEXT
  5
51A7
330
519F
100
AcDbEntity
  8
PLANKOPF
 62
     0
100
AcDbMText
 10
-18232.41606471448
 20
-2587.737990008409
 30
0.0
 40
17.5
 41
0.0
 71
     5
 72
     1
  1
\A1;175
  7
VOEST
 73
     1
 44
1.0
  0
POINT
  5
51A8
330
519F
100
AcDbEntity
  8
DEFPOINTS
 62
     0
100
AcDbPoint
 10
-18299.52109900414
 20
-2718.751355166532
 30
0.0
  0
POINT
  5
51A9
330
519F
100
AcDbEntity
  8
DEFPOINTS
 62
     0
100
AcDbPoint
 10
-18165.31103042482
 20
-2773.587203963861
 30
0.0
  0
POINT
  5
51AA
330
519F
100
AcDbEntity
  8
DEFPOINTS
 62
     0
100
AcDbPoint
 10
-18165.31103042482
 20
-2587.737990008409
 30
0.0
  0
ENDBLK
  5
51AB
330
519F
100
AcDbEntity
  8
0
100
AcDbBlockEnd
  0
BLOCK
  5
51AD
330
51AC
100
AcDbEntity
  8
0
100
AcDbBlockBegin
  2
*D16
 70
     1
 10
0.0
 20
0.0
 30
0.0
  3
*D16
  1

  0
LINE
  5
51AE
330
51AC
100
AcDbEntity
  8
PLANKOPF
 62
     0
370
    -2
100
AcDbLine
 10
-18160.31103042482
 20
-2773.587203963861
 30
0.0
 11
-18022.9160618052
 21
-2773.587203963861
 31
0.0
  0
LINE
  5
51AF
330
51AC
100
AcDbEntity
  8
PLANKOPF
 62
     0
370
    -2
100
AcDbLine
 10
-18120.32109900414
 20
-3403.286086832205
 30
0.0
 11
-18022.9160618052
 21
-3403.286086832205
 31
0.0
  0
LINE
  5
51B0
330
51AC
100
AcDbEntity
  8
PLANKOPF
 62
     0
370
    -2
100
AcDbLine
 10
-18027.9160618052
 20
-2798.587203963861
 30
0.0
 11
-18027.9160618052
 21
-3067.566079231593
 31
0.0
  0
LINE
  5
51B1
330
51AC
100
AcDbEntity
  8
PLANKOPF
 62
     0
370
    -2
100
AcDbLine
 10
-18027.9160618052
 20
-3378.286086832205
 30
0.0
 11
-18027.9160618052
 21
-3109.307211564472
 31
0.0
  0
SOLID
  5
51B2
330
51AC
100
AcDbEntity
  8
PLANKOPF
 62
     0
100
AcDbTrace
 10
-18032.08272847187
 20
-2798.587203963861
 30
0.0
 11
-18023.74939513853
 21
-2798.587203963861
 31
0.0
 12
-18027.9160618052
 22
-2773.587203963861
 32
0.0
 13
-18027.9160618052
 23
-2773.587203963861
 33
0.0
  0
SOLID
  5
51B3
330
51AC
100
AcDbEntity
  8
PLANKOPF
 62
     0
100
AcDbTrace
 10
-18032.08272847187
 20
-3378.286086832205
 30
0.0
 11
-18023.74939513853
 21
-3378.286086832205
 31
0.0
 12
-18027.9160618052
 22
-3403.286086832205
 32
0.0
 13
-18027.9160618052
 23
-3403.286086832205
 33
0.0
  0
MTEXT
  5
51B4
330
51AC
100
AcDbEntity
  8
PLANKOPF
 62
     0
100
AcDbMText
 10
-18027.9160618052
 20
-3088.436645398036
 30
0.0
 40
17.5
 41
0.0
 71
     5
 72
     1
  1
\A1;630
  7
VOEST
 11
0.0000000000000001
 21
1.0
 31
0.0
 73
     1
 44
1.0
  0
POINT
  5
51B5
330
51AC
100
AcDbEntity
  8
DEFPOINTS
 62
     0
100
AcDbPoint
 10
-18165.31103042482
 20
-2773.587203963861
 30
0.0
  0
POINT
  5
51B6
330
51AC
100
AcDbEntity
  8
DEFPOINTS
 62
     0
100
AcDbPoint
 10
-18125.32109900414
 20
-3403.286086832205
 30
0.0
  0
POINT
  5
51B7
330
51AC
100
AcDbEntity
  8
DEFPOINTS
 62
     0
100
AcDbPoint
 10
-18027.9160618052
 20
-3403.286086832205
 30
0.0
  0
ENDBLK
  5
51B8
330
51AC
100
AcDbEntity
  8
0
100
AcDbBlockEnd
  0
BLOCK
  5
51BA
330
51B9
100
AcDbEntity
  8
0
100
AcDbBlockBegin
  2
*D17
 70
     1
 10
0.0
 20
0.0
 30
0.0
  3
*D17
  1

  0
LINE
  5
51BB
330
51B9
100
AcDbEntity
  8
PLANKOPF
 62
     0
370
    -2
100
AcDbLine
 10
-18229.93178841305
 20
-2653.286086832205
 30
0.0
 11
-18386.38831467769
 21
-2653.286086832205
 31
0.0
  0
LINE
  5
51BC
330
51B9
100
AcDbEntity
  8
PLANKOPF
 62
     0
370
    -2
100
AcDbLine
 10
-18230.32109900414
 20
-3403.286086832205
 30
0.0
 11
-18386.38831467769
 21
-3403.286086832205
 31
0.0
  0
LINE
  5
51BD
330
51B9
100
AcDbEntity
  8
PLANKOPF
 62
     0
370
    -2
100
AcDbLine
 10
-18381.38831467769
 20
-2678.286086832205
 30
0.0
 11
-18381.38831467769
 21
-2969.868179490275
 31
0.0
  0
LINE
  5
51BE
330
51B9
100
AcDbEntity
  8
PLANKOPF
 62
     0
370
    -2
100
AcDbLine
 10
-18381.38831467769
 20
-3378.286086832205
 30
0.0
 11
-18381.38831467769
 21
-3047.122613323836
 31
0.0
  0
SOLID
  5
51BF
330
51B9
100
AcDbEntity
  8
PLANKOPF
 62
     0
100
AcDbTrace
 10
-18385.55498134436
 20
-2678.286086832205
 30
0.0
 11
-18377.22164801102
 21
-2678.286086832205
 31
0.0
 12
-18381.38831467769
 22
-2653.286086832205
 32
0.0
 13
-18381.38831467769
 23
-2653.286086832205
 33
0.0
  0
SOLID
  5
51C0
330
51B9
100
AcDbEntity
  8
PLANKOPF
 62
     0
100
AcDbTrace
 10
-18385.55498134436
 20
-3378.286086832205
 30
0.0
 11
-18377.22164801102
 21
-3378.286086832205
 31
0.0
 12
-18381.38831467769
 22
-3403.286086832205
 32
0.0
 13
-18381.38831467769
 23
-3403.286086832205
 33
0.0
  0
MTEXT
  5
51C1
102
{ACAD_XDICTIONARY
360
74F7
102
}
330
51B9
100
AcDbEntity
  8
PLANKOPF
 62
     0
100
AcDbMText
 10
-18381.38831467769
 20
-3008.495396407059
 30
0.0
 40
17.5
 41
0.0
 71
     5
 72
     1
  1
\A1;750\U+00B140
  7
VOEST
 11
0.0000000000000001
 21
1.0
 31
0.0
 73
     1
 44
1.0
  0
POINT
  5
51C2
330
51B9
100
AcDbEntity
  8
DEFPOINTS
 62
     0
100
AcDbPoint
 10
-18224.93178841305
 20
-2653.286086832205
 30
0.0
  0
POINT
  5
51C3
330
51B9
100
AcDbEntity
  8
DEFPOINTS
 62
     0
100
AcDbPoint
 10
-18225.32109900414
 20
-3403.286086832205
 30
0.0
  0
POINT
  5
51C4
330
51B9
100
AcDbEntity
  8
DEFPOINTS
 62
     0
100
AcDbPoint
 10
-18381.38831467769
 20
-3403.286086832205
 30
0.0
  0
ENDBLK
  5
51C5
330
51B9
100
AcDbEntity
  8
0
100
AcDbBlockEnd
  0
BLOCK
  5
51C7
330
51C6
100
AcDbEntity
  8
0
100
AcDbBlockBegin
  2
*D18
 70
     1
 10
0.0
 20
0.0
 30
0.0
  3
*D18
  1

  0
LINE
  5
51C8
330
51C6
100
AcDbEntity
  8
PLANKOPF
 62
     0
370
    -2
100
AcDbLine
 10
-18219.93178841305
 20
-2653.286086832205
 30
0.0
 11
-18022.9160618052
 21
-2653.286086832205
 31
0.0
  0
LINE
  5
51C9
330
51C6
100
AcDbEntity
  8
PLANKOPF
 62
     0
370
    -2
100
AcDbLine
 10
-18160.31103042482
 20
-2773.587203963861
 30
0.0
 11
-18022.9160618052
 21
-2773.587203963861
 31
0.0
  0
LINE
  5
51CA
330
51C6
100
AcDbEntity
  8
PLANKOPF
 62
     0
370
    -2
100
AcDbLine
 10
-18027.9160618052
 20
-2678.286086832205
 30
0.0
 11
-18027.9160618052
 21
-2693.282313883708
 31
0.0
  0
LINE
  5
51CB
330
51C6
100
AcDbEntity
  8
PLANKOPF
 62
     0
370
    -2
100
AcDbLine
 10
-18027.9160618052
 20
-2748.587203963861
 30
0.0
 11
-18027.9160618052
 21
-2733.590976912358
 31
0.0
  0
SOLID
  5
51CC
330
51C6
100
AcDbEntity
  8
PLANKOPF
 62
     0
100
AcDbTrace
 10
-18032.08272847187
 20
-2678.286086832205
 30
0.0
 11
-18023.74939513853
 21
-2678.286086832205
 31
0.0
 12
-18027.9160618052
 22
-2653.286086832205
 32
0.0
 13
-18027.9160618052
 23
-2653.286086832205
 33
0.0
  0
SOLID
  5
51CD
330
51C6
100
AcDbEntity
  8
PLANKOPF
 62
     0
100
AcDbTrace
 10
-18032.08272847187
 20
-2748.587203963861
 30
0.0
 11
-18023.74939513853
 21
-2748.587203963861
 31
0.0
 12
-18027.9160618052
 22
-2773.587203963861
 32
0.0
 13
-18027.9160618052
 23
-2773.587203963861
 33
0.0
  0
MTEXT
  5
51CE
330
51C6
100
AcDbEntity
  8
PLANKOPF
 62
     0
100
AcDbMText
 10
-18027.9160618052
 20
-2713.436645398036
 30
0.0
 40
17.5
 41
0.0
 71
     5
 72
     1
  1
\A1;120
  7
VOEST
 11
0.0000000000000001
 21
1.0
 31
0.0
 73
     1
 44
1.0
  0
POINT
  5
51CF
330
51C6
100
AcDbEntity
  8
DEFPOINTS
 62
     0
100
AcDbPoint
 10
-18224.93178841305
 20
-2653.286086832205
 30
0.0
  0
POINT
  5
51D0
330
51C6
100
AcDbEntity
  8
DEFPOINTS
 62
     0
100
AcDbPoint
 10
-18165.31103042482
 20
-2773.587203963861
 30
0.0
  0
POINT
  5
51D1
330
51C6
100
AcDbEntity
  8
DEFPOINTS
 62
     0
100
AcDbPoint
 10
-18027.9160618052
 20
-2773.587203963861
 30
0.0
  0
ENDBLK
  5
51D2
330
51C6
100
AcDbEntity
  8
0
100
AcDbBlockEnd
  0
BLOCK
  5
51D4
330
51D3
100
AcDbEntity
  8
0
100
AcDbBlockBegin
  2
*D19
 70
     1
 10
0.0
 20
0.0
 30
0.0
  3
*D19
  1

  0
LINE
  5
51D5
330
51D3
100
AcDbEntity
  8
PLANKOPF
 62
     0
370
    -2
100
AcDbLine
 10
-14884.80561801538
 20
-4719.343546881675
 30
0.0
 11
-14884.80561801538
 21
-4384.45888749387
 31
0.0
  0
LINE
  5
51D6
330
51D3
100
AcDbEntity
  8
PLANKOPF
 62
     0
370
    -2
100
AcDbLine
 10
-20884.80561801539
 20
-4719.343546881675
 30
0.0
 11
-20884.80561801539
 21
-4384.45888749387
 31
0.0
  0
LINE
  5
51D7
330
51D3
100
AcDbEntity
  8
PLANKOPF
 62
     0
370
    -2
100
AcDbLine
 10
-15034.80561801538
 20
-4414.458887493871
 30
0.0
 11
-17652.32608186259
 21
-4414.458887493871
 31
0.0
  0
LINE
  5
51D8
330
51D3
100
AcDbEntity
  8
PLANKOPF
 62
     0
370
    -2
100
AcDbLine
 10
-20734.80561801539
 20
-4414.458887493871
 30
0.0
 11
-18117.28515416818
 21
-4414.458887493871
 31
0.0
  0
SOLID
  5
51D9
330
51D3
100
AcDbEntity
  8
PLANKOPF
 62
     0
100
AcDbTrace
 10
-15034.80561801538
 20
-4389.458887493871
 30
0.0
 11
-15034.80561801538
 21
-4439.458887493871
 31
0.0
 12
-14884.80561801538
 22
-4414.458887493871
 32
0.0
 13
-14884.80561801538
 23
-4414.458887493871
 33
0.0
  0
SOLID
  5
51DA
330
51D3
100
AcDbEntity
  8
PLANKOPF
 62
     0
100
AcDbTrace
 10
-20734.80561801539
 20
-4389.458887493871
 30
0.0
 11
-20734.80561801539
 21
-4439.458887493871
 31
0.0
 12
-20884.80561801539
 22
-4414.458887493871
 32
0.0
 13
-20884.80561801539
 23
-4414.458887493871
 33
0.0
  0
MTEXT
  5
51DB
102
{ACAD_XDICTIONARY
360
74F9
102
}
330
51D3
100
AcDbEntity
  8
PLANKOPF
 62
     0
100
AcDbMText
 10
-17884.80561801538
 20
-4414.458887493871
 30
0.0
 40
105.0
 41
0.0
 71
     5
 72
     1
  1
\A1;6000\U+00B17
  7
VOEST
 73
     1
 44
1.0
  0
POINT
  5
51DC
330
51D3
100
AcDbEntity
  8
DEFPOINTS
 62
     0
100
AcDbPoint
 10
-14884.80561801538
 20
-4749.343546881674
 30
0.0
  0
POINT
  5
51DD
330
51D3
100
AcDbEntity
  8
DEFPOINTS
 62
     0
100
AcDbPoint
 10
-20884.80561801539
 20
-4749.343546881674
 30
0.0
  0
POINT
  5
51DE
330
51D3
100
AcDbEntity
  8
DEFPOINTS
 62
     0
100
AcDbPoint
 10
-20884.80561801539
 20
-4414.458887493871
 30
0.0
  0
ENDBLK
  5
51DF
330
51D3
100
AcDbEntity
  8
0
100
AcDbBlockEnd
  0
BLOCK
  5
51E1
330
51E0
100
AcDbEntity
  8
0
100
AcDbBlockBegin
  2
*D20
 70
     1
 10
0.0
 20
0.0
 30
0.0
  3
*D20
  1

  0
LINE
  5
51E2
330
51E0
100
AcDbEntity
  8
PLANKOPF
 62
     0
370
    -2
100
AcDbLine
 10
-17884.80561801538
 20
-4719.343546881675
 30
0.0
 11
-17884.80561801538
 21
-4579.235780937044
 31
0.0
  0
LINE
  5
51E3
330
51E0
100
AcDbEntity
  8
PLANKOPF
 62
     0
370
    -2
100
AcDbLine
 10
-20884.80561801539
 20
-4718.718546881675
 30
0.0
 11
-20884.80561801539
 21
-4579.235780937044
 31
0.0
  0
LINE
  5
51E4
330
51E0
100
AcDbEntity
  8
PLANKOPF
 62
     0
370
    -2
100
AcDbLine
 10
-18034.80561801539
 20
-4609.235780937043
 30
0.0
 11
-19226.38474489124
 21
-4609.235780937043
 31
0.0
  0
LINE
  5
51E5
330
51E0
100
AcDbEntity
  8
PLANKOPF
 62
     0
370
    -2
100
AcDbLine
 10
-20734.80561801539
 20
-4609.235780937043
 30
0.0
 11
-19543.22649113953
 21
-4609.235780937043
 31
0.0
  0
SOLID
  5
51E6
330
51E0
100
AcDbEntity
  8
PLANKOPF
 62
     0
100
AcDbTrace
 10
-18034.80561801539
 20
-4584.235780937044
 30
0.0
 11
-18034.80561801539
 21
-4634.235780937044
 31
0.0
 12
-17884.80561801538
 22
-4609.235780937043
 32
0.0
 13
-17884.80561801538
 23
-4609.235780937043
 33
0.0
  0
SOLID
  5
51E7
330
51E0
100
AcDbEntity
  8
PLANKOPF
 62
     0
100
AcDbTrace
 10
-20734.80561801539
 20
-4584.235780937044
 30
0.0
 11
-20734.80561801539
 21
-4634.235780937044
 31
0.0
 12
-20884.80561801539
 22
-4609.235780937043
 32
0.0
 13
-20884.80561801539
 23
-4609.235780937043
 33
0.0
  0
MTEXT
  5
51E8
330
51E0
100
AcDbEntity
  8
PLANKOPF
 62
     0
100
AcDbMText
 10
-19384.80561801539
 20
-4609.235780937043
 30
0.0
 40
105.0
 41
0.0
 71
     5
 72
     1
  1
\A1;3000
  7
VOEST
 73
     1
 44
1.0
  0
POINT
  5
51E9
330
51E0
100
AcDbEntity
  8
DEFPOINTS
 62
     0
100
AcDbPoint
 10
-17884.80561801538
 20
-4749.343546881674
 30
0.0
  0
POINT
  5
51EA
330
51E0
100
AcDbEntity
  8
DEFPOINTS
 62
     0
100
AcDbPoint
 10
-20884.80561801539
 20
-4748.718546881675
 30
0.0
  0
POINT
  5
51EB
330
51E0
100
AcDbEntity
  8
DEFPOINTS
 62
     0
100
AcDbPoint
 10
-20884.80561801539
 20
-4609.235780937043
 30
0.0
  0
ENDBLK
  5
51EC
330
51E0
100
AcDbEntity
  8
0
100
AcDbBlockEnd
  0
BLOCK
  5
51EE
330
51ED
100
AcDbEntity
  8
0
100
AcDbBlockBegin
  2
*D21
 70
     1
 10
0.0
 20
0.0
 30
0.0
  3
*D21
  1

  0
LINE
  5
51EF
330
51ED
100
AcDbEntity
  8
PLANKOPF
 62
     0
370
    -2
100
AcDbLine
 10
-14884.80561801538
 20
-4718.718546881675
 30
0.0
 11
-14884.80561801538
 21
-4579.235780937044
 31
0.0
  0
LINE
  5
51F0
330
51ED
100
AcDbEntity
  8
PLANKOPF
 62
     0
370
    -2
100
AcDbLine
 10
-17884.80561801538
 20
-4719.343546881675
 30
0.0
 11
-17884.80561801538
 21
-4579.235780937044
 31
0.0
  0
LINE
  5
51F1
330
51ED
100
AcDbEntity
  8
PLANKOPF
 62
     0
370
    -2
100
AcDbLine
 10
-15034.80561801538
 20
-4609.235780937043
 30
0.0
 11
-16226.38474489124
 21
-4609.235780937043
 31
0.0
  0
LINE
  5
51F2
330
51ED
100
AcDbEntity
  8
PLANKOPF
 62
     0
370
    -2
100
AcDbLine
 10
-17734.80561801538
 20
-4609.235780937043
 30
0.0
 11
-16543.22649113954
 21
-4609.235780937043
 31
0.0
  0
SOLID
  5
51F3
330
51ED
100
AcDbEntity
  8
PLANKOPF
 62
     0
100
AcDbTrace
 10
-15034.80561801538
 20
-4584.235780937044
 30
0.0
 11
-15034.80561801538
 21
-4634.235780937044
 31
0.0
 12
-14884.80561801538
 22
-4609.235780937043
 32
0.0
 13
-14884.80561801538
 23
-4609.235780937043
 33
0.0
  0
SOLID
  5
51F4
330
51ED
100
AcDbEntity
  8
PLANKOPF
 62
     0
100
AcDbTrace
 10
-17734.80561801538
 20
-4584.235780937044
 30
0.0
 11
-17734.80561801538
 21
-4634.235780937044
 31
0.0
 12
-17884.80561801538
 22
-4609.235780937043
 32
0.0
 13
-17884.80561801538
 23
-4609.235780937043
 33
0.0
  0
MTEXT
  5
51F5
330
51ED
100
AcDbEntity
  8
PLANKOPF
 62
     0
100
AcDbMText
 10
-16384.80561801539
 20
-4609.235780937043
 30
0.0
 40
105.0
 41
0.0
 71
     5
 72
     1
  1
\A1;3000
  7
VOEST
 73
     1
 44
1.0
  0
POINT
  5
51F6
330
51ED
100
AcDbEntity
  8
DEFPOINTS
 62
     0
100
AcDbPoint
 10
-14884.80561801538
 20
-4748.718546881675
 30
0.0
  0
POINT
  5
51F7
330
51ED
100
AcDbEntity
  8
DEFPOINTS
 62
     0
100
AcDbPoint
 10
-17884.80561801538
 20
-4749.343546881674
 30
0.0
  0
POINT
  5
51F8
330
51ED
100
AcDbEntity
  8
DEFPOINTS
 62
     0
100
AcDbPoint
 10
-17884.80561801538
 20
-4609.235780937043
 30
0.0
  0
ENDBLK
  5
51F9
330
51ED
100
AcDbEntity
  8
0
100
AcDbBlockEnd
  0
BLOCK
  5
51FB
330
51FA
100
AcDbEntity
  8
0
100
AcDbBlockBegin
  2
*D22
 70
     1
 10
0.0
 20
0.0
 30
0.0
  3
*D22
  1

  0
LINE
  5
51FC
330
51FA
100
AcDbEntity
  8
PLANKOPF
 62
     0
370
    -2
100
AcDbLine
 10
-18160.31103042482
 20
-3403.286086832205
 30
0.0
 11
-18022.9160618052
 21
-3403.286086832205
 31
0.0
  0
LINE
  5
51FD
330
51FA
100
AcDbEntity
  8
PLANKOPF
 62
     0
370
    -2
100
AcDbLine
 10
-18160.31103042482
 20
-3692.302782084645
 30
0.0
 11
-18022.9160618052
 21
-3692.302782084645
 31
0.0
  0
LINE
  5
51FE
330
51FA
100
AcDbEntity
  8
PLANKOPF
 62
     0
370
    -2
100
AcDbLine
 10
-18027.9160618052
 20
-3428.286086832205
 30
0.0
 11
-18027.9160618052
 21
-3526.965648646692
 31
0.0
  0
LINE
  5
51FF
330
51FA
100
AcDbEntity
  8
PLANKOPF
 62
     0
370
    -2
100
AcDbLine
 10
-18027.9160618052
 20
-3667.302782084645
 30
0.0
 11
-18027.9160618052
 21
-3568.623220270158
 31
0.0
  0
SOLID
  5
5200
330
51FA
100
AcDbEntity
  8
PLANKOPF
 62
     0
100
AcDbTrace
 10
-18032.08272847187
 20
-3428.286086832205
 30
0.0
 11
-18023.74939513853
 21
-3428.286086832205
 31
0.0
 12
-18027.9160618052
 22
-3403.286086832205
 32
0.0
 13
-18027.9160618052
 23
-3403.286086832205
 33
0.0
  0
SOLID
  5
5201
330
51FA
100
AcDbEntity
  8
PLANKOPF
 62
     0
100
AcDbTrace
 10
-18032.08272847187
 20
-3667.302782084645
 30
0.0
 11
-18023.74939513853
 21
-3667.302782084645
 31
0.0
 12
-18027.9160618052
 22
-3692.302782084645
 32
0.0
 13
-18027.9160618052
 23
-3692.302782084645
 33
0.0
  0
MTEXT
  5
5202
330
51FA
100
AcDbEntity
  8
PLANKOPF
 62
     0
100
AcDbMText
 10
-18027.9160618052
 20
-3547.794434458428
 30
0.0
 40
17.5
 41
0.0
 71
     5
 72
     1
  1
\A1;870
  7
VOEST
 11
0.0000000000000001
 21
1.0
 31
0.0
 73
     1
 44
1.0
  0
POINT
  5
5203
330
51FA
100
AcDbEntity
  8
DEFPOINTS
 62
     0
100
AcDbPoint
 10
-18165.31103042482
 20
-3403.286086832205
 30
0.0
  0
POINT
  5
5204
330
51FA
100
AcDbEntity
  8
DEFPOINTS
 62
     0
100
AcDbPoint
 10
-18165.31103042482
 20
-3692.302782084645
 30
0.0
  0
POINT
  5
5205
330
51FA
100
AcDbEntity
  8
DEFPOINTS
 62
     0
100
AcDbPoint
 10
-18027.9160618052
 20
-3692.302782084645
 30
0.0
  0
ENDBLK
  5
5206
330
51FA
100
AcDbEntity
  8
0
100
AcDbBlockEnd
  0
BLOCK
  5
52FF
330
52FE
100
AcDbEntity
  8
0
100
AcDbBlockBegin
  2
*D23
 70
     1
 10
0.0
 20
0.0
 30
0.0
  3
*D23
  1

  0
LINE
  5
70EB
330
52FE
100
AcDbEntity
  8
0
 62
     0
370
    -2
100
AcDbLine
 10
317.0081968470882
 20
307.3290279964922
 30
0.0
 11
421.9031654667056
 21
307.3290279964921
 31
0.0
  0
LINE
  5
70EC
330
52FE
100
AcDbEntity
  8
0
 62
     0
370
    -2
100
AcDbLine
 10
356.9981282677659
 20
-322.3698548718521
 30
0.0
 11
421.9031654667055
 21
-322.3698548718522
 31
0.0
  0
LINE
  5
70ED
330
52FE
100
AcDbEntity
  8
0
 62
     0
370
    -2
100
AcDbLine
 10
389.4031654667057
 20
274.8290279964921
 30
0.0
 11
389.4031654667056
 21
-289.8698548718522
 31
0.0
  0
SOLID
  5
70EE
330
52FE
100
AcDbEntity
  8
0
 62
     0
100
AcDbTrace
 10
383.986498800039
 20
274.8290279964922
 30
0.0
 11
394.8198321333724
 21
274.8290279964921
 31
0.0
 12
389.4031654667057
 22
307.3290279964921
 32
0.0
 13
389.4031654667057
 23
307.3290279964921
 33
0.0
  0
SOLID
  5
70EF
330
52FE
100
AcDbEntity
  8
0
 62
     0
100
AcDbTrace
 10
383.9864988000389
 20
-289.8698548718521
 30
0.0
 11
394.8198321333722
 21
-289.8698548718522
 31
0.0
 12
389.4031654667056
 22
-322.3698548718522
 32
0.0
 13
389.4031654667056
 23
-322.3698548718522
 33
0.0
  0
MTEXT
  5
70F0
330
52FE
100
AcDbEntity
  8
0
 62
     0
100
AcDbMText
 10
363.0595433657506
 20
-7.520413437679926
 30
0.0
 40
32.5
 41
0.0
 71
     5
 72
     1
  1
\A1;630
  7
VOEST
 11
0.0000000000000001
 21
1.0
 31
0.0
 73
     1
 44
1.0
  0
POINT
  5
70F1
330
52FE
100
AcDbEntity
  8
DEFPOINTS
 62
     0
100
AcDbPoint
 10
252.0081968470881
 20
307.3290279964922
 30
0.0
  0
POINT
  5
70F2
330
52FE
100
AcDbEntity
  8
DEFPOINTS
 62
     0
100
AcDbPoint
 10
291.9981282677659
 20
-322.3698548718521
 30
0.0
  0
POINT
  5
70F3
330
52FE
100
AcDbEntity
  8
DEFPOINTS
 62
     0
100
AcDbPoint
 10
389.4031654667056
 20
-322.3698548718522
 30
0.0
  0
ENDBLK
  5
5300
330
52FE
100
AcDbEntity
  8
0
100
AcDbBlockEnd
  0
BLOCK
  5
530C
330
530B
100
AcDbEntity
  8
0
100
AcDbBlockBegin
  2
*D24
 70
     1
 10
0.0
 20
0.0
 30
0.0
  3
*D24
  1

  0
LINE
  5
7106
330
530B
100
AcDbEntity
  8
0
 62
     0
370
    -2
100
AcDbLine
 10
3532.513609256525
 20
-1618.427314921322
 30
0.0
 11
3532.513609256525
 21
-1208.542655533518
 31
0.0
  0
LINE
  5
7107
330
530B
100
AcDbEntity
  8
0
 62
     0
370
    -2
100
AcDbLine
 10
-2467.486390743477
 20
-1618.427314921322
 30
0.0
 11
-2467.486390743477
 21
-1208.542655533518
 31
0.0
  0
LINE
  5
7108
330
530B
100
AcDbEntity
  8
0
 62
     0
370
    -2
100
AcDbLine
 10
3407.513609256525
 20
-1333.542655533518
 30
0.0
 11
-2342.486390743477
 21
-1333.542655533518
 31
0.0
  0
SOLID
  5
7109
330
530B
100
AcDbEntity
  8
0
 62
     0
100
AcDbTrace
 10
3407.513609256525
 20
-1312.709322200184
 30
0.0
 11
3407.513609256525
 21
-1354.375988866851
 31
0.0
 12
3532.513609256525
 22
-1333.542655533518
 32
0.0
 13
3532.513609256525
 23
-1333.542655533518
 33
0.0
  0
SOLID
  5
710A
330
530B
100
AcDbEntity
  8
0
 62
     0
100
AcDbTrace
 10
-2342.486390743477
 20
-1312.709322200184
 30
0.0
 11
-2342.486390743477
 21
-1354.375988866851
 31
0.0
 12
-2467.486390743477
 22
-1333.542655533518
 32
0.0
 13
-2467.486390743477
 23
-1333.542655533518
 33
0.0
  0
MTEXT
  5
710B
102
{ACAD_XDICTIONARY
360
7507
102
}
330
530B
100
AcDbEntity
  8
0
 62
     0
100
AcDbMText
 10
532.5136092565239
 20
-1232.221032068306
 30
0.0
 40
125.0
 41
0.0
 71
     5
 72
     1
  1
\A1;6000\U+00B17
  7
VOEST
 73
     1
 44
1.0
  0
POINT
  5
710C
330
530B
100
AcDbEntity
  8
DEFPOINTS
 62
     0
100
AcDbPoint
 10
3532.513609256525
 20
-1668.427314921322
 30
0.0
  0
POINT
  5
710D
330
530B
100
AcDbEntity
  8
DEFPOINTS
 62
     0
100
AcDbPoint
 10
-2467.486390743477
 20
-1668.427314921322
 30
0.0
  0
POINT
  5
710E
330
530B
100
AcDbEntity
  8
DEFPOINTS
 62
     0
100
AcDbPoint
 10
-2467.486390743477
 20
-1333.542655533518
 30
0.0
  0
ENDBLK
  5
530D
330
530B
100
AcDbEntity
  8
0
100
AcDbBlockEnd
  0
BLOCK
  5
5319
330
5318
100
AcDbEntity
  8
0
100
AcDbBlockBegin
  2
*D25
 70
     1
 10
0.0
 20
0.0
 30
0.0
  3
*D25
  1

  0
LINE
  5
710F
330
5318
100
AcDbEntity
  8
0
 62
     0
370
    -2
100
AcDbLine
 10
532.513609256523
 20
-1618.427314921322
 30
0.0
 11
532.513609256523
 21
-1403.319548976691
 31
0.0
  0
LINE
  5
7110
330
5318
100
AcDbEntity
  8
0
 62
     0
370
    -2
100
AcDbLine
 10
-2467.486390743477
 20
-1617.802314921322
 30
0.0
 11
-2467.486390743477
 21
-1403.319548976691
 31
0.0
  0
LINE
  5
7111
330
5318
100
AcDbEntity
  8
0
 62
     0
370
    -2
100
AcDbLine
 10
407.513609256523
 20
-1528.319548976691
 30
0.0
 11
-2342.486390743477
 21
-1528.319548976691
 31
0.0
  0
SOLID
  5
7112
330
5318
100
AcDbEntity
  8
0
 62
     0
100
AcDbTrace
 10
407.513609256523
 20
-1507.486215643358
 30
0.0
 11
407.513609256523
 21
-1549.152882310024
 31
0.0
 12
532.513609256523
 22
-1528.319548976691
 32
0.0
 13
532.513609256523
 23
-1528.319548976691
 33
0.0
  0
SOLID
  5
7113
330
5318
100
AcDbEntity
  8
0
 62
     0
100
AcDbTrace
 10
-2342.486390743477
 20
-1507.486215643358
 30
0.0
 11
-2342.486390743477
 21
-1549.152882310024
 31
0.0
 12
-2467.486390743477
 22
-1528.319548976691
 32
0.0
 13
-2467.486390743477
 23
-1528.319548976691
 33
0.0
  0
MTEXT
  5
7114
330
5318
100
AcDbEntity
  8
0
 62
     0
100
AcDbMText
 10
-967.4863907434769
 20
-1426.99792551148
 30
0.0
 40
125.0
 41
0.0
 71
     5
 72
     1
  1
\A1;3000
  7
VOEST
 73
     1
 44
1.0
  0
POINT
  5
7115
330
5318
100
AcDbEntity
  8
DEFPOINTS
 62
     0
100
AcDbPoint
 10
532.513609256523
 20
-1668.427314921322
 30
0.0
  0
POINT
  5
7116
330
5318
100
AcDbEntity
  8
DEFPOINTS
 62
     0
100
AcDbPoint
 10
-2467.486390743477
 20
-1667.802314921322
 30
0.0
  0
POINT
  5
7117
330
5318
100
AcDbEntity
  8
DEFPOINTS
 62
     0
100
AcDbPoint
 10
-2467.486390743477
 20
-1528.319548976691
 30
0.0
  0
ENDBLK
  5
531A
330
5318
100
AcDbEntity
  8
0
100
AcDbBlockEnd
  0
BLOCK
  5
5326
330
5325
100
AcDbEntity
  8
0
100
AcDbBlockBegin
  2
*D26
 70
     1
 10
0.0
 20
0.0
 30
0.0
  3
*D26
  1

  0
LINE
  5
7118
330
5325
100
AcDbEntity
  8
0
 62
     0
370
    -2
100
AcDbLine
 10
3532.513609256525
 20
-1617.802314921322
 30
0.0
 11
3532.513609256525
 21
-1403.319548976691
 31
0.0
  0
LINE
  5
7119
330
5325
100
AcDbEntity
  8
0
 62
     0
370
    -2
100
AcDbLine
 10
532.513609256523
 20
-1618.427314921322
 30
0.0
 11
532.513609256523
 21
-1403.319548976691
 31
0.0
  0
LINE
  5
711A
330
5325
100
AcDbEntity
  8
0
 62
     0
370
    -2
100
AcDbLine
 10
3407.513609256525
 20
-1528.319548976691
 30
0.0
 11
657.513609256523
 21
-1528.319548976691
 31
0.0
  0
SOLID
  5
711B
330
5325
100
AcDbEntity
  8
0
 62
     0
100
AcDbTrace
 10
3407.513609256525
 20
-1507.486215643358
 30
0.0
 11
3407.513609256525
 21
-1549.152882310024
 31
0.0
 12
3532.513609256525
 22
-1528.319548976691
 32
0.0
 13
3532.513609256525
 23
-1528.319548976691
 33
0.0
  0
SOLID
  5
711C
330
5325
100
AcDbEntity
  8
0
 62
     0
100
AcDbTrace
 10
657.513609256523
 20
-1507.486215643358
 30
0.0
 11
657.513609256523
 21
-1549.152882310024
 31
0.0
 12
532.513609256523
 22
-1528.319548976691
 32
0.0
 13
532.513609256523
 23
-1528.319548976691
 33
0.0
  0
MTEXT
  5
711D
330
5325
100
AcDbEntity
  8
0
 62
     0
100
AcDbMText
 10
2032.513609256524
 20
-1426.99792551148
 30
0.0
 40
125.0
 41
0.0
 71
     5
 72
     1
  1
\A1;3000
  7
VOEST
 73
     1
 44
1.0
  0
POINT
  5
711E
330
5325
100
AcDbEntity
  8
DEFPOINTS
 62
     0
100
AcDbPoint
 10
3532.513609256525
 20
-1667.802314921322
 30
0.0
  0
POINT
  5
711F
330
5325
100
AcDbEntity
  8
DEFPOINTS
 62
     0
100
AcDbPoint
 10
532.513609256523
 20
-1668.427314921322
 30
0.0
  0
POINT
  5
7120
330
5325
100
AcDbEntity
  8
DEFPOINTS
 62
     0
100
AcDbPoint
 10
532.513609256523
 20
-1528.319548976691
 30
0.0
  0
ENDBLK
  5
5327
330
5325
100
AcDbEntity
  8
0
100
AcDbBlockEnd
  0
BLOCK
  5
5333
330
5332
100
AcDbEntity
  8
0
100
AcDbBlockBegin
  2
*D27
 70
     1
 10
0.0
 20
0.0
 30
0.0
  3
*D27
  1

  0
LINE
  5
736B
330
5332
100
AcDbEntity
  8
0
 62
     0
370
    -2
100
AcDbLine
 10
117.7981282677652
 20
423.5822423265345
 30
0.0
 11
117.7981282677652
 21
525.6782419519449
 31
0.0
  0
LINE
  5
736C
330
5332
100
AcDbEntity
  8
0
 62
     0
370
    -2
100
AcDbLine
 10
252.0081968470881
 20
372.3290279964922
 30
0.0
 11
252.0081968470881
 21
525.6782419519449
 31
0.0
  0
LINE
  5
736D
330
5332
100
AcDbEntity
  8
0
 62
     0
370
    -2
100
AcDbLine
 10
150.2981282677652
 20
493.1782419519449
 30
0.0
 11
219.5081968470882
 21
493.1782419519449
 31
0.0
  0
SOLID
  5
736E
330
5332
100
AcDbEntity
  8
0
 62
     0
100
AcDbTrace
 10
150.2981282677652
 20
498.5949086186116
 30
0.0
 11
150.2981282677652
 21
487.7615752852783
 31
0.0
 12
117.7981282677652
 22
493.1782419519449
 32
0.0
 13
117.7981282677652
 23
493.1782419519449
 33
0.0
  0
SOLID
  5
736F
330
5332
100
AcDbEntity
  8
0
 62
     0
100
AcDbTrace
 10
219.5081968470882
 20
498.5949086186116
 30
0.0
 11
219.5081968470882
 21
487.7615752852783
 31
0.0
 12
252.0081968470881
 22
493.1782419519449
 32
0.0
 13
252.0081968470881
 23
493.1782419519449
 33
0.0
  0
MTEXT
  5
7370
330
5332
100
AcDbEntity
  8
0
 62
     0
100
AcDbMText
 10
184.9031625574267
 20
519.5218640529
 30
0.0
 40
32.5
 41
0.0
 71
     5
 72
     1
  1
\A1;175
  7
VOEST
 73
     1
 44
1.0
  0
POINT
  5
7371
330
5332
100
AcDbEntity
  8
DEFPOINTS
 62
     0
100
AcDbPoint
 10
117.7981282677652
 20
358.5822423265345
 30
0.0
  0
POINT
  5
7372
330
5332
100
AcDbEntity
  8
DEFPOINTS
 62
     0
100
AcDbPoint
 10
252.0081968470881
 20
307.3290279964922
 30
0.0
  0
POINT
  5
7373
330
5332
100
AcDbEntity
  8
DEFPOINTS
 62
     0
100
AcDbPoint
 10
252.0081968470881
 20
493.1782419519449
 30
0.0
  0
ENDBLK
  5
5334
330
5332
100
AcDbEntity
  8
0
100
AcDbBlockEnd
  0
BLOCK
  5
534A
330
5349
100
AcDbEntity
  8
0
100
AcDbBlockBegin
  2
*D28
 70
     1
 10
0.0
 20
0.0
 30
0.0
  3
*D28
  1

  0
LINE
  5
733E
330
5349
100
AcDbEntity
  8
0
 62
     0
370
    -2
100
AcDbLine
 10
127.3874388588561
 20
427.6301451281479
 30
0.0
 11
3.430912594216901
 21
427.6301451281479
 31
0.0
  0
LINE
  5
733F
330
5349
100
AcDbEntity
  8
0
 62
     0
370
    -2
100
AcDbLine
 10
126.9981282677659
 20
-322.3698548718521
 30
0.0
 11
3.430912594216735
 21
-322.3698548718521
 31
0.0
  0
LINE
  5
7340
330
5349
100
AcDbEntity
  8
0
 62
     0
370
    -2
100
AcDbLine
 10
35.93091259421691
 20
395.130145128148
 30
0.0
 11
35.93091259421676
 21
-289.869854871852
 31
0.0
  0
SOLID
  5
7341
330
5349
100
AcDbEntity
  8
0
 62
     0
100
AcDbTrace
 10
30.51424592755024
 20
395.130145128148
 30
0.0
 11
41.34757926088357
 21
395.130145128148
 31
0.0
 12
35.93091259421691
 22
427.6301451281479
 32
0.0
 13
35.93091259421691
 23
427.6301451281479
 33
0.0
  0
SOLID
  5
7342
330
5349
100
AcDbEntity
  8
0
 62
     0
100
AcDbTrace
 10
30.51424592755009
 20
-289.869854871852
 30
0.0
 11
41.34757926088342
 21
-289.869854871852
 31
0.0
 12
35.93091259421675
 22
-322.3698548718521
 32
0.0
 13
35.93091259421675
 23
-322.3698548718521
 33
0.0
  0
MTEXT
  5
7343
102
{ACAD_XDICTIONARY
360
750B
102
}
330
5349
100
AcDbEntity
  8
0
 62
     0
100
AcDbMText
 10
9.587290493261843
 20
12.84561802376993
 30
0.0
 40
32.5
 41
0.0
 71
     5
 72
     1
  1
\A1;750\U+00B140
  7
VOEST
 11
0.0000000000000001
 21
1.0
 31
0.0
 73
     1
 44
1.0
  0
POINT
  5
7344
330
5349
100
AcDbEntity
  8
DEFPOINTS
 62
     0
100
AcDbPoint
 10
192.3874388588561
 20
427.6301451281478
 30
0.0
  0
POINT
  5
7345
330
5349
100
AcDbEntity
  8
DEFPOINTS
 62
     0
100
AcDbPoint
 10
191.9981282677659
 20
-322.3698548718521
 30
0.0
  0
POINT
  5
7346
330
5349
100
AcDbEntity
  8
DEFPOINTS
 62
     0
100
AcDbPoint
 10
35.93091259421675
 20
-322.3698548718521
 30
0.0
  0
ENDBLK
  5
534B
330
5349
100
AcDbEntity
  8
0
100
AcDbBlockEnd
  0
BLOCK
  5
5357
330
5356
100
AcDbEntity
  8
0
100
AcDbBlockBegin
  2
*D29
 70
     1
 10
0.0
 20
0.0
 30
0.0
  3
*D29
  1

  0
LINE
  5
7347
330
5356
100
AcDbEntity
  8
0
 62
     0
370
    -2
100
AcDbLine
 10
257.3874388588561
 20
427.6301451281478
 30
0.0
 11
421.9031654667055
 21
427.6301451281478
 31
0.0
  0
LINE
  5
7348
330
5356
100
AcDbEntity
  8
0
 62
     0
370
    -2
100
AcDbLine
 10
257.0081968470882
 20
307.3290279964922
 30
0.0
 11
421.9031654667055
 21
307.3290279964921
 31
0.0
  0
LINE
  5
7349
330
5356
100
AcDbEntity
  8
0
 62
     0
370
    -2
100
AcDbLine
 10
389.4031654667056
 20
395.1301451281478
 30
0.0
 11
389.4031654667056
 21
339.8290279964921
 31
0.0
  0
SOLID
  5
734A
330
5356
100
AcDbEntity
  8
0
 62
     0
100
AcDbTrace
 10
383.9864988000389
 20
395.1301451281479
 30
0.0
 11
394.8198321333723
 21
395.1301451281478
 31
0.0
 12
389.4031654667056
 22
427.6301451281478
 32
0.0
 13
389.4031654667056
 23
427.6301451281478
 33
0.0
  0
SOLID
  5
734B
330
5356
100
AcDbEntity
  8
0
 62
     0
100
AcDbTrace
 10
383.9864988000389
 20
339.8290279964922
 30
0.0
 11
394.8198321333722
 21
339.8290279964921
 31
0.0
 12
389.4031654667056
 22
307.3290279964921
 32
0.0
 13
389.4031654667056
 23
307.3290279964921
 33
0.0
  0
MTEXT
  5
734C
330
5356
100
AcDbEntity
  8
0
 62
     0
100
AcDbMText
 10
363.0595433657505
 20
367.4795865623201
 30
0.0
 40
32.5
 41
0.0
 71
     5
 72
     1
  1
\A1;120
  7
VOEST
 11
0.0000000000000001
 21
1.0
 31
0.0
 73
     1
 44
1.0
  0
POINT
  5
734D
330
5356
100
AcDbEntity
  8
DEFPOINTS
 62
     0
100
AcDbPoint
 10
192.3874388588561
 20
427.6301451281478
 30
0.0
  0
POINT
  5
734E
330
5356
100
AcDbEntity
  8
DEFPOINTS
 62
     0
100
AcDbPoint
 10
192.0081968470881
 20
307.3290279964922
 30
0.0
  0
POINT
  5
734F
330
5356
100
AcDbEntity
  8
DEFPOINTS
 62
     0
100
AcDbPoint
 10
389.4031654667056
 20
307.3290279964921
 30
0.0
  0
ENDBLK
  5
5358
330
5356
100
AcDbEntity
  8
0
100
AcDbBlockEnd
  0
BLOCK
  5
5382
330
5381
100
AcDbEntity
  8
0
100
AcDbBlockBegin
  2
*D30
 70
     1
 10
0.0
 20
0.0
 30
0.0
  3
*D30
  1

  0
LINE
  5
7121
330
5381
100
AcDbEntity
  8
0
 62
     0
370
    -2
100
AcDbLine
 10
317.0081968470918
 20
-322.3698548718521
 30
0.0
 11
421.9031654667035
 21
-322.3698548718522
 31
0.0
  0
LINE
  5
7122
330
5381
100
AcDbEntity
  8
0
 62
     0
370
    -2
100
AcDbLine
 10
317.0081968470918
 20
-611.3865501242918
 30
0.0
 11
421.9031654667035
 21
-611.3865501242918
 31
0.0
  0
LINE
  5
7123
330
5381
100
AcDbEntity
  8
0
 62
     0
370
    -2
100
AcDbLine
 10
389.4031654667036
 20
-354.8698548718522
 30
0.0
 11
389.4031654667035
 21
-578.8865501242918
 31
0.0
  0
SOLID
  5
7124
330
5381
100
AcDbEntity
  8
0
 62
     0
100
AcDbTrace
 10
383.9864988000369
 20
-354.8698548718521
 30
0.0
 11
394.8198321333703
 21
-354.8698548718522
 31
0.0
 12
389.4031654667036
 22
-322.3698548718522
 32
0.0
 13
389.4031654667036
 23
-322.3698548718522
 33
0.0
  0
SOLID
  5
7125
330
5381
100
AcDbEntity
  8
0
 62
     0
100
AcDbTrace
 10
383.9864988000368
 20
-578.8865501242918
 30
0.0
 11
394.8198321333702
 21
-578.8865501242918
 31
0.0
 12
389.4031654667035
 22
-611.3865501242918
 32
0.0
 13
389.4031654667035
 23
-611.3865501242918
 33
0.0
  0
MTEXT
  5
7126
330
5381
100
AcDbEntity
  8
0
 62
     0
100
AcDbMText
 10
363.0595433657486
 20
-466.8782024980719
 30
0.0
 40
32.5
 41
0.0
 71
     5
 72
     1
  1
\A1;870
  7
VOEST
 11
0.0000000000000001
 21
1.0
 31
0.0
 73
     1
 44
1.0
  0
POINT
  5
7127
330
5381
100
AcDbEntity
  8
DEFPOINTS
 62
     0
100
AcDbPoint
 10
252.0081968470918
 20
-322.3698548718521
 30
0.0
  0
POINT
  5
7128
330
5381
100
AcDbEntity
  8
DEFPOINTS
 62
     0
100
AcDbPoint
 10
252.0081968470918
 20
-611.3865501242917
 30
0.0
  0
POINT
  5
7129
330
5381
100
AcDbEntity
  8
DEFPOINTS
 62
     0
100
AcDbPoint
 10
389.4031654667035
 20
-611.3865501242918
 30
0.0
  0
ENDBLK
  5
5383
330
5381
100
AcDbEntity
  8
0
100
AcDbBlockEnd
  0
BLOCK
  5
58F9
330
58F8
100
AcDbEntity
  8
0
100
AcDbBlockBegin
  2
*D31
 70
     1
 10
0.0
 20
0.0
 30
0.0
  3
*D31
  1

  0
LINE
  5
590F
330
58F8
100
AcDbEntity
  8
0
 62
     0
370
    -2
100
AcDbLine
 10
3532.513609256525
 20
-1618.427314921322
 30
0.0
 11
3532.513609256525
 21
-1208.542655533518
 31
0.0
  0
LINE
  5
5910
330
58F8
100
AcDbEntity
  8
0
 62
     0
370
    -2
100
AcDbLine
 10
5079.303414710356
 20
-1743.942578151851
 30
0.0
 11
5079.303414710356
 21
-1208.542655533518
 31
0.0
  0
LINE
  5
5911
330
58F8
100
AcDbEntity
  8
0
 62
     0
370
    -2
100
AcDbLine
 10
3657.513609256525
 20
-1333.542655533518
 30
0.0
 11
4954.303414710356
 21
-1333.542655533518
 31
0.0
  0
SOLID
  5
5912
330
58F8
100
AcDbEntity
  8
0
 62
     0
100
AcDbTrace
 10
3657.513609256525
 20
-1312.709322200184
 30
0.0
 11
3657.513609256525
 21
-1354.375988866851
 31
0.0
 12
3532.513609256525
 22
-1333.542655533518
 32
0.0
 13
3532.513609256525
 23
-1333.542655533518
 33
0.0
  0
SOLID
  5
5913
330
58F8
100
AcDbEntity
  8
0
 62
     0
100
AcDbTrace
 10
4954.303414710356
 20
-1312.709322200184
 30
0.0
 11
4954.303414710356
 21
-1354.375988866851
 31
0.0
 12
5079.303414710356
 22
-1333.542655533518
 32
0.0
 13
5079.303414710356
 23
-1333.542655533518
 33
0.0
  0
MTEXT
  5
5914
102
{ACAD_XDICTIONARY
360
7503
102
}
330
58F8
100
AcDbEntity
  8
0
 62
     0
100
AcDbMText
 10
4305.908511983441
 20
-1232.221032068306
 30
0.0
 40
125.0
 41
0.0
 71
     5
 72
     1
  1
\A1;1547\U+00B17
  7
VOEST
 73
     1
 44
1.0
  0
POINT
  5
5915
330
58F8
100
AcDbEntity
  8
DEFPOINTS
 62
     0
100
AcDbPoint
 10
3532.513609256525
 20
-1668.427314921322
 30
0.0
  0
POINT
  5
5916
330
58F8
100
AcDbEntity
  8
DEFPOINTS
 62
     0
100
AcDbPoint
 10
5079.303414710356
 20
-1793.942578151851
 30
0.0
  0
POINT
  5
5917
330
58F8
100
AcDbEntity
  8
DEFPOINTS
 62
     0
100
AcDbPoint
 10
5079.303414710356
 20
-1333.542655533518
 30
0.0
  0
ENDBLK
  5
58FA
330
58F8
100
AcDbEntity
  8
0
100
AcDbBlockEnd
  0
BLOCK
  5
72C3
330
72C2
100
AcDbEntity
  8
0
100
AcDbBlockBegin
  2
*D34
 70
     1
 10
0.0
 20
0.0
 30
0.0
  3
*D34
  1

  0
LINE
  5
72DA
330
72C2
100
AcDbEntity
  8
0
 62
     0
370
    -2
100
AcDbLine
 10
-1445.265397030205
 20
372.3290279964924
 30
0.0
 11
-1445.265397030205
 21
525.6782419519452
 31
0.0
  0
LINE
  5
72DB
330
72C2
100
AcDbEntity
  8
0
 62
     0
370
    -2
100
AcDbLine
 10
-1311.055328450882
 20
372.3290279964924
 30
0.0
 11
-1311.055328450882
 21
525.6782419519452
 31
0.0
  0
LINE
  5
72DC
330
72C2
100
AcDbEntity
  8
0
 62
     0
370
    -2
100
AcDbLine
 10
-1412.765397030205
 20
493.1782419519452
 30
0.0
 11
-1343.555328450882
 21
493.1782419519452
 31
0.0
  0
SOLID
  5
72DD
330
72C2
100
AcDbEntity
  8
0
 62
     0
100
AcDbTrace
 10
-1412.765397030205
 20
498.5949086186119
 30
0.0
 11
-1412.765397030205
 21
487.7615752852785
 31
0.0
 12
-1445.265397030205
 22
493.1782419519452
 32
0.0
 13
-1445.265397030205
 23
493.1782419519452
 33
0.0
  0
SOLID
  5
72DE
330
72C2
100
AcDbEntity
  8
0
 62
     0
100
AcDbTrace
 10
-1343.555328450882
 20
498.5949086186119
 30
0.0
 11
-1343.555328450882
 21
487.7615752852785
 31
0.0
 12
-1311.055328450882
 22
493.1782419519452
 32
0.0
 13
-1311.055328450882
 23
493.1782419519452
 33
0.0
  0
MTEXT
  5
72DF
330
72C2
100
AcDbEntity
  8
0
 62
     0
100
AcDbMText
 10
-1378.160362740543
 20
519.5218640529002
 30
0.0
 40
32.5
 41
0.0
 71
     5
 72
     1
  1
\A1;175
  7
VOEST
 73
     1
 44
1.0
  0
POINT
  5
72E0
330
72C2
100
AcDbEntity
  8
DEFPOINTS
 62
     0
100
AcDbPoint
 10
-1445.265397030205
 20
307.3290279964924
 30
0.0
  0
POINT
  5
72E1
330
72C2
100
AcDbEntity
  8
DEFPOINTS
 62
     0
100
AcDbPoint
 10
-1311.055328450882
 20
307.3290279964924
 30
0.0
  0
POINT
  5
72E2
330
72C2
100
AcDbEntity
  8
DEFPOINTS
 62
     0
100
AcDbPoint
 10
-1311.055328450882
 20
493.1782419519452
 30
0.0
  0
ENDBLK
  5
72C4
330
72C2
100
AcDbEntity
  8
0
100
AcDbBlockEnd
  0
BLOCK
  5
72CF
330
72CE
100
AcDbEntity
  8
0
100
AcDbBlockBegin
  2
*D35
 70
     1
 10
0.0
 20
0.0
 30
0.0
  3
*D35
  1

  0
LINE
  5
72E3
330
72CE
100
AcDbEntity
  8
0
 62
     0
370
    -2
100
AcDbLine
 10
-1246.055328450882
 20
307.3290279964924
 30
0.0
 11
-1141.160359831264
 21
307.3290279964924
 31
0.0
  0
LINE
  5
72E4
330
72CE
100
AcDbEntity
  8
0
 62
     0
370
    -2
100
AcDbLine
 10
-1206.065397030204
 20
-322.3698548718519
 30
0.0
 11
-1141.160359831264
 21
-322.369854871852
 31
0.0
  0
LINE
  5
72E5
330
72CE
100
AcDbEntity
  8
0
 62
     0
370
    -2
100
AcDbLine
 10
-1173.660359831264
 20
274.8290279964924
 30
0.0
 11
-1173.660359831264
 21
-289.8698548718519
 31
0.0
  0
SOLID
  5
72E6
330
72CE
100
AcDbEntity
  8
0
 62
     0
100
AcDbTrace
 10
-1179.077026497931
 20
274.8290279964924
 30
0.0
 11
-1168.243693164598
 21
274.8290279964924
 31
0.0
 12
-1173.660359831264
 22
307.3290279964924
 32
0.0
 13
-1173.660359831264
 23
307.3290279964924
 33
0.0
  0
SOLID
  5
72E7
330
72CE
100
AcDbEntity
  8
0
 62
     0
100
AcDbTrace
 10
-1179.077026497931
 20
-289.8698548718519
 30
0.0
 11
-1168.243693164598
 21
-289.8698548718519
 31
0.0
 12
-1173.660359831264
 22
-322.3698548718519
 32
0.0
 13
-1173.660359831264
 23
-322.3698548718519
 33
0.0
  0
MTEXT
  5
72E8
330
72CE
100
AcDbEntity
  8
0
 62
     0
100
AcDbMText
 10
-1200.003981932219
 20
-7.520413437679944
 30
0.0
 40
32.5
 41
0.0
 71
     5
 72
     1
  1
\A1;630
  7
VOEST
 11
0.0000000000000001
 21
1.0
 31
0.0
 73
     1
 44
1.0
  0
POINT
  5
72E9
330
72CE
100
AcDbEntity
  8
DEFPOINTS
 62
     0
100
AcDbPoint
 10
-1311.055328450882
 20
307.3290279964924
 30
0.0
  0
POINT
  5
72EA
330
72CE
100
AcDbEntity
  8
DEFPOINTS
 62
     0
100
AcDbPoint
 10
-1271.065397030204
 20
-322.3698548718519
 30
0.0
  0
POINT
  5
72EB
330
72CE
100
AcDbEntity
  8
DEFPOINTS
 62
     0
100
AcDbPoint
 10
-1173.660359831264
 20
-322.3698548718519
 30
0.0
  0
ENDBLK
  5
72D0
330
72CE
100
AcDbEntity
  8
0
100
AcDbBlockEnd
  0
BLOCK
  5
72ED
330
72EC
100
AcDbEntity
  8
0
100
AcDbBlockBegin
  2
*D36
 70
     1
 10
0.0
 20
0.0
 30
0.0
  3
*D36
  1

  0
LINE
  5
72EF
330
72EC
100
AcDbEntity
  8
0
 62
     0
370
    -2
100
AcDbLine
 10
-1435.676086439114
 20
427.6301451281481
 30
0.0
 11
-1559.632612703753
 21
427.6301451281481
 31
0.0
  0
LINE
  5
72F0
330
72EC
100
AcDbEntity
  8
0
 62
     0
370
    -2
100
AcDbLine
 10
-1436.065397030204
 20
-322.3698548718518
 30
0.0
 11
-1559.632612703753
 21
-322.3698548718518
 31
0.0
  0
LINE
  5
72F1
330
72EC
100
AcDbEntity
  8
0
 62
     0
370
    -2
100
AcDbLine
 10
-1527.132612703753
 20
395.1301451281482
 30
0.0
 11
-1527.132612703753
 21
-289.8698548718518
 31
0.0
  0
SOLID
  5
72F2
330
72EC
100
AcDbEntity
  8
0
 62
     0
100
AcDbTrace
 10
-1532.54927937042
 20
395.1301451281482
 30
0.0
 11
-1521.715946037086
 21
395.1301451281482
 31
0.0
 12
-1527.132612703753
 22
427.6301451281481
 32
0.0
 13
-1527.132612703753
 23
427.6301451281481
 33
0.0
  0
SOLID
  5
72F3
330
72EC
100
AcDbEntity
  8
0
 62
     0
100
AcDbTrace
 10
-1532.54927937042
 20
-289.8698548718518
 30
0.0
 11
-1521.715946037086
 21
-289.8698548718518
 31
0.0
 12
-1527.132612703753
 22
-322.3698548718518
 32
0.0
 13
-1527.132612703753
 23
-322.3698548718518
 33
0.0
  0
MTEXT
  5
72F4
102
{ACAD_XDICTIONARY
360
7509
102
}
330
72EC
100
AcDbEntity
  8
0
 62
     0
100
AcDbMText
 10
-1553.476234804708
 20
12.84561802377016
 30
0.0
 40
32.5
 41
0.0
 71
     5
 72
     1
  1
\A1;750\U+00B140
  7
VOEST
 11
0.0000000000000001
 21
1.0
 31
0.0
 73
     1
 44
1.0
  0
POINT
  5
72F5
330
72EC
100
AcDbEntity
  8
DEFPOINTS
 62
     0
100
AcDbPoint
 10
-1370.676086439114
 20
427.6301451281481
 30
0.0
  0
POINT
  5
72F6
330
72EC
100
AcDbEntity
  8
DEFPOINTS
 62
     0
100
AcDbPoint
 10
-1371.065397030204
 20
-322.3698548718519
 30
0.0
  0
POINT
  5
72F7
330
72EC
100
AcDbEntity
  8
DEFPOINTS
 62
     0
100
AcDbPoint
 10
-1527.132612703753
 20
-322.3698548718518
 30
0.0
  0
ENDBLK
  5
72EE
330
72EC
100
AcDbEntity
  8
0
100
AcDbBlockEnd
  0
BLOCK
  5
72F9
330
72F8
100
AcDbEntity
  8
0
100
AcDbBlockBegin
  2
*D37
 70
     1
 10
0.0
 20
0.0
 30
0.0
  3
*D37
  1

  0
LINE
  5
72FB
330
72F8
100
AcDbEntity
  8
0
 62
     0
370
    -2
100
AcDbLine
 10
-1305.676086439114
 20
427.6301451281481
 30
0.0
 11
-1141.160359831264
 21
427.630145128148
 31
0.0
  0
LINE
  5
72FC
330
72F8
100
AcDbEntity
  8
0
 62
     0
370
    -2
100
AcDbLine
 10
-1306.055328450882
 20
307.3290279964924
 30
0.0
 11
-1141.160359831264
 21
307.3290279964924
 31
0.0
  0
LINE
  5
72FD
330
72F8
100
AcDbEntity
  8
0
 62
     0
370
    -2
100
AcDbLine
 10
-1173.660359831264
 20
395.1301451281481
 30
0.0
 11
-1173.660359831264
 21
339.8290279964924
 31
0.0
  0
SOLID
  5
72FE
330
72F8
100
AcDbEntity
  8
0
 62
     0
100
AcDbTrace
 10
-1179.077026497931
 20
395.1301451281481
 30
0.0
 11
-1168.243693164598
 21
395.1301451281481
 31
0.0
 12
-1173.660359831264
 22
427.6301451281481
 32
0.0
 13
-1173.660359831264
 23
427.6301451281481
 33
0.0
  0
SOLID
  5
72FF
330
72F8
100
AcDbEntity
  8
0
 62
     0
100
AcDbTrace
 10
-1179.077026497931
 20
339.8290279964924
 30
0.0
 11
-1168.243693164598
 21
339.8290279964924
 31
0.0
 12
-1173.660359831264
 22
307.3290279964924
 32
0.0
 13
-1173.660359831264
 23
307.3290279964924
 33
0.0
  0
MTEXT
  5
7300
330
72F8
100
AcDbEntity
  8
0
 62
     0
100
AcDbMText
 10
-1200.003981932219
 20
367.47958656232
 30
0.0
 40
32.5
 41
0.0
 71
     5
 72
     1
  1
\A1;120
  7
VOEST
 11
0.0000000000000001
 21
1.0
 31
0.0
 73
     1
 44
1.0
  0
POINT
  5
7301
330
72F8
100
AcDbEntity
  8
DEFPOINTS
 62
     0
100
AcDbPoint
 10
-1370.676086439114
 20
427.6301451281481
 30
0.0
  0
POINT
  5
7302
330
72F8
100
AcDbEntity
  8
DEFPOINTS
 62
     0
100
AcDbPoint
 10
-1371.055328450882
 20
307.3290279964924
 30
0.0
  0
POINT
  5
7303
330
72F8
100
AcDbEntity
  8
DEFPOINTS
 62
     0
100
AcDbPoint
 10
-1173.660359831264
 20
307.3290279964924
 30
0.0
  0
ENDBLK
  5
72FA
330
72F8
100
AcDbEntity
  8
0
100
AcDbBlockEnd
  0
BLOCK
  5
7305
330
7304
100
AcDbEntity
  8
0
100
AcDbBlockBegin
  2
*D38
 70
     1
 10
0.0
 20
0.0
 30
0.0
  3
*D38
  1

  0
LINE
  5
7307
330
7304
100
AcDbEntity
  8
0
 62
     0
370
    -2
100
AcDbLine
 10
-1246.055328450878
 20
-322.3698548718519
 30
0.0
 11
-1141.160359831266
 21
-322.369854871852
 31
0.0
  0
LINE
  5
7308
330
7304
100
AcDbEntity
  8
0
 62
     0
370
    -2
100
AcDbLine
 10
-1246.055328450878
 20
-611.3865501242916
 30
0.0
 11
-1141.160359831266
 21
-611.3865501242916
 31
0.0
  0
LINE
  5
7309
330
7304
100
AcDbEntity
  8
0
 62
     0
370
    -2
100
AcDbLine
 10
-1173.660359831266
 20
-354.8698548718519
 30
0.0
 11
-1173.660359831266
 21
-578.8865501242915
 31
0.0
  0
SOLID
  5
730A
330
7304
100
AcDbEntity
  8
0
 62
     0
100
AcDbTrace
 10
-1179.077026497933
 20
-354.8698548718519
 30
0.0
 11
-1168.243693164599
 21
-354.8698548718519
 31
0.0
 12
-1173.660359831266
 22
-322.3698548718519
 32
0.0
 13
-1173.660359831266
 23
-322.3698548718519
 33
0.0
  0
SOLID
  5
730B
330
7304
100
AcDbEntity
  8
0
 62
     0
100
AcDbTrace
 10
-1179.077026497933
 20
-578.8865501242915
 30
0.0
 11
-1168.2436931646
 21
-578.8865501242915
 31
0.0
 12
-1173.660359831266
 22
-611.3865501242916
 32
0.0
 13
-1173.660359831266
 23
-611.3865501242916
 33
0.0
  0
MTEXT
  5
730C
330
7304
100
AcDbEntity
  8
0
 62
     0
100
AcDbMText
 10
-1200.003981932221
 20
-466.8782024980719
 30
0.0
 40
32.5
 41
0.0
 71
     5
 72
     1
  1
\A1;870
  7
VOEST
 11
0.0000000000000001
 21
1.0
 31
0.0
 73
     1
 44
1.0
  0
POINT
  5
730D
330
7304
100
AcDbEntity
  8
DEFPOINTS
 62
     0
100
AcDbPoint
 10
-1311.055328450878
 20
-322.3698548718519
 30
0.0
  0
POINT
  5
730E
330
7304
100
AcDbEntity
  8
DEFPOINTS
 62
     0
100
AcDbPoint
 10
-1311.055328450878
 20
-611.3865501242915
 30
0.0
  0
POINT
  5
730F
330
7304
100
AcDbEntity
  8
DEFPOINTS
 62
     0
100
AcDbPoint
 10
-1173.660359831266
 20
-611.3865501242916
 30
0.0
  0
ENDBLK
  5
7306
330
7304
100
AcDbEntity
  8
0
100
AcDbBlockEnd
  0
BLOCK
  5
737A
330
7379
100
AcDbEntity
  8
0
100
AcDbBlockBegin
  2
*D39
 70
     1
 10
0.0
 20
0.0
 30
0.0
  3
*D39
  1

  0
LINE
  5
7385
330
7379
100
AcDbEntity
  8
0
 62
     0
370
    -2
100
AcDbLine
 10
127.3874388588561
 20
427.6301451281479
 30
0.0
 11
3.430912594216901
 21
427.6301451281479
 31
0.0
  0
LINE
  5
7386
330
7379
100
AcDbEntity
  8
0
 62
     0
370
    -2
100
AcDbLine
 10
126.9981282677659
 20
-322.3698548718521
 30
0.0
 11
3.430912594216735
 21
-322.3698548718521
 31
0.0
  0
LINE
  5
7387
330
7379
100
AcDbEntity
  8
0
 62
     0
370
    -2
100
AcDbLine
 10
35.93091259421689
 20
395.130145128148
 30
0.0
 11
35.93091259421675
 21
-289.869854871852
 31
0.0
  0
SOLID
  5
7388
330
7379
100
AcDbEntity
  8
0
 62
     0
100
AcDbTrace
 10
30.51424592755023
 20
395.130145128148
 30
0.0
 11
41.34757926088355
 21
395.130145128148
 31
0.0
 12
35.9309125942169
 22
427.6301451281479
 32
0.0
 13
35.9309125942169
 23
427.6301451281479
 33
0.0
  0
SOLID
  5
7389
330
7379
100
AcDbEntity
  8
0
 62
     0
100
AcDbTrace
 10
30.51424592755008
 20
-289.869854871852
 30
0.0
 11
41.3475792608834
 21
-289.869854871852
 31
0.0
 12
35.93091259421674
 22
-322.3698548718521
 32
0.0
 13
35.93091259421674
 23
-322.3698548718521
 33
0.0
  0
MTEXT
  5
738A
102
{ACAD_XDICTIONARY
360
750D
102
}
330
7379
100
AcDbEntity
  8
0
 62
     0
100
AcDbMText
 10
9.587290493261829
 20
12.84561802376993
 30
0.0
 40
32.5
 41
0.0
 71
     5
 72
     1
  1
\A1;750\U+00B140
  7
VOEST
 11
0.0000000000000001
 21
1.0
 31
0.0
 73
     1
 44
1.0
  0
POINT
  5
738B
330
7379
100
AcDbEntity
  8
DEFPOINTS
 62
     0
100
AcDbPoint
 10
192.387438858856
 20
427.6301451281478
 30
0.0
  0
POINT
  5
738C
330
7379
100
AcDbEntity
  8
DEFPOINTS
 62
     0
100
AcDbPoint
 10
191.9981282677658
 20
-322.3698548718521
 30
0.0
  0
POINT
  5
738D
330
7379
100
AcDbEntity
  8
DEFPOINTS
 62
     0
100
AcDbPoint
 10
35.93091259421674
 20
-322.3698548718521
 30
0.0
  0
ENDBLK
  5
737B
330
7379
100
AcDbEntity
  8
0
100
AcDbBlockEnd
  0
ENDSEC
  0
SECTION
  2
ENTITIES
  0
HATCH
  5
528F
330
1F
100
AcDbEntity
  8
18
  6
STRICHLINIE
 48
0.3
100
AcDbHatch
 10
0.0
 20
0.0
 30
0.0
210
0.0
220
0.0
230
1.0
  2
EARTH
 70
     0
 71
     0
 91
        7
 92
        7
 72
     0
 73
     1
 93
        4
 10
191.9981282677623
 20
-322.3698548718521
 10
-129.3927205750728
 20
-322.3698548718521
 10
-129.3927205750728
 20
-379.1876548329274
 10
191.9981282677623
 20
-379.1876548329274
 97
        0
 92
        7
 72
     0
 73
     1
 93
        4
 10
195.9981282677622
 20
-322.3698548718521
 10
191.9981282677659
 20
-322.3698548718521
 10
191.9981282677623
 20
-379.1876548329274
 10
195.9981282677659
 20
-379.1876548329274
 97
        0
 92
        7
 72
     0
 73
     1
 93
        4
 10
211.9981282677659
 20
-322.3698548718521
 10
195.9981282677622
 20
-322.3698548718521
 10
195.9981282677622
 20
-379.1876548329274
 10
211.9981282677623
 20
-379.1876548329274
 97
        0
 92
        7
 72
     0
 73
     1
 93
        4
 10
271.9981282677622
 20
-322.3698548718521
 10
211.9981282677623
 20
-322.3698548718521
 10
211.9981282677623
 20
-379.1876548329274
 10
271.9981282677622
 20
-379.1876548329274
 97
        0
 92
        7
 72
     0
 73
     1
 93
        4
 10
287.9981282677659
 20
-322.3698548718521
 10
271.9981282677622
 20
-322.3698548718521
 10
271.9981282677622
 20
-379.1876548329274
 10
287.9981282677622
 20
-379.1876548329274
 97
        0
 92
        7
 72
     0
 73
     1
 93
        4
 10
291.9981282677623
 20
-322.3698548718521
 10
287.9981282677659
 20
-322.3698548718521
 10
287.9981282677622
 20
-379.1876548329274
 10
291.9981282677659
 20
-379.1876548329274
 97
        0
 92
        7
 72
     0
 73
     1
 93
        4
 10
504.3924962545502
 20
-322.3698548718521
 10
291.9981282677659
 20
-322.3698548718521
 10
291.9981282677659
 20
-379.1876548329274
 10
504.3924962545502
 20
-379.1876548329274
 97
        0
 75
     0
 76
     1
 52
45.0
 41
7.0
 77
     0
 78
     6
 53
45.0
 43
0.0
 44
0.0
 45
0.0000000000000071
 46
62.86179284748406
 79
     2
 49
44.44999999999999
 49
-44.44999999999999
 53
45.0
 43
-11.78658615890326
 44
11.78658615890326
 45
0.0000000000000071
 46
62.86179284748406
 79
     2
 49
44.44999999999999
 49
-44.44999999999999
 53
45.0
 43
-23.57317231780652
 44
23.57317231780653
 45
0.0000000000000071
 46
62.86179284748406
 79
     2
 49
44.44999999999999
 49
-44.44999999999999
 53
135.0
 43
-23.57317231780653
 44
31.43089642374204
 45
-62.86179284748406
 46
0.0000000000000071
 79
     2
 49
44.44999999999999
 49
-44.44999999999999
 53
135.0
 43
-11.78658615890326
 44
43.2174825826453
 45
-62.86179284748406
 46
0.0000000000000071
 79
     2
 49
44.44999999999999
 49
-44.44999999999999
 53
135.0
 43
0.0000000000000036
 44
55.00406874154856
 45
-62.86179284748406
 46
0.0000000000000071
 79
     2
 49
44.44999999999999
 49
-44.44999999999999
 47
1.574393657691415
 98
        7
 10
81.53721937248386
 20
-342.3901594621384
 10
193.5538516054735
 20
-337.0404123371372
 10
206.7789743700055
 20
-337.0404123371372
 10
227.2184272097879
 20
-335.1174130440595
 10
280.3605449772081
 20
-339.6843795940185
 10
290.7002640087963
 20
-336.7999702378838
 10
299.3568035047724
 20
-337.2806752693978
1001
ACAD
1010
0.0
1020
0.0
1030
0.0
  0
LINE
  5
5291
330
1F
100
AcDbEntity
  8
18
  6
STRICHPUNKT
 48
2.0
100
AcDbLine
 10
174.4213617106002
 20
261.3290279964922
 30
0.0
 11
209.5950319835761
 21
261.3290279964922
 31
0.0
  0
LINE
  5
529A
102
{ACAD_REACTORS
330
52FD
102
}
330
1F
100
AcDbEntity
  8
50
100
AcDbLine
 10
504.3924962545502
 20
-322.3698548718521
 30
0.0
 11
-129.3927205750728
 21
-322.3698548718521
 31
0.0
  0
DIMENSION
  5
529D
330
1F
100
AcDbEntity
  8
0
100
AcDbDimension
  2
*D27
 10
252.0081968470881
 20
493.1782419519449
 30
0.0
 11
184.9031625574267
 21
519.5218640529
 31
0.0
 70
    32
  1
175
 71
     5
 42
134.2100685793229
  3
TYPENBLATT_M10
100
AcDbAlignedDimension
 13
117.7981282677652
 23
358.5822423265345
 33
0.0
 14
252.0081968470881
 24
307.3290279964922
 34
0.0
100
AcDbRotatedDimension
1001
ACAD
1000
DSTYLE
1002
{
1070
    40
1040
130.0
1002
}
  0
DIMENSION
  5
52A0
330
1F
100
AcDbEntity
  8
0
100
AcDbDimension
  2
*D23
 10
389.4031654667056
 20
-322.3698548718522
 30
0.0
 11
363.0595433657506
 21
-7.520413437679926
 31
0.0
 70
    32
 71
     5
 42
629.6988828683443
  3
TYPENBLATT_M10
100
AcDbAlignedDimension
 13
252.0081968470881
 23
307.3290279964922
 33
0.0
 14
291.9981282677659
 24
-322.3698548718521
 34
0.0
 50
90.0
100
AcDbRotatedDimension
1001
ACAD
1000
DSTYLE
1002
{
1070
    40
1040
130.0
1002
}
  0
LINE
  5
52A4
330
1F
100
AcDbEntity
  8
18
  6
STRICHPUNKT
 48
2.5
100
AcDbLine
 10
154.1445385268421
 20
-443.9654774899804
 30
0.0
 11
289.8718551673378
 21
-479.2106125057139
 31
0.0
  0
LINE
  5
52A5
330
1F
100
AcDbEntity
  8
18
  6
STRICHPUNKT
 48
2.5
100
AcDbLine
 10
154.1445385268421
 20
-455.4187129799315
 30
0.0
 11
289.8718551673378
 21
-490.6638479956646
 31
0.0
  0
LINE
  5
52AC
330
1F
100
AcDbEntity
  8
35
100
AcDbLine
 10
192.0081968470881
 20
307.3290279964922
 30
0.0
 11
192.0081968470881
 21
-453.7977631544899
 31
0.0
  0
LINE
  5
52AD
330
1F
100
AcDbEntity
  8
35
100
AcDbLine
 10
192.0081968470881
 20
-465.2509986444406
 30
0.0
 11
192.0081968470881
 21
-611.3865501242917
 31
0.0
  0
LINE
  5
52AE
330
1F
100
AcDbEntity
  8
35
100
AcDbLine
 10
252.0081968470881
 20
-611.3865501242917
 30
0.0
 11
252.0081968470918
 21
-480.8315623311536
 31
0.0
  0
LINE
  5
52AF
102
{ACAD_REACTORS
330
52FD
102
}
330
1F
100
AcDbEntity
  8
35
100
AcDbLine
 10
252.0081968470918
 20
-469.3783268412034
 30
0.0
 11
252.0081968470881
 21
307.3290279964922
 31
0.0
  0
LINE
  5
52B0
330
1F
100
AcDbEntity
  8
35
100
AcDbLine
 10
252.0081968470881
 20
307.3290279964922
 30
0.0
 11
192.0081968470881
 21
307.3290279964922
 31
0.0
  0
LINE
  5
52B1
330
1F
100
AcDbEntity
  8
18
  6
VERDECKT
 48
0.5
100
AcDbLine
 10
248.0081968470881
 20
-611.3865501242917
 30
0.0
 11
248.0081968470918
 21
-479.7928580853731
 31
0.0
  0
LINE
  5
52B2
330
1F
100
AcDbEntity
  8
18
  6
VERDECKT
 48
0.3
100
AcDbLine
 10
248.0081968470918
 20
-468.3396225954229
 30
0.0
 11
248.0081968470881
 21
307.3290279964922
 31
0.0
  0
LINE
  5
52C3
330
1F
100
AcDbEntity
  8
18
  6
VERDECKT
 48
0.3
100
AcDbLine
 10
196.0081968470881
 20
307.3290279964922
 30
0.0
 11
196.0081968470918
 21
-454.8364674002709
 31
0.0
  0
LINE
  5
52C4
330
1F
100
AcDbEntity
  8
18
  6
VERDECKT
 48
0.5
100
AcDbLine
 10
196.0081968470918
 20
-466.2897028902212
 30
0.0
 11
196.0081968470881
 21
-611.3865501242917
 31
0.0
  0
LINE
  5
52C9
330
1F
100
AcDbEntity
  8
35
100
AcDbLine
 10
252.0081968470881
 20
-611.3865501242917
 30
0.0
 11
192.0081968470881
 21
-611.3865501242917
 31
0.0
  0
LINE
  5
52CB
330
1F
100
AcDbEntity
  8
25
100
AcDbLine
 10
4405.908511983442
 20
-1793.942578151851
 30
0.0
 11
-3340.881293470393
 21
-1793.942578151851
 31
0.0
  0
LINE
  5
52CC
330
1F
100
AcDbEntity
  8
25
100
AcDbLine
 10
4405.908511983442
 20
-1868.942578151851
 30
0.0
 11
-3340.881293470393
 21
-1868.942578151851
 31
0.0
  0
LINE
  5
52CD
330
1F
100
AcDbEntity
  8
25
100
AcDbLine
 10
3692.513609256525
 20
-1793.942578151851
 30
0.0
 11
3692.513609256525
 21
-1868.942578151851
 31
0.0
  0
LINE
  5
52CE
330
1F
100
AcDbEntity
  8
18
  6
STRICHLINIE
 48
0.075
100
AcDbLine
 10
3372.513609256525
 20
-1793.942578151851
 30
0.0
 11
3372.513609256525
 21
-1868.942578151851
 31
0.0
  0
LINE
  5
52CF
330
1F
100
AcDbEntity
  8
25
100
AcDbLine
 10
-2307.486390743477
 20
-1793.942578151851
 30
0.0
 11
-2307.486390743477
 21
-1868.942578151851
 31
0.0
  0
LINE
  5
52D0
330
1F
100
AcDbEntity
  8
18
  6
STRICHLINIE
 48
0.075
100
AcDbLine
 10
-2627.486390743477
 20
-1793.942578151851
 30
0.0
 11
-2627.486390743477
 21
-1868.942578151851
 31
0.0
  0
DIMENSION
  5
52D3
330
1F
100
AcDbEntity
  8
0
100
AcDbDimension
  2
*D24
 10
-2467.486390743477
 20
-1333.542655533518
 30
0.0
 11
532.5136092565239
 21
-1232.221032068306
 31
0.0
 70
    32
 71
     5
 42
6000.000000000002
  3
TYPENBLATT_M50
100
AcDbAlignedDimension
 13
3532.513609256525
 23
-1668.427314921322
 33
0.0
 14
-2467.486390743477
 24
-1668.427314921322
 34
0.0
 50
180.0
100
AcDbRotatedDimension
1001
ACAD
1000
DSTYLE
1002
{
1070
    40
1040
500.0
1070
    47
1040
7.0
1070
    48
1040
7.0
1070
    71
1070
     1
1002
}
  0
DIMENSION
  5
52D4
330
1F
100
AcDbEntity
  8
0
100
AcDbDimension
  2
*D25
 10
-2467.486390743477
 20
-1528.319548976691
 30
0.0
 11
-967.4863907434769
 21
-1426.99792551148
 31
0.0
 70
    32
 71
     5
 42
3000.0
  3
TYPENBLATT_M50
100
AcDbAlignedDimension
 13
532.513609256523
 23
-1668.427314921322
 33
0.0
 14
-2467.486390743477
 24
-1667.802314921322
 34
0.0
 50
180.0
100
AcDbRotatedDimension
1001
ACAD
1000
DSTYLE
1002
{
1070
   147
1040
0.075
1070
    72
1070
     0
1070
    40
1040
500.0
1070
    47
1040
9.0
1070
    48
1040
9.0
1070
    71
1070
     0
1002
}
  0
DIMENSION
  5
52D5
330
1F
100
AcDbEntity
  8
0
100
AcDbDimension
  2
*D26
 10
532.513609256523
 20
-1528.319548976691
 30
0.0
 11
2032.513609256524
 21
-1426.99792551148
 31
0.0
 70
    32
 71
     5
 42
3000.000000000002
  3
TYPENBLATT_M50
100
AcDbAlignedDimension
 13
3532.513609256525
 23
-1667.802314921322
 33
0.0
 14
532.513609256523
 24
-1668.427314921322
 34
0.0
 50
180.0
100
AcDbRotatedDimension
1001
ACAD
1000
DSTYLE
1002
{
1070
   147
1040
0.075
1070
    72
1070
     0
1070
    40
1040
500.0
1070
    47
1040
9.0
1070
    48
1040
9.0
1070
    71
1070
     0
1002
}
  0
DIMENSION
  5
52FB
102
{ACAD_XDICTIONARY
360
52FC
102
}
102
{ACAD_REACTORS
330
52FD
102
}
330
1F
100
AcDbEntity
  8
0
100
AcDbDimension
  2
*D30
 10
389.4031654667035
 20
-611.3865501242918
 30
0.0
 11
363.0595433657486
 21
-466.8782024980719
 31
0.0
 70
    32
  1
870
 71
     5
 42
289.0166952524396
  3
TYPENBLATT_M10
100
AcDbAlignedDimension
 13
252.0081968470918
 23
-322.3698548718521
 33
0.0
 14
252.0081968470918
 24
-611.3865501242917
 34
0.0
 50
90.0
100
AcDbRotatedDimension
1001
ACAD
1000
DSTYLE
1002
{
1070
    40
1040
130.0
1002
}
  0
LINE
  5
5920
330
1F
100
AcDbEntity
  8
0
100
AcDbLine
 10
3532.513609256525
 20
-1618.427314921322
 30
0.0
 11
3532.513609256525
 21
-1208.542655533518
 31
0.0
  0
LINE
  5
7242
330
1F
100
AcDbEntity
  8
35
100
AcDbLine
 10
187.4981282677659
 20
281.3290279964922
 30
0.0
 11
187.4981282677659
 21
241.3290279964922
 31
0.0
  0
LWPOLYLINE
  5
735E
330
1F
100
AcDbEntity
  8
35
100
AcDbPolyline
 90
       14
 70
     0
 43
0.0
 10
191.8740770977179
 20
95.90151445026563
 10
125.4985546848087
 20
132.8757987473894
 42
-0.27206950570782
 10
117.7981282677652
 20
145.9798525288361
 10
117.7981282677652
 20
175.0065058694907
 42
-0.270885575192199
 10
125.4408283999869
 20
188.078236384446
 10
181.947817461823
 20
219.882660647741
 42
0.270885575192199
 10
189.9981282677659
 20
233.651550123495
 10
189.9981282677659
 20
289.0065058694908
 42
0.2708855751921995
 10
181.947817461823
 20
302.7753953452434
 10
125.4408283999868
 20
334.5798196085393
 42
-0.2708855751921993
 10
117.7981282677652
 20
347.6515501234944
 10
117.7981282677652
 20
376.6782034641493
 42
-0.2720695057078208
 10
125.4985546848125
 20
389.7822572455951
 10
191.8740770977179
 20
426.7565415427187
  0
LINE
  5
7374
330
1F
100
AcDbEntity
  8
LS
100
AcDbLine
 10
185.2462349601924
 20
415.1937338531678
 30
0.0
 11
141.5660556887019
 21
390.8618219099896
 31
0.0
  0
LINE
  5
7375
330
1F
100
AcDbEntity
  8
LS
100
AcDbLine
 10
185.2462349601924
 20
107.4643221398165
 30
0.0
 11
141.5660556887019
 21
131.7962340829948
 31
0.0
  0
DIMENSION
  5
7376
330
1F
100
AcDbEntity
  8
0
100
AcDbDimension
  2
*D39
 10
35.93091259421674
 20
-322.3698548718521
 30
0.0
 11
35.93091259421681
 21
12.84561802376993
 31
0.0
 70
   160
 71
     5
 42
750.0
  3
TYPENBLATT_M10
100
AcDbAlignedDimension
 13
192.387438858856
 23
427.6301451281478
 33
0.0
 14
191.9981282677658
 24
-322.3698548718521
 34
0.0
 50
90.0
100
AcDbRotatedDimension
1001
ACAD
1000
DSTYLE
1002
{
1070
    40
1040
130.0
1070
    47
1040
40.0
1070
    48
1040
40.0
1070
    71
1070
     1
1002
}
  0
LWPOLYLINE
  5
73E6
330
1F
100
AcDbEntity
  8
25
100
AcDbPolyline
 90
       10
 70
     0
 43
0.0
 10
-2497.486390743477
 20
-1737.942578151851
 10
-2509.486390743477
 20
-1737.942578151851
 42
0.4142135623730951
 10
-2515.486390743478
 20
-1743.942578151851
 10
-2515.486390743478
 20
-1787.942578151851
 42
0.4142135623730951
 10
-2509.486390743477
 20
-1793.942578151851
 10
-2425.486390743478
 20
-1793.942578151851
 42
0.4142135623730951
 10
-2419.486390743478
 20
-1787.942578151851
 10
-2419.486390743478
 20
-1743.942578151851
 42
0.4142135623730951
 10
-2425.486390743478
 20
-1737.942578151851
 10
-2437.486390743478
 20
-1737.942578151851
  0
LWPOLYLINE
  5
73EF
330
1F
100
AcDbEntity
  8
25
100
AcDbPolyline
 90
       10
 70
     0
 43
0.0
 10
502.5136092565226
 20
-1737.942578151851
 10
490.5136092565226
 20
-1737.942578151851
 42
0.4142135623730951
 10
484.5136092565225
 20
-1743.942578151851
 10
484.5136092565225
 20
-1787.942578151851
 42
0.4142135623730951
 10
490.5136092565226
 20
-1793.942578151851
 10
574.5136092565226
 20
-1793.942578151851
 42
0.4142135623730951
 10
580.5136092565226
 20
-1787.942578151851
 10
580.5136092565226
 20
-1743.942578151851
 42
0.4142135623730951
 10
574.5136092565226
 20
-1737.942578151851
 10
562.5136092565226
 20
-1737.942578151851
  0
LWPOLYLINE
  5
73F0
330
1F
100
AcDbEntity
  8
25
100
AcDbPolyline
 90
       10
 70
     0
 43
0.0
 10
3502.513609256523
 20
-1737.942578151851
 10
3490.513609256523
 20
-1737.942578151851
 42
0.4142135623730951
 10
3484.513609256523
 20
-1743.942578151851
 10
3484.513609256523
 20
-1787.942578151851
 42
0.4142135623730951
 10
3490.513609256523
 20
-1793.942578151851
 10
3574.513609256523
 20
-1793.942578151851
 42
0.4142135623730951
 10
3580.513609256523
 20
-1787.942578151851
 10
3580.513609256523
 20
-1743.942578151851
 42
0.4142135623730951
 10
3574.513609256523
 20
-1737.942578151851
 10
3562.513609256523
 20
-1737.942578151851
  0
VIEWPORT
  5
71D2
102
{ACAD_XDICTIONARY
360
71D3
102
}
330
71CB
100
AcDbEntity
 67
     1
  8
0
100
AcDbViewport
 10
143.4359283447265
 20
98.18158054351806
 30
0.0
 40
397.2769439884341
 41
222.1517806396485
 68
     1
 69
     1
 12
143.4359283447265
 22
98.18158054351806
 13
0.0
 23
0.0
 14
10.0
 24
10.0
 15
10.0
 25
10.0
 16
0.0
 26
0.0
 36
1.0
 17
0.0
 27
0.0
 37
0.0
 42
50.0
 43
0.0
 44
0.0
 45
222.1517806396485
 50
0.0
 51
0.0
 72
  5000
 90
   819232
  1

281
     0
 71
     1
 74
     0
110
0.0
120
0.0
130
0.0
111
1.0
121
0.0
131
0.0
112
0.0
122
1.0
132
0.0
 79
     0
146
0.0
170
     0
  0
ENDSEC
  0
SECTION
  2
OBJECTS
  0
DICTIONARY
  5
C
330
0
100
AcDbDictionary
281
     1
  3
ACAD_COLOR
350
6B
  3
ACAD_GROUP
350
D
  3
ACAD_IMAGE_DICT
350
3504
  3
ACAD_IMAGE_VARS
350
3505
  3
ACAD_LAYOUT
350
1A
  3
ACAD_MATERIAL
350
6A
  3
ACAD_MLEADERSTYLE
350
4989
  3
ACAD_MLINESTYLE
350
17
  3
ACAD_PLOTSETTINGS
350
19
  3
ACAD_PLOTSTYLENAME
350
E
  3
ACAD_SCALELIST
350
4977
  3
ACAD_TABLESTYLE
350
3627
  3
ACAD_VISUALSTYLE
350
4193
  3
ACDB_RECOMPOSE_DATA
350
4C0E
  3
AcDbVariableDictionary
350
5E
  0
DICTIONARY
  5
4526
330
8
100
AcDbDictionary
280
     1
281
     1
  0
DICTIONARY
  5
3637
330
2
100
AcDbDictionary
280
     1
281
     1
  3
ACAD_LAYERFILTERS
360
3917
  3
ACAD_LAYERSTATES
360
3638
  3
ACLYDICTIONARY
360
3916
  0
DICTIONARY
  5
49F9
330
10
100
AcDbDictionary
280
     1
281
     1
  3
ADSK_XREC_LAYER_RECONCILED
360
49FA
  0
DICTIONARY
  5
49FB
330
87
100
AcDbDictionary
280
     1
281
     1
  3
ADSK_XREC_LAYER_RECONCILED
360
49FC
  0
DICTIONARY
  5
49FD
330
89
100
AcDbDictionary
280
     1
281
     1
  3
ADSK_XREC_LAYER_RECONCILED
360
49FE
  0
DICTIONARY
  5
49FF
330
242
100
AcDbDictionary
280
     1
281
     1
  3
ADSK_XREC_LAYER_RECONCILED
360
4A00
  0
DICTIONARY
  5
4A01
330
12C2
100
AcDbDictionary
280
     1
281
     1
  3
ADSK_XREC_LAYER_RECONCILED
360
4A02
  0
DICTIONARY
  5
4A03
330
1653
100
AcDbDictionary
280
     1
281
     1
  3
ADSK_XREC_LAYER_RECONCILED
360
4A04
  0
DICTIONARY
  5
4A05
330
1654
100
AcDbDictionary
280
     1
281
     1
  3
ADSK_XREC_LAYER_RECONCILED
360
4A06
  0
DICTIONARY
  5
4A07
330
168F
100
AcDbDictionary
280
     1
281
     1
  3
ADSK_XREC_LAYER_RECONCILED
360
4A08
  0
DICTIONARY
  5
4A09
330
2038
100
AcDbDictionary
280
     1
281
     1
  3
ADSK_XREC_LAYER_RECONCILED
360
4A0A
  0
DICTIONARY
  5
4A0B
330
2A27
100
AcDbDictionary
280
     1
281
     1
  3
ADSK_XREC_LAYER_RECONCILED
360
4A0C
  0
DICTIONARY
  5
4A0D
330
3304
100
AcDbDictionary
280
     1
281
     1
  3
ADSK_XREC_LAYER_RECONCILED
360
4A0E
  0
DICTIONARY
  5
4A0F
330
3305
100
AcDbDictionary
280
     1
281
     1
  3
ADSK_XREC_LAYER_RECONCILED
360
4A10
  0
DICTIONARY
  5
4A11
330
3680
100
AcDbDictionary
280
     1
281
     1
  3
ADSK_XREC_LAYER_RECONCILED
360
4A12
  0
DICTIONARY
  5
5209
330
5208
100
AcDbDictionary
280
     1
281
     1
  0
DICTIONARY
  5
5926
330
1F
100
AcDbDictionary
280
     1
281
     1
  3
ACAD_SORTENTS
360
5927
  0
DICTIONARY
  5
74FB
330
53BB
100
AcDbDictionary
280
     1
281
     1
  3
ACAD_MTEXT_2008_RT
360
74FC
  0
DICTIONARY
  5
74FD
330
53CD
100
AcDbDictionary
280
     1
281
     1
  3
ACAD_MTEXT_2008_RT
360
74FE
  0
DICTIONARY
  5
74FF
330
53D6
100
AcDbDictionary
280
     1
281
     1
  3
ACAD_MTEXT_2008_RT
360
7500
  0
DICTIONARY
  5
7501
330
53DF
100
AcDbDictionary
280
     1
281
     1
  3
ACAD_MTEXT_2008_RT
360
7502
  0
DICTIONARY
  5
74F7
330
51C1
100
AcDbDictionary
280
     1
281
     1
  3
ACAD_MTEXT_2008_RT
360
74F8
  0
DICTIONARY
  5
74F9
330
51DB
100
AcDbDictionary
280
     1
281
     1
  3
ACAD_MTEXT_2008_RT
360
74FA
  0
DICTIONARY
  5
7507
330
710B
100
AcDbDictionary
280
     1
281
     1
  3
ACAD_MTEXT_2008_RT
360
7508
  0
DICTIONARY
  5
750B
330
7343
100
AcDbDictionary
280
     1
281
     1
  3
ACAD_MTEXT_2008_RT
360
750C
  0
DICTIONARY
  5
7503
330
5914
100
AcDbDictionary
280
     1
281
     1
  3
ACAD_MTEXT_2008_RT
360
7504
  0
DICTIONARY
  5
7509
330
72F4
100
AcDbDictionary
280
     1
281
     1
  3
ACAD_MTEXT_2008_RT
360
750A
  0
DICTIONARY
  5
750D
330
738A
100
AcDbDictionary
280
     1
281
     1
  3
ACAD_MTEXT_2008_RT
360
750E
  0
DICTIONARY
  5
52FC
330
52FB
100
AcDbDictionary
280
     1
281
     1
  3
ACAD_DIMASSOC
360
52FD
  0
DICTIONARY
  5
71D3
330
71D2
100
AcDbDictionary
280
     1
281
     1
  3
ASDK_XREC_ANNOTATION_SCALE_INFO
360
71D4
  0
DICTIONARY
  5
6B
102
{ACAD_REACTORS
330
C
102
}
330
C
100
AcDbDictionary
281
     1
  0
DICTIONARY
  5
D
102
{ACAD_REACTORS
330
C
102
}
330
C
100
AcDbDictionary
281
     1
  0
DICTIONARY
  5
3504
102
{ACAD_REACTORS
330
C
102
}
330
C
100
AcDbDictionary
281
     1
  3
KB1 N2 C Damm_3D
350
3509
  3
KB1 RN2 C Damm explosion_3D
350
3506
  0
RASTERVARIABLES
  5
3505
102
{ACAD_REACTORS
330
C
102
}
330
C
100
AcDbRasterVariables
 90
        0
 70
     1
 71
     1
 72
     1
  0
DICTIONARY
  5
1A
102
{ACAD_REACTORS
330
C
102
}
330
C
100
AcDbDictionary
281
     1
  3
Layout1
350
71CC
  3
Model
350
22
  0
DICTIONARY
  5
6A
102
{ACAD_REACTORS
330
C
102
}
330
C
100
AcDbDictionary
281
     1
  3
ByBlock
350
4191
  3
ByLayer
350
4190
  3
Global
350
4192
  0
DICTIONARY
  5
4989
102
{ACAD_REACTORS
330
C
102
}
330
C
100
AcDbDictionary
281
     1
  3
Standard
350
498A
  0
DICTIONARY
  5
17
102
{ACAD_REACTORS
330
C
102
}
330
C
100
AcDbDictionary
281
     1
  3
Standard
350
18
  0
DICTIONARY
  5
19
102
{ACAD_REACTORS
330
C
102
}
330
C
100
AcDbDictionary
281
     1
  0
ACDBDICTIONARYWDFLT
  5
E
102
{ACAD_REACTORS
330
C
102
}
330
C
100
AcDbDictionary
281
     1
  3
Normal
350
F
100
AcDbDictionaryWithDefault
340
F
  0
DICTIONARY
  5
4977
102
{ACAD_REACTORS
330
C
102
}
330
C
100
AcDbDictionary
281
     1
  3
A0
350
4978
  3
A1
350
4979
  3
A2
350
497A
  3
A3
350
497B
  3
A4
350
497C
  3
A5
350
497D
  3
A6
350
497E
  3
A7
350
497F
  3
A8
350
4980
  3
A9
350
4981
  3
B0
350
4982
  3
B1
350
4983
  3
B2
350
4984
  3
B3
350
4985
  3
B4
350
4986
  3
B5
350
4987
  3
B6
350
4988
  0
DICTIONARY
  5
3627
102
{ACAD_REACTORS
330
C
102
}
330
C
100
AcDbDictionary
281
     1
  3
Standard
350
3628
  0
DICTIONARY
  5
4193
102
{ACAD_REACTORS
330
C
102
}
330
C
100
AcDbDictionary
281
     1
  3
2dWireframe
350
4199
  3
3D Hidden
350
419B
  3
3dWireframe
350
419A
  3
Basic
350
4198
  3
Brighten
350
419F
  3
ColorChange
350
41A3
  3
Conceptual
350
419C
  3
Dim
350
419E
  3
Facepattern
350
41A2
  3
Flat
350
4194
  3
FlatWithEdges
350
4195
  3
Gouraud
350
4196
  3
GouraudWithEdges
350
4197
  3
Linepattern
350
41A1
  3
Realistic
350
419D
  3
Thicken
350
41A0
  0
XRECORD
  5
4C0E
102
{ACAD_REACTORS
330
C
102
}
330
C
100
AcDbXrecord
280
     1
 90
        1
330
3628
  0
DICTIONARY
  5
5E
102
{ACAD_REACTORS
330
C
102
}
330
C
100
AcDbDictionary
281
     1
  3
CANNOSCALE
350
4C97
  3
CMLEADERSTYLE
350
4C96
  3
CTABLESTYLE
350
3643
  3
DIMASSOC
350
5F
  3
HIDETEXT
350
63
  0
DICTIONARY
  5
3917
102
{ACAD_REACTORS
330
3637
102
}
330
3637
100
AcDbDictionary
281
     1
  0
DICTIONARY
  5
3638
102
{ACAD_REACTORS
330
3637
102
}
330
3637
100
AcDbDictionary
281
     1
  0
DICTIONARY
  5
3916
102
{ACAD_REACTORS
330
3637
102
}
330
3637
100
AcDbDictionary
281
     1
1001
ACAD
1000
<All
  0
XRECORD
  5
49FA
102
{ACAD_REACTORS
330
49F9
102
}
330
49F9
100
AcDbXrecord
280
     1
290
     1
  0
XRECORD
  5
49FC
102
{ACAD_REACTORS
330
49FB
102
}
330
49FB
100
AcDbXrecord
280
     1
290
     1
  0
XRECORD
  5
49FE
102
{ACAD_REACTORS
330
49FD
102
}
330
49FD
100
AcDbXrecord
280
     1
290
     1
  0
XRECORD
  5
4A00
102
{ACAD_REACTORS
330
49FF
102
}
330
49FF
100
AcDbXrecord
280
     1
290
     1
  0
XRECORD
  5
4A02
102
{ACAD_REACTORS
330
4A01
102
}
330
4A01
100
AcDbXrecord
280
     1
290
     1
  0
XRECORD
  5
4A04
102
{ACAD_REACTORS
330
4A03
102
}
330
4A03
100
AcDbXrecord
280
     1
290
     1
  0
XRECORD
  5
4A06
102
{ACAD_REACTORS
330
4A05
102
}
330
4A05
100
AcDbXrecord
280
     1
290
     1
  0
XRECORD
  5
4A08
102
{ACAD_REACTORS
330
4A07
102
}
330
4A07
100
AcDbXrecord
280
     1
290
     1
  0
XRECORD
  5
4A0A
102
{ACAD_REACTORS
330
4A09
102
}
330
4A09
100
AcDbXrecord
280
     1
290
     1
  0
XRECORD
  5
4A0C
102
{ACAD_REACTORS
330
4A0B
102
}
330
4A0B
100
AcDbXrecord
280
     1
290
     1
  0
XRECORD
  5
4A0E
102
{ACAD_REACTORS
330
4A0D
102
}
330
4A0D
100
AcDbXrecord
280
     1
290
     1
  0
XRECORD
  5
4A10
102
{ACAD_REACTORS
330
4A0F
102
}
330
4A0F
100
AcDbXrecord
280
     1
290
     1
  0
XRECORD
  5
4A12
102
{ACAD_REACTORS
330
4A11
102
}
330
4A11
100
AcDbXrecord
280
     1
290
     1
  0
SORTENTSTABLE
  5
5927
102
{ACAD_REACTORS
330
5926
102
}
330
5926
100
AcDbSortentsTable
330
1F
331
52B0
  5
52F5
331
5291
  5
52EB
331
52C4
  5
592B
331
52CE
  5
729F
331
52A5
  5
52F0
331
52AF
  5
52F4
331
52D3
  5
72A6
331
52CB
  5
59CD
331
7242
  5
73EB
331
52AC
  5
52F1
331
7376
  5
73EE
331
52FB
  5
73A7
331
52D0
  5
72A1
331
52B1
  5
52F6
331
52CF
  5
72A0
331
735E
  5
52EA
331
52D4
  5
72A7
331
52CC
  5
59CE
331
52AD
  5
52F2
331
52C9
  5
592C
331
52A0
  5
52EE
331
52B2
  5
52F7
331
7374
  5
73EC
331
529D
  5
52ED
331
5920
  5
73A8
331
52C3
  5
592A
331
52D5
  5
72A8
331
529A
  5
52EC
331
52CD
  5
729D
331
73E6
  5
7375
331
52A4
  5
52EF
331
52AE
  5
52F3
331
528F
  5
528F
331
7375
  5
73ED
  0
XRECORD
  5
74FC
102
{ACAD_REACTORS
330
74FB
102
}
330
74FB
100
AcDbXrecord
280
     1
 40
7661.0
  1
\A1;750±40
  0
XRECORD
  5
74FE
102
{ACAD_REACTORS
330
74FD
102
}
330
74FD
100
AcDbXrecord
280
     1
 40
7838.0
  1
\A1;3800±9
  0
XRECORD
  5
7500
102
{ACAD_REACTORS
330
74FF
102
}
330
74FF
100
AcDbXrecord
280
     1
 40
7838.0
  1
\A1;3800±9
  0
XRECORD
  5
7502
102
{ACAD_REACTORS
330
7501
102
}
330
7501
100
AcDbXrecord
280
     1
 40
7838.0
  1
\A1;3800±9
  0
XRECORD
  5
74F8
102
{ACAD_REACTORS
330
74F7
102
}
330
74F7
100
AcDbXrecord
280
     1
 40
7661.0
  1
\A1;750±40
  0
XRECORD
  5
74FA
102
{ACAD_REACTORS
330
74F9
102
}
330
74F9
100
AcDbXrecord
280
     1
 40
7773.0
  1
\A1;6000±7
  0
XRECORD
  5
7508
102
{ACAD_REACTORS
330
7507
102
}
330
7507
100
AcDbXrecord
280
     1
 40
7773.0
  1
\A1;6000±7
  0
XRECORD
  5
750C
102
{ACAD_REACTORS
330
750B
102
}
330
750B
100
AcDbXrecord
280
     1
 40
7661.0
  1
\A1;750±40
  0
XRECORD
  5
7504
102
{ACAD_REACTORS
330
7503
102
}
330
7503
100
AcDbXrecord
280
     1
 40
7862.0
  1
\A1;1547±7
  0
XRECORD
  5
750A
102
{ACAD_REACTORS
330
7509
102
}
330
7509
100
AcDbXrecord
280
     1
 40
7661.0
  1
\A1;750±40
  0
XRECORD
  5
750E
102
{ACAD_REACTORS
330
750D
102
}
330
750D
100
AcDbXrecord
280
     1
 40
7661.0
  1
\A1;750±40
  0
DIMASSOC
  5
52FD
102
{ACAD_REACTORS
330
52FC
102
}
330
52FC
100
AcDbDimAssoc
330
52FB
 90
        1
 70
     0
 71
     0
  1
AcDbOsnapPointRef
 72
     6
331
52AF
 73
     2
 91
        0
 40
0.1892713787937169
 10
0.0
 20
0.0
 30
0.0
332
529A
 74
     2
 92
        0
 75
     0
  0
XRECORD
  5
71D4
102
{ACAD_REACTORS
330
71D3
102
}
330
71D3
100
AcDbXrecord
280
     1
 90
        1
340
4978
  0
IMAGEDEF
  5
3509
102
{ACAD_REACTORS
330
3504
330
350A
102
}
330
3504
100
AcDbRasterImageDef
 90
        0
  1
T:\Prospekt\Leitschienen\Bitmaps\S1\KB1 RN2 C Damm_3D.png
 10
1600.0
 20
1280.0
 11
0.0846740050804403
 21
0.0846740050804403
280
     1
281
     2
  0
IMAGEDEF
  5
3506
102
{ACAD_REACTORS
330
3504
330
3507
102
}
330
3504
100
AcDbRasterImageDef
 90
        0
  1
T:\Prospekt\Leitschienen\Bitmaps\S1\KB1 RN2 C Damm explosions_3D.png
 10
1600.0
 20
1280.0
 11
0.0846668360003387
 21
0.0846668360003387
280
     1
281
     2
  0
LAYOUT
  5
71CC
102
{ACAD_XDICTIONARY
360
71DC
102
}
102
{ACAD_REACTORS
330
1A
102
}
330
1A
100
AcDbPlotSettings
  1

  2
\\2217psvak001.voestalpine.root.local\2217PRVAKF009.vakf.net
  4
A4
  6

 40
6.805083274841308
 41
5.027085781097412
 42
6.974411010742187
 43
5.027069091796875
 44
209.9733276367187
 45
296.9259948730469
 46
0.0
 47
0.0
 48
0.0
 49
0.0
140
0.0
141
0.0
142
1.0
143
1.0
 70
   688
 72
     1
 73
     1
 74
     5
  7
monochrome.ctb
 75
    16
147
1.0
 76
     0
 77
     2
 78
   300
148
0.0
149
0.0
100
AcDbLayout
  1
Layout1
 70
     1
 71
     1
 10
-5.027069091796875
 20
-6.805083274841308
 11
291.89892578125
 21
203.1682443618775
 12
0.0
 22
0.0
 32
0.0
 14
1.000000000000000E+20
 24
1.000000000000000E+20
 34
1.000000000000000E+20
 15
-1.000000000000000E+20
 25
-1.000000000000000E+20
 35
-1.000000000000000E+20
146
0.0
 13
0.0
 23
0.0
 33
0.0
 16
1.0
 26
0.0
 36
0.0
 17
0.0
 27
1.0
 37
0.0
 76
     0
330
71CB
331
71D2
1001
ACAD_PSEXT
1000
\\2217psvak001.voestalpine.root.local\2217PRVAKF009.vakf.net
1000
NRG DSm730 PCL 5e
1000
vakf - BG EG18 Gang - Straßensicherheit
1000
BG EG18 Gang / Zickbauer
1070
     0
  0
LAYOUT
  5
22
102
{ACAD_REACTORS
330
1A
102
}
330
1A
100
AcDbPlotSettings
  1

  2
none_device
  4
ANSI_A_(8.50_x_11.00_Inches)
  6

 40
6.349999904632567
 41
19.04999923706055
 42
6.350006103515625
 43
19.04998779296875
 44
215.8999938964844
 45
279.3999938964844
 46
0.0
 47
0.0
 48
0.0
 49
0.0
140
0.0
141
0.0
142
1.0
143
78.436453180766
 70
 11952
 72
     0
 73
     1
 74
     0
  7

 75
     0
147
0.0127491741332998
 76
     0
 77
     2
 78
   300
148
0.0
149
0.0
100
AcDbLayout
  1
Model
 70
     1
 71
     0
 10
0.0
 20
0.0
 11
12.0
 21
9.0
 12
0.0
 22
0.0
 32
0.0
 14
0.0
 24
0.0
 34
0.0
 15
0.0
 25
0.0
 35
0.0
146
0.0
 13
0.0
 23
0.0
 33
0.0
 16
1.0
 26
0.0
 36
0.0
 17
0.0
 27
1.0
 37
0.0
 76
     0
330
1F
331
38A2
  0
MATERIAL
  5
4191
102
{ACAD_XDICTIONARY
360
74F3
102
}
102
{ACAD_REACTORS
330
6A
102
}
330
6A
100
AcDbMaterial
  1
ByBlock
 73
     1
 78
     1
172
     1
176
     1
270
     1
274
     1
  0
MATERIAL
  5
4190
102
{ACAD_XDICTIONARY
360
74F1
102
}
102
{ACAD_REACTORS
330
6A
102
}
330
6A
100
AcDbMaterial
  1
ByLayer
 73
     1
 78
     1
172
     1
176
     1
270
     1
274
     1
  0
MATERIAL
  5
4192
102
{ACAD_XDICTIONARY
360
74F5
102
}
102
{ACAD_REACTORS
330
6A
102
}
330
6A
100
AcDbMaterial
  1
Global
 73
     1
 78
     1
172
     1
176
     1
270
     1
274
     1
  0
MLEADERSTYLE
  5
498A
102
{ACAD_REACTORS
330
4989
102
}
330
4989
100
AcDbMLeaderStyle
170
     2
171
     1
172
     0
 90
        2
 40
0.0
 41
0.0
173
     1
 91
-1056964608
340
14
 92
       -2
290
     1
 42
2.0
291
     1
 43
0.36
  3
Standard
 44
4.0
300

342
11
174
     1
178
     6
175
     1
176
     0
 93
-1056964608
 45
4.0
292
     0
297
     0
 46
4.0
 94
-1056964608
 47
1.0
 49
1.0
140
1.0
293
     1
141
0.0
294
     1
177
     0
142
1.0
295
     0
296
     0
143
0.125
1001
ACAD_MLEADERVER
1070
     2
  0
MLINESTYLE
  5
18
102
{ACAD_REACTORS
330
17
102
}
330
17
100
AcDbMlineStyle
  2
STANDARD
 70
     0
  3

 62
   256
 51
90.0
 52
90.0
 71
     2
 49
0.5
 62
   256
  6
BYLAYER
 49
-0.5
 62
   256
  6
BYLAYER
  0
ACDBPLACEHOLDER
  5
F
102
{ACAD_REACTORS
330
E
102
}
330
E
  0
SCALE
  5
4978
102
{ACAD_REACTORS
330
4977
102
}
330
4977
100
AcDbScale
 70
     0
300
1:1
140
1.0
141
1.0
290
     1
  0
SCALE
  5
4979
102
{ACAD_REACTORS
330
4977
102
}
330
4977
100
AcDbScale
 70
     0
300
1:2
140
1.0
141
2.0
290
     0
  0
SCALE
  5
497A
102
{ACAD_REACTORS
330
4977
102
}
330
4977
100
AcDbScale
 70
     0
300
1:4
140
1.0
141
4.0
290
     0
  0
SCALE
  5
497B
102
{ACAD_REACTORS
330
4977
102
}
330
4977
100
AcDbScale
 70
     0
300
1:5
140
1.0
141
5.0
290
     0
  0
SCALE
  5
497C
102
{ACAD_REACTORS
330
4977
102
}
330
4977
100
AcDbScale
 70
     0
300
1:8
140
1.0
141
8.0
290
     0
  0
SCALE
  5
497D
102
{ACAD_REACTORS
330
4977
102
}
330
4977
100
AcDbScale
 70
     0
300
1:10
140
1.0
141
10.0
290
     0
  0
SCALE
  5
497E
102
{ACAD_REACTORS
330
4977
102
}
330
4977
100
AcDbScale
 70
     0
300
1:16
140
1.0
141
16.0
290
     0
  0
SCALE
  5
497F
102
{ACAD_REACTORS
330
4977
102
}
330
4977
100
AcDbScale
 70
     0
300
1:20
140
1.0
141
20.0
290
     0
  0
SCALE
  5
4980
102
{ACAD_REACTORS
330
4977
102
}
330
4977
100
AcDbScale
 70
     0
300
1:30
140
1.0
141
30.0
290
     0
  0
SCALE
  5
4981
102
{ACAD_REACTORS
330
4977
102
}
330
4977
100
AcDbScale
 70
     0
300
1:40
140
1.0
141
40.0
290
     0
  0
SCALE
  5
4982
102
{ACAD_REACTORS
330
4977
102
}
330
4977
100
AcDbScale
 70
     0
300
1:50
140
1.0
141
50.0
290
     0
  0
SCALE
  5
4983
102
{ACAD_REACTORS
330
4977
102
}
330
4977
100
AcDbScale
 70
     0
300
1:100
140
1.0
141
100.0
290
     0
  0
SCALE
  5
4984
102
{ACAD_REACTORS
330
4977
102
}
330
4977
100
AcDbScale
 70
     0
300
2:1
140
2.0
141
1.0
290
     0
  0
SCALE
  5
4985
102
{ACAD_REACTORS
330
4977
102
}
330
4977
100
AcDbScale
 70
     0
300
4:1
140
4.0
141
1.0
290
     0
  0
SCALE
  5
4986
102
{ACAD_REACTORS
330
4977
102
}
330
4977
100
AcDbScale
 70
     0
300
8:1
140
8.0
141
1.0
290
     0
  0
SCALE
  5
4987
102
{ACAD_REACTORS
330
4977
102
}
330
4977
100
AcDbScale
 70
     0
300
10:1
140
10.0
141
1.0
290
     0
  0
SCALE
  5
4988
102
{ACAD_REACTORS
330
4977
102
}
330
4977
100
AcDbScale
 70
     0
300
100:1
140
100.0
141
1.0
290
     0
  0
TABLESTYLE
  5
3628
102
{ACAD_XDICTIONARY
360
4C0B
102
}
102
{ACAD_REACTORS
330
3627
102
}
330
3627
100
AcDbTableStyle
  3
Standard
 70
     0
 71
     0
 40
1.5
 41
1.5
280
     0
281
     0
  7
Standard
140
4.5
170
     2
 62
     0
 63
     7
283
     0
274
    -2
284
     1
 64
     0
275
    -2
285
     1
 65
     0
276
    -2
286
     1
 66
     0
277
    -2
287
     1
 67
     0
278
    -2
288
     1
 68
     0
279
    -2
289
     1
 69
     0
  7
Standard
140
6.0
170
     5
 62
     0
 63
     7
283
     0
274
    -2
284
     1
 64
     0
275
    -2
285
     1
 65
     0
276
    -2
286
     1
 66
     0
277
    -2
287
     1
 67
     0
278
    -2
288
     1
 68
     0
279
    -2
289
     1
 69
     0
  7
Standard
140
4.5
170
     5
 62
     0
 63
     7
283
     0
274
    -2
284
     1
 64
     0
275
    -2
285
     1
 65
     0
276
    -2
286
     1
 66
     0
277
    -2
287
     1
 67
     0
278
    -2
288
     1
 68
     0
279
    -2
289
     1
 69
     0
  0
VISUALSTYLE
  5
4199
102
{ACAD_REACTORS
330
4193
102
}
330
4193
100
AcDbVisualStyle
  2
2dWireframe
 70
     4
 71
     0
 72
     2
 73
     0
 90
        0
 40
-0.6
 41
-30.0
 62
     5
 63
     7
421
 16777215
 74
     1
 91
        4
 64
     7
 65
   257
 75
     1
175
     1
 42
1.0
 92
        0
 66
   257
 43
1.0
 76
     1
 77
     6
 78
     2
 67
     7
 79
     5
170
     0
171
     0
290
     0
174
     0
 93
        1
 44
0.0
173
     0
291
     0
 45
0.0
1001
ACAD
1000
AcDbSavedByObjectVersion
1070
     0
  0
VISUALSTYLE
  5
419B
102
{ACAD_REACTORS
330
4193
102
}
330
4193
100
AcDbVisualStyle
  2
3D Hidden
 70
     6
 71
     1
 72
     2
 73
     2
 90
        0
 40
-0.6
 41
-30.0
 62
     5
 63
     7
421
 16777215
 74
     2
 91
        2
 64
     7
 65
   257
 75
     2
175
     1
 42
40.0
 92
        0
 66
   257
 43
1.0
 76
     1
 77
     6
 78
     2
 67
     7
 79
     3
170
     0
171
     0
290
     0
174
     0
 93
        1
 44
0.0
173
     0
291
     0
 45
0.0
1001
ACAD
1000
AcDbSavedByObjectVersion
1070
     0
  0
VISUALSTYLE
  5
419A
102
{ACAD_REACTORS
330
4193
102
}
330
4193
100
AcDbVisualStyle
  2
3dWireframe
 70
     5
 71
     0
 72
     2
 73
     0
 90
        0
 40
-0.6
 41
-30.0
 62
     5
 63
     7
421
 16777215
 74
     1
 91
        4
 64
     7
 65
   257
 75
     1
175
     1
 42
1.0
 92
        0
 66
   257
 43
1.0
 76
     1
 77
     6
 78
     2
 67
     7
 79
     5
170
     0
171
     0
290
     0
174
     0
 93
        1
 44
0.0
173
     0
291
     0
 45
0.0
1001
ACAD
1000
AcDbSavedByObjectVersion
1070
     0
  0
VISUALSTYLE
  5
4198
102
{ACAD_REACTORS
330
4193
102
}
330
4193
100
AcDbVisualStyle
  2
Basic
 70
     7
 71
     1
 72
     0
 73
     1
 90
        0
 40
-0.6
 41
-30.0
 62
     5
 63
     7
421
 16777215
 74
     0
 91
        4
 64
     7
 65
   257
 75
     1
175
     1
 42
1.0
 92
        8
 66
     7
 43
1.0
 76
     1
 77
     6
 78
     2
 67
     7
 79
     5
170
     0
171
     0
290
     0
174
     0
 93
        1
 44
0.0
173
     0
291
     1
 45
0.0
1001
ACAD
1000
AcDbSavedByObjectVersion
1070
     0
  0
VISUALSTYLE
  5
419F
102
{ACAD_REACTORS
330
4193
102
}
330
4193
100
AcDbVisualStyle
  2
Brighten
 70
    12
 71
     2
 72
     2
 73
     0
 90
        0
 40
-0.6
 41
-30.0
 62
     5
 63
     7
421
 16777215
 74
     1
 91
        4
 64
     7
 65
   257
 75
     1
175
     1
 42
1.0
 92
        8
 66
     7
 43
1.0
 76
     1
 77
     6
 78
     2
 67
     7
 79
     5
170
     0
171
     0
290
     0
174
     0
 93
        1
 44
50.0
173
     0
291
     1
 45
0.0
1001
ACAD
1000
AcDbSavedByObjectVersion
1070
     0
  0
VISUALSTYLE
  5
41A3
102
{ACAD_REACTORS
330
4193
102
}
330
4193
100
AcDbVisualStyle
  2
ColorChange
 70
    16
 71
     2
 72
     2
 73
     3
 90
        0
 40
-0.6
 41
-30.0
 62
     5
 63
     8
421
  8421504
 74
     1
 91
        4
 64
     7
 65
   257
 75
     1
175
     1
 42
1.0
 92
        8
 66
     8
424
  8421504
 43
1.0
 76
     1
 77
     6
 78
     2
 67
     7
 79
     5
170
     0
171
     0
290
     0
174
     0
 93
        1
 44
0.0
173
     0
291
     1
 45
0.0
1001
ACAD
1000
AcDbSavedByObjectVersion
1070
     0
  0
VISUALSTYLE
  5
419C
102
{ACAD_REACTORS
330
4193
102
}
330
4193
100
AcDbVisualStyle
  2
Conceptual
 70
     9
 71
     3
 72
     2
 73
     0
 90
        0
 40
-0.6
 41
-30.0
 62
     5
 63
     7
421
 16777215
 74
     2
 91
        2
 64
     7
 65
   257
 75
     1
175
     1
 42
40.0
 92
        8
 66
     7
 43
1.0
 76
     1
 77
     6
 78
     2
 67
     7
 79
     3
170
     0
171
     0
290
     0
174
     0
 93
        1
 44
0.0
173
     0
291
     0
 45
0.0
1001
ACAD
1000
AcDbSavedByObjectVersion
1070
     0
  0
VISUALSTYLE
  5
419E
102
{ACAD_REACTORS
330
4193
102
}
330
4193
100
AcDbVisualStyle
  2
Dim
 70
    11
 71
     2
 72
     2
 73
     0
 90
        0
 40
-0.6
 41
-30.0
 62
     5
 63
     7
421
 16777215
 74
     1
 91
        4
 64
     7
 65
   257
 75
     1
175
     1
 42
1.0
 92
        8
 66
     7
 43
1.0
 76
     1
 77
     6
 78
     2
 67
     7
 79
     5
170
     0
171
     0
290
     0
174
     0
 93
        1
 44
-50.0
173
     0
291
     1
 45
0.0
1001
ACAD
1000
AcDbSavedByObjectVersion
1070
     0
  0
VISUALSTYLE
  5
41A2
102
{ACAD_REACTORS
330
4193
102
}
330
4193
100
AcDbVisualStyle
  2
Facepattern
 70
    15
 71
     2
 72
     2
 73
     0
 90
        0
 40
-0.6
 41
-30.0
 62
     5
 63
     7
421
 16777215
 74
     1
 91
        4
 64
     7
 65
   257
 75
     1
175
     1
 42
1.0
 92
        8
 66
     7
 43
1.0
 76
     1
 77
     6
 78
     2
 67
     7
 79
     5
170
     0
171
     0
290
     0
174
     0
 93
        1
 44
0.0
173
     0
291
     1
 45
0.0
1001
ACAD
1000
AcDbSavedByObjectVersion
1070
     0
  0
VISUALSTYLE
  5
4194
102
{ACAD_REACTORS
330
4193
102
}
330
4193
100
AcDbVisualStyle
  2
Flat
 70
     0
 71
     2
 72
     1
 73
     1
 90
        2
 40
-0.6
 41
30.0
 62
     5
 63
     7
421
 16777215
 74
     0
 91
        4
 64
     7
 65
   257
 75
     1
175
     1
 42
1.0
 92
        8
 66
     7
 43
1.0
 76
     1
 77
     6
 78
     2
 67
     7
 79
     5
170
     0
171
     0
290
     0
174
     0
 93
       13
 44
0.0
173
     0
291
     1
 45
0.0
1001
ACAD
1000
AcDbSavedByObjectVersion
1070
     0
  0
VISUALSTYLE
  5
4195
102
{ACAD_REACTORS
330
4193
102
}
330
4193
100
AcDbVisualStyle
  2
FlatWithEdges
 70
     1
 71
     2
 72
     1
 73
     1
 90
        2
 40
-0.6
 41
30.0
 62
     5
 63
     7
421
 16777215
 74
     1
 91
        4
 64
     7
 65
   257
 75
     1
175
     1
 42
1.0
 92
        0
 66
   257
 43
1.0
 76
     1
 77
     6
 78
     2
 67
     7
 79
     5
170
     0
171
     0
290
     0
174
     0
 93
       13
 44
0.0
173
     0
291
     1
 45
0.0
1001
ACAD
1000
AcDbSavedByObjectVersion
1070
     0
  0
VISUALSTYLE
  5
4196
102
{ACAD_REACTORS
330
4193
102
}
330
4193
100
AcDbVisualStyle
  2
Gouraud
 70
     2
 71
     2
 72
     2
 73
     1
 90
        2
 40
-0.6
 41
30.0
 62
     5
 63
     7
421
 16777215
 74
     0
 91
        4
 64
     7
 65
   257
 75
     1
175
     1
 42
1.0
 92
        0
 66
     7
 43
1.0
 76
     1
 77
     6
 78
     2
 67
     7
 79
     5
170
     0
171
     0
290
     0
174
     0
 93
       13
 44
0.0
173
     0
291
     1
 45
0.0
1001
ACAD
1000
AcDbSavedByObjectVersion
1070
     0
  0
VISUALSTYLE
  5
4197
102
{ACAD_REACTORS
330
4193
102
}
330
4193
100
AcDbVisualStyle
  2
GouraudWithEdges
 70
     3
 71
     2
 72
     2
 73
     1
 90
        2
 40
-0.6
 41
30.0
 62
     5
 63
     7
421
 16777215
 74
     1
 91
        4
 64
     7
 65
   257
 75
     1
175
     1
 42
1.0
 92
        0
 66
   257
 43
1.0
 76
     1
 77
     6
 78
     2
 67
     7
 79
     5
170
     0
171
     0
290
     0
174
     0
 93
       13
 44
0.0
173
     0
291
     1
 45
0.0
1001
ACAD
1000
AcDbSavedByObjectVersion
1070
     0
  0
VISUALSTYLE
  5
41A1
102
{ACAD_REACTORS
330
4193
102
}
330
4193
100
AcDbVisualStyle
  2
Linepattern
 70
    14
 71
     2
 72
     2
 73
     0
 90
        0
 40
-0.6
 41
-30.0
 62
     5
 63
     7
421
 16777215
 74
     1
 91
        4
 64
     7
 65
   257
 75
     7
175
     7
 42
1.0
 92
        8
 66
     7
 43
1.0
 76
     1
 77
     6
 78
     2
 67
     7
 79
     5
170
     0
171
     0
290
     0
174
     0
 93
        1
 44
0.0
173
     0
291
     1
 45
0.0
1001
ACAD
1000
AcDbSavedByObjectVersion
1070
     0
  0
VISUALSTYLE
  5
419D
102
{ACAD_REACTORS
330
4193
102
}
330
4193
100
AcDbVisualStyle
  2
Realistic
 70
     8
 71
     2
 72
     2
 73
     0
 90
        0
 40
-0.6
 41
-30.0
 62
     5
 63
     7
421
 16777215
 74
     1
 91
        0
 64
     7
 65
   257
 75
     1
175
     1
 42
1.0
 92
        8
 66
     8
424
  7895160
 43
1.0
 76
     1
 77
     6
 78
     2
 67
     7
 79
     5
170
     0
171
     0
290
     0
174
     0
 93
       13
 44
0.0
173
     0
291
     0
 45
0.0
1001
ACAD
1000
AcDbSavedByObjectVersion
1070
     0
  0
VISUALSTYLE
  5
41A0
102
{ACAD_REACTORS
330
4193
102
}
330
4193
100
AcDbVisualStyle
  2
Thicken
 70
    13
 71
     2
 72
     2
 73
     0
 90
        0
 40
-0.6
 41
-30.0
 62
     5
 63
     7
421
 16777215
 74
     1
 91
        4
 64
     7
 65
   257
 75
     1
175
     1
 42
1.0
 92
       12
 66
     7
 43
1.0
 76
     1
 77
     6
 78
     2
 67
     7
 79
     5
170
     0
171
     0
290
     0
174
     0
 93
        1
 44
0.0
173
     0
291
     1
 45
0.0
1001
ACAD
1000
AcDbSavedByObjectVersion
1070
     0
  0
DICTIONARYVAR
  5
4C97
102
{ACAD_REACTORS
330
5E
102
}
330
5E
100
DictionaryVariables
280
     0
  1
1:1
  0
DICTIONARYVAR
  5
4C96
102
{ACAD_REACTORS
330
5E
102
}
330
5E
100
DictionaryVariables
280
     0
  1
STANDARD
  0
DICTIONARYVAR
  5
3643
102
{ACAD_REACTORS
330
5E
102
}
330
5E
100
DictionaryVariables
280
     0
  1
STANDARD
  0
DICTIONARYVAR
  5
5F
102
{ACAD_REACTORS
330
5E
102
}
330
5E
100
DictionaryVariables
280
     0
  1
2
  0
DICTIONARYVAR
  5
63
102
{ACAD_REACTORS
330
5E
102
}
330
5E
100
DictionaryVariables
280
     0
  1
1
  0
DICTIONARY
  5
71DC
330
71CC
100
AcDbDictionary
280
     1
281
     1
  3
ADSK_XREC_LAYOUTTHUMBNAIL
360
71DD
  0
DICTIONARY
  5
74F3
330
4191
100
AcDbDictionary
280
     1
281
     1
  3
ACAD_XREC_ROUNDTRIP
360
74F4
  0
DICTIONARY
  5
74F1
330
4190
100
AcDbDictionary
280
     1
281
     1
  3
ACAD_XREC_ROUNDTRIP
360
74F2
  0
DICTIONARY
  5
74F5
330
4192
100
AcDbDictionary
280
     1
281
     1
  3
ACAD_XREC_ROUNDTRIP
360
74F6
  0
DICTIONARY
  5
4C0B
330
3628
100
AcDbDictionary
280
     1
281
     1
  3
ACAD_ROUNDTRIP_2008_TABLESTYLE_CELLSTYLEMAP
360
74EE
  3
ACAD_XREC_ROUNDTRIP
360
74F0
  0
XRECORD
  5
71DD
102
{ACAD_REACTORS
330
71DC
102
}
330
71DC
100
AcDbXrecord
280
     1
310
28000000B40000007F00000001000800000000004C59000000000000000000000001000000000000FFFFFF0000000000FFFFFF000000000000000000000000000000000000000000000000000000000000000000330000006600000099000000CC000000FF00000000330000333300006633000099330000CC330000FF3300
310
0000660000336600006666000099660000CC660000FF66000000990000339900006699000099990000CC990000FF99000000CC000033CC000066CC000099CC0000CCCC0000FFCC000000FF000033FF000066FF000099FF0000CCFF0000FFFF000000003300330033006600330099003300CC003300FF003300003333003333
310
33006633330099333300CC333300FF33330000663300336633006666330099663300CC663300FF66330000993300339933006699330099993300CC993300FF99330000CC330033CC330066CC330099CC3300CCCC3300FFCC330000FF330033FF330066FF330099FF3300CCFF3300FFFF330000006600330066006600660099
310
006600CC006600FF00660000336600333366006633660099336600CC336600FF33660000666600336666006666660099666600CC666600FF66660000996600339966006699660099996600CC996600FF99660000CC660033CC660066CC660099CC6600CCCC6600FFCC660000FF660033FF660066FF660099FF6600CCFF6600
310
FFFF660000009900330099006600990099009900CC009900FF00990000339900333399006633990099339900CC339900FF33990000669900336699006666990099669900CC669900FF66990000999900339999006699990099999900CC999900FF99990000CC990033CC990066CC990099CC9900CCCC9900FFCC990000FF99
310
0033FF990066FF990099FF9900CCFF9900FFFF99000000CC003300CC006600CC009900CC00CC00CC00FF00CC000033CC003333CC006633CC009933CC00CC33CC00FF33CC000066CC003366CC006666CC009966CC00CC66CC00FF66CC000099CC003399CC006699CC009999CC00CC99CC00FF99CC0000CCCC0033CCCC0066CC
310
CC0099CCCC00CCCCCC00FFCCCC0000FFCC0033FFCC0066FFCC0099FFCC00CCFFCC00FFFFCC000000FF003300FF006600FF009900FF00CC00FF00FF00FF000033FF003333FF006633FF009933FF00CC33FF00FF33FF000066FF003366FF006666FF009966FF00CC66FF00FF66FF000099FF003399FF006699FF009999FF00CC
310
99FF00FF99FF0000CCFF0033CCFF0066CCFF0099CCFF00CCCCFF00FFCCFF0000FFFF0033FFFF0066FFFF0099FFFF00CCFFFF00FFFFFF00000000000D0D0D001A1A1A00282828003535350043434300505050005D5D5D006B6B6B00787878008686860093939300A1A1A100AEAEAE00BBBBBB00C9C9C900D6D6D600E4E4E400
310
F1F1F100FFFFFF0000000000000000000000000000000000000000000000000000000000000000000000000000000000E2E2E2E2E2E2E2E2E2E2E2E2E2E2E2E2E2E2E2E2E2E2E2E2E2E2E2E2E2E2E2E2E2E2E2E2E2E2E2E2E2E2E2E2E2E2E2E2E2E2E2E2E2E2E2E2E2E2E2E2E2E2E2E2E2E2E2E2E2E2E2E2E2E2E2E2E2E2E2
310
E2E2E2E2E2E2E2E2E2E2E2E2E2E2E2E2E2E2E2E2E2E2E2E2E2E2E2E2E2E2E2E2E2E2E2E2E2E2E2E2E2E2E2E2E2E2E2E2E2E2E2E2E2E2E2E2E2E2E2E2E2E2E2E2E2E2E2E2E2E2E2E2E2E2E2E2E2E2E2E2E2E2E2E2E2E2E2E2E2E2E2E2E2E2E2E2E2E2E2E2E2E2F5F5F5F5F5F5F5F5F5F5F5F5F5F5F5F5F5F5F5F5F5F5F5F5F5
310
F5F5F5F5F5F5F5F5F5F5F5F5F5F5F5F5F5F5F5F5F5F5F5F5F5F5F5F5F5F5F5F5F5F5F5F5F5F5F5F5F5F5F5F5F5F5F5F5F5F5F5F5F5F5F5F5F5F5F5F5F5F5F5F5F5F5F5F5F5F5F5F5F5F5F5F5F5F5F5F5F5F5F5F5F5F5F5F5F5F5F5F5F5F5F5F5F5F5F5F5F5F5F5F5F5F5F5F5F5F5F5F5F5F5F5F5F5F5F5F5F5F5F5F5F5F5F5
310
F5F5F5F5F5F5F5F5F5F5F5F5F5F5F5F5F5F5F5F5F5F5F5F5F5E2E2E2F5F5F5F5F5F5F5F5F5F5F5F5F5F5F5F5F5F5F5F5F5F5F5F5F5F5F5F5F5F5F5F5F5F5F5F5F5F5F5F5F5F5F5F5F5F5F5F5F5F5F5F5F5F5F5F5F5F5F5F5F5F5F5F5F5F5F5F5F5F5F5F5F5F5F5F5F5F5F5F5F5F5F5F5F5F5F5F5F5F5F5F5F5F5F5F5F5F5F5
310
F5F5F5F5F5F5F5F5F5F5F5F5F5F5F5F5F5F5F5F5F5F5F5F5F5F5F5F5F5F5F5F5F5F5F5F5F5F5F5F5F5F5F5F5F5F5F5F5F5F5F5F5F5F5F5F5F5F5F5F5F5F5F5F5F5F5F5F5F5F5F5F5F5F5F5F5F5F5E2E2E2F5F5F5F5F5F5F5F5F5F5F5F5F5F5F5F5F5F5F5F5F5F5F5F5F5F5F5F5F5F5F5F5F5F5F5F5F5F5F5F5F5F5F5F5F5F5
310
F5F5F5F5F5F5F5F5F5F5F5F5F5F5F5F5F5F5F5F5F5F5F5F5F5F5F5F5F5F5F5F5F5F5F5F5F5F5F5F5F5F5F5F5F5F5F5F5F5F5F5F5F5F5F5F5F5F5F5F5F5F5F5F5F5F5F5F5F5F5F5F5F5F5F5F5F5F5F5F5F5F5F5F5F5F5F5F5F5F5F5F5F5F5F5F5F5F5F5F5F5F5F5F5F5F5F5F5F5F5F5F5F5F5F5F5F5F5F5F5F5F5F5F5F5F5F5
310
F5F5F5F5E2E2E2F5F5E2E2E2E2E2E2E2E2F5F5F5F5F5F5F5F5F5E2E2E2E2E2E2E2E2E2E2E2E2E2E2E2E2F5F5F5F5F5F5F5F5F5E2E2E2E2E2E2E2E2E2E2E2E2E2E2E2E2F5F5F5F5F5F5F5F5E2E2E2E2E2E2E2E2E2E2E2E2E2E2E2E2F5F5F5F5F5F5F5F5F5E2E2E2E2E2E2E2E2E2E2E2E2E2E2E2E2F5F5F5F5F5F5F5F5E2E2E2
310
E2E2E2E2E2E2E2E2E2E2E2E2E2F5F5F5F5F5F5F5F5F5E2E2E2E2E2E2E2E2E2E2E2E2E2E2E2E2F5F5F5F5F5F5F5F5F5E2E2E2E2E2E2E2E2F5F5E2E2E2F5F5E2F5F5F5F5F5F5F5F5F5F5F5F5F5F5F5F5F5F5F5F5F5F5F5F5F5F5F5F5F5F5F5F5F5F5F5F5F5F5F5F5F5F5F5F5F5F5F5F5F5F5F5F5F5F5F5F5F5F5F5F5F5F5F5F5
310
F5F5F5F5F5F5F5F5F5F5F5F5F5F5F5F5F5F5F5F5F5F5F5F5F5F5F5F5F5F5F5F5F5F5F5F5F5F5F5F5F5F5F5F5F5F5F5F5F5F5F5F5F5F5F5F5F5F5F5F5F5F5F5F5F5F5F5F5F5F5F5F5F5F5F5F5F5F5F5F5F5F5F5F5F5F5F5F5F5F5F5F5F5F5F5F5F5F5F5F5F5F5F5F5F5F5F5E2F5F5E2E2E2F5F5E2F5F5F5F5F5F5F5F5F5F5F5
310
F5F5F5F5F5F5F5F5F5F5F5F5F5F5F5F5F5F5F5F5F5F5F5F5F5F5F5F5F5F5F5F5F5F5F5F5F5F5F5F5F5F5F5F5F5F5F5F5F5F5F5F5F5F5F5F5F5F5F5F5F5F5F5F5F5F5F5F5F5F5F5F5F5F5F5F5F5F5F5F5F5F5F5F5F5F5F5F5F5F5F5F5F5F5F5F5F5F5F5F5F5F5F5F5F5F5F5F5F5F5F5F5F5F5F5F5F5F5F5F5F5F5F5F5F5F5F5
310
F5F5F5F5F5F5F5F5F5F5F5F5F5F5F5F5F5F5F5F5F5F5F5F5F5F5F5F5F5F5F5F5F5E2F5F5E2E2E2F5F5E2F5F5F5F5F5F5F5F5F5F5F5F5F5F5F5F5F5F5F5F5F5F5F5F5F5F5F5F5F5F5F5F5F5F5F5F5F5F5F5F5F5F5F5F5F5F5F5F5F5F5F5F5F5F5F5F5F5F5F5F5F5F5F5F5F5F5F5F5F5F5F5F5F5F5F5F5F5F5F5F5F5F5F5F5F5
310
F5F5F5F5F5F5F5F5F5F5F5F5F5F5F5F5F5F5F5F5F5F5F5F5F5F5F5F5F5F5F5F5F5F5F5F5F5F5F5F5F5F5F5F5F5F5F5F5F5F5F5F5F5F5F5F5F5F5F5F5F5F5F5F5F5F5F5F5F5F5F5F5F5F5F5F5F5F5F5F5F5F5F5F5F5F5E2F5F5E2E2E2F5F5E2F5F5F5F5F5F5F5F5F5F5F5F5F5F5F5F5F5F5F5F5F5F5F5F5F5F5F5F5F5F5F5F5
310
F5F5F5F5F5F5F5F5F5F5F5F5F5F5F5F5F5F5F5F5F5F5F5F5F5F5F5F5F5F5F5F5F5F5F5F5F5F5F5F5F5F5F5F5F5F5F5F5F5F5F5F5F5F5F5F5F5F5F5F5F5F5F5F5F5F5F5F5F5F5F5F5F5F5F5F5F5F5F5F5F5F5F5F5F5F5F5F5F5F5F5F5F5F5F5F5F5F5F5F5F5F5F5F5F5F5F5F5F5F5F5F5F5F5F5F5F5F5F5F5F5F5F5F5F5F5F5
310
F5F5F5F5F5F5F5F5F5F5F5F5E2F5F5E2E2E2F5F5E2F5F5F5F5F5F5F5F5F5F5F5F5F5F5F5F5F5F5F5F5F5F5F5F5F5F5F5F5F5F5F5F5F5F5F5F5F5F5F5F5F5F5F5F5F5F5F5F5F5F5F5F5F5F5F5F5F5F5F5F5F5F5F5F5F5F5F5F5F5F5F5F5F5F5F5F5F5F5F5F5F5F5F5F5F5F5F5F5F5F5F5F5F5F5F5F5F5F5F5F5F5F5F5F5F5F5
310
F5F5F5F5F5F5F5F5F5F5F5F5F5F5F5F5F5F5F5F5F5F5F5F5F5F5F5F5F5F5F5F5F5F5F5F5F5F5F5F5F5F5F5F5F5F5F5F5F5F5F5F5F5F5F5F5F5F5F5F5F5F5F5F5F5E2F5F5E2E2E2F5F5E2F5F5F5F5F5F5F5F5F5F5F5F5F5F5F5F5F5F5F5F5F5F5F5F5F5F5F5F5F5F5F5F5F5F5F5F5F5F5F5F5F5F5F5F5F5F5F5F5F5F5F5F5F5
310
F5F5F5F5F5F5F5F5F5F5F5F5F5F5F5F5F5F5F5F5F5F5F5F5F5F5F5F5F5F5F5F5F5F5F5F5F5F5F5F5F5F5F5F5F5F5F5F5F5F5F5F5F5F5F5F5F5F5F5F5F5F5F5F5F5F5F5F5F5F5F5F5F5F5F5F5F5F5F5F5F5F5F5F5F5F5F5F5F5F5F5F5F5F5F5F5F5F5F5F5F5F5F5F5F5F5F5F5F5F5F5F5F5F5F5F5F5F5E2F5F5E2E2E2F5F5E2
310
F5F5F5F5F5F5F5F5F5F5F5F5F5F5F5F5F5F5F5F5F5F5F5F5F5F5F5F5F5F5F5F5F5F5F5F5F5F5F5F5F5F5F5F5F5F5F5F5F5F5F5F5F5F5F5F5F5F5F5F5F5F5F5F5F5F5F5F5F5F5F5F5F5F5F5F5F5F5F5F5F5F5F5F5F5F5F5F5F5F5F5F5F5F5F5F5F5F5F5F5F5F5F5F5F5F5F5F5F5F5F5F5F5F5F5F5F5F5F5F5F5F5F5F5F5F5F5
310
F5F5F5F5F5F5F5F5F5F5F5F5F5F5F5F5F5F5F5F5F5F5F5F5F5F5F5F5F5F5F5F5F5F5F5F5F5F5F5F5F5F5F5F5E2F5F5E2E2E2F5F5F5F5F5F5F5F5F5F5F5F5F5F5F5F5F5F5F5F5F5F5F5F5F5F5F5F5F5F5F5F5F5F5F5F5F5F5F5F5F5F5F5F5F5F5F5F5F5F5F5F5F5F5F5F5F5F5F5F5F5F5F5F5F5F5F5F5F5F5F5F5F5F5F5F5F5
310
F5F5F5F5F5F5F5F5F5F5F5F5F5F5F5F5F5F5F5F5F5F5F5F5F5F5F5F5F5F5F5F5F5F5F5F5F5F5F5F5F5F5F5F5F5F5F5F5F5F5F5F5F5F5F5F5F5F5F5F5F5F5F5F5F5F5F5F5F5F5F5F5F5F5F5F5F5F5F5F5F5F5F5F5F5F5F5F5F5F5F5F5F5F5F5F5F5F5F5F5E2E2E2F5F5F5F5F5F5F5F5F5F5F5F5F5F5F5F5F5F5F5F5F5F5F5F5
310
F5F5F5F5F5F5F5F5F5F5F5F5F5F5F5F5F5F5F5F5F5F5F5F5F5F5F5F5F5F5F5F5F5F5F5F5F5F5F5F5F5F5F5F5F5F5F5F5F5F5F5F5F5F5F5F5F5F5F5F5F5F5F5F5F5F5F5F5F5F5F5F5F5F5F5F5F5F5F5F5F5F5F5F5F5F5F5F5F5F5F5F5F5F5F5F5F5F5F5F5F5F5F5F5F5F5F5F5F5F5F5F5F5F5F5F5F5F5F5F5F5F5F5F5F5F5F5
310
F5F5F5F5F5F5F5F5F5F5F5F5F5F5F5F5F5F5F5F5F5F5F5F5F5F5E2E2E2F5F5F5F5F5F5F5F5F5F5F5F5F5F5F5F5F5F5F5F5F5F5F5F5F5F5F5F5F5F5F5F5F5F5F5F5F5F5F5F5F5F5F5F5F5F5F5F5F5F5F5F5F5F5F5F5F5F5F5F5F5F5F5F5F5F5F5F5F5F5F5F5F5F5F5F5F5F5F5F5F5F5F5F5F5F5F5F5F5F5F5F5F5F5F5F5F5F5
310
F5F5F5F5F5F5F5F5F5F5F5F5F5F5F5F5F5F5F5F5F5F5F5F5F5F5F5F5F5F5F5F5F5F5F5F5F5F5F5F5F5F5F5F5F5F5F5F5F5F5F5F5F5F5F5F5F5F5F5F5F5F5F5F5F5F5F5F5F5F5F5F5F5F5F5F5F5F5F5E2E2E2F5F5F5F5F5F5F5F5F5F5F5F5F5F5F5F5F5F5F5F5F5F5F5F5F5F5F5F5F5F5F5F5F5F5F5F5F5F5F5F5F5F5F5F5F5
310
F5F5F5F5F5F5F5F5F5F5F5F5F5F5F5F5F5F5F5F5F5F5F5F5F5F5F5F5F5F5F5F5F5F5F5F5F5F5F5F5F5F5F5F5F5F5F5F5F5F5F5F5F5F5F5F5F5F5F5F5F5F5F5F5F5F5F5F5F5F5F5F5F5F5F5F5F5F5F5F5F5F5F5F5F5F5F5F5F5F5F5F5F5F5F5F5F5F5F5F5F5F5F5F5F5F5F5F5F5F5F5F5F5F5F5F5F5F5F5F5F5F5F5F5F5F5F5
310
F5F5F5F5F5E2E2E2F5F5F5F5F5F5F5F5F5F5F5F5F5F5F5F5F5F5F5F5F5F5F5F5F5F5F5F5F5F5F5F5F5F5F5F5F5F5F5F5F5F5F5F5F5F5F5F5F5F5F5F5F5F5F5F5F5F5F5F5F5F5F5F5F5F5F5F5F5F5F5F5F5F5F5F5F5F5F5F5F5F5F5F5F5F5F5F5F5F5F5F5F5F5F5F5F5F5F5F5F5F5F5F5F5F5F5F5F5F5F5F5F5F5F5F5F5F5F5
310
F5F5F5F5F5F5F5F5F5F5F5F5F5F5F5F5F5F5F5F5F5F5F5F5F5F5F5F5F5F5F5F5F5F5F5F5F5F5F5F5F5F5F5F5F5F5F5F5F5F5F5F5F5F5F5F5F5F5E2E2E2F5F5F5F5F5F5F5F5F5F5F5F5F5F5F5F5F5F5F5F5F5F5F5F5F5F5F5F5F5F5F5F5F5F5F5F5F5F5F5F5F5F5F5F5F5F5F5F5F5F5F5F5F5F5F5F5F5F5F5F5F5F5F5F5F5F5
310
F5F5F5F5F5F5F5F5F5F5F5F5F5F5F5F5F5F5F5F5F5F5F5F5F5F5F5F5F5F5F5F5F5F5F5F5F5F5F5F5F5F5F5F5F5F5F5F5F5F5F5F5F5F5F5F5F5F5F5F5F5F5F5F5F5F5F5F5F5F5F5F5F5F5F5F5F5F5F5F5F5F5F5F5F5F5F5F5F5F5F5F5F5F5F5F5F5F5F5F5F5F5F5F5F5F5F5F5F5F5F5E2E2E2F5F5F5F5F5F5F5F5F5F5F5F5F5
310
F5F5F5F5F5F5F5F5F5F5F5F5F5F5F5F5F5F5F5F5F5F5F5F5F5F5F5F5F5F5F5F5F5F5F5F5F5F5F5F5F5F5F5F5F5F5F5F5F5F5F5F5F5F5F5F5F5F5F5F5F5F5F5F5F5F5F5F5F5F5F5F5F5F5F5F5F5F5F5F5F5F5F5F5F5F5F5F5F5F5F5F5F5F5F5F5F5F5F5F5F5F5F5F5F5F5F5F5F5F5F5F5F5F5F5F5F5F5F5F5F5F5F5F5F5F5F5
310
F5F5F5F5F5F5F5F5F5F5F5F5F5F5F5F5F5F5F5F5F5F5F5F5F5F5F5F5F5F5F5F5F5F5F5F5F5E2E2E2F5F5F5F5F5F5F5F5F5F5F5F5F5F5F5F5F5F5F5F5F5F5F5F5F5F5F5F5F5F5F5F5F5F5F5F5F5F5F5F5F5F5F5F5F5F5F5F5F5F5F5F5F5F5F5F5F5F5F5F5F5F5F5F5F5F5F5F5F5F5F5F5F5F5F5F5F5F5F5F5F5F5F5F5F5F5F5
310
F5F5F5F5F5F5F5F5F5F5F5F5F5F5F5F5F5F5F5F5F5F5F5F5F5F5F5F5F5F5F5F5F5F5F5F5F5F5F5F5F5F5F5F5F5F5F5F5F5F5F5F5F5F5F5F5F5F5F5F5F5F5F5F5F5F5F5F5F5F5F5F5F5F5F5F5F5F5F5F5F5F5F5F5F5F5F5F5F5F5E2E2E2F5F5F5F5F5F5F5F5F5F5F5F5F5F5F5F5F5F5F5F5F5F5F5F5F5F5F5F5F5F5F5F5F5F5
310
F5F5F5F5F5F5F5F5F5F5F5F5F5F5F5F5F5F5F5F5F5F5F5F5F5F5F5F5F5F5F5F5F5F5F5F5F5F5F5F5F5F5F5F5F5F5F5F5F5F5F5F5F5F5F5F5F5F5F5F5F5F5F5F5F5F5F5F5F5F5F5F5F5F5F5F5F5F5F5F5F5F5F5F5F5F5F5F5F5F5F5F5F5F5F5F5F5F5F5F5F5F5F5F5F5F5F5F5F5F5F5F5F5F5F5F5F5F5F5F5F5F5F5F5F5F5F5
310
F5F5F5F5F5F5F5F5F5F5F5F5F5F5F5F5E2E2E2F5F5E2F5F5F5F5F5F5F5F5F5F5F5F5F5F5F5F5F5F5F5F5F5F5F5F5F5F5F5F5F5F5F5F5F5F5F5F5F5F5F5F5F5F5F5F5F5F5F5F5F5F5F5F5F5F5F5F5F5F5F5F5F5F5F5F5F5F5F5F5F5F5F5F5F5F5F5F5F5F5F5F5F5F5F5F5F5F5F5F5F5F5F5F5F5F5F5F5F5F5F5F5F5F5F5F5F5
310
F5F5F5F5F5F5F5F5F5F5F5F5F5F5F5F5F5F5F5F5F5F5F5F5F5F5F5F5F5F5F5F5F5F5F5F5F5F5F5F5F5F5F5F5F5F5F5F5F5F5F5F5F5F5F5F5F5F5F5F5F5F5F5F5F5F5E2F5F5E2E2E2F5F5E2F5F5F5F5F5F5F5F5F5F5F5F5F5F5F5F5F5F5F5F5F5F5F5F5F5F5F5F5F5F5F5F5F5F5F5F5F5F5F5F5F5F5F5F5F5F5F5F5F5F5F5F5
310
F5F5F5F5F5F5F5F5F5F5F5F5F5F5F5F5F5F5F5F5F5F5F5F5F5F5F5F5F5F5F5F5F5F5F5F5F5F5F5F5F5F5F5F5F5F5F5F5F5F5F5F5F5F5F5F5F5F5F5F5F5F5F5F5F5F5F5F5F5F5F5F5F5F5F5F5F5F5F5F5F5F5F5F5F5F5F5F5F5F5F5F5F5F5F5F5F5F5F5F5F5F5F5F5F5F5F5F5F5F5F5F5F5F5F5F5F5F5F5E2F5F5E2E2E2F5F5
310
E2F5F5F5F5F5F5F5F5F5F5F5F5F5F5F5F5F5F5F5F5F5F5F5F5F5F5F5F5F5F5F5F5F5F5F5F5F5F5F5F5F5F5F5F5F5F5F5F5F5F5F5F5F5F5F5F5F5F5F5F5F5F5F5F5F5F5F5F5F5F5F5F5F5F5F5F5F5F5F5F5F5F5F5F5F5F5F5F5F5F5F5F5F5F5F5F5F5F5F5F5F5F5F5F5F5F5F5F5F5F5F5F5F5F5F5F5F5F5F5F5F5F5F5F5F5F5
310
F5F5F5F5F5F5F5F5F5F5F5F5F5F5F5F5F5F5F5F5F5F5F5F5F5F5F5F5F5F5F5F5F5F5F5F5F5F5F5F5F5F5F5F5F5E2F5F5E2E2E2F5F5E2F5F5F5F5F5F5F5F5F5F5F5F5F5F5F5F5F5F5F5F5F5F5F5F5F5F5F5F5F5F5F5F5F5F5F5F5F5F5F5F5F5F5F5F5F5F5F5F5F5F5F5F5F5F5F5F5F5F5F5F5F5F5F5F5F5F5F5F5F5F5F5F5F5
310
F5F5F5F5F5F5F5F5F5F5F5F5F5F5F5F5F5F5F5F5F5F5F5F5F5F5F5F5F5F5F5F5F5F5F5F5F5F5F5F5F5F5F5F5F5F5F5F5F5F5F5F5F5F5F5F5F5F5F5F5F5F5F5F5F5F5F5F5F5F5F5F5F5F5F5F5F5F5F5F5F5F5F5F5F5F5F5F5F5F5F5F5F5F5F5F5F5F5E2F5F5E2E2E2F5F5E2F5F5F5F5F5F5F5F5F5F5F5F5F5F5F5F5F5F5F5F5
310
F5F5F5F5F5F5F5F5F5F5F5F5F5F5F5F5F5F5F5F5F5F5F5F5F5F5F5F5F5F5F5F5F5F5F5F5F5F5F5F5F5F5F5F5F5F5F5F5F5F5F5F5F5F5F5F5F5F5F5F5F5F5F5F5F5F5F5F5F5F5F5F5F5F5F5F5F5F5F5F5F5F5F5F5F5F5F5F5F5F5F5F5F5F5F5F5F5F5F5F5F5F5F5F5F5F5F5F5F5F5F5F5F5F5F5F5F5F5F5F5F5F5F5F5F5F5F5
310
F5F5F5F5F5F5F5F5F5F5F5F5F5F5F5F5F5F5F5F5F5F5F5F5E2F5F5E2E2E2F5F5E2F5F5F5F5F5F5F5F5F5F5F5F5F5F5F5F5F5F5F5F5F5F5F5F5F5F5F5F5F5F5F5F5F5F5F5F5F5F5F5F5F5F5F5F5F5F5F5F5F5F5F5F5F5F5F5F5F5F5F5F5F5F5F5F5F5F5F5F5F5F5F5F5F5F5F5F5F5F5F5F5F5F5F5F5F5F5F5F5F5F5F5F5F5F5
310
F5F5F5F5F5F5F5F5F5F5F5F5F5F5F5F5F5F5F5F5F5F5F5F5F5F5F5F5F5F5F5F5F5F5F5F5F5F5F5F5F5F5F5F5F5F5F5F5F5F5F5F5F5F5F5F5F5F5F5F5F5F5F5F5F5F5F5F5F5F5F5F5F5F5F5F5F5E2F5F5E2E2E2F5F5E2F5F5F5F5F5F5F5F5F5F5F5F5F5F5F5F5F5F5F5F5F5F5F5F5F5F5F5F5F5F5F5F5F5F5F5F5F5F5F5F5F5
310
F5F5F5F5F5F5F5F5F5F5F5F5F5F5F5F5F5F5F5F5F5F5F5F5F5F5F5F5F5F5F5F5F5F5F5F5F5F5F5F5F5F5F5F5F5F5F5F5F5F5F5F5F5F5F5F5F5F5F5F5F5F5F5F5F5F5F5F5F5F5F5F5F5F5F5F5F5F5F5F5F5F5F5F5F5F5F5F5F5F5F5F5F5F5F5F5F5F5F5F5F5F5F5F5F5F5F5F5F5F5F5F5F5F5F5F5F5F5F5F5F5F5F5F5F5F5F5
310
F5F5F5E2F5F5E2E2E2F5F5E2F5F5F5F5F5F5F5F5F5F5F5F5F5F5F5F5F5F5F5F5F5F5F5F5F5F5F5F5F5F5F5F5F5F5F5F5F5F5F5F5F5F5F5F5F5F5F5F5F5F5F5F5F5F5F5F5F5F5F5F5F5F5F5F5F5F5F5F5F5F5F5F5F5F5F5F5F5F5F5F5F5F5F5F5F5F5F5F5F5F5F5F5F5F5F5F5F5F5F5F5F5F5F5F5F5F5F5F5F5F5F5F5F5F5F5
310
F5F5F5F5F5F5F5F5F5F5F5F5F5F5F5F5F5F5F5F5F5F5F5F5F5F5F5F5F5F5F5F5F5F5F5F5F5F5F5F5F5F5F5F5F5F5F5F5F5F5F5F5F5F5F5F5E2F5F5E2E2E2F5F5E2F5F5F5F5F5F5F5F5F5F5F5F5F5F5F5F5F5F5F5F5F5F5F5F5F5F5F5F5F5F5F5F5F5F5F5F5F5F5F5F5F5F5F5F5F5F5F5F5F5F5F5F5F5F5F5F5F5F5F5F5F5F5
310
F5F5F5F5F5F5F5F5F5F5F5F5F5F5F5F5F5F5F5F5F5F5F5F5F5F5F5F5F5F5F5F5F5F5F5F5F5F5F5F5F5F5F5F5F5F5F5F5F5F5F5F5F5F5F5F5F5F5F5F5F5F5F5F5F5F5F5F5F5F5F5F5F5F5F5F5F5F5F5F5F5F5F5F5F5F5F5F5F5F5F5F5F5F5F5F5F5F5F5F5F5F5F5F5F5F5F5F5F5E2F5F5E2E2E2F5F5E2F5F5F5F5F5F5F5F5F5
310
F5F5F5F5F5F5F5F5F5F5F5F5F5F5F5F5F5F5F5F5F5F5F5F5F5F5F5F5F5F5F5F5F5F5F5F5F5F5F5F5F5F5F5F5F5F5F5F5F5F5F5F5F5F5F5F5F5F5F5F5F5F5F5F5F5F5F5F5F5F5F5F5F5F5F5F5F5F5F5F5F5F5F5F5F5F5F5F5F5F5F5F5F5F5F5F5F5F5F5F5F5F5F5F5F5F5F5F5F5F5F5F5F5F5F5F5F5F5F5F5F5F5F5F5F5F5F5
310
F5F5F5F5F5F5F5F5F5F5F5F5F5F5F5F5F5F5F5F5F5F5F5F5F5F5F5F5F5F5F5F5F5F5F5E2F5F5E2E2E2F5F5E2F5F5F5F5F5F5F5F5F5F5F5F5F5F5F5F5F5F5F5F5F5F5F5F5F5F5F5F5F5F5F5F5F5F5F5F5F5F5F5F5F5F5F5F5F5F5F5F5F5F5F5F5F5F5F5F5F5F5F5F5F5F5F5F5F5F5F5F5F5F5F5F5F5F5F5F5F5F5F5F5F5F5F5
310
F5F5F5F5F5F5F5F5F5F5F5F5F5F5F5F5F5F5F5F5F5F5F5F5F5F5F5F5F5F5F5F5F5F5F5F5F5F5F5F5F5F5F5F5F5F5F5F5F5F5F5F5F5F5F5F5F5F5F5F5F5F5F5F5F5F5F5F5F5F5F5F5F5F5F5F5F5F5F5F5F5F5F5F5F5F5F5F5E2F5F5E2E2E2F5F5E2F5F5F5F5F5F5F5F5F5F5F5F5F5F5F5F5F5F5F5F5F5F5F5F5F5F5F5F5F5F5
310
F5F5F5F5F5F5F5F5F5F5F5F5F5F5F5F5F5F5F5F5F5F5F5F5F5F5F5F5F5F5F5F5F5F5F5F5F5F5F5F5F5F5F5F5F5F5F5F5F5F5F5F5F5F5F5F5F5F5F5F5F5F5F5F5F5F5F5F5F5F5F5F5F5F5F5F5F5F5F5F5F5F5F5F5F5F5F5F5F5F5F5F5F5F5F5F5F5F5F5F5F5F5F5F5F5F5F5F5F5F5F5F5F5F5F5F5F5F5F5F5F5F5F5F5F5F5F5
310
F5F5F5F5F5F5F5F5F5F5F5F5F5F5E2F5F5E2E2E2F5F5E2F5F5F5F5F5F5F5F5F5F5F5F5F5F5F5F5F5F5F5F5F5F5F5F5F5F5F5F5F5F5F5F5F5F5F5F5F5F5F5F5F5F5F5F5F5F5F5F5F5F5F5F5F5F5F5F5F5F5F5F5F5F5F5F5F5F5F5F5F5F5F5F5F5F5F5F5F5F5F5F5F5F5F5F5F5F5F5F5F5F5F5F5F5F5F5F5F5F5F5F5F5F5F5F5
310
F5F5F5F5F5F5F5F5F5F5F5F5F5F5F5F5F5F5F5F5F5F5F5F5F5F5F5F5F5F5F5F5F5F5F5F5F5F5F5F5F5F5F5F5F5F5F5F5F5F5F5F5F5F5F5F5F5F5F5F5F5F5F5F5F5F5F5E2F5F5E2E2E2F5F5E2F5F5F5F5F5F5F5F5F5F5F5F5F5F5F5F5F5F5F5F5F5F5F5F5F5F5F5F5F5F5F5F5F5F5F5F5F5F5F5F5F5F5F5F5F5F5F5F5F5F5F5
310
F5F5F5F5F5F5F5F5F5F5F5F5F5F5F5F5F5F5F5F5F5F5F5F5F5F5F5F5F5F5F5F5F5F5F5F5F5F5F5F5F5F5F5F5F5F5F5F5F5F5F5F5F5F5F5F5F5F5F5F5F5F5F5F5F5F5F5F5F5F5F5F5F5F5F5F5F5F5F5F5F5F5F5F5F5F5F5F5F5F5F5F5F5F5F5F5F5F5F5F5F5F5F5F5F5F5F5F5F5F5F5F5F5F5F5F5F5F5F5F5E2F5F5E2E2E2F5
310
F5E2F5F5F5F5F5F5F5F5F5F5F5F5F5F5F5F5F5F5F5F5F5F5F5F5F5F5F5F5F5F5F5F5F5F5F5F5F5F5F5F5F5F5F5F5F5F5F5F5F5F5F5F5F5F5F5F5F5F5F5F5F5F5F5F5F5F5F5F5F5F5F5F5F5F5F5F5F5F5F5F5F5F5F5F5F5F5F5F5F5F5F5F5F5F5F5F5F5F5F5F5F5F5F5F5F5F5F5F5F5F5F5F5F5F5F5F5F5F5F5F5F5F5F5F5F5
310
F5F5F5F5F5F5F5F5F5F5F5F5F5F5F5F5F5F5F5F5F5F5F5F5F5F5F5F5F5F5F5F5F5F5F5F5F5F5F5F5F5F5F5F5F5F5E2F5F5E2E2E2F5F5F5F5F5F5F5F5F5F5F5F5F5F5F5F5F5F5F5F5F5F5F5F5F5F5F5F5F5F5F5F5F5F5F5F5F5F5F5F5F5F5F5F5F5F5F5F5F5F5F5F5F5F5F5F5F5F5F5F5F5F5F5F5F5F5F5F5F5F5F5F5F5F5F5
310
F5F5F5F5F5F5F5F5F5F5F5F5F5F5F5F5F5F5F5F5F5F5F5F5F5F5F5F5F5F5F5F5F5F5F5F5F5F5F5F5F5F5F5F5F5F5F5F5F5F5F5F5F5F5F5F5F5F5F5F5F5F5F5F5F5F5F5F5F5F5F5F5F5F5F5F5F5F5F5F5F5F5F5F5F5F5F5F5F5F5F5F5F5F5F5F5F5F5F5F5F5F5E2E2E2F5F5F5F5F5F5F5F5F5F5F5F5F5F5F5F5F5F5F5F5F5F5
310
F5F5F5F5F5F5F5F5F5F5F5F5F5F5F5F5F5F5F5F5F5F5F5F5F5F5F5F5F5F5F5F5F5F5F5F5F5F5F5F5F5F5F5F5F5F5F5F5F5F5F5F5F5F5F5F5F5F5F5F5F5F5F5F5F5F5F5F5F5F5F5F5F5F5F5F5F5F5F5F5F5F5F5F5F5F5F5F5F5F5F5F5F5F5F5F5F5F5F5F5F5F5F5F5F5F5F5F5F5F5F5F5F5F5F5F5F5F5F5F5F5F5F5F5F5F5F5
310
F5F5F5F5F5F5F5F5F5F5F5F5F5F5F5F5F5F5F5F5F5F5F5F5F5F5F5F5E2E2E2F5F5F5F5F5F5F5F5F5F5F5F5F5F5F5F5F5F5F5F5F5F5F5F5F5F5F5F5F5F5F5F5F5F5F5F5F5F5F5F5F5F5F5F5F5F5F5F5F5F5F5F5F5F5F5F5F5F5F5F5F5F5F5F5F5F5F5F5F5F5F5F5F5F5F5F5F5F5F5F5F5F5F5F5F5F5F5F5F5F5F5F5F5F5F5F5
310
F5F5F5F5F5F5F5F5F5F5F5F5F5F5F5F5F5F5F5F5F5F5F5F5F5F5F5F5F5F5F5F5F5F5F5F5F5F5F5F5F5F5F5F5F5F5F5F5F5F5F5F5F5F5F5F5F5F5F5F5F5F5F5F5F5F5F5F5F5F5F5F5F5F5F5F5F5F5F5F5F5E2E2E2F5F5F5F5F5F5F5F5F5F5F5F5F5F5F5F5F5F5F5F5F5F5F5F5F5F5F5F5F5F5F5F5F5F5F5F5F5F5F5F5F5F5F5
310
F5F5F5F5F5F5F5F5F5F5F5F5F5F5F5F5F5F5F5F5F5F5F5F5F5F5F5F5F5F5F5F5F5F5F5F5F5F5F5F5F5F5F5F5F5F5F5F5F5F5F5F5F5F5F5F5F5F5F5F5F5F5F5F5F5F5F5F5F5F5F5F5F5F5F5F5F5F5F5F5F5F5F5F5F5F5F5F5F5F5F5F5F5F5F5F5F5F5F5F5F5F5F5F5F5F5F5F5F5F5F5F5F5F5F5F5F5F5F5F5F5F5F5F5F5F5F5
310
F5F5F5F5F5F5F5E2E2E2F5F5F5F5F5F5F5F5F5F5F5F5F5F5F5F5F5F5F5F5F5F5F5F5F5F5F5F5F5F5F5F5F5F5F5F5F5F5F5F5F5F5F5F5F5F5F5F5F5F5F5F5F5F5F5F5F5F5F5F5F5F5F5F5F5F5F5F5F5F5F5F5F5F5F5F5F5F5F5F5F5F5F5F5F5F5F5F5F5F5F5F5F5F5F5F5F5F5F5F5F5F5F5F5F5F5F5F5F5F5F5F5F5F5F5F5F5
310
F5F5F5F5F5F5F5F5F5F5F5F5F5F5F5F5F5F5F5F5F5F5F5F5F5F5F5F5F5F5F5F5F5F5F5F5F5F5F5F5F5F5F5F5F5F5F5F5F5F5F5F5F5F5F5F5F5F5F5F5E2E2E2F5F5F5F5F5F5F5F5F5F5F5F5F5F5F5F5F5F5F5F5F5F5F5F5F5F5F5F5F5F5F5F5F5F5F5F5F5F5F5F5F5F5F5F5F5F5F5F5F5F5F5F5F5F5F5F5F5F5F5F5F5F5F5F5
310
F5F5F5F5F5F5F5F5F5F5F5F5F5F5F5F5F5F5F5F5F5F5F5F5F5F5F5F5F5F5F5F5F5F5F5F5F5F5F5F5F5F5F5F5F5F5F5F5F5F5F5F5F5F5F5F5F5F5F5F5F5F5F5F5F5F5F5F5F5F5F5F5F5F5F5F5F5F5F5F5F5F5F5F5F5F5F5F5F5F5F5F5F5F5F5F5F5F5F5F5F5F5F5F5F5F5F5F5F5F5F5F5F5E2E2E2F5F5F5F5F5F5F5F5F5F5F5
310
F5F5F5F5F5F5F5F5F5F5F5F5F5F5F5F5F5F5F5F5F5F5F5F5F5F5F5F5F5F5F5F5F5F5F5F5F5F5F5F5F5F5F5F5F5F5F5F5F5F5F5F5F5F5F5F5F5F5F5F5F5F5F5F5F5F5F5F5F5F5F5F5F5F5F5F5F5F5F5F5F5F5F5F5F5F5F5F5F5F5F5F5F5F5F5F5F5F5F5F5F5F5F5F5F5F5F5F5F5F5F5F5F5F5F5F5F5F5F5F5F5F5F5F5F5F5F5
310
F5F5F5F5F5F5F5F5F5F5F5F5F5F5F5F5F5F5F5F5F5F5F5F5F5F5F5F5F5F5F5F5F5F5F5F5F5F5F5E2E2E2F5F5F5F5F5F5F5F5F5F5F5F5F5F5F5F5F5F5F5F5F5F5F5F5F5F5F5F5F5F5F5F5F5F5F5F5F5F5F5F5F5F5F5F5F5F5F5F5F5F5F5F5F5F5F5F5F5F5F5F5F5F5F5F5F5F5F5F5F5F5F5F5F5F5F5F5F5F5F5F5F5F5F5F5F5
310
F5F5F5F5F5F5F5F5F5F5F5F5F5F5F5F5F5F5F5F5F5F5F5F5F5F5F5F5F5F5F5F5F5F5F5F5F5F5F5F5F5F5F5F5F5F5F5F5F5F5F5F5F5F5F5F5F5F5F5F5F5F5F5F5F5F5F5F5F5F5F5F5F5F5F5F5F5F5F5F5F5F5F5F5F5F5F5F5F5F5F5F5E2E2E2F5F5E2F5F5F5F5F5F5F5F5F5F5F5F5F5F5F5F5F5F5F5F5F5F5F5F5F5F5F5F5F5
310
F5F5F5F5F5F5F5F5F5F5F5F5F5F5F5F5F5F5F5F5F5F5F5F5F5F5F5F5F5F5F5F5F5F5F5F5F5F5F5F5F5F5F5F5F5F5F5F5F5F5F5F5F5F5F5F5F5F5F5F5F5F5F5F5F5F5F5F5F5F5F5F5F5F5F5F5F5F5F5F5F5F5F5F5F5F5F5F5F5F5F5F5F5F5F5F5F5F5F5F5F5F5F5F5F5F5F5F5F5F5F5F5F5F5F5F5F5F5F5F5F5F5F5F5F5F5F5
310
F5F5F5F5F5F5F5F5F5F5F5F5F5F5F5E2F5F5E2E2E2F5F5E2F5F5F5F5F5F5F5F5F5F5F5F5F5F5F5F5F5F5F5F5F5F5F5F5F5F5F5F5F5F5F5F5F5F5F5F5F5F5F5F5F5F5F5F5F5F5F5F5F5F5F5F5F5F5F5F5F5F5F5F5F5F5F5F5F5F5F5F5F5F5F5F5F5F5F5F5F5F5F5F5F5F5F5F5F5F5F5F5F5F5F5F5F5F5F5F5F5F5F5F5F5F5F5
310
F5F5F5F5F5F5F5F5F5F5F5F5F5F5F5F5F5F5F5F5F5F5F5F5F5F5F5F5F5F5F5F5F5F5F5F5F5F5F5F5F5F5F5F5F5F5F5F5F5F5F5F5F5F5F5F5F5F5F5F5F5F5F5F5F5F5F5F5E2F5F5E2E2E2F5F5E2F5F5F5F5F5F5F5F5F5F5F5F5F5F5F5F5F5F5F5F5F5F5F5F5F5F5F5F5F5F5F5F5F5F5F5F5F5F5F5F5F5F5F5F5F5F5F5F5F5F5
310
F5F5F5F5F5F5F5F5F5F5F5F5F5F5F5F5F5F5F5F5F5F5F5F5F5F5F5F5F5F5F5F5F5F5F5F5F5F5F5F5F5F5F5F5F5F5F5F5F5F5F5F5F5F5F5F5F5F5F5F5F5F5F5F5F5F5F5F5F5F5F5F5F5F5F5F5F5F5F5F5F5F5F5F5F5F5F5F5F5F5F5F5F5F5F5F5F5F5F5F5F5F5F5F5F5F5F5F5F5F5F5F5F5F5F5F5F5F5F5F5F5E2F5F5E2E2E2
310
F5F5E2F5F5F5F5F5F5F5F5F5F5F5F5F5F5F5F5F5F5F5F5F5F5F5F5F5F5F5F5F5F5F5F5F5F5F5F5F5F5F5F5F5F5F5F5F5F5F5F5F5F5F5F5F5F5F5F5F5F5F5F5F5F5F5F5F5F5F5F5F5F5F5F5F5F5F5F5F5F5F5F5F5F5F5F5F5F5F5F5F5F5F5F5F5F5F5F5F5F5F5F5F5F5F5F5F5F5F5F5F5F5F5F5F5F5F5F5F5F5F5F5F5F5F5F5
310
F5F5F5F5F5F5F5F5F5F5F5F5F5F5F5F5F5F5F5F5F5F5F5F5F5F5F5F5F5F5F5F5F5F5F5F5F5F5F5F5F5F5F5F5F5F5F5E2F5F5E2E2E2F5F5E2F5F5F5F5F5F5F5F5F5F5F5F5F5F5F5F5F5F5F5F5F5F5F5F5F5F5F5F5F5F5F5F5F5F5F5F5F5F5F5F5F5F5F5F5F5F5F5F5F5F5F5F5F5F5F5F5F5F5F5F5F5F5F5F5F5F5F5F5F5F5F5
310
F5F5F5F5F5F5F5F5F5F5F5F5F5F5F5F5F5F5F5F5F5F5F5F5F5F5F5F5F5F5F5F5F5F5F5F5F5F5F5F5F5F5F5F5F5F5F5F5F5F5F5F5F5F5F5F5F5F5F5F5F5F5F5F5F5F5F5F5F5F5F5F5F5F5F5F5F5F5F5F5F5F5F5F5F5F5F5F5F5F5F5F5F5F5F5F5F5F5F5F5E2F5F5E2E2E2F5F5E2F5F5F5F5F5F5F5F5F5F5F5F5F5F5F5F5F5F5
310
F5F5F5F5F5F5F5F5F5F5F5F5F5F5F5F5F5F5F5F5F5F5F5F5F5F5F5F5F5F5F5F5F5F5F5F5F5F5F5F5F5F5F5F5F5F5F5F5F5F5F5F5F5F5F5F5F5F5F5F5F5F5F5F5F5F5F5F5F5F5F5F5F5F5F5F5F5F5F5F5F5F5F5F5F5F5F5F5F5F5F5F5F5F5F5F5F5F5F5F5F5F5F5F5F5F5F5F5F5F5F5F5F5F5F5F5F5F5F5F5F5F5F5F5F5F5F5
310
F5F5F5F5F5F5F5F5F5F5F5F5F5F5F5F5F5F5F5F5F5F5F5F5F5F5E2F5F5E2E2E2F5F5E2F5F5F5F5F5F5F5F5F5F5F5F5F5F5F5F5F5F5F5F5F5F5F5F5F5F5F5F5F5F5F5F5F5F5F5F5F5F5F5F5F5F5F5F5F5F5F5F5F5F5F5F5F5F5F5F5F5F5F5F5F5F5F5F5F5F5F5F5F5F5F5F5F5F5F5F5F5F5F5F5F5F5F5F5F5F5F5F5F5F5F5F5
310
F5F5F5F5F5F5F5F5F5F5F5F5F5F5F5F5F5F5F5F5F5F5F5F5F5F5F5F5F5F5F5F5F5F5F5F5F5F5F5F5F5F5F5F5F5F5F5F5F5F5F5F5F5F5F5F5F5F5F5F5F5F5F5F5F5F5F5F5F5F5F5F5F5F5F5F5F5F5F5E2F5F5E2E2E2F5F5E2F5F5F5F5F5F5F5F5F5F5F5F5F5F5F5F5F5F5F5F5F5F5F5F5F5F5F5F5F5F5F5F5F5F5F5F5F5F5F5
310
F5F5F5F5F5F5F5F5F5F5F5F5F5F5F5F5F5F5F5F5F5F5F5F5F5F5F5F5F5F5F5F5F5F5F5F5F5F5F5F5F5F5F5F5F5F5F5F5F5F5F5F5F5F5F5F5F5F5F5F5F5F5F5F5F5F5F5F5F5F5F5F5F5F5F5F5F5F5F5F5F5F5F5F5F5F5F5F5F5F5F5F5F5F5F5F5F5F5F5F5F5F5F5F5F5F5F5F5F5F5F5F5F5F5F5F5F5F5F5F5F5F5F5F5F5F5F5
310
F5F5F5F5F5E2F5F5E2E2E2F5F5E2F5F5F5F5F5F5F5F5F5F5F5F5F5F5F5F5F5F5F5F5F5F5F5F5F5F5F5F5F5F5F5F5F5F5F5F5F5F5F5F5F5F5F5F5F5F5F5F5F5F5F5F5F5F5F5F5F5F5F5F5F5F5F5F5F5F5F5F5F5F5F5F5F5F5F5F5F5F5F5F5F5F5F5F5F5F5F5F5F5F5F5F5F5F5F5F5F5F5F5F5F5F5F5F5F5F5F5F5F5F5F5F5F5
310
F5F5F5F5F5F5F5F5F5F5F5F5F5F5F5F5F5F5F5F5F5F5F5F5F5F5F5F5F5F5F5F5F5F5F5F5F5F5F5F5F5F5F5F5F5F5F5F5F5F5F5F5F5F5F5F5F5F5E2F5F5E2E2E2F5F5E2F5F5F5F5F5F5F5F5F5F5F5F5F5F5F5F5F5F5F5F5F5F5F5F5F5F5F5F5F5F5F5F5F5F5F5F5F5F5F5F5F5F5F5F5F5F5F5F5F5F5F5F5F5F5F5F5F5F5F5F5
310
F5F5F5F5F5F5F5F5F5F5F5F5F5F5F5F5F5F5F5F5F5F5F5F5F5F5F5F5F5F5F5F5F5F5F5F5F5F5F5F5F5F5F5F5F5F5F5F5F5F5F5F5F5F5F5F5F5F5F5F5F5F5F5F5F5F5F5F5F5F5F5F5F5F5F5F5F5F5F5F5F5F5F5F5F5F5F5F5F5F5F5F5F5F5F5F5F5F5F5F5F5F5F5F5F5F5F5F5F5F5F5E2F5F5E2E2E2F5F5E2F5F5F5F5F5F5F5
310
F5F5F5F5F5F5F5F5F5F5F5F5F5F5F5F5F5F5F5F5F5F5F5F5F5F5F5F5F5F5F5F5F5F5F5F5F5F5F5F5F5F5F5F5F5F5F5F5F5F5F5F5F5F5F5F5F5F5F5F5F5F5F5F5F5F5F5F5F5F5F5F5F5F5F5F5F5F5F5F5F5F5F5F5F5F5F5F5F5F5F5F5F5F5F5F5F5F5F5F5F5F5F5F5F5F5F5F5F5F5F5F5F5F5F5F5F5F5F5F5F5F5F5F5F5F5F5
310
F5F5F5F5F5F5F5F5F5F5F5F5F5F5F5F5F5F5F5F5F5F5F5F5F5F5F5F5F5F5F5F5F5F5F5F5F5E2F5F5E2E2E2F5F5E2F5F5F5F5F5F5F5F5F5F5F5F5F5F5F5F5F5F5F5F5F5F5F5F5F5F5F5F5F5F5F5F5F5F5F5F5F5F5F5F5F5F5F5F5F5F5F5F5F5F5F5F5F5F5F5F5F5F5F5F5F5F5F5F5F5F5F5F5F5F5F5F5F5F5F5F5F5F5F5F5F5
310
F5F5F5F5F5F5F5F5F5F5F5F5F5F5F5F5F5F5F5F5F5F5F5F5F5F5F5F5F5F5F5F5F5F5F5F5F5F5F5F5F5F5F5F5F5F5F5F5F5F5F5F5F5F5F5F5F5F5F5F5F5F5F5F5F5F5F5F5F5F5F5F5F5F5F5F5F5F5F5F5F5F5F5F5F5F5F5F5F5F5E2F5F5E2E2E2F5F5E2F5F5F5F5F5F5F5F5F5F5F5F5F5F5F5F5F5F5F5F5F5F5F5F5F5F5F5F5
310
F5F5F5F5F5F5F5F5F5F5F5F5F5F5F5F5F5F5F5F5F5F5F5F5F5F5F5F5F5F5F5F5F5F5F5F5F5F5F5F5F5F5F5F5F5F5F5F5F5F5F5F5F5F5F5F5F5F5F5F5F5F5F5F5F5F5F5F5F5F5F5F5F5F5F5F5F5F5F5F5F5F5F5F5F5F5F5F5F5F5F5F5F5F5F5F5F5F5F5F5F5F5F5F5F5F5F5F5F5F5F5F5F5F5F5F5F5F5F5F5F5F5F5F5F5F5F5
310
F5F5F5F5F5F5F5F5F5F5F5F5F5F5F5F5E2F5F5E2E2E2F5F5E2F5F5F5F5F5F5F5F5F5F5F5F5F5F5F5F5F5F5F5F5F5F5F5F5F5F5F5F5F5F5F5F5F5F5F5F5F5F5F5F5F5F5F5F5F5F5F5F5F5F5F5F5F5F5F5F5F5F5F5F5F5F5F5F5F5F5F5F5F5F5F5F5F5F5F5F5F5F5F5F5F5F5F5F5F5F5F5F5F5F5F5F5F5F5F5F5F5F5F5F5F5F5
310
F5F5F5F5F5F5F5F5F5F5F5F5F5F5F5F5F5F5F5F5F5F5F5F5F5F5F5F5F5F5F5F5F5F5F5F5F5F5F5F5F5F5F5F5F5F5F5F5F5F5F5F5F5F5F5F5F5F5F5F5F5F5F5F5F5F5F5F5F5E2F5F5E2E2E2F5F5E2F5F5F5F5F5F5F5F5F5F5F5F5F5F5F5F5F5F5F5F5F5F5F5F5F5F5F5F5F5F5F5F5F5F5F5F5F5F5F5F5F5F5F5F5F5F5F5F5F5
310
F5F5F5F5F5F5F5F5F5F5F5F5F5F5F5F5F5F5F5F5F5F5F5F5F5F5F5F5F5F5F5F5F5F5F5F5F5F5F5F5F5F5F5F5F5F5F5F5F5F5F5F5F5F5F5F5F5F5F5F5F5F5F5F5F5F5F5F5F5F5F5F5F5F5F5F5F5F5F5F5F5F5F5F5F5F5F5F5F5F5F5F5F5F5F5F5F5F5F5F5F5F5F5F5F5F5F5F5F5F5F5F5F5F5F5F5F5F5F5F5F5F5E2F5F5E2E2
310
E2F5F5F5F5F5F5F5F5F5F5F5F5F5F5F5F5F5F5F5F5F5F5F5F5F5F5F5F5F5F5F5F5F5F5F5F5F5F5F5F5F5F5F5F5F5F5F5F5F5F5F5F5F5F5F5F5F5F5F5F5F5F5F5F5F5F5F5F5F5F5F5F5F5F5F5F5F5F5F5F5F5F5F5F5F5F5F5F5F5F5F5F5F5F5F5F5F5F5F5F5F5F5F5F5F5F5F5F5F5F5F5F5F5F5F5F5F5F5F5F5F5F5F5F5F5F5
310
F5F5F5F5F5F5F5F5F5F5F5F5F5F5F5F5F5F5F5F5F5F5F5F5F5F5F5F5F5F5F5F5F5F5F5F5F5F5F5F5F5F5F5F5F5F5F5F5F5F5F5E2E2E2F5F5F5F5F5F5F5F5F5F5F5F5F5F5F5F5F5F5F5F5F5F5F5F5F5F5F5F5F5F5F5F5F5F5F5F5F5F5F5F5F5F5F5F5F5F5F5F5F5F5F5F5F5F5F5F5F5F5F5F5F5F5F5F5F5F5F5F5F5F5F5F5F5
310
F5F5F5F5F5F5F5F5F5F5F5F5F5F5F5F5F5F5F5F5F5F5F5F5F5F5F5F5F5F5F5F5F5F5F5F5F5F5F5F5F5F5F5F5F5F5F5F5F5F5F5F5F5F5F5F5F5F5F5F5F5F5F5F5F5F5F5F5F5F5F5F5F5F5F5F5F5F5F5F5F5F5F5F5F5F5F5F5F5F5F5F5F5F5F5F5F5F5F5F5F5F5F5F5E2E2E2F5F5F5F5F5F5F5F5F5F5F5F5F5F5F5F5F5F5F5F5
310
F5F5F5F5F5F5F5F5F5F5F5F5F5F5F5F5F5F5F5F5F5F5F5F5F5F5F5F5F5F5F5F5F5F5F5F5F5F5F5F5F5F5F5F5F5F5F5F5F5F5F5F5F5F5F5F5F5F5F5F5F5F5F5F5F5F5F5F5F5F5F5F5F5F5F5F5F5F5F5F5F5F5F5F5F5F5F5F5F5F5F5F5F5F5F5F5F5F5F5F5F5F5F5F5F5F5F5F5F5F5F5F5F5F5F5F5F5F5F5F5F5F5F5F5F5F5F5
310
F5F5F5F5F5F5F5F5F5F5F5F5F5F5F5F5F5F5F5F5F5F5F5F5F5F5F5F5F5F5E2E2E2F5F5F5F5F5F5F5F5F5F5F5F5F5F5F5F5F5F5F5F5F5F5F5F5F5F5F5F5F5F5F5F5F5F5F5F5F5F5F5F5F5F5F5F5F5F5F5F5F5F5F5F5F5F5F5F5F5F5F5F5F5F5F5F5F5F5F5F5F5F5F5F5F5F5F5F5F5F5F5F5F5F5F5F5F5F5F5F5F5F5F5F5F5F5
310
F5F5F5F5F5F5F5F5F5F5F5F5F5F5F5F5F5F5F5F5F5F5F5F5F5F5F5F5F5F5F5F5F5F5F5F5F5F5F5F5F5F5F5F5F5F5F5F5F5F5F5F5F5F5F5F5F5F5F5F5F5F5F5F5F5F5F5F5F5F5F5F5F5F5F5F5F5F5F5F5F5F5F5E2E2E2F5F5F5F5F5F5F5F5F5F5F5F5F5F5F5F5F5F5F5F5F5F5F5F5F5F5F5F5F5F5F5F5F5F5F5F5F5F5F5F5F5
310
F5F5F5F5F5F5F5F5F5F5F5F5F5F5F5F5F5F5F5F5F5F5F5F5F5F5F5F5F5F5F5F5F5F5F5F5F5F5F5F5F5F5F5F5F5F5F5F5F5F5F5F5F5F5F5F5F5F5F5F5F5F5F5F5F5F5F5F5F5F5F5F5F5F5F5F5F5F5F5F5F5F5F5F5F5F5F5F5F5F5F5F5F5F5F5F5F5F5F5F5F5F5F5F5F5F5F5F5F5F5F5F5F5F5F5F5F5F5F5F5F5F5F5F5F5F5F5
310
F5F5F5F5F5F5F5F5F5E2E2E2F5F5F5F5F5F5F5F5F5F5F5F5F5F5F5F5F5F5F5F5F5F5F5F5F5F5F5F5F5F5F5F5F5F5F5F5F5F5F5F5F5F5F5F5F5F5F5F5F5F5F5F5F5F5F5F5F5F5F5F5F5F5F5F5F5F5F5F5F5F5F5F5F5F5F5F5F5F5F5F5F5F5F5F5F5F5F5F5F5F5F5F5F5F5F5F5F5F5F5F5F5F5F5F5F5F5F5F5F5F5F5F5F5F5F5
310
F5F5F5F5F5F5F5F5F5F5F5F5F5F5F5F5F5F5F5F5F5F5F5F5F5F5F5F5F5F5F5F5F5F5F5F5F5F5F5F5F5F5F5F5F5F5F5F5F5F5F5F5F5F5F5F5F5F5F5F5F5F5E2E2E2F5F5F5F5F5F5F5F5F5F5F5F5F5F5F5F5F5F5F5F5F5F5F5F5F5F5F5F5F5F5F5F5F5F5F5F5F5F5F5F5F5F5F5F5F5F5F5F5F5F5F5F5F5F5F5F5F5F5F5F5F5F5
310
F5F5F5F5F5F5F5F5F5F5F5F5F5F5F5F5F5F5F5F5F5F5F5F5F5F5F5F5F5F5F5F5F5F5F5F5F5F5F5F5F5F5F5F5F5F5F5F5F5F5F5F5F5F5F5F5F5F5F5F5F5F5F5F5F5F5F5F5F5F5F5F5F5F5F5F5F5F5F5F5F5F5F5F5F5F5F5F5F5F5F5F5F5F5F5F5F5F5F5F5F5F5F5F5F5F5F5F5F5F5F5F5F5F5F5E2E2E2F5F5F5F5F5F5F5F5F5
310
F5F5F5F5F5F5F5F5F5F5F5F5F5F5F5F5F5F5F5F5F5F5F5F5F5F5F5F5F5F5F5F5F5F5F5F5F5F5F5F5F5F5F5F5F5F5F5F5F5F5F5F5F5F5F5F5F5F5F5F5F5F5F5F5F5F5F5F5F5F5F5F5F5F5F5F5F5F5F5F5F5F5F5F5F5F5F5F5F5F5F5F5F5F5F5F5F5F5F5F5F5F5F5F5F5F5F5F5F5F5F5F5F5F5F5F5F5F5F5F5F5F5F5F5F5F5F5
310
F5F5F5F5F5F5F5F5F5F5F5F5F5F5F5F5F5F5F5F5F5F5F5F5F5F5F5F5F5F5F5F5F5F5F5F5F5F5F5F5F5E2E2E2F5F5F5F5F5F5F5F5F5F5F5F5F5F5F5F5F5F5F5F5F5F5F5F5F5F5F5F5F5F5F5F5F5F5F5F5F5F5F5F5F5F5F5F5F5F5F5F5F5F5F5F5F5F5F5F5F5F5F5F5F5F5F5F5F5F5F5F5F5F5F5F5F5F5F5F5F5F5F5F5F5F5F5
310
F5F5F5F5F5F5F5F5F5F5F5F5F5F5F5F5F5F5F5F5F5F5F5F5F5F5F5F5F5F5F5F5F5F5F5F5F5F5F5F5F5F5F5F5F5F5F5F5F5F5F5F5F5F5F5F5F5F5F5F5F5F5F5F5F5F5F5F5F5F5F5F5F5F5F5F5F5F5F5F5F5F5F5F5F5F5F5F5F5F5F5F5F5F5E2E2E2F5F5E2F5F5F5F5F5F5F5F5F5F5F5F5F5F5F5F5F5F5F5F5F5F5F5F5F5F5F5
310
F5F5F5F5F5F5F5F5F5F5F5F5F5F5F5F5F5F5F5F5F5F5F5F5F5F5F5F5F5F5F5F5F5F5F5F5F5F5F5F5F5F5F5F5F5F5F5F5F5F5F5F5F5F5F5F5F5F5F5F5F5F5F5F5F5F5F5F5F5F5F5F5F5F5F5F5F5F5F5F5F5F5F5F5F5F5F5F5F5F5F5F5F5F5F5F5F5F5F5F5F5F5F5F5F5F5F5F5F5F5F5F5F5F5F5F5F5F5F5F5F5F5F5F5F5F5F5
310
F5F5F5F5F5F5F5F5F5F5F5F5F5F5F5F5F5E2F5F5E2E2E2F5F5E2F5F5F5F5F5F5F5F5F5F5F5F5F5F5F5F5F5F5F5F5F5F5F5F5F5F5F5F5F5F5F5F5F5F5F5F5F5F5F5F5F5F5F5F5F5F5F5F5F5F5F5F5F5F5F5F5F5F5F5F5F5F5F5F5F5F5F5F5F5F5F5F5F5F5F5F5F5F5F5F5F5F5F5F5F5F5F5F5F5F5F5F5F5F5F5F5F5F5F5F5F5
310
F5F5F5F5F5F5F5F5F5F5F5F5F5F5F5F5F5F5F5F5F5F5F5F5F5F5F5F5F5F5F5F5F5F5F5F5F5F5F5F5F5F5F5F5F5F5F5F5F5F5F5F5F5F5F5F5F5F5F5F5F5F5F5F5F5F5F5F5F5F5E2F5F5E2E2E2F5F5E2F5F5F5F5F5F5F5F5F5F5F5F5F5F5F5F5F5F5F5F5F5F5F5F5F5F5F5F5F5F5F5F5F5F5F5F5F5F5F5F5F5F5F5F5F5F5F5F5
310
F5F5F5F5F5F5F5F5F5F5F5F5F5F5F5F5F5F5F5F5F5F5F5F5F5F5F5F5F5F5F5F5F5F5F5F5F5F5F5F5F5F5F5F5F5F5F5F5F5F5F5F5F5F5F5F5F5F5F5F5F5F5F5F5F5F5F5F5F5F5F5F5F5F5F5F5F5F5F5F5F5F5F5F5F5F5F5F5F5F5F5F5F5F5F5F5F5F5F5F5F5F5F5F5F5F5F5F5F5F5F5F5F5F5F5F5F5F5F5F5F5F5F5E2F5F5E2
310
E2E2F5F5E2F5F5F5F5F5F5F5F5F5F5F5F5F5F5F5F5F5F5F5F5F5F5F5F5F5F5F5F5F5F5F5F5F5F5F5F5F5F5F5F5F5F5F5F5F5F5F5F5F5F5F5F5F5F5F5F5F5F5F5F5F5F5F5F5F5F5F5F5F5F5F5F5F5F5F5F5F5F5F5F5F5F5F5F5F5F5F5F5F5F5F5F5F5F5F5F5F5F5F5F5F5F5F5F5F5F5F5F5F5F5F5F5F5F5F5F5F5F5F5F5F5F5
310
F5F5F5F5F5F5F5F5F5F5F5F5F5F5F5F5F5F5F5F5F5F5F5F5F5F5F5F5F5F5F5F5F5F5F5F5F5F5F5F5F5F5F5F5F5F5F5F5F5E2F5F5E2E2E2F5F5E2F5F5F5F5F5F5F5F5F5F5F5F5F5F5F5F5F5F5F5F5F5F5F5F5F5F5F5F5F5F5F5F5F5F5F5F5F5F5F5F5F5F5F5F5F5F5F5F5F5F5F5F5F5F5F5F5F5F5F5F5F5F5F5F5F5F5F5F5F5
310
F5F5F5F5F5F5F5F5F5F5F5F5F5F5F5F5F5F5F5F5F5F5F5F5F5F5F5F5F5F5F5F5F5F5F5F5F5F5F5F5F5F5F5F5F5F5F5F5F5F5F5F5F5F5F5F5F5F5F5F5F5F5F5F5F5F5F5F5F5F5F5F5F5F5F5F5F5F5F5F5F5F5F5F5F5F5F5F5F5F5F5F5F5F5F5F5F5F5F5F5F5F5E2F5F5E2E2E2F5F5E2F5F5F5F5F5F5F5F5F5F5F5F5F5F5F5F5
310
F5F5F5F5F5F5F5F5F5F5F5F5F5F5F5F5F5F5F5F5F5F5F5F5F5F5F5F5F5F5F5F5F5F5F5F5F5F5F5F5F5F5F5F5F5F5F5F5F5F5F5F5F5F5F5F5F5F5F5F5F5F5F5F5F5F5F5F5F5F5F5F5F5F5F5F5F5F5F5F5F5F5F5F5F5F5F5F5F5F5F5F5F5F5F5F5F5F5F5F5F5F5F5F5F5F5F5F5F5F5F5F5F5F5F5F5F5F5F5F5F5F5F5F5F5F5F5
310
F5F5F5F5F5F5F5F5F5F5F5F5F5F5F5F5F5F5F5F5F5F5F5F5F5F5F5F5E2F5F5E2E2E2F5F5E2F5F5F5F5F5F5F5F5F5F5F5F5F5F5F5F5F5F5F5F5F5F5F5F5F5F5F5F5F5F5F5F5F5F5F5F5F5F5F5F5F5F5F5F5F5F5F5F5F5F5F5F5F5F5F5F5F5F5F5F5F5F5F5F5F5F5F5F5F5F5F5F5F5F5F5F5F5F5F5F5F5F5F5F5F5F5F5F5F5F5
310
F5F5F5F5F5F5F5F5F5F5F5F5F5F5F5F5F5F5F5F5F5F5F5F5F5F5F5F5F5F5F5F5F5F5F5F5F5F5F5F5F5F5F5F5F5F5F5F5F5F5F5F5F5F5F5F5F5F5F5F5F5F5F5F5F5F5F5F5F5F5F5F5F5F5F5F5F5F5F5F5F5E2F5F5E2E2E2F5F5E2F5F5F5F5F5F5F5F5F5F5F5F5F5F5F5F5F5F5F5F5F5F5F5F5F5F5F5F5F5F5F5F5F5F5F5F5F5
310
F5F5F5F5F5F5F5F5F5F5F5F5F5F5F5F5F5F5F5F5F5F5F5F5F5F5F5F5F5F5F5F5F5F5F5F5F5F5F5F5F5F5F5F5F5F5F5F5F5F5F5F5F5F5F5F5F5F5F5F5F5F5F5F5F5F5F5F5F5F5F5F5F5F5F5F5F5F5F5F5F5F5F5F5F5F5F5F5F5F5F5F5F5F5F5F5F5F5F5F5F5F5F5F5F5F5F5F5F5F5F5F5F5F5F5F5F5F5F5F5F5F5F5F5F5F5F5
310
F5F5F5F5F5F5F5E2F5F5E2E2E2F5F5E2F5F5F5F5F5F5F5F5F5F5F5F5F5F5F5F5F5F5F5F5F5F5F5F5F5F5F5F5F5F5F5F5F5F5F5F5F5F5F5F5F5F5F5F5F5F5F5F5F5F5F5F5F5F5F5F5F5F5F5F5F5F5F5F5F5F5F5F5F5F5F5F5F5F5F5F5F5F5F5F5F5F5F5F5F5F5F5F5F5F5F5F5F5F5F5F5F5F5F5F5F5F5F5F5F5F5F5F5F5F5F5
310
F5F5F5F5F5F5F5F5F5F5F5F5F5F5F5F5F5F5F5F5F5F5F5F5F5F5F5F5F5F5F5F5F5F5F5F5F5F5F5F5F5F5F5F5F5F5F5F5F5F5F5F5F5F5F5F5F5F5F5F5E2F5F5E2E2E2F5F5E2F5F5F5F5F5F5F5F5F5F5F5F5F5F5F5F5F5F5F5F5F5F5F5F5F5F5F5F5F5F5F5F5F5F5F5F5F5F5F5F5F5F5F5F5F5F5F5F5F5F5F5F5F5F5F5F5F5F5
310
F5F5F5F5F5F5F5F5F5F5F5F5F5F5F5F5F5F5F5F5F5F5F5F5F5F5F5F5F5F5F5F5F5F5F5F5F5F5F5F5F5F5F5F5F5F5F5F5F5F5F5F5F5F5F5F5F5F5F5F5F5F5F5F5F5F5F5F5F5F5F5F5F5F5F5F5F5F5F5F5F5F5F5F5F5F5F5F5F5F5F5F5F5F5F5F5F5F5F5F5F5F5F5F5F5F5F5F5F5F5F5F5F5E2F5F5E2E2E2F5F5E2F5F5F5F5F5
310
F5F5F5F5F5F5F5F5F5F5F5F5F5F5F5F5F5F5F5F5F5F5F5F5F5F5F5F5F5F5F5F5F5F5F5F5F5F5F5F5F5F5F5F5F5F5F5F5F5F5F5F5F5F5F5F5F5F5F5F5F5F5F5F5F5F5F5F5F5F5F5F5F5F5F5F5F5F5F5F5F5F5F5F5F5F5F5F5F5F5F5F5F5F5F5F5F5F5F5F5F5F5F5F5F5F5F5F5F5F5F5F5F5F5F5F5F5F5F5F5F5F5F5F5F5F5F5
310
F5F5F5F5F5F5F5F5F5F5F5F5F5F5F5F5F5F5F5F5F5F5F5F5F5F5F5F5F5F5F5F5F5F5F5F5F5F5F5E2F5F5E2E2E2F5F5E2F5F5F5F5F5F5F5F5F5F5F5F5F5F5F5F5F5F5F5F5F5F5F5F5F5F5F5F5F5F5F5F5F5F5F5F5F5F5F5F5F5F5F5F5F5F5F5F5F5F5F5F5F5F5F5F5F5F5F5F5F5F5F5F5F5F5F5F5F5F5F5F5F5F5F5F5F5F5F5
310
F5F5F5F5F5F5F5F5F5F5F5F5F5F5F5F5F5F5F5F5F5F5F5F5F5F5F5F5F5F5F5F5F5F5F5F5F5F5F5F5F5F5F5F5F5F5F5F5F5F5F5F5F5F5F5F5F5F5F5F5F5F5F5F5F5F5F5F5F5F5F5F5F5F5F5F5F5F5F5F5F5F5F5F5F5F5F5F5F5F5F5F5E2F5F5E2E2E2F5F5E2F5F5F5F5F5F5F5F5F5F5F5F5F5F5F5F5F5F5F5F5F5F5F5F5F5F5
310
F5F5F5F5F5F5F5F5F5F5F5F5F5F5F5F5F5F5F5F5F5F5F5F5F5F5F5F5F5F5F5F5F5F5F5F5F5F5F5F5F5F5F5F5F5F5F5F5F5F5F5F5F5F5F5F5F5F5F5F5F5F5F5F5F5F5F5F5F5F5F5F5F5F5F5F5F5F5F5F5F5F5F5F5F5F5F5F5F5F5F5F5F5F5F5F5F5F5F5F5F5F5F5F5F5F5F5F5F5F5F5F5F5F5F5F5F5F5F5F5F5F5F5F5F5F5F5
310
F5F5F5F5F5F5F5F5F5F5F5F5F5F5F5F5F5F5E2F5F5E2E2E2F5F5E2F5F5F5F5F5F5F5F5F5F5F5F5F5F5F5F5F5F5F5F5F5F5F5F5F5F5F5F5F5F5F5F5F5F5F5F5F5F5F5F5F5F5F5F5F5F5F5F5F5F5F5F5F5F5F5F5F5F5F5F5F5F5F5F5F5F5F5F5F5F5F5F5F5F5F5F5F5F5F5F5F5F5F5F5F5F5F5F5F5F5F5F5F5F5F5F5F5F5F5F5
310
F5F5F5F5F5F5F5F5F5F5F5F5F5F5F5F5F5F5F5F5F5F5F5F5F5F5F5F5F5F5F5F5F5F5F5F5F5F5F5F5F5F5F5F5F5F5F5F5F5F5F5F5F5F5F5F5F5F5F5F5F5F5F5F5F5F5F5F5F5F5F5E2F5F5E2E2E2F5F5E2F5F5F5F5F5F5F5F5F5F5F5F5F5F5F5F5F5F5F5F5F5F5F5F5F5F5F5F5F5F5F5F5F5F5F5F5F5F5F5F5F5F5F5F5F5F5F5
310
F5F5F5F5F5F5F5F5F5F5F5F5F5F5F5F5F5F5F5F5F5F5F5F5F5F5F5F5F5F5F5F5F5F5F5F5F5F5F5F5F5F5F5F5F5F5F5F5F5F5F5F5F5F5F5F5F5F5F5F5F5F5F5F5F5F5F5F5F5F5F5F5F5F5F5F5F5F5F5F5F5F5F5F5F5F5F5F5F5F5F5F5F5F5F5F5F5F5F5F5F5F5F5F5F5F5F5F5F5F5F5F5F5F5F5F5F5F5F5F5F5F5F5F5E2F5F5
310
E2E2E2F5F5F5F5F5F5F5F5F5F5F5F5F5F5F5F5F5F5F5F5F5F5F5F5F5F5F5F5F5F5F5F5F5F5F5F5F5F5F5F5F5F5F5F5F5F5F5F5F5F5F5F5F5F5F5F5F5F5F5F5F5F5F5F5F5F5F5F5F5F5F5F5F5F5F5F5F5F5F5F5F5F5F5F5F5F5F5F5F5F5F5F5F5F5F5F5F5F5F5F5F5F5F5F5F5F5F5F5F5F5F5F5F5F5F5F5F5F5F5F5F5F5F5F5
310
F5F5F5F5F5F5F5F5F5F5F5F5F5F5F5F5F5F5F5F5F5F5F5F5F5F5F5F5F5F5F5F5F5F5F5F5F5F5F5F5F5F5F5F5F5F5F5F5F5F5F5F5F5E2E2E2F5F5F5F5F5F5F5F5F5F5F5F5F5F5F5F5F5F5F5F5F5F5F5F5F5F5F5F5F5F5F5F5F5F5F5F5F5F5F5F5F5F5F5F5F5F5F5F5F5F5F5F5F5F5F5F5F5F5F5F5F5F5F5F5F5F5F5F5F5F5F5
310
F5F5F5F5F5F5F5F5F5F5F5F5F5F5F5F5F5F5F5F5F5F5F5F5F5F5F5F5F5F5F5F5F5F5F5F5F5F5F5F5F5F5F5F5F5F5F5F5F5F5F5F5F5F5F5F5F5F5F5F5F5F5F5F5F5F5F5F5F5F5F5F5F5F5F5F5F5F5F5F5F5F5F5F5F5F5F5F5F5F5F5F5F5F5F5F5F5F5F5F5F5F5F5F5F5F5E2E2E2F5F5F5F5F5F5F5F5F5F5F5F5F5F5F5F5F5F5
310
F5F5F5F5F5F5F5F5F5F5F5F5F5F5F5F5F5F5F5F5F5F5F5F5F5F5F5F5F5F5F5F5F5F5F5F5F5F5F5F5F5F5F5F5F5F5F5F5F5F5F5F5F5F5F5F5F5F5F5F5F5F5F5F5F5F5F5F5F5F5F5F5F5F5F5F5F5F5F5F5F5F5F5F5F5F5F5F5F5F5F5F5F5F5F5F5F5F5F5F5F5F5F5F5F5F5F5F5F5F5F5F5F5F5F5F5F5F5F5F5F5F5F5F5F5F5F5
310
F5F5F5F5F5F5F5F5F5F5F5F5F5F5F5F5F5F5F5F5F5F5F5F5F5F5F5F5F5F5F5F5E2E2E2F5F5F5F5F5F5F5F5F5F5F5F5F5F5F5F5F5F5F5F5F5F5F5F5F5F5F5F5F5F5F5F5F5F5F5F5F5F5F5F5F5F5F5F5F5F5F5F5F5F5F5F5F5F5F5F5F5F5F5F5F5F5F5F5F5F5F5F5F5F5F5F5F5F5F5F5F5F5F5F5F5F5F5F5F5F5F5F5F5F5F5F5
310
F5F5F5F5F5F5F5F5F5F5F5F5F5F5F5F5F5F5F5F5F5F5F5F5F5F5F5F5F5F5F5F5F5F5F5F5F5F5F5F5F5F5F5F5F5F5F5F5F5F5F5F5F5F5F5F5F5F5F5F5F5F5F5F5F5F5F5F5F5F5F5F5F5F5F5F5F5F5F5F5F5F5F5F5F5E2E2E2F5F5F5F5F5F5F5F5F5F5F5F5F5F5F5F5F5F5F5F5F5F5F5F5F5F5F5F5F5F5F5F5F5F5F5F5F5F5F5
310
F5F5F5F5F5F5F5F5F5F5F5F5F5F5F5F5F5F5F5F5F5F5F5F5F5F5F5F5F5F5F5F5F5F5F5F5F5F5F5F5F5F5F5F5F5F5F5F5F5F5F5F5F5F5F5F5F5F5F5F5F5F5F5F5F5F5F5F5F5F5F5F5F5F5F5F5F5F5F5F5F5F5F5F5F5F5F5F5F5F5F5F5F5F5F5F5F5F5F5F5F5F5F5F5F5F5F5F5F5F5F5F5F5F5F5F5F5F5F5F5F5F5F5F5F5F5F5
310
F5F5F5F5F5F5F5F5F5F5F5E2E2E2F5F5F5F5F5F5F5F5F5F5F5F5F5F5F5F5F5F5F5F5F5F5F5F5F5F5F5F5F5F5F5F5F5F5F5F5F5F5F5F5F5F5F5F5F5F5F5F5F5F5F5F5F5F5F5F5F5F5F5F5F5F5F5F5F5F5F5F5F5F5F5F5F5F5F5F5F5F5F5F5F5F5F5F5F5F5F5F5F5F5F5F5F5F5F5F5F5F5F5F5F5F5F5F5F5F5F5F5F5F5F5F5F5
310
F5F5F5F5F5F5F5F5F5F5F5F5F5F5F5F5F5F5F5F5F5F5F5F5F5F5F5F5F5F5F5F5F5F5F5F5F5F5F5F5F5F5F5F5F5F5F5F5F5F5F5F5F5F5F5F5F5F5F5F5F5F5F5F5E2E2E2F5F5F5F5F5F5F5F5F5F5F5F5F5F5F5F5F5F5F5F5F5F5F5F5F5F5F5F5F5F5F5F5F5F5F5F5F5F5F5F5F5F5F5F5F5F5F5F5F5F5F5F5F5F5F5F5F5F5F5F5
310
F5F5F5F5F5F5F5F5F5F5F5F5F5F5F5F5F5F5F5F5F5F5F5F5F5F5F5F5F5F5F5F5F5F5F5F5F5F5F5F5F5F5F5F5F5F5F5F5F5F5F5F5F5F5F5F5F5F5F5F5F5F5F5F5F5F5F5F5F5F5F5F5F5F5F5F5F5F5F5F5F5F5F5F5F5F5F5F5F5F5F5F5F5F5F5F5F5F5F5F5F5F5F5F5F5F5F5F5F5F5F5F5F5F5F5F5F5E2E2E2F5F5F5F5F5F5F5
310
F5F5F5F5F5F5F5F5F5F5F5F5F5F5F5F5F5F5F5F5F5F5F5F5F5F5F5F5F5F5F5F5F5F5F5F5F5F5F5F5F5F5F5F5F5F5F5F5F5F5F5F5F5F5F5F5F5F5F5F5F5F5F5F5F5F5F5F5F5F5F5F5F5F5F5F5F5F5F5F5F5F5F5F5F5F5F5F5F5F5F5F5F5F5F5F5F5F5F5F5F5F5F5F5F5F5F5F5F5F5F5F5F5F5F5F5F5F5F5F5F5F5F5F5F5F5F5
310
F5F5F5F5F5F5F5F5F5F5F5F5F5F5F5F5F5F5F5F5F5F5F5F5F5F5F5F5F5F5F5F5F5F5F5F5F5F5F5F5F5F5F5E2E2E2F5F5E2F5F5F5F5F5F5F5F5F5F5F5F5F5F5F5F5F5F5F5F5F5F5F5F5F5F5F5F5F5F5F5F5F5F5F5F5F5F5F5F5F5F5F5F5F5F5F5F5F5F5F5F5F5F5F5F5F5F5F5F5F5F5F5F5F5F5F5F5F5F5F5F5F5F5F5F5F5F5
310
F5F5F5F5F5F5F5F5F5F5F5F5F5F5F5F5F5F5F5F5F5F5F5F5F5F5F5F5F5F5F5F5F5F5F5F5F5F5F5F5F5F5F5F5F5F5F5F5F5F5F5F5F5F5F5F5F5F5F5F5F5F5F5F5F5F5F5F5F5F5F5F5F5F5F5F5F5F5F5F5F5F5F5F5F5F5F5F5F5F5F5F5F5E2F5F5E2E2E2F5F5E2F5F5F5F5F5F5F5F5F5F5F5F5F5F5F5F5F5F5F5F5F5F5F5F5F5
310
F5F5F5F5F5F5F5F5F5F5F5F5F5F5F5F5F5F5F5F5F5F5F5F5F5F5F5F5F5F5F5F5F5F5F5F5F5F5F5F5F5F5F5F5F5F5F5F5F5F5F5F5F5F5F5F5F5F5F5F5F5F5F5F5F5F5F5F5F5F5F5F5F5F5F5F5F5F5F5F5F5F5F5F5F5F5F5F5F5F5F5F5F5F5F5F5F5F5F5F5F5F5F5F5F5F5F5F5F5F5F5F5F5F5F5F5F5F5F5F5F5F5F5F5F5F5F5
310
F5F5F5F5F5F5F5F5F5F5F5F5F5F5F5F5F5F5F5E2F5F5E2E2E2F5F5E2F5F5F5F5F5F5F5F5F5F5F5F5F5F5F5F5F5F5F5F5F5F5F5F5F5F5F5F5F5F5F5F5F5F5F5F5F5F5F5F5F5F5F5F5F5F5F5F5F5F5F5F5F5F5F5F5F5F5F5F5F5F5F5F5F5F5F5F5F5F5F5F5F5F5F5F5F5F5F5F5F5F5F5F5F5F5F5F5F5F5F5F5F5F5F5F5F5F5F5
310
F5F5F5F5F5F5F5F5F5F5F5F5F5F5F5F5F5F5F5F5F5F5F5F5F5F5F5F5F5F5F5F5F5F5F5F5F5F5F5F5F5F5F5F5F5F5F5F5F5F5F5F5F5F5F5F5F5F5F5F5F5F5F5F5F5F5F5F5F5F5F5F5E2F5F5E2E2E2F5F5E2F5F5F5F5F5F5F5F5F5F5F5F5F5F5F5F5F5F5F5F5F5F5F5F5F5F5F5F5F5F5F5F5F5F5F5F5F5F5F5F5F5F5F5F5F5F5
310
F5F5F5F5F5F5F5F5F5F5F5F5F5F5F5F5F5F5F5F5F5F5F5F5F5F5F5F5F5F5F5F5F5F5F5F5F5F5F5F5F5F5F5F5F5F5F5F5F5F5F5F5F5F5F5F5F5F5F5F5F5F5F5F5F5F5F5F5F5F5F5F5F5F5F5F5F5F5F5F5F5F5F5F5F5F5F5F5F5F5F5F5F5F5F5F5F5F5F5F5F5F5F5F5F5F5F5F5F5F5F5F5F5F5F5F5F5F5F5F5F5F5F5F5F5E2F5
310
F5E2E2E2F5F5E2F5F5F5F5F5F5F5F5F5F5F5F5F5F5F5F5F5F5F5F5F5F5F5F5F5F5F5F5F5F5F5F5F5F5F5F5F5F5F5F5F5F5F5F5F5F5F5F5F5F5F5F5F5F5F5F5F5F5F5F5F5F5F5F5F5F5F5F5F5F5F5F5F5F5F5F5F5F5F5F5F5F5F5F5F5F5F5F5F5F5F5F5F5F5F5F5F5F5F5F5F5F5F5F5F5F5F5F5F5F5F5F5F5F5F5F5F5F5F5F5
310
F5F5F5F5F5F5F5F5F5F5F5F5F5F5F5F5F5F5F5F5F5F5F5F5F5F5F5F5F5F5F5F5F5F5F5F5F5F5F5F5F5F5F5F5F5F5F5F5F5F5F5E2F5F5E2E2E2F5F5E2F5F5F5F5F5F5F5F5F5F5F5F5F5F5F5F5F5F5F5F5F5F5F5F5F5F5F5F5F5F5F5F5F5F5F5F5F5F5F5F5F5F5F5F5F5F5F5F5F5F5F5F5F5F5F5F5F5F5F5F5F5F5F5F5F5F5F5
310
F5F5F5F5F5F5F5F5F5F5F5F5F5F5F5F5F5F5F5F5F5F5F5F5F5F5F5F5F5F5F5F5F5F5F5F5F5F5F5F5F5F5F5F5F5F5F5F5F5F5F5F5F5F5F5F5F5F5F5F5F5F5F5F5F5F5F5F5F5F5F5F5F5F5F5F5F5F5F5F5F5F5F5F5F5F5F5F5F5F5F5F5F5F5F5F5F5F5F5F5F5F5F5F5E2F5F5E2E2E2F5F5E2F5F5F5F5F5F5F5F5F5F5F5F5F5F5
310
F5F5F5F5F5F5F5F5F5F5F5F5F5F5F5F5F5F5F5F5F5F5F5F5F5F5F5F5F5F5F5F5F5F5F5F5F5F5F5F5F5F5F5F5F5F5F5F5F5F5F5F5F5F5F5F5F5F5F5F5F5F5F5F5F5F5F5F5F5F5F5F5F5F5F5F5F5F5F5F5F5F5F5F5F5F5F5F5F5F5F5F5F5F5F5F5F5F5F5F5F5F5F5F5F5F5F5F5F5F5F5F5F5F5F5F5F5F5F5F5F5F5F5F5F5F5F5
310
F5F5F5F5F5F5F5F5F5F5F5F5F5F5F5F5F5F5F5F5F5F5F5F5F5F5F5F5F5F5E2F5F5E2E2E2F5F5E2F5F5F5F5F5F5F5F5F5F5F5F5F5F5F5F5F5F5F5F5F5F5F5F5F5F5F5F5F5F5F5F5F5F5F5F5F5F5F5F5F5F5F5F5F5F5F5F5F5F5F5F5F5F5F5F5F5F5F5F5F5F5F5F5F5F5F5F5F5F5F5F5F5F5F5F5F5F5F5F5F5F5F5F5F5F5F5F5
310
F5F5F5F5F5F5F5F5F5F5F5F5F5F5F5F5F5F5F5F5F5F5F5F5F5F5F5F5F5F5F5F5F5F5F5F5F5F5F5F5F5F5F5F5F5F5F5F5F5F5F5F5F5F5F5F5F5F5F5F5F5F5F5F5F5F5F5F5F5F5F5F5F5F5F5F5F5F5F5F5F5F5F5E2F5F5E2E2E2F5F5E2F5F5F5F5F5F5F5F5F5F5F5F5F5F5F5F5F5F5F5F5F5F5F5F5F5F5F5F5F5F5F5F5F5F5F5
310
F5F5F5F5F5F5F5F5F5F5F5F5F5F5F5F5F5F5F5F5F5F5F5F5F5F5F5F5F5F5F5F5F5F5F5F5F5F5F5F5F5F5F5F5F5F5F5F5F5F5F5F5F5F5F5F5F5F5F5F5F5F5F5F5F5F5F5F5F5F5F5F5F5F5F5F5F5F5F5F5F5F5F5F5F5F5F5F5F5F5F5F5F5F5F5F5F5F5F5F5F5F5F5F5F5F5F5F5F5F5F5F5F5F5F5F5F5F5F5F5F5F5F5F5F5F5F5
310
F5F5F5F5F5F5F5F5F5E2F5F5E2E2E2F5F5E2F5F5F5F5F5F5F5F5F5F5F5F5F5F5F5F5F5F5F5F5F5F5F5F5F5F5F5F5F5F5F5F5F5F5F5F5F5F5F5F5F5F5F5F5F5F5F5F5F5F5F5F5F5F5F5F5F5F5F5F5F5F5F5F5F5F5F5F5F5F5F5F5F5F5F5F5F5F5F5F5F5F5F5F5F5F5F5F5F5F5F5F5F5F5F5F5F5F5F5F5F5F5F5F5F5F5F5F5F5
310
F5F5F5F5F5F5F5F5F5F5F5F5F5F5F5F5F5F5F5F5F5F5F5F5F5F5F5F5F5F5F5F5F5F5F5F5F5F5F5F5F5F5F5F5F5F5F5F5F5F5F5F5F5F5F5F5F5F5F5F5F5F5E2F5F5E2E2E2F5F5E2F5F5F5F5F5F5F5F5F5F5F5F5F5F5F5F5F5F5F5F5F5F5F5F5F5F5F5F5F5F5F5F5F5F5F5F5F5F5F5F5F5F5F5F5F5F5F5F5F5F5F5F5F5F5F5F5
310
F5F5F5F5F5F5F5F5F5F5F5F5F5F5F5F5F5F5F5F5F5F5F5F5F5F5F5F5F5F5F5F5F5F5F5F5F5F5F5F5F5F5F5F5F5F5F5F5F5F5F5F5F5F5F5F5F5F5F5F5F5F5F5F5F5F5F5F5F5F5F5F5F5F5F5F5F5F5F5F5F5F5F5F5F5F5F5F5F5F5F5F5F5F5F5F5F5F5F5F5F5F5F5F5F5F5F5F5F5F5F5F5F5F5F5E2F5F5E2E2E2F5F5E2F5F5F5
310
F5F5F5F5F5F5F5F5F5F5F5F5F5F5F5F5F5F5F5F5F5F5F5F5F5F5F5F5F5F5F5F5F5F5F5F5F5F5F5F5F5F5F5F5F5F5F5F5F5F5F5F5F5F5F5F5F5F5F5F5F5F5F5F5F5F5F5F5F5F5F5F5F5F5F5F5F5F5F5F5F5F5F5F5F5F5F5F5F5F5F5F5F5F5F5F5F5F5F5F5F5F5F5F5F5F5F5F5F5F5F5F5F5F5F5F5F5F5F5F5F5F5F5F5F5F5F5
310
F5F5F5F5F5F5F5F5F5F5F5F5F5F5F5F5F5F5F5F5F5F5F5F5F5F5F5F5F5F5F5F5F5F5F5F5F5F5F5F5F5E2F5F5E2E2E2F5F5E2F5F5F5F5F5F5F5F5F5F5F5F5F5F5F5F5F5F5F5F5F5F5F5F5F5F5F5F5F5F5F5F5F5F5F5F5F5F5F5F5F5F5F5F5F5F5F5F5F5F5F5F5F5F5F5F5F5F5F5F5F5F5F5F5F5F5F5F5F5F5F5F5F5F5F5F5F5
310
F5F5F5F5F5F5F5F5F5F5F5F5F5F5F5F5F5F5F5F5F5F5F5F5F5F5F5F5F5F5F5F5F5F5F5F5F5F5F5F5F5F5F5F5F5F5F5F5F5F5F5F5F5F5F5F5F5F5F5F5F5F5F5F5F5F5F5F5F5F5F5F5F5F5F5F5F5F5F5F5F5F5F5F5F5F5F5F5F5F5F5F5F5F5E2F5F5E2E2E2F5F5E2F5F5F5F5F5F5F5F5F5F5F5F5F5F5F5F5F5F5F5F5F5F5F5F5
310
F5F5F5F5F5F5F5F5F5F5F5F5F5F5F5F5F5F5F5F5F5F5F5F5F5F5F5F5F5F5F5F5F5F5F5F5F5F5F5F5F5F5F5F5F5F5F5F5F5F5F5F5F5F5F5F5F5F5F5F5F5F5F5F5F5F5F5F5F5F5F5F5F5F5F5F5F5F5F5F5F5F5F5F5F5F5F5F5F5F5F5F5F5F5F5F5F5F5F5F5F5F5F5F5F5F5F5F5F5F5F5F5F5F5F5F5F5F5F5F5F5F5F5F5F5F5F5
310
F5F5F5F5F5F5F5F5F5F5F5F5F5F5F5F5F5F5F5F5E2F5F5E2E2E2F5F5E2F5F5F5F5F5F5F5F5F5F5F5F5F5F5F5F5F5F5F5F5F5F5F5F5F5F5F5F5F5F5F5F5F5F5F5F5F5F5F5F5F5F5F5F5F5F5F5F5F5F5F5F5F5F5F5F5F5F5F5F5F5F5F5F5F5F5F5F5F5F5F5F5F5F5F5F5F5F5F5F5F5F5F5F5F5F5F5F5F5F5F5F5F5F5F5F5F5F5
310
F5F5F5F5F5F5F5F5F5F5F5F5F5F5F5F5F5F5F5F5F5F5F5F5F5F5F5F5F5F5F5F5F5F5F5F5F5F5F5F5F5F5F5F5F5F5F5F5F5F5F5F5F5F5F5F5F5F5F5F5F5F5F5F5F5F5F5F5F5F5F5F5F5E2F5F5E2E2E2F5F5F5F5F5F5F5F5F5F5F5F5F5F5F5F5F5F5F5F5F5F5F5F5F5F5F5F5F5F5F5F5F5F5F5F5F5F5F5F5F5F5F5F5F5F5F5F5
310
F5F5F5F5F5F5F5F5F5F5F5F5F5F5F5F5F5F5F5F5F5F5F5F5F5F5F5F5F5F5F5F5F5F5F5F5F5F5F5F5F5F5F5F5F5F5F5F5F5F5F5F5F5F5F5F5F5F5F5F5F5F5F5F5F5F5F5F5F5F5F5F5F5F5F5F5F5F5F5F5F5F5F5F5F5F5F5F5F5F5F5F5F5F5F5F5F5F5F5F5F5F5F5F5F5F5F5F5F5F5F5F5F5F5F5F5F5F5F5F5F5F5F5F5F5F5F5
310
F5F5E2E2E2F5F5F5F5F5F5F5F5F5F5F5F5F5F5F5F5F5F5F5F5F5F5F5F5F5F5F5F5F5F5F5F5F5F5F5F5F5F5F5F5F5F5F5F5F5F5F5F5F5F5F5F5F5F5F5F5F5F5F5F5F5F5F5F5F5F5F5F5F5F5F5F5F5F5F5F5F5F5F5F5F5F5F5F5F5F5F5F5F5F5F5F5F5F5F5F5F5F5F5F5F5F5F5F5F5F5F5F5F5F5F5F5F5F5F5F5F5F5F5F5F5F5
310
F5F5F5F5F5F5F5F5F5F5F5F5F5F5F5F5F5F5F5F5F5F5F5F5F5F5F5F5F5F5F5F5F5F5F5F5F5F5F5F5F5F5F5F5F5F5F5F5F5F5F5F5F5F5F5E2E2E2F5F5F5F5F5F5F5F5F5F5F5F5F5F5F5F5F5F5F5F5F5F5F5F5F5F5F5F5F5F5F5F5F5F5F5F5F5F5F5F5F5F5F5F5F5F5F5F5F5F5F5F5F5F5F5F5F5F5F5F5F5F5F5F5F5F5F5F5F5
310
F5F5F5F5F5F5F5F5F5F5F5F5F5F5F5F5F5F5F5F5F5F5F5F5F5F5F5F5F5F5F5F5F5F5F5F5F5F5F5F5F5F5F5F5F5F5F5F5F5F5F5F5F5F5F5F5F5F5F5F5F5F5F5F5F5F5F5F5F5F5F5F5F5F5F5F5F5F5F5F5F5F5F5F5F5F5F5F5F5F5F5F5F5F5F5F5F5F5F5F5F5F5F5F5F5F5F5F5E2E2E2F5F5F5F5F5F5F5F5F5F5F5F5F5F5F5F5
310
F5F5F5F5F5F5F5F5F5F5F5F5F5F5F5F5F5F5F5F5F5F5F5F5F5F5F5F5F5F5F5F5F5F5F5F5F5F5F5F5F5F5F5F5F5F5F5F5F5F5F5F5F5F5F5F5F5F5F5F5F5F5F5F5F5F5F5F5F5F5F5F5F5F5F5F5F5F5F5F5F5F5F5F5F5F5F5F5F5F5F5F5F5F5F5F5F5F5F5F5F5F5F5F5F5F5F5F5F5F5F5F5F5F5F5F5F5F5F5F5F5F5F5F5F5F5F5
310
F5F5F5F5F5F5F5F5F5F5F5F5F5F5F5F5F5F5F5F5F5F5F5F5F5F5F5F5F5F5F5F5F5F5E2E2E2F5F5F5F5F5F5F5F5F5F5F5F5F5F5F5F5F5F5F5F5F5F5F5F5F5F5F5F5F5F5F5F5F5F5F5F5F5F5F5F5F5F5F5F5F5F5F5F5F5F5F5F5F5F5F5F5F5F5F5F5F5F5F5F5F5F5F5F5F5F5F5F5F5F5F5F5F5F5F5F5F5F5F5F5F5F5F5F5F5F5
310
F5F5F5F5F5F5F5F5F5F5F5F5F5F5F5F5F5F5F5F5F5F5F5F5F5F5F5F5F5F5F5F5F5F5F5F5F5F5F5F5F5F5F5F5F5F5F5F5F5F5F5F5F5F5F5F5F5F5F5F5F5F5F5F5F5F5F5F5F5F5F5F5F5F5F5F5F5F5F5F5F5F5F5F5F5F5F5E2E2E2F5F5F5F5F5F5F5F5F5F5F5F5F5F5F5F5F5F5F5F5F5F5F5F5F5F5F5F5F5F5F5F5F5F5F5F5F5
310
F5F5F5F5F5F5F5F5F5F5F5F5F5F5F5F5F5F5F5F5F5F5F5F5F5F5F5F5F5F5F5F5F5F5F5F5F5F5F5F5F5F5F5F5F5F5F5F5F5F5F5F5F5F5F5F5F5F5F5F5F5F5F5F5F5F5F5F5F5F5F5F5F5F5F5F5F5F5F5F5F5F5F5F5F5F5F5F5F5F5F5F5F5F5F5F5F5F5F5F5F5F5F5F5F5F5F5F5F5F5F5F5F5F5F5F5F5F5F5F5F5F5F5F5F5F5F5
310
F5F5F5F5F5F5F5F5F5F5F5F5F5E2E2E2F5F5F5F5F5F5F5F5F5F5F5F5F5F5F5F5F5F5F5F5F5F5F5F5F5F5F5F5F5F5F5F5F5F5F5F5F5F5F5F5F5F5F5F5F5F5F5F5F5F5F5F5F5F5F5F5F5F5F5F5F5F5F5F5F5F5F5F5F5F5F5F5F5F5F5F5F5F5F5F5F5F5F5F5F5F5F5F5F5F5F5F5F5F5F5F5F5F5F5F5F5F5F5F5F5F5F5F5F5F5F5
310
F5F5F5F5F5F5F5F5F5F5F5F5F5F5F5F5F5F5F5F5F5F5F5F5F5F5F5F5F5F5F5F5F5F5F5F5F5F5F5F5F5F5F5F5F5F5F5F5F5F5F5F5F5F5F5F5F5F5F5F5F5F5F5F5F5F5E2E2E2F5F5F5F5F5F5F5F5F5F5F5F5F5F5F5F5F5F5F5F5F5F5F5F5F5F5F5F5F5F5F5F5F5F5F5F5F5F5F5F5F5F5F5F5F5F5F5F5F5F5F5F5F5F5F5F5F5F5
310
F5F5F5F5F5F5F5F5F5F5F5F5F5F5F5F5F5F5F5F5F5F5F5F5F5F5F5F5F5F5F5F5F5F5F5F5F5F5F5F5F5F5F5F5F5F5F5F5F5F5F5F5F5F5F5F5F5F5F5F5F5F5F5F5F5F5F5F5F5F5F5F5F5F5F5F5F5F5F5F5F5F5F5F5F5F5F5F5F5F5F5F5F5F5F5F5F5F5F5F5F5F5F5F5F5F5F5F5F5F5F5F5F5F5F5F5F5F5F5E2E2E2F5F5F5F5F5
310
F5F5F5F5F5F5F5F5F5F5F5F5F5F5F5F5F5F5F5F5F5F5F5F5F5F5F5F5F5F5F5F5F5F5F5F5F5F5F5F5F5F5F5F5F5F5F5F5F5F5F5F5F5F5F5F5F5F5F5F5F5F5F5F5F5F5F5F5F5F5F5F5F5F5F5F5F5F5F5F5F5F5F5F5F5F5F5F5F5F5F5F5F5F5F5F5F5F5F5F5F5F5F5F5F5F5F5F5F5F5F5F5F5F5F5F5F5F5F5F5F5F5F5F5F5F5F5
310
F5F5F5F5F5F5F5F5F5F5F5F5F5F5F5F5F5F5F5F5F5F5F5F5F5F5F5F5F5F5F5F5F5F5F5F5F5F5F5F5F5F5F5F5F5E2E2E2F5F5E2F5F5F5F5F5F5F5F5F5F5F5F5F5F5F5F5F5F5F5F5F5F5F5F5F5F5F5F5F5F5F5F5F5F5F5F5F5F5F5F5F5F5F5F5F5F5F5F5F5F5F5F5F5F5F5F5F5F5F5F5F5F5F5F5F5F5F5F5F5F5F5F5F5F5F5F5
310
F5F5F5F5F5F5F5F5F5F5F5F5F5F5F5F5F5F5F5F5F5F5F5F5F5F5F5F5F5F5F5F5F5F5F5F5F5F5F5F5F5F5F5F5F5F5F5F5F5F5F5F5F5F5F5F5F5F5F5F5F5F5F5F5F5F5F5F5F5F5F5F5F5F5F5F5F5F5F5F5F5F5F5F5F5F5F5F5F5F5F5F5F5F5F5E2F5F5E2E2E2F5F5E2F5F5F5F5F5F5F5F5F5F5F5F5F5F5F5F5F5F5F5F5F5F5F5
310
F5F5F5F5F5F5F5F5F5F5F5F5F5F5F5F5F5F5F5F5F5F5F5F5F5F5F5F5F5F5F5F5F5F5F5F5F5F5F5F5F5F5F5F5F5F5F5F5F5F5F5F5F5F5F5F5F5F5F5F5F5F5F5F5F5F5F5F5F5F5F5F5F5F5F5F5F5F5F5F5F5F5F5F5F5F5F5F5F5F5F5F5F5F5F5F5F5F5F5F5F5F5F5F5F5F5F5F5F5F5F5F5F5F5F5F5F5F5F5F5F5F5F5F5F5F5F5
310
F5F5F5F5F5F5F5F5F5F5F5F5F5F5F5F5F5F5F5F5F5E2F5F5E2E2E2F5F5E2F5F5F5F5F5F5F5F5F5F5F5F5F5F5F5F5F5F5F5F5F5F5F5F5F5F5F5F5F5F5F5F5F5F5F5F5F5F5F5F5F5F5F5F5F5F5F5F5F5F5F5F5F5F5F5F5F5F5F5F5F5F5F5F5F5F5F5F5F5F5F5F5F5F5F5F5F5F5F5F5F5F5F5F5F5F5F5F5F5F5F5F5F5F5F5F5F5
310
F5F5F5F5F5F5F5F5F5F5F5F5F5F5F5F5F5F5F5F5F5F5F5F5F5F5F5F5F5F5F5F5F5F5F5F5F5F5F5F5F5F5F5F5F5F5F5F5F5F5F5F5F5F5F5F5F5F5F5F5F5F5F5F5F5F5F5F5F5F5F5F5F5F5E2F5F5E2E2E2F5F5E2F5F5F5F5F5F5F5F5F5F5F5F5F5F5F5F5F5F5F5F5F5F5F5F5F5F5F5F5F5F5F5F5F5F5F5F5F5F5F5F5F5F5F5F5
310
F5F5F5F5F5F5F5F5F5F5F5F5F5F5F5F5F5F5F5F5F5F5F5F5F5F5F5F5F5F5F5F5F5F5F5F5F5F5F5F5F5F5F5F5F5F5F5F5F5F5F5F5F5F5F5F5F5F5F5F5F5F5F5F5F5F5F5F5F5F5F5F5F5F5F5F5F5F5F5F5F5F5F5F5F5F5F5F5F5F5F5F5F5F5F5F5F5F5F5F5F5F5F5F5F5F5F5F5F5F5F5F5F5F5F5F5F5F5F5F5F5F5F5F5F5F5F5
310
E2F5F5E2E2E2F5F5E2F5F5F5F5F5F5F5F5F5F5F5F5F5F5F5F5F5F5F5F5F5F5F5F5F5F5F5F5F5F5F5F5F5F5F5F5F5F5F5F5F5F5F5F5F5F5F5F5F5F5F5F5F5F5F5F5F5F5F5F5F5F5F5F5F5F5F5F5F5F5F5F5F5F5F5F5F5F5F5F5F5F5F5F5F5F5F5F5F5F5F5F5F5F5F5F5F5F5F5F5F5F5F5F5F5F5F5F5F5F5F5F5F5F5F5F5F5F5
310
F5F5F5F5F5F5F5F5F5F5F5F5F5F5F5F5F5F5F5F5F5F5F5F5F5F5F5F5F5F5F5F5F5F5F5F5F5F5F5F5F5F5F5F5F5F5F5F5F5F5F5F5F5E2F5F5E2E2E2F5F5E2F5F5F5F5F5F5F5F5F5F5F5F5F5F5F5F5F5F5F5F5F5F5F5F5F5F5F5F5F5F5F5F5F5F5F5F5F5F5F5F5F5F5F5F5F5F5F5F5F5F5F5F5F5F5F5F5F5F5F5F5F5F5F5F5F5
310
F5F5F5F5F5F5F5F5F5F5F5F5F5F5F5F5F5F5F5F5F5F5F5F5F5F5F5F5F5F5F5F5F5F5F5F5F5F5F5F5F5F5F5F5F5F5F5F5F5F5F5F5F5F5F5F5F5F5F5F5F5F5F5F5F5F5F5F5F5F5F5F5F5F5F5F5F5F5F5F5F5F5F5F5F5F5F5F5F5F5F5F5F5F5F5F5F5F5F5F5F5F5F5F5F5F5E2F5F5E2E2E2F5F5E2F5F5F5F5F5F5F5F5F5F5F5F5
310
F5F5F5F5F5F5F5F5F5F5F5F5F5F5F5F5F5F5F5F5F5F5F5F5F5F5F5F5F5F5F5F5F5F5F5F5F5F5F5F5F5F5F5F5F5F5F5F5F5F5F5F5F5F5F5F5F5F5F5F5F5F5F5F5F5F5F5F5F5F5F5F5F5F5F5F5F5F5F5F5F5F5F5F5F5F5F5F5F5F5F5F5F5F5F5F5F5F5F5F5F5F5F5F5F5F5F5F5F5F5F5F5F5F5F5F5F5F5F5F5F5F5F5F5F5F5F5
310
F5F5F5F5F5F5F5F5F5F5F5F5F5F5F5F5F5F5F5F5F5F5F5F5F5F5F5F5F5F5F5F5E2F5F5E2E2E2F5F5E2E2E2E2E2E2E2E2F5F5F5F5F5F5F5F5F5E2E2E2E2E2E2E2E2E2E2E2E2E2E2E2E2F5F5F5F5F5F5F5F5F5E2E2E2E2E2E2E2E2E2E2E2E2E2E2E2E2F5F5F5F5F5F5F5F5E2E2E2E2E2E2E2E2E2E2E2E2E2E2E2E2F5F5F5F5F5
310
F5F5F5F5E2E2E2E2E2E2E2E2E2E2E2E2E2E2E2E2F5F5F5F5F5F5F5F5E2E2E2E2E2E2E2E2E2E2E2E2E2E2E2E2F5F5F5F5F5F5F5F5F5E2E2E2E2E2E2E2E2E2E2E2E2E2E2E2E2F5F5F5F5F5F5F5F5F5E2E2E2E2E2E2E2E2F5F5E2E2E2F5F5F5F5F5F5F5F5F5F5F5F5F5F5F5F5F5F5F5F5F5F5F5F5F5F5F5F5F5F5F5F5F5F5F5F5
310
F5F5F5F5F5F5F5F5F5F5F5F5F5F5F5F5F5F5F5F5F5F5F5F5F5F5F5F5F5F5F5F5F5F5F5F5F5F5F5F5F5F5F5F5F5F5F5F5F5F5F5F5F5F5F5F5F5F5F5F5F5F5F5F5F5F5F5F5F5F5F5F5F5F5F5F5F5F5F5F5F5F5F5F5F5F5F5F5F5F5F5F5F5F5F5F5F5F5F5F5F5F5F5F5F5F5F5F5F5F5F5F5F5F5F5F5F5F5F5F5F5F5F5F5F5F5F5
310
F5F5F5F5F5F5F5F5F5F5F5F5F5F5E2E2E2F5F5F5F5F5F5F5F5F5F5F5F5F5F5F5F5F5F5F5F5F5F5F5F5F5F5F5F5F5F5F5F5F5F5F5F5F5F5F5F5F5F5F5F5F5F5F5F5F5F5F5F5F5F5F5F5F5F5F5F5F5F5F5F5F5F5F5F5F5F5F5F5F5F5F5F5F5F5F5F5F5F5F5F5F5F5F5F5F5F5F5F5F5F5F5F5F5F5F5F5F5F5F5F5F5F5F5F5F5F5
310
F5F5F5F5F5F5F5F5F5F5F5F5F5F5F5F5F5F5F5F5F5F5F5F5F5F5F5F5F5F5F5F5F5F5F5F5F5F5F5F5F5F5F5F5F5F5F5F5F5F5F5F5F5F5F5F5F5F5F5F5F5F5F5F5F5F5F5E2E2E2F5F5F5F5F5F5F5F5F5F5F5F5F5F5F5F5F5F5F5F5F5F5F5F5F5F5F5F5F5F5F5F5F5F5F5F5F5F5F5F5F5F5F5F5F5F5F5F5F5F5F5F5F5F5F5F5F5
310
F5F5F5F5F5F5F5F5F5F5F5F5F5F5F5F5F5F5F5F5F5F5F5F5F5F5F5F5F5F5F5F5F5F5F5F5F5F5F5F5F5F5F5F5F5F5F5F5F5F5F5F5F5F5F5F5F5F5F5F5F5F5F5F5F5F5F5F5F5F5F5F5F5F5F5F5F5F5F5F5F5F5F5F5F5F5F5F5F5F5F5F5F5F5F5F5F5F5F5F5F5F5F5F5F5F5F5F5F5F5F5F5F5F5F5F5F5F5F5F5E2EFE2E2E2E2E2
310
E2E2E2E2E2E2E2E2E2E2E2E2E2E2E2E2E2E2E2E2E2E2E2E2E2E2E2E2E2E2E2E2E2E2E2E2E2E2E2E2E2E2E2E2E2E2E2E2E2E2E2E2E2E2E2E2E2E2E2E2E2E2E2E2E2E2E2E2E2E2E2E2E2E2E2E2E2E2E2E2E2E2E2E2E2E2E2E2E2E2E2E2E2E2E2E2E2E2E2E2E2E2E2E2E2E2E2E2E2E2E2E2E2E2E2E2E2E2E2E2E2E2E2E2E2E2E2
310
E2E2E2E2E2E2E2E2E2E2E2E2E2E2E2E2E2E2E2E2E2E2E2E2E2E2E2E2E2E2E2E2E2E2E2E2E2E2E2E2E2E2E2E2E2E2E2EF
  0
XRECORD
  5
74F4
102
{ACAD_REACTORS
330
74F3
102
}
330
74F3
100
AcDbXrecord
280
     1
102
MATERIAL
148
0.0
149
0.0
149
0.0
 93
        0
 94
       63
282
     0
 72
     1
 77
     1
171
     1
175
     1
179
     1
273
     0
  0
XRECORD
  5
74F2
102
{ACAD_REACTORS
330
74F1
102
}
330
74F1
100
AcDbXrecord
280
     1
102
MATERIAL
148
0.0
149
0.0
149
0.0
 93
        0
 94
       63
282
     0
 72
     1
 77
     1
171
     1
175
     1
179
     1
273
     0
  0
XRECORD
  5
74F6
102
{ACAD_REACTORS
330
74F5
102
}
330
74F5
100
AcDbXrecord
280
     1
102
MATERIAL
148
0.0
149
0.0
149
0.0
 93
        0
 94
       63
282
     0
 72
     1
 77
     1
171
     1
175
     1
179
     1
273
     0
  0
CELLSTYLEMAP
  5
74EE
102
{ACAD_REACTORS
330
4C0B
102
}
330
4C0B
100
AcDbCellStyleMap
 90
        3
300
CELLSTYLE
  1
TABLEFORMAT_BEGIN
 90
        5
170
     1
 91
        0
 92
    32768
 62
   257
 93
        1
300
CONTENTFORMAT
  1
CONTENTFORMAT_BEGIN
 90
        0
 91
        0
 92
        4
 93
        0
300

 40
0.0
140
1.0
 94
        5
 62
     0
340
11
144
6.0
309
CONTENTFORMAT_END
171
     1
301
MARGIN
  1
CELLMARGIN_BEGIN
 40
1.5
 40
1.5
 40
1.5
 40
1.5
 40
0.18
 40
0.18
309
CELLMARGIN_END
 94
        6
 95
        1
302
GRIDFORMAT
  1
GRIDFORMAT_BEGIN
 90
        0
 91
        1
 62
     0
 92
       -2
340
0
 93
        0
 40
0.045
309
GRIDFORMAT_END
 95
        2
302
GRIDFORMAT
  1
GRIDFORMAT_BEGIN
 90
        0
 91
        1
 62
     0
 92
       -2
340
0
 93
        0
 40
0.045
309
GRIDFORMAT_END
 95
        4
302
GRIDFORMAT
  1
GRIDFORMAT_BEGIN
 90
        0
 91
        1
 62
     0
 92
       -2
340
0
 93
        0
 40
0.045
309
GRIDFORMAT_END
 95
        8
302
GRIDFORMAT
  1
GRIDFORMAT_BEGIN
 90
        0
 91
        1
 62
     0
 92
       -2
340
0
 93
        0
 40
0.045
309
GRIDFORMAT_END
 95
       16
302
GRIDFORMAT
  1
GRIDFORMAT_BEGIN
 90
        0
 91
        1
 62
     0
 92
       -2
340
0
 93
        0
 40
0.045
309
GRIDFORMAT_END
 95
       32
302
GRIDFORMAT
  1
GRIDFORMAT_BEGIN
 90
        0
 91
        1
 62
     0
 92
       -2
340
0
 93
        0
 40
0.045
309
GRIDFORMAT_END
309
TABLEFORMAT_END
  1
CELLSTYLE_BEGIN
 90
        1
 91
        1
300
_TITLE
309
CELLSTYLE_END
300
CELLSTYLE
  1
TABLEFORMAT_BEGIN
 90
        5
170
     1
 91
        0
 92
        0
 62
   257
 93
        1
300
CONTENTFORMAT
  1
CONTENTFORMAT_BEGIN
 90
        0
 91
        0
 92
        4
 93
        0
300

 40
0.0
140
1.0
 94
        5
 62
     0
340
11
144
4.5
309
CONTENTFORMAT_END
171
     1
301
MARGIN
  1
CELLMARGIN_BEGIN
 40
1.5
 40
1.5
 40
1.5
 40
1.5
 40
0.18
 40
0.18
309
CELLMARGIN_END
 94
        6
 95
        1
302
GRIDFORMAT
  1
GRIDFORMAT_BEGIN
 90
        0
 91
        1
 62
     0
 92
       -2
340
0
 93
        0
 40
0.045
309
GRIDFORMAT_END
 95
        2
302
GRIDFORMAT
  1
GRIDFORMAT_BEGIN
 90
        0
 91
        1
 62
     0
 92
       -2
340
0
 93
        0
 40
0.045
309
GRIDFORMAT_END
 95
        4
302
GRIDFORMAT
  1
GRIDFORMAT_BEGIN
 90
        0
 91
        1
 62
     0
 92
       -2
340
0
 93
        0
 40
0.045
309
GRIDFORMAT_END
 95
        8
302
GRIDFORMAT
  1
GRIDFORMAT_BEGIN
 90
        0
 91
        1
 62
     0
 92
       -2
340
0
 93
        0
 40
0.045
309
GRIDFORMAT_END
 95
       16
302
GRIDFORMAT
  1
GRIDFORMAT_BEGIN
 90
        0
 91
        1
 62
     0
 92
       -2
340
0
 93
        0
 40
0.045
309
GRIDFORMAT_END
 95
       32
302
GRIDFORMAT
  1
GRIDFORMAT_BEGIN
 90
        0
 91
        1
 62
     0
 92
       -2
340
0
 93
        0
 40
0.045
309
GRIDFORMAT_END
309
TABLEFORMAT_END
  1
CELLSTYLE_BEGIN
 90
        2
 91
        1
300
_HEADER
309
CELLSTYLE_END
300
CELLSTYLE
  1
TABLEFORMAT_BEGIN
 90
        5
170
     1
 91
        0
 92
        0
 62
   257
 93
        1
300
CONTENTFORMAT
  1
CONTENTFORMAT_BEGIN
 90
        0
 91
        0
 92
        4
 93
        0
300

 40
0.0
140
1.0
 94
        2
 62
     0
340
11
144
4.5
309
CONTENTFORMAT_END
171
     1
301
MARGIN
  1
CELLMARGIN_BEGIN
 40
1.5
 40
1.5
 40
1.5
 40
1.5
 40
0.18
 40
0.18
309
CELLMARGIN_END
 94
        6
 95
        1
302
GRIDFORMAT
  1
GRIDFORMAT_BEGIN
 90
        0
 91
        1
 62
     0
 92
       -2
340
0
 93
        0
 40
0.045
309
GRIDFORMAT_END
 95
        2
302
GRIDFORMAT
  1
GRIDFORMAT_BEGIN
 90
        0
 91
        1
 62
     0
 92
       -2
340
0
 93
        0
 40
0.045
309
GRIDFORMAT_END
 95
        4
302
GRIDFORMAT
  1
GRIDFORMAT_BEGIN
 90
        0
 91
        1
 62
     0
 92
       -2
340
0
 93
        0
 40
0.045
309
GRIDFORMAT_END
 95
        8
302
GRIDFORMAT
  1
GRIDFORMAT_BEGIN
 90
        0
 91
        1
 62
     0
 92
       -2
340
0
 93
        0
 40
0.045
309
GRIDFORMAT_END
 95
       16
302
GRIDFORMAT
  1
GRIDFORMAT_BEGIN
 90
        0
 91
        1
 62
     0
 92
       -2
340
0
 93
        0
 40
0.045
309
GRIDFORMAT_END
 95
       32
302
GRIDFORMAT
  1
GRIDFORMAT_BEGIN
 90
        0
 91
        1
 62
     0
 92
       -2
340
0
 93
        0
 40
0.045
309
GRIDFORMAT_END
309
TABLEFORMAT_END
  1
CELLSTYLE_BEGIN
 90
        3
 91
        2
300
_DATA
309
CELLSTYLE_END
  0
XRECORD
  5
74F0
102
{ACAD_REACTORS
330
4C0B
102
}
330
4C0B
100
AcDbXrecord
280
     1
102
ACAD_ROUNDTRIP_PRE2007_TABLESTYLE
 90
        4
 91
        0
  1

 92
        4
 93
        0
  2

 94
        4
 95
        0
  3

  0
ENDSEC
  0
EOF
