  0
SECTION
  2
HEADER
  9
$ACADVER
  1
AC1015
  9
$ACADMAINTVER
 70
    20
  9
$DWGCODEPAGE
  3
ANSI_1252
  9
$INSBASE
 10
0.0
 20
0.0
 30
0.0
  9
$EXTMIN
 10
6911.848318135134
 20
-1785.459537202871
 30
-0.0015258207003583
  9
$EXTMAX
 10
8203.894672481224
 20
1192.855329073152
 30
0.0000000349246037
  9
$LIMMIN
 10
-1091.180495341761
 20
-619.6501650024412
  9
$LIMMAX
 10
1056.97244419739
 20
951.0353648293053
  9
$ORTHOMODE
 70
     1
  9
$REGENMODE
 70
     1
  9
$FILLMODE
 70
     1
  9
$QTEXTMODE
 70
     0
  9
$MIRRTEXT
 70
     1
  9
$LTSCALE
 40
1.0
  9
$ATTMODE
 70
     1
  9
$TEXTSIZE
 40
250.0
  9
$TRACEWID
 40
0.05
  9
$TEXTSTYLE
  7
VOESTB
  9
$CLAYER
  8
KOTIERUNG
  9
$CELTYPE
  6
BYLAYER
  9
$CECOLOR
 62
   256
  9
$CELTSCALE
 40
1.0
  9
$DISPSILH
 70
     0
  9
$DIMSCALE
 40
142.85
  9
$DIMASZ
 40
0.25
  9
$DIMEXO
 40
0.5
  9
$DIMDLI
 40
0.5
  9
$DIMRND
 40
0.0
  9
$DIMDLE
 40
0.0
  9
$DIMEXE
 40
0.25
  9
$DIMTP
 40
0.0
  9
$DIMTM
 40
0.0
  9
$DIMTXT
 40
0.25
  9
$DIMCEN
 40
0.09
  9
$DIMTSZ
 40
0.0
  9
$DIMTOL
 70
     0
  9
$DIMLIM
 70
     0
  9
$DIMTIH
 70
     0
  9
$DIMTOH
 70
     0
  9
$DIMSE1
 70
     0
  9
$DIMSE2
 70
     0
  9
$DIMTAD
 70
     1
  9
$DIMZIN
 70
     0
  9
$DIMBLK
  1

  9
$DIMASO
 70
     1
  9
$DIMSHO
 70
     1
  9
$DIMPOST
  1

  9
$DIMAPOST
  1

  9
$DIMALT
 70
     0
  9
$DIMALTD
 70
     2
  9
$DIMALTF
 40
25.4
  9
$DIMLFAC
 40
1.0
  9
$DIMTOFL
 70
     0
  9
$DIMTVP
 40
0.0
  9
$DIMTIX
 70
     0
  9
$DIMSOXD
 70
     0
  9
$DIMSAH
 70
     0
  9
$DIMBLK1
  1

  9
$DIMBLK2
  1

  9
$DIMSTYLE
  2
TYPENBLATT_M10
  9
$DIMCLRD
 70
     0
  9
$DIMCLRE
 70
   256
  9
$DIMCLRT
 70
     0
  9
$DIMTFAC
 40
1.0
  9
$DIMGAP
 40
0.075
  9
$DIMJUST
 70
     0
  9
$DIMSD1
 70
     0
  9
$DIMSD2
 70
     0
  9
$DIMTOLJ
 70
     1
  9
$DIMTZIN
 70
     0
  9
$DIMALTZ
 70
     0
  9
$DIMALTTZ
 70
     0
  9
$DIMUPT
 70
     0
  9
$DIMDEC
 70
     0
  9
$DIMTDEC
 70
     0
  9
$DIMALTU
 70
     2
  9
$DIMALTTD
 70
     2
  9
$DIMTXSTY
  7
VOEST
  9
$DIMAUNIT
 70
     0
  9
$DIMADEC
 70
     0
  9
$DIMALTRND
 40
0.0
  9
$DIMAZIN
 70
     0
  9
$DIMDSEP
 70
    46
  9
$DIMATFIT
 70
     3
  9
$DIMFRAC
 70
     0
  9
$DIMLDRBLK
  1

  9
$DIMLUNIT
 70
     2
  9
$DIMLWD
 70
    -2
  9
$DIMLWE
 70
    -2
  9
$DIMTMOVE
 70
     0
  9
$LUNITS
 70
     2
  9
$LUPREC
 70
     4
  9
$SKETCHINC
 40
0.1
  9
$FILLETRAD
 40
0.0
  9
$AUNITS
 70
     0
  9
$AUPREC
 70
     4
  9
$MENU
  1
acad
  9
$ELEVATION
 40
0.0
  9
$PELEVATION
 40
0.0
  9
$THICKNESS
 40
0.0
  9
$LIMCHECK
 70
     0
  9
$CHAMFERA
 40
0.0
  9
$CHAMFERB
 40
0.0
  9
$CHAMFERC
 40
1.0
  9
$CHAMFERD
 40
0.0
  9
$SKPOLY
 70
     0
  9
$TDCREATE
 40
2451353.418328530
  9
$TDUCREATE
 40
2451353.376661864
  9
$TDUPDATE
 40
2453077.385710892
  9
$TDUUPDATE
 40
2453077.344044225
  9
$TDINDWG
 40
7.1763990856
  9
$TDUSRTIMER
 40
7.1763990856
  9
$USRTIMER
 70
     1
  9
$ANGBASE
 50
0.0
  9
$ANGDIR
 70
     0
  9
$PDMODE
 70
     0
  9
$PDSIZE
 40
0.0
  9
$PLINEWID
 40
0.0
  9
$SPLFRAME
 70
     0
  9
$SPLINETYPE
 70
     6
  9
$SPLINESEGS
 70
  2000
  9
$HANDSEED
  5
8D38
  9
$SURFTAB1
 70
     6
  9
$SURFTAB2
 70
     6
  9
$SURFTYPE
 70
     6
  9
$SURFU
 70
     6
  9
$SURFV
 70
     6
  9
$UCSBASE
  2

  9
$UCSNAME
  2

  9
$UCSORG
 10
0.0
 20
0.0
 30
0.0
  9
$UCSXDIR
 10
1.0
 20
0.0
 30
0.0
  9
$UCSYDIR
 10
0.0
 20
1.0
 30
0.0
  9
$UCSORTHOREF
  2

  9
$UCSORTHOVIEW
 70
     0
  9
$UCSORGTOP
 10
0.0
 20
0.0
 30
0.0
  9
$UCSORGBOTTOM
 10
0.0
 20
0.0
 30
0.0
  9
$UCSORGLEFT
 10
0.0
 20
0.0
 30
0.0
  9
$UCSORGRIGHT
 10
0.0
 20
0.0
 30
0.0
  9
$UCSORGFRONT
 10
0.0
 20
0.0
 30
0.0
  9
$UCSORGBACK
 10
0.0
 20
0.0
 30
0.0
  9
$PUCSBASE
  2

  9
$PUCSNAME
  2

  9
$PUCSORG
 10
0.0
 20
0.0
 30
0.0
  9
$PUCSXDIR
 10
1.0
 20
0.0
 30
0.0
  9
$PUCSYDIR
 10
0.0
 20
1.0
 30
0.0
  9
$PUCSORTHOREF
  2

  9
$PUCSORTHOVIEW
 70
     0
  9
$PUCSORGTOP
 10
0.0
 20
0.0
 30
0.0
  9
$PUCSORGBOTTOM
 10
0.0
 20
0.0
 30
0.0
  9
$PUCSORGLEFT
 10
0.0
 20
0.0
 30
0.0
  9
$PUCSORGRIGHT
 10
0.0
 20
0.0
 30
0.0
  9
$PUCSORGFRONT
 10
0.0
 20
0.0
 30
0.0
  9
$PUCSORGBACK
 10
0.0
 20
0.0
 30
0.0
  9
$USERI1
 70
     0
  9
$USERI2
 70
     0
  9
$USERI3
 70
     0
  9
$USERI4
 70
     0
  9
$USERI5
 70
     0
  9
$USERR1
 40
0.0
  9
$USERR2
 40
0.0
  9
$USERR3
 40
0.0
  9
$USERR4
 40
0.0
  9
$USERR5
 40
0.0
  9
$WORLDVIEW
 70
     1
  9
$SHADEDGE
 70
     3
  9
$SHADEDIF
 70
    70
  9
$TILEMODE
 70
     0
  9
$MAXACTVP
 70
    48
  9
$PINSBASE
 10
0.0
 20
0.0
 30
0.0
  9
$PLIMCHECK
 70
     0
  9
$PEXTMIN
 10
25.2631664434597
 20
22.83473931200745
 30
0.0
  9
$PEXTMAX
 10
249.6262782967595
 20
289.5940023399687
 30
0.0
  9
$PLIMMIN
 10
9.791843528675007
 20
11.6474337973999
  9
$PLIMMAX
 10
221.4150420533812
 20
310.9065324048188
  9
$UNITMODE
 70
     0
  9
$VISRETAIN
 70
     1
  9
$PLINEGEN
 70
     0
  9
$PSLTSCALE
 70
     1
  9
$TREEDEPTH
 70
  3020
  9
$CMLSTYLE
  2
STANDARD
  9
$CMLJUST
 70
     0
  9
$CMLSCALE
 40
1.0
  9
$PROXYGRAPHICS
 70
     1
  9
$MEASUREMENT
 70
     0
  9
$CELWEIGHT
370
    -1
  9
$ENDCAPS
280
     0
  9
$JOINSTYLE
280
     0
  9
$LWDISPLAY
290
     1
  9
$INSUNITS
 70
     0
  9
$HYPERLINKBASE
  1

  9
$STYLESHEET
  1

  9
$XEDIT
290
     1
  9
$CEPSNTYPE
380
     0
  9
$PSTYLEMODE
290
     1
  9
$FINGERPRINTGUID
  2
{9534987B-55C5-11D5-8B32-0050046A49B2}
  9
$VERSIONGUID
  2
{D96F5FCE-08DC-4772-9525-4005D89B0B4F}
  9
$EXTNAMES
290
     1
  9
$PSVPSCALE
 40
0.0
  9
$OLESTARTUP
290
     0
  0
ENDSEC
  0
SECTION
  2
CLASSES
  0
CLASS
  1
DICTIONARYVAR
  2
AcDbDictionaryVar
  3
ObjectDBX Classes
 90
        0
280
     0
281
     0
  0
CLASS
  1
ACDBDICTIONARYWDFLT
  2
AcDbDictionaryWithDefault
  3
ObjectDBX Classes
 90
        0
280
     0
281
     0
  0
CLASS
  1
ACDBPLACEHOLDER
  2
AcDbPlaceHolder
  3
ObjectDBX Classes
 90
        0
280
     0
281
     0
  0
CLASS
  1
LAYOUT
  2
AcDbLayout
  3
ObjectDBX Classes
 90
        0
280
     0
281
     0
  0
ENDSEC
  0
SECTION
  2
TABLES
  0
TABLE
  2
VPORT
  5
8
330
0
100
AcDbSymbolTable
 70
     2
  0
VPORT
  5
8D2A
330
8
100
AcDbSymbolTableRecord
100
AcDbViewportTableRecord
  2
*Active
 70
     0
 10
0.0
 20
0.0
 11
1.0
 21
1.0
 12
7557.871495308178
 22
-296.3021040648596
 13
0.0
 23
0.0
 14
0.5
 24
0.5
 15
0.5
 25
0.5
 16
0.0
 26
0.0
 36
1.0
 17
0.0
 27
0.0
 37
0.0
 40
3000.708211135242
 41
1.514429109159347
 42
50.0
 43
0.0
 44
0.0
 50
0.0
 51
0.0
 71
     0
 72
  5000
 73
     1
 74
     1
 75
     0
 76
     0
 77
     0
 78
     0
281
     0
 65
     1
110
0.0
120
0.0
130
0.0
111
1.0
121
0.0
131
0.0
112
0.0
122
1.0
132
0.0
 79
     0
146
0.0
  0
ENDTAB
  0
TABLE
  2
LTYPE
  5
5
330
0
100
AcDbSymbolTable
 70
     3
  0
LTYPE
  5
12
330
5
100
AcDbSymbolTableRecord
100
AcDbLinetypeTableRecord
  2
BYBLOCK
 70
     0
  3

 72
    65
 73
     0
 40
0.0
  0
LTYPE
  5
13
330
5
100
AcDbSymbolTableRecord
100
AcDbLinetypeTableRecord
  2
BYLAYER
 70
     0
  3

 72
    65
 73
     0
 40
0.0
  0
LTYPE
  5
14
330
5
100
AcDbSymbolTableRecord
100
AcDbLinetypeTableRecord
  2
CONTINUOUS
 70
     0
  3
Solid line
 72
    65
 73
     0
 40
0.0
  0
LTYPE
  5
222
330
5
100
AcDbSymbolTableRecord
100
AcDbLinetypeTableRecord
  2
STRICHPUNKT
 70
     0
  3
Strichpunkt __ . __ . __ . __ . __ . __ . __ . 
 72
    65
 73
     4
 40
25.4
 49
12.7
 74
     0
 49
-6.349999999999999
 74
     0
 49
0.0
 74
     0
 49
-6.349999999999999
 74
     0
  0
LTYPE
  5
223
330
5
100
AcDbSymbolTableRecord
100
AcDbLinetypeTableRecord
  2
STRICHLINIE
 70
     0
  3
Strichlinie __ __ __ __ __ __ __ __ __ __ __ __
 72
    65
 73
     2
 40
19.05
 49
12.7
 74
     0
 49
-6.349999999999999
 74
     0
  0
ENDTAB
  0
TABLE
  2
LAYER
  5
2
330
0
100
AcDbSymbolTable
 70
    15
  0
LAYER
  5
E
330
2
100
AcDbSymbolTableRecord
100
AcDbLayerTableRecord
  2
0
 70
     0
 62
     7
  6
CONTINUOUS
370
    -3
390
16EB
  0
LAYER
  5
4A
330
2
100
AcDbSymbolTableRecord
100
AcDbLayerTableRecord
  2
HILFSLINIEN
 70
     0
 62
     3
  6
CONTINUOUS
290
     0
370
    -3
390
16EB
  0
LAYER
  5
12F
330
2
100
AcDbSymbolTableRecord
100
AcDbLayerTableRecord
  2
25
 70
     0
 62
     7
  6
CONTINUOUS
370
    -3
390
16EB
  0
LAYER
  5
1DA
330
2
100
AcDbSymbolTableRecord
100
AcDbLayerTableRecord
  2
35
 70
     0
 62
     2
  6
CONTINUOUS
370
    -3
390
16EB
  0
LAYER
  5
224
330
2
100
AcDbSymbolTableRecord
100
AcDbLayerTableRecord
  2
KOTIERUNG
 70
     0
 62
     7
  6
CONTINUOUS
370
    -3
390
16EB
  0
LAYER
  5
225
330
2
100
AcDbSymbolTableRecord
100
AcDbLayerTableRecord
  2
DEFPOINTS
 70
     0
 62
     7
  6
CONTINUOUS
290
     0
370
    -3
390
16EB
  0
LAYER
  5
226
330
2
100
AcDbSymbolTableRecord
100
AcDbLayerTableRecord
  2
18
 70
     0
 62
     1
  6
CONTINUOUS
370
    -3
390
16EB
  0
LAYER
  5
425
330
2
100
AcDbSymbolTableRecord
100
AcDbLayerTableRecord
  2
50
 70
     0
 62
    33
  6
CONTINUOUS
370
    -3
390
16EB
  0
LAYER
  5
471
330
2
100
AcDbSymbolTableRecord
100
AcDbLayerTableRecord
  2
FENSTER
 70
     0
 62
     4
  6
CONTINUOUS
290
     0
370
    -3
390
16EB
  0
LAYER
  5
474
330
2
100
AcDbSymbolTableRecord
100
AcDbLayerTableRecord
  2
A4-BLATT
 70
     0
 62
     2
  6
CONTINUOUS
370
    -3
390
16EB
  0
LAYER
  5
14EF
330
2
100
AcDbSymbolTableRecord
100
AcDbLayerTableRecord
  2
BLATTTEXT
 70
     0
 62
     7
  6
CONTINUOUS
370
    -3
390
16EB
  0
LAYER
  5
1DA2
330
2
100
AcDbSymbolTableRecord
100
AcDbLayerTableRecord
  2
LS
 70
     0
 62
     2
  6
CONTINUOUS
370
    -3
390
16EB
  0
LAYER
  5
8BFE
330
2
100
AcDbSymbolTableRecord
100
AcDbLayerTableRecord
  2
BLATTHILFSLINIEN
 70
     0
 62
   252
  6
CONTINUOUS
290
     0
370
    -3
390
16EB
  0
LAYER
  5
8D14
330
2
100
AcDbSymbolTableRecord
100
AcDbLayerTableRecord
  2
TEXT
 70
     0
 62
     7
  6
CONTINUOUS
370
    -3
390
16EB
  0
LAYER
  5
8D15
330
2
100
AcDbSymbolTableRecord
100
AcDbLayerTableRecord
  2
70
 70
     0
 62
     5
  6
CONTINUOUS
370
    -3
390
16EB
  0
ENDTAB
  0
TABLE
  2
STYLE
  5
3
330
0
100
AcDbSymbolTable
 70
     7
  0
STYLE
  5
F
330
3
100
AcDbSymbolTableRecord
100
AcDbTextStyleTableRecord
  2
STANDARD
 70
     0
 40
0.0
 41
1.0
 50
0.0
 71
     0
 42
25.0
  3
ARIALN.TTF
  4

1001
ACAD
1000
Arial Narrow
1071
       34
  0
STYLE
  5
428
330
3
100
AcDbSymbolTableRecord
100
AcDbTextStyleTableRecord
  2
VOEST
 70
     0
 40
0.0
 41
1.0
 50
0.0
 71
     0
 42
4.0
  3
ARIALN.TTF
  4

1001
ACAD
1000
Arial Narrow
1071
       34
  0
STYLE
  5
14E5
330
3
100
AcDbSymbolTableRecord
100
AcDbTextStyleTableRecord
  2
ARIALFETT
 70
     0
 40
0.0
 41
1.0
 50
0.0
 71
     0
 42
4.0
  3
ARIALN.TTF
  4

1001
ACAD
1000
Arial Narrow
1071
       34
  0
STYLE
  5
16D3
330
3
100
AcDbSymbolTableRecord
100
AcDbTextStyleTableRecord
  2
VOESTB
 70
     0
 40
0.0
 41
1.0
 50
0.0
 71
     0
 42
250.0
  3
ARIALNB.TTF
  4

1001
ACAD
1000
Arial Narrow
1071
 33554466
  0
STYLE
  5
1F30
330
3
100
AcDbSymbolTableRecord
100
AcDbTextStyleTableRecord
  2
LOGO1
 70
     0
 40
0.0
 41
1.175
 50
0.0
 71
     0
 42
6.158564712355089
  3
swissb.ttf
  4

1001
ACAD
1000
Swis721 BT
1071
 33554466
  0
STYLE
  5
1F31
330
3
100
AcDbSymbolTableRecord
100
AcDbTextStyleTableRecord
  2
LOGO3
 70
     0
 40
0.0
 41
1.175
 50
0.0
 71
     0
 42
6.158564712355089
  3
swissel.ttf
  4

1001
ACAD
1000
Swis721 LtEx BT
1071
       34
  0
STYLE
  5
1F32
330
3
100
AcDbSymbolTableRecord
100
AcDbTextStyleTableRecord
  2
LOGO2
 70
     0
 40
0.0
 41
1.175
 50
0.0
 71
     0
 42
6.158564712355089
  3
swiss.ttf
  4

1001
ACAD
1000
Swis721 BT
1071
       34
  0
ENDTAB
  0
TABLE
  2
VIEW
  5
6
330
0
100
AcDbSymbolTable
 70
     0
  0
ENDTAB
  0
TABLE
  2
UCS
  5
7
330
0
100
AcDbSymbolTable
 70
     0
  0
ENDTAB
  0
TABLE
  2
APPID
  5
9
330
0
100
AcDbSymbolTable
 70
     5
  0
APPID
  5
10
330
9
100
AcDbSymbolTableRecord
100
AcDbRegAppTableRecord
  2
ACAD
 70
     0
  0
APPID
  5
24
330
9
100
AcDbSymbolTableRecord
100
AcDbRegAppTableRecord
  2
CONTENTTABDATA
 70
     0
  0
APPID
  5
25
330
9
100
AcDbSymbolTableRecord
100
AcDbRegAppTableRecord
  2
CONTENTCURRENTTAB
 70
     0
  0
APPID
  5
116
330
9
100
AcDbSymbolTableRecord
100
AcDbRegAppTableRecord
  2
CONTENTBLOCKICON
 70
     0
  0
APPID
  5
117
330
9
100
AcDbSymbolTableRecord
100
AcDbRegAppTableRecord
  2
CONTENTBLOCKDESCRIPTION
 70
     0
  0
ENDTAB
  0
TABLE
  2
DIMSTYLE
  5
A
330
0
100
AcDbSymbolTable
 70
     4
100
AcDbDimStyleTable
 71
     2
340
EF9
340
EFA
  0
DIMSTYLE
105
1D
102
{ACAD_REACTORS
330
B2B
102
}
330
A
100
AcDbSymbolTableRecord
100
AcDbDimStyleTableRecord
  2
STANDARD
 70
     0
340
F
  0
DIMSTYLE
105
EF9
102
{ACAD_REACTORS
330
18A2
330
1CE1
102
}
330
A
100
AcDbSymbolTableRecord
100
AcDbDimStyleTableRecord
  2
TYPENBLATT_M10
 70
     0
 40
142.85
 41
0.25
 42
0.5
 43
0.5
 44
0.25
 73
     0
 74
     0
 77
     1
140
0.25
147
0.075
177
   256
271
     0
272
     0
340
428
  0
DIMSTYLE
105
EFA
330
A
100
AcDbSymbolTableRecord
100
AcDbDimStyleTableRecord
  2
TYPENBLATT_M50
 70
     0
 40
500.0
 41
0.25
 42
0.1
 43
0.5
 44
0.25
 73
     0
 74
     0
 77
     1
140
0.25
147
0.075
271
     0
340
428
  0
DIMSTYLE
105
8077
330
A
100
AcDbSymbolTableRecord
100
AcDbDimStyleTableRecord
  2
STIL2.5
 70
     0
 40
2.5
 41
5.0
 42
1.0
 43
1.0
 44
1.0
 73
     0
 74
     0
140
3.5
147
1.0
271
     0
272
     0
340
428
341
8067
  0
ENDTAB
  0
TABLE
  2
BLOCK_RECORD
  5
1
330
0
100
AcDbSymbolTable
 70
     9
  0
BLOCK_RECORD
  5
18
330
1
100
AcDbSymbolTableRecord
100
AcDbBlockTableRecord
  2
*MODEL_SPACE
340
16EE
  0
BLOCK_RECORD
  5
15
330
1
100
AcDbSymbolTableRecord
100
AcDbBlockTableRecord
  2
*PAPER_SPACE
340
16EF
  0
BLOCK_RECORD
  5
B1E
330
1
100
AcDbSymbolTableRecord
100
AcDbBlockTableRecord
  2
*D0
340
0
  0
BLOCK_RECORD
  5
18A3
330
1
100
AcDbSymbolTableRecord
100
AcDbBlockTableRecord
  2
*D1
340
0
  0
BLOCK_RECORD
  5
1CE2
330
1
100
AcDbSymbolTableRecord
100
AcDbBlockTableRecord
  2
*D2
340
0
  0
BLOCK_RECORD
  5
1F2A
330
1
100
AcDbSymbolTableRecord
100
AcDbBlockTableRecord
  2
VOESTALPINE LOGO
340
0
310
2800000020000000200000000100080000000000000400000000000000000000000000000000000000000000000080000080000000808000800000008000800080800000C0C0C000C0DCC000F0CAA6000020400000206000002080000020A0000020C0000020E00000400000004020000040400000406000004080000040A0
310
000040C0000040E00000600000006020000060400000606000006080000060A0000060C0000060E00000800000008020000080400000806000008080000080A0000080C0000080E00000A0000000A0200000A0400000A0600000A0800000A0A00000A0C00000A0E00000C0000000C0200000C0400000C0600000C0800000C0
310
A00000C0C00000C0E00000E0000000E0200000E0400000E0600000E0800000E0A00000E0C00000E0E00040000000400020004000400040006000400080004000A0004000C0004000E00040200000402020004020400040206000402080004020A0004020C0004020E000404000004040200040404000404060004040800040
310
40A0004040C0004040E00040600000406020004060400040606000406080004060A0004060C0004060E00040800000408020004080400040806000408080004080A0004080C0004080E00040A0000040A0200040A0400040A0600040A0800040A0A00040A0C00040A0E00040C0000040C0200040C0400040C0600040C08000
310
40C0A00040C0C00040C0E00040E0000040E0200040E0400040E0600040E0800040E0A00040E0C00040E0E00080000000800020008000400080006000800080008000A0008000C0008000E00080200000802020008020400080206000802080008020A0008020C0008020E00080400000804020008040400080406000804080
310
008040A0008040C0008040E00080600000806020008060400080606000806080008060A0008060C0008060E00080800000808020008080400080806000808080008080A0008080C0008080E00080A0000080A0200080A0400080A0600080A0800080A0A00080A0C00080A0E00080C0000080C0200080C0400080C0600080C0
310
800080C0A00080C0C00080C0E00080E0000080E0200080E0400080E0600080E0800080E0A00080E0C00080E0E000C0000000C0002000C0004000C0006000C0008000C000A000C000C000C000E000C0200000C0202000C0204000C0206000C0208000C020A000C020C000C020E000C0400000C0402000C0404000C0406000C0
310
408000C040A000C040C000C040E000C0600000C0602000C0604000C0606000C0608000C060A000C060C000C060E000C0800000C0802000C0804000C0806000C0808000C080A000C080C000C080E000C0A00000C0A02000C0A04000C0A06000C0A08000C0A0A000C0A0C000C0A0E000C0C00000C0C02000C0C04000C0C06000
310
C0C08000C0C0A000F0FBFF00A4A0A000808080000000FF0000FF000000FFFF00FF000000FF00FF00FFFF0000FFFFFF0000000000000000000000000000000000000000000000000000000000000000000000000000000000000000000000000000000000000000000000000000000000000000000000000000000000000000
310
00000000000000000000000000000000000000000000000000000000000000000000000000000000000000000000000000000000000000000000000000000000000000000000000000000000000000000000000000000000000000000000000000000000000000000000000000000000000000000000000000000000000000
310
00000000000000000000000000000000000000000000000000000000000000000000000000000000000000000000000000000000000000000000000000000000000000000000000000000000000000000000000000000000000000000000000000000000000000000000000000000000000000000000000000000000000000
310
000000000000000000000000000000000000000000000000000000000000000000000000000000000000000000000000000000000000000000000000000000000000000000000000000000000000000000000000000000000000000000000000000000000000000000000000000000000000000000FFFFFFFFFFFFFFFFFFFF
310
FFFFFFFFFFFFFFFFFFFFFFFFFF000000000000000000FFFF00FF00FF00FF00FFA2A2A2A2A2A2A2A2A200000000000000000000000000FFFFFFFFFFFFFFFFFFFFA2A2A2A2A2A2A2A2A2A20000000000000000000000FFFFFFFFFFFFFFFFFFFFFFA2A2A2A2A2A2A2A2A2A2000000000000000000000000000000000000000000
310
00000000000000000000000000000000000000000000000000000000000000000000000000000000000000000000000000000000000000000000000000000000000000000000000000000000000000000000000000000000000000000000000000000000000000000000000000000000000000000000000000000000000000
310
00000000000000000000000000000000000000000000000000000000000000000000000000000000000000000000000000000000000000000000000000000000000000000000000000000000000000000000000000000000000000000000000000000000000000000000000000000000000000000000000000000000000000
310
00000000000000000000000000000000000000000000000000000000000000000000000000000000000000000000000000000000000000000000000000000000000000000000000000000000000000000000000000000000000000000000000000000000000000000000000000000000000000000000000000000000000000
310
0000000000000000000000000000000000000000000000000000000000000000000000000000000000000000000000000000000000000000
102
{BLKREFS
331
1F35
102
}
1001
ACAD
1000
DesignCenter Data
1002
{
1070
     1
1070
     4
1002
}
  0
BLOCK_RECORD
  5
1F34
330
1
100
AcDbSymbolTableRecord
100
AcDbBlockTableRecord
  2
LOGO ACAD
340
0
102
{BLKREFS
331
1F3B
102
}
1001
ACAD
1000
DesignCenter Data
1002
{
1070
     1
1070
     4
1002
}
  0
BLOCK_RECORD
  5
4EFC
330
1
100
AcDbSymbolTableRecord
100
AcDbBlockTableRecord
  2
_None
340
0
  0
BLOCK_RECORD
  5
8067
330
1
100
AcDbSymbolTableRecord
100
AcDbBlockTableRecord
  2
_DotSmall
340
0
  0
BLOCK_RECORD
  5
80CF
330
1
100
AcDbSymbolTableRecord
100
AcDbBlockTableRecord
  2
*D7
340
0
  0
BLOCK_RECORD
  5
80DB
330
1
100
AcDbSymbolTableRecord
100
AcDbBlockTableRecord
  2
A$C765F53D0
340
0
  0
ENDTAB
  0
ENDSEC
  0
SECTION
  2
BLOCKS
  0
BLOCK
  5
19
330
18
100
AcDbEntity
  8
0
100
AcDbBlockBegin
  2
*MODEL_SPACE
 70
     0
 10
0.0
 20
0.0
 30
0.0
  3
*MODEL_SPACE
  1

  0
ENDBLK
  5
1A
330
18
100
AcDbEntity
  8
0
100
AcDbBlockEnd
  0
BLOCK
  5
16
330
15
100
AcDbEntity
 67
     1
  8
0
100
AcDbBlockBegin
  2
*PAPER_SPACE
 70
     0
 10
0.0
 20
0.0
 30
0.0
  3
*PAPER_SPACE
  1

  0
ENDBLK
  5
17
330
15
100
AcDbEntity
 67
     1
  8
0
100
AcDbBlockEnd
  0
BLOCK
  5
13C2
330
B1E
100
AcDbEntity
  8
0
100
AcDbBlockBegin
  2
*D0
 70
     1
 10
0.0
 20
0.0
 30
0.0
  3
*D0
  1

  0
LINE
  5
8836
330
B1E
100
AcDbEntity
  8
KOTIERUNG
370
    -2
100
AcDbLine
 10
7315.974828452677
 20
334.6313412726349
 30
0.0
 11
7192.676983783478
 21
334.631341272635
 31
0.0
  0
LINE
  5
8837
330
B1E
100
AcDbEntity
  8
KOTIERUNG
370
    -2
100
AcDbLine
 10
7266.692635457116
 20
-535.368658727365
 30
0.0
 11
7192.676983783478
 21
-535.368658727365
 31
0.0
  0
LINE
  5
8838
330
B1E
100
AcDbEntity
  8
KOTIERUNG
 62
     0
370
    -2
100
AcDbLine
 10
7228.389483783478
 20
298.918841272635
 30
0.0
 11
7228.389483783478
 21
-499.656158727365
 31
0.0
  0
SOLID
  5
8839
330
B1E
100
AcDbEntity
  8
KOTIERUNG
 62
     0
100
AcDbTrace
 10
7222.437400450144
 20
298.918841272635
 30
0.0
 11
7234.341567116811
 21
298.918841272635
 31
0.0
 12
7228.389483783478
 22
334.631341272635
 32
0.0
 13
7228.389483783478
 23
334.631341272635
 33
0.0
  0
SOLID
  5
883A
330
B1E
100
AcDbEntity
  8
KOTIERUNG
 62
     0
100
AcDbTrace
 10
7222.437400450144
 20
-499.656158727365
 30
0.0
 11
7234.341567116811
 21
-499.656158727365
 31
0.0
 12
7228.389483783478
 22
-535.368658727365
 32
0.0
 13
7228.389483783478
 23
-535.368658727365
 33
0.0
  0
MTEXT
  5
883B
330
B1E
100
AcDbEntity
  8
KOTIERUNG
100
AcDbMText
 10
7199.441895959466
 20
-100.3686587273639
 30
0.0
 40
35.7125
 41
0.0
 71
     5
 72
     1
  1
\A1;870
  7
VOEST
 11
0.0000000000000001
 21
1.0
 31
0.0
 73
     1
 44
1.0
1001
ACAD
1000
MTEXTBEGIN
1070
    73
1070
     1
1070
    44
1040
1.0
1070
    74
1070
     0
1000
MTEXTEND
  0
POINT
  5
883C
330
B1E
100
AcDbEntity
  8
DEFPOINTS
 62
     0
100
AcDbPoint
 10
7387.399828452678
 20
334.6313412726349
 30
0.0
  0
POINT
  5
883D
330
B1E
100
AcDbEntity
  8
DEFPOINTS
 62
     0
100
AcDbPoint
 10
7338.117635457116
 20
-535.368658727365
 30
0.0
  0
POINT
  5
883E
330
B1E
100
AcDbEntity
  8
DEFPOINTS
 62
     0
100
AcDbPoint
 10
7228.389483783478
 20
-535.368658727365
 30
0.0
  0
ENDBLK
  5
13CC
330
B1E
100
AcDbEntity
  8
0
100
AcDbBlockEnd
  0
BLOCK
  5
18AD
330
18A3
100
AcDbEntity
  8
0
100
AcDbBlockBegin
  2
*D1
 70
     1
 10
0.0
 20
0.0
 30
0.0
  3
*D1
  1

  0
LINE
  5
8866
330
18A3
100
AcDbEntity
  8
25
370
    -2
100
AcDbLine
 10
7721.319220222203
 20
864.631341272635
 30
0.0
 11
7100.048092231346
 21
864.631341272635
 31
0.0
  0
LINE
  5
8867
330
18A3
100
AcDbEntity
  8
25
370
    -2
100
AcDbLine
 10
7141.251983783478
 20
-535.368658727365
 30
0.0
 11
7100.048092231346
 21
-535.368658727365
 31
0.0
  0
LINE
  5
8868
330
18A3
100
AcDbEntity
  8
25
 62
     0
370
    -2
100
AcDbLine
 10
7135.760592231346
 20
828.918841272635
 30
0.0
 11
7135.760592231346
 21
-499.656158727365
 31
0.0
  0
SOLID
  5
8869
330
18A3
100
AcDbEntity
  8
25
 62
     0
100
AcDbTrace
 10
7129.808508898012
 20
828.918841272635
 30
0.0
 11
7141.712675564679
 21
828.918841272635
 31
0.0
 12
7135.760592231346
 22
864.631341272635
 32
0.0
 13
7135.760592231346
 23
864.631341272635
 33
0.0
  0
SOLID
  5
886A
330
18A3
100
AcDbEntity
  8
25
 62
     0
100
AcDbTrace
 10
7129.808508898012
 20
-499.656158727365
 30
0.0
 11
7141.712675564679
 21
-499.656158727365
 31
0.0
 12
7135.760592231346
 22
-535.368658727365
 32
0.0
 13
7135.760592231346
 23
-535.368658727365
 33
0.0
  0
MTEXT
  5
886B
330
18A3
100
AcDbEntity
  8
25
100
AcDbMText
 10
7106.813004407334
 20
164.6313412726361
 30
0.0
 40
35.7125
 41
0.0
 71
     5
 72
     1
  1
\A1;1400
  7
VOEST
 11
0.0000000000000001
 21
1.0
 31
0.0
 73
     1
 44
1.0
1001
ACAD
1000
MTEXTBEGIN
1070
    73
1070
     1
1070
    44
1040
1.0
1070
    74
1070
     0
1000
MTEXTEND
  0
POINT
  5
886C
330
18A3
100
AcDbEntity
  8
DEFPOINTS
 62
     0
100
AcDbPoint
 10
7792.744220222203
 20
864.631341272635
 30
0.0
  0
POINT
  5
886D
330
18A3
100
AcDbEntity
  8
DEFPOINTS
 62
     0
100
AcDbPoint
 10
7212.676983783478
 20
-535.368658727365
 30
0.0
  0
POINT
  5
886E
330
18A3
100
AcDbEntity
  8
DEFPOINTS
 62
     0
100
AcDbPoint
 10
7135.760592231346
 20
-535.368658727365
 30
0.0
  0
ENDBLK
  5
18AE
330
18A3
100
AcDbEntity
  8
0
100
AcDbBlockEnd
  0
BLOCK
  5
1CEC
330
1CE2
100
AcDbEntity
  8
0
100
AcDbBlockBegin
  2
*D2
 70
     1
 10
0.0
 20
0.0
 30
0.0
  3
*D2
  1

  0
LINE
  5
88C2
330
1CE2
100
AcDbEntity
  8
KOTIERUNG
370
    -2
100
AcDbLine
 10
7717.9442202222
 20
770.8987062695553
 30
0.0
 11
7717.9442202222
 21
671.3517300128028
 31
0.0
  0
LINE
  5
88C3
330
1CE2
100
AcDbEntity
  8
KOTIERUNG
370
    -2
100
AcDbLine
 10
7318.117635457117
 20
348.6049087992172
 30
0.0
 11
7318.117635457117
 21
742.7767300128027
 31
0.0
  0
LINE
  5
88C4
330
1CE2
100
AcDbEntity
  8
KOTIERUNG
 62
     0
370
    -2
100
AcDbLine
 10
7682.231720222201
 20
707.0642300128028
 30
0.0
 11
7353.830135457116
 21
707.0642300128028
 31
0.0
  0
SOLID
  5
88C5
330
1CE2
100
AcDbEntity
  8
KOTIERUNG
 62
     0
100
AcDbTrace
 10
7682.231720222201
 20
713.0163133461361
 30
0.0
 11
7682.231720222201
 21
701.1121466794694
 31
0.0
 12
7717.9442202222
 22
707.0642300128028
 32
0.0
 13
7717.9442202222
 23
707.0642300128028
 33
0.0
  0
SOLID
  5
88C6
330
1CE2
100
AcDbEntity
  8
KOTIERUNG
 62
     0
100
AcDbTrace
 10
7353.830135457116
 20
713.0163133461361
 30
0.0
 11
7353.830135457116
 21
701.1121466794694
 31
0.0
 12
7318.117635457117
 22
707.0642300128028
 32
0.0
 13
7318.117635457117
 23
707.0642300128028
 33
0.0
  0
MTEXT
  5
88C7
330
1CE2
100
AcDbEntity
  8
KOTIERUNG
100
AcDbMText
 10
7527.976943918566
 20
736.0118178368137
 30
0.0
 40
35.7125
 41
0.0
 71
     5
 72
     1
  1
\A1;400
  7
VOEST
 73
     1
 44
1.0
1001
ACAD
1000
MTEXTBEGIN
1070
    73
1070
     1
1070
    44
1040
1.0
1070
    74
1070
     0
1000
MTEXTEND
  0
POINT
  5
88C8
330
1CE2
100
AcDbEntity
  8
DEFPOINTS
 62
     0
100
AcDbPoint
 10
7717.9442202222
 20
842.3237062695552
 30
0.0
  0
POINT
  5
88C9
330
1CE2
100
AcDbEntity
  8
DEFPOINTS
 62
     0
100
AcDbPoint
 10
7318.117635457117
 20
277.1799087992172
 30
0.0
  0
POINT
  5
88CA
330
1CE2
100
AcDbEntity
  8
DEFPOINTS
 62
     0
100
AcDbPoint
 10
7318.117635457117
 20
707.0642300128028
 30
0.0
  0
ENDBLK
  5
1CED
330
1CE2
100
AcDbEntity
  8
0
100
AcDbBlockEnd
  0
BLOCK
  5
1F2E
330
1F2A
100
AcDbEntity
  8
0
100
AcDbBlockBegin
  2
VOESTALPINE LOGO
 70
     0
 10
0.0
 20
0.0
 30
0.0
  3
VOESTALPINE LOGO
  1

  0
TEXT
  5
1F2B
330
1F2A
100
AcDbEntity
  8
0
 62
   155
100
AcDbText
 10
-2.022376810040597
 20
1.345163130846486
 30
0.0
 40
4.761899999999999
  1
alpine
 41
1.29
  7
LOGO2
100
AcDbText
  0
TEXT
  5
1F2C
330
1F2A
100
AcDbEntity
  8
0
 62
     7
100
AcDbText
 10
-24.96332103124969
 20
-3.319987708589252
 30
0.0
 40
2.050802049214244
  1
KREMS FINALTECHNIK GMBH
 41
1.219999999999999
  7
LOGO3
100
AcDbText
  0
TEXT
  5
1F2D
330
1F2A
100
AcDbEntity
  8
0
 62
     7
100
AcDbText
 10
-25.59751279130563
 20
1.29203428188444
 30
0.0
 40
4.761899999999999
  1
voest
 41
1.379999999999999
  7
LOGO1
100
AcDbText
  0
ENDBLK
  5
1F2F
330
1F2A
100
AcDbEntity
  8
0
100
AcDbBlockEnd
  0
BLOCK
  5
1F36
330
1F34
100
AcDbEntity
  8
0
100
AcDbBlockBegin
  2
LOGO ACAD
 70
     0
 10
0.0
 20
0.0
 30
0.0
  3
LOGO ACAD
  1

  0
INSERT
  5
1F35
330
1F34
100
AcDbEntity
  8
0
100
AcDbBlockReference
  2
VOESTALPINE LOGO
 10
25.66052293085149
 20
-5.598002378525222
 30
0.0
  0
ENDBLK
  5
1F37
330
1F34
100
AcDbEntity
  8
0
100
AcDbBlockEnd
  0
BLOCK
  5
4EFD
330
4EFC
100
AcDbEntity
  8
0
100
AcDbBlockBegin
  2
_None
 70
     0
 10
0.0
 20
0.0
 30
0.0
  3
_None
  1

  0
ENDBLK
  5
4EFE
330
4EFC
100
AcDbEntity
  8
0
100
AcDbBlockEnd
  0
BLOCK
  5
8069
330
8067
100
AcDbEntity
  8
0
100
AcDbBlockBegin
  2
_DotSmall
 70
     0
 10
0.0
 20
0.0
 30
0.0
  3
_DotSmall
  1

  0
LWPOLYLINE
  5
8068
330
8067
100
AcDbEntity
  8
0
 62
     0
100
AcDbPolyline
 90
        2
 70
     1
 43
0.5
 10
-0.0625
 20
0.0
 42
1.0
 10
0.0625
 20
0.0
 42
1.0
  0
ENDBLK
  5
806A
330
8067
100
AcDbEntity
  8
0
100
AcDbBlockEnd
  0
BLOCK
  5
80D9
330
80CF
100
AcDbEntity
  8
0
100
AcDbBlockBegin
  2
*D7
 70
     1
 10
0.0
 20
0.0
 30
0.0
  3
*D7
  1

  0
LINE
  5
80D0
330
80CF
100
AcDbEntity
  8
KOTIERUNG
 62
     0
370
    -2
100
AcDbLine
 10
1013.84471968337
 20
-1407.358592311447
 30
0.0
 11
565.074363571977
 21
-1407.358592311447
 31
0.0
  0
LINE
  5
80D1
330
80CF
100
AcDbEntity
  8
KOTIERUNG
 62
     0
370
    -2
100
AcDbLine
 10
639.9729770521471
 20
-2807.358592311447
 30
0.0
 11
565.0743635719768
 21
-2807.358592311447
 31
0.0
  0
LINE
  5
80D2
330
80CF
100
AcDbEntity
  8
KOTIERUNG
 62
     0
370
    -2
100
AcDbLine
 10
577.074363571977
 20
-1437.358592311447
 30
0.0
 11
577.0743635719768
 21
-2777.358592311447
 31
0.0
  0
SOLID
  5
80D3
330
80CF
100
AcDbEntity
  8
KOTIERUNG
 62
     0
100
AcDbTrace
 10
572.074363571977
 20
-1437.358592311447
 30
0.0
 11
582.0743635719771
 21
-1437.358592311447
 31
0.0
 12
577.074363571977
 22
-1407.358592311447
 32
0.0
 13
577.074363571977
 23
-1407.358592311447
 33
0.0
  0
SOLID
  5
80D4
330
80CF
100
AcDbEntity
  8
KOTIERUNG
 62
     0
100
AcDbTrace
 10
572.0743635719768
 20
-2777.358592311447
 30
0.0
 11
582.0743635719768
 21
-2777.358592311447
 31
0.0
 12
577.0743635719768
 22
-2807.358592311447
 32
0.0
 13
577.0743635719768
 23
-2807.358592311447
 33
0.0
  0
MTEXT
  5
80D5
330
80CF
100
AcDbEntity
  8
KOTIERUNG
 62
     0
100
AcDbMText
 10
552.7571739403265
 20
-1960.610600066235
 30
0.0
 40
30.0
 41
0.0
 71
     5
 72
     1
  1
\A1;1400
  7
VOEST
 11
0.0000000000000001
 21
1.0
 31
0.0
 73
     1
 44
1.0
1001
ACAD
1000
MTEXTBEGIN
1070
    73
1070
     1
1070
    44
1040
1.0
1070
    74
1070
     0
1000
MTEXTEND
  0
POINT
  5
80D6
330
80CF
100
AcDbEntity
  8
DEFPOINTS
 62
     0
100
AcDbPoint
 10
1025.84471968337
 20
-1407.358592311447
 30
0.0
  0
POINT
  5
80D7
330
80CF
100
AcDbEntity
  8
DEFPOINTS
 62
     0
100
AcDbPoint
 10
651.9729770521471
 20
-2807.358592311447
 30
0.0
  0
POINT
  5
80D8
330
80CF
100
AcDbEntity
  8
DEFPOINTS
 62
     0
100
AcDbPoint
 10
577.0743635719768
 20
-2807.358592311447
 30
0.0
  0
ENDBLK
  5
80DA
330
80CF
100
AcDbEntity
  8
0
100
AcDbBlockEnd
  0
BLOCK
  5
80FA
330
80DB
100
AcDbEntity
  8
0
100
AcDbBlockBegin
  2
A$C765F53D0
 70
     0
 10
0.0
 20
0.0
 30
0.0
  3
A$C765F53D0
  1

  0
MTEXT
  5
80DC
102
{ACAD_REACTORS
330
80E3
102
}
330
80DB
100
AcDbEntity
  8
KOTIERUNG
100
AcDbMText
 10
1314.419880583942
 20
516.394326826979
 30
0.0
 40
35.0
 41
0.0
 71
     4
 72
     1
  1
Flaru-Schr.M16 x 35 Mu\PScheibe 18 x 4\Pje 3 Stk. / Stoß
  7
VOEST
 73
     1
 44
1.0
1001
ACAD
1000
MTEXTBEGIN
1070
    73
1070
     1
1070
    44
1040
1.0
1070
    74
1070
     0
1000
MTEXTEND
  0
MTEXT
  5
80DD
102
{ACAD_REACTORS
330
80E4
102
}
330
80DB
100
AcDbEntity
  8
KOTIERUNG
100
AcDbMText
 10
1314.419880583942
 20
733.0401935226068
 30
0.0
 40
35.0
 41
0.0
 71
     4
 72
     1
  1
Flaru-Schr.M10 x 25 Mu\PScheibe 11\Pje 1 Stk. / Steher
  7
VOEST
 73
     1
 44
1.0
1001
ACAD
1000
MTEXTBEGIN
1070
    73
1070
     1
1070
    44
1040
1.0
1070
    74
1070
     0
1000
MTEXTEND
  0
MTEXT
  5
80DE
102
{ACAD_REACTORS
330
80E8
102
}
330
80DB
100
AcDbEntity
  8
KOTIERUNG
100
AcDbMText
 10
1314.419880583942
 20
972.1489648310338
 30
0.0
 40
35.0
 41
0.0
 71
     4
 72
     1
  1
Flaru-Schr.M16 x 35 Mu\PScheibe 18 x 4\Pje 2 Stk. / Steher
  7
VOEST
 73
     1
 44
1.0
1001
ACAD
1000
MTEXTBEGIN
1070
    73
1070
     1
1070
    44
1040
1.0
1070
    74
1070
     0
1000
MTEXTEND
  0
MTEXT
  5
80DF
102
{ACAD_REACTORS
330
80EA
102
}
330
80DB
100
AcDbEntity
  8
KOTIERUNG
100
AcDbMText
 10
1316.177663923512
 20
1782.019069099179
 30
0.0
 40
35.0
 41
0.0
 71
     4
 72
     1
  1
Flaru-Schr.M16 x 35 Mu\P30-001.0990E\P6 Stk. / Stoß\PScheibe 18 x 4\P30-001.0995E\P2 Stk. / Stoß
  7
VOEST
 73
     1
 44
1.0
1001
ACAD
1000
MTEXTBEGIN
1070
    73
1070
     1
1070
    44
1040
1.0
1070
    74
1070
     0
1000
MTEXTEND
  0
MTEXT
  5
80E0
102
{ACAD_REACTORS
330
80E9
102
}
330
80DB
100
AcDbEntity
  8
KOTIERUNG
100
AcDbMText
 10
1316.177663923512
 20
1236.900362533033
 30
0.0
 40
35.0
 41
0.0
 71
     4
 72
     1
  1
Flaru-Schr.M16 x 50 Mu\PScheibe 18 x 4\P30-001.0995E\Pje 2 Stk. / Steher
  7
VOEST
 73
     1
 44
1.0
1001
ACAD
1000
MTEXTBEGIN
1070
    73
1070
     1
1070
    44
1040
1.0
1070
    74
1070
     0
1000
MTEXTEND
  0
MTEXT
  5
80E1
102
{ACAD_REACTORS
330
80E6
102
}
330
80DB
100
AcDbEntity
  8
KOTIERUNG
100
AcDbMText
 10
1316.177663923512
 20
1485.043778186125
 30
0.0
 40
35.0
 41
0.0
 71
     4
 72
     1
  1
Flankenverstärkung\P30-001.1807E\P2 Stk. / Stoß
  7
VOEST
 73
     1
 44
1.0
1001
ACAD
1000
MTEXTBEGIN
1070
    73
1070
     1
1070
    44
1040
1.0
1070
    74
1070
     0
1000
MTEXTEND
  0
MTEXT
  5
80E2
330
80DB
100
AcDbEntity
  8
KOTIERUNG
100
AcDbMText
 10
1412.430936642524
 20
57.10524646545128
 30
0.0
 40
35.0
 41
0.0
 71
     4
 72
     1
  1
IPE-160 Steher\Pmit Grundplatte
  7
VOEST
 73
     1
 44
1.0
1001
ACAD
1000
MTEXTBEGIN
1070
    73
1070
     1
1070
    44
1040
1.0
1070
    74
1070
     0
1000
MTEXTEND
  0
LEADER
  5
80E3
330
80DB
100
AcDbEntity
  8
KOTIERUNG
100
AcDbLeader
  3
TYPENBLATT_M50
 73
     0
 40
163.818781264211
 41
423.7721691678035
 76
     2
 10
953.8972093358061
 20
610.1231390070343
 30
0.0
 10
1304.294880583942
 20
545.5953193966156
 30
0.0
210
0.0
220
0.0
230
-1.0
213
0.0
223
29.20099256963658
233
0.0
1001
ACAD
1000
DSTYLE
1002
{
1070
   147
1040
0.075
1070
    77
1070
     0
1002
}
  0
LEADER
  5
80E4
330
80DB
100
AcDbEntity
  8
KOTIERUNG
100
AcDbLeader
  3
TYPENBLATT_M50
 73
     0
 74
     0
 75
     1
 40
163.818781264211
 41
423.7721691678035
 76
     3
 10
1015.727393216598
 20
664.568821551758
 30
0.0
 10
1179.294880583942
 20
760.1554029296489
 30
0.0
 10
1304.294880583942
 20
760.1554029296489
 30
0.0
210
0.0
220
0.0
230
-1.0
213
0.0
223
27.11520940704213
233
0.0
1001
ACAD
1000
DSTYLE
1002
{
1070
   147
1040
0.075
1070
    77
1070
     0
1002
}
  0
LEADER
  5
80E5
330
80DB
100
AcDbEntity
  8
KOTIERUNG
100
AcDbLeader
  3
TYPENBLATT_M50
 40
235.7378353797181
 41
302.6944065484312
 76
     2
 10
637.5442727041541
 20
1187.623608616145
 30
0.0
 10
1277.177663923512
 20
1895.008543425152
 30
0.0
211
-1.0
221
0.0
231
0.0
210
0.0
220
0.0
230
-1.0
213
0.0
223
-16.7399253323565
233
0.0
1001
ACAD
1000
DSTYLE
1002
{
1070
   147
1040
0.075
1070
    77
1070
     0
1002
}
  0
LEADER
  5
80E6
330
80DB
100
AcDbEntity
  8
KOTIERUNG
100
AcDbLeader
  3
TYPENBLATT_M50
 73
     0
 74
     0
 75
     1
 40
153.2423829013188
 41
346.012960436562
 76
     3
 10
884.8012459329137
 20
1683.296575899117
 30
0.0
 10
1181.052663923512
 20
1485.043778186125
 30
0.0
 10
1306.052663923512
 20
1485.043778186125
 30
0.0
1001
ACAD
1000
DSTYLE
1002
{
1070
   147
1040
0.075
1070
    77
1070
     0
1002
}
  0
LEADER
  5
80E7
330
80DB
100
AcDbEntity
  8
KOTIERUNG
100
AcDbLeader
  3
TYPENBLATT_M50
 40
200.8924511141428
 41
331.0709413369713
 76
     2
 10
670.5842421131697
 20
1025.635930433949
 30
0.0
 10
1277.177663923512
 20
1301.792711550941
 30
0.0
211
-1.0
221
0.0
231
0.0
210
0.0
220
0.0
230
-1.0
213
0.0
223
79.91868020191214
233
0.0
1001
ACAD
1000
DSTYLE
1002
{
1070
   147
1040
0.075
1070
    77
1070
     0
1002
}
  0
LEADER
  5
80E8
330
80DB
100
AcDbEntity
  8
KOTIERUNG
100
AcDbLeader
  3
TYPENBLATT_M50
 73
     0
 40
163.818781264211
 41
423.7721691678035
 76
     2
 10
883.2997681851093
 20
968.9237975678947
 30
0.0
 10
1304.294880583942
 20
1001.349985693985
 30
0.0
210
0.0
220
0.0
230
-1.0
213
0.0
223
29.20102086295083
233
0.0
1001
ACAD
1000
DSTYLE
1002
{
1070
   147
1040
0.075
1070
    77
1070
     0
1002
}
  0
LEADER
  5
80E9
330
80DB
100
AcDbEntity
  8
KOTIERUNG
100
AcDbLeader
  3
TYPENBLATT_M50
 73
     0
 74
     0
 75
     1
 40
222.2953615279672
 41
423.7721691678035
 76
     3
 10
945.0491733154633
 20
1553.784409654813
 30
0.0
 10
1181.052663923512
 20
1301.792711550941
 30
0.0
 10
1306.052663923512
 20
1301.792711550941
 30
0.0
210
0.0
220
0.0
230
-1.0
213
0.0
223
64.89234901790769
233
0.0
1001
ACAD
1000
DSTYLE
1002
{
1070
   147
1040
0.075
1070
    77
1070
     0
1002
}
  0
LEADER
  5
80EA
330
80DB
100
AcDbEntity
  8
KOTIERUNG
100
AcDbLeader
  3
TYPENBLATT_M50
 73
     0
 74
     0
 75
     1
 40
330.0329695316053
 41
423.7721691678035
 76
     3
 10
926.7122558247764
 20
1719.913869585802
 30
0.0
 10
1181.052663923512
 20
1895.008543425152
 30
0.0
 10
1306.052663923512
 20
1895.008543425152
 30
0.0
210
0.0
220
0.0
230
-1.0
213
0.0
223
112.9894743259733
233
0.0
1001
ACAD
1000
DSTYLE
1002
{
1070
   147
1040
0.075
1070
    77
1070
     0
1002
}
  0
MTEXT
  5
80EB
102
{ACAD_REACTORS
330
80F2
102
}
330
80DB
100
AcDbEntity
  8
KOTIERUNG
100
AcDbMText
 10
356.4222331351721
 20
665.4319131206976
 30
0.0
 40
35.0
 41
0.0
 71
     3
 72
     1
  1
Zusatzprofil\P30-021.3800-
  7
VOEST
 73
     1
 44
1.0
1001
ACAD
1000
MTEXTBEGIN
1070
    73
1070
     1
1070
    44
1040
1.0
1070
    74
1070
     0
1000
MTEXTEND
  0
MTEXT
  5
80EC
102
{ACAD_REACTORS
330
80F3
102
}
330
80DB
100
AcDbEntity
  8
KOTIERUNG
100
AcDbMText
 10
356.4222331351721
 20
891.2193029525733
 30
0.0
 40
35.0
 41
0.0
 71
     3
 72
     1
  1
Leitschiene\P30-001.3800-
  7
VOEST
 73
     1
 44
1.0
1001
ACAD
1000
MTEXTBEGIN
1070
    73
1070
     1
1070
    44
1040
1.0
1070
    74
1070
     0
1000
MTEXTEND
  0
MTEXT
  5
80ED
102
{ACAD_REACTORS
330
80F5
102
}
330
80DB
100
AcDbEntity
  8
KOTIERUNG
100
AcDbMText
 10
356.4222331351721
 20
460.2378468046354
 30
0.0
 40
35.0
 41
0.0
 71
     3
 72
     1
  1
Gleitprofil\P30-001.1830D
  7
VOEST
 73
     1
 44
1.0
1001
ACAD
1000
MTEXTBEGIN
1070
    73
1070
     1
1070
    44
1040
1.0
1070
    74
1070
     0
1000
MTEXTEND
  0
MTEXT
  5
80EE
102
{ACAD_REACTORS
330
80F7
102
}
330
80DB
100
AcDbEntity
  8
KOTIERUNG
100
AcDbMText
 10
356.4222331351721
 20
1504.486944843651
 30
0.0
 40
35.0
 41
0.0
 71
     3
 72
     1
  1
Leitschiene\P30-001.3800-
  7
VOEST
 73
     1
 44
1.0
1001
ACAD
1000
MTEXTBEGIN
1070
    73
1070
     1
1070
    44
1040
1.0
1070
    74
1070
     0
1000
MTEXTEND
  0
MTEXT
  5
80EF
102
{ACAD_REACTORS
330
80F8
102
}
330
80DB
100
AcDbEntity
  8
KOTIERUNG
100
AcDbMText
 10
363.6627798681129
 20
1305.876887636881
 30
0.0
 40
35.0
 41
0.0
 71
     3
 72
     1
  1
Runddämpfer\P30-001.1810A
  7
VOEST
 73
     1
 44
1.0
1001
ACAD
1000
MTEXTBEGIN
1070
    73
1070
     1
1070
    44
1040
1.0
1070
    74
1070
     0
1000
MTEXTEND
  0
MTEXT
  5
80F0
102
{ACAD_REACTORS
330
80F9
102
}
330
80DB
100
AcDbEntity
  8
KOTIERUNG
100
AcDbMText
 10
356.4222331351721
 20
1107.742956515108
 30
0.0
 40
35.0
 41
0.0
 71
     3
 72
     1
  1
Flankenverstärkung\P30-001.1807E\P2 Stk. / Stoß
  7
VOEST
 73
     1
 44
1.0
1001
ACAD
1000
MTEXTBEGIN
1070
    73
1070
     1
1070
    44
1040
1.0
1070
    74
1070
     0
1000
MTEXTEND
  0
MTEXT
  5
80F1
102
{ACAD_REACTORS
330
80F6
102
}
330
80DB
100
AcDbEntity
  8
KOTIERUNG
100
AcDbMText
 10
366.0762702698321
 20
1677.361029489985
 30
0.0
 40
35.0
 41
0.0
 71
     3
 72
     1
  1
Zusatzprofil\P30-021.3800-
  7
VOEST
 73
     1
 44
1.0
1001
ACAD
1000
MTEXTBEGIN
1070
    73
1070
     1
1070
    44
1040
1.0
1070
    74
1070
     0
1000
MTEXTEND
  0
LEADER
  5
80F2
330
80DB
100
AcDbEntity
  8
KOTIERUNG
100
AcDbLeader
  3
TYPENBLATT_M50
 73
     0
 75
     1
 40
94.67030468394725
 41
235.6650750341064
 76
     3
 10
628.4511799068018
 20
954.4748712198179
 30
0.0
 10
491.547233135172
 20
652.9319131206976
 30
0.0
 10
366.5472331351721
 20
652.9319131206976
 30
0.0
210
0.0
220
0.0
230
-1.0
213
0.0
223
-12.5
233
0.0
1001
ACAD
1000
DSTYLE
1002
{
1070
   147
1040
0.075
1070
    77
1070
     0
1002
}
  0
LEADER
  5
80F3
330
80DB
100
AcDbEntity
  8
KOTIERUNG
100
AcDbLeader
  3
TYPENBLATT_M50
 73
     0
 75
     1
 40
94.07344247385173
 41
235.6650750341064
 76
     3
 10
609.5816319422679
 20
1075.311521240152
 30
0.0
 10
491.547233135172
 20
878.7193029525733
 30
0.0
 10
366.5472331351721
 20
878.7193029525733
 30
0.0
210
0.0
220
0.0
230
-1.0
213
0.0
223
-12.5
233
0.0
1001
ACAD
1000
DSTYLE
1002
{
1070
   147
1040
0.075
1070
    77
1070
     0
1002
}
  0
DIMENSION
  5
80F4
330
80DB
100
AcDbEntity
  8
KOTIERUNG
100
AcDbDimension
  2
*D7
 10
431.6630321137704
 20
319.9138695858028
 30
0.0
 11
431.6630321137709
 21
1166.661861831015
 31
0.0
 12
-145.4113314582064
 22
3127.27246189725
 32
0.0
 70
   128
 71
     5
 42
1400.0
  3
TYPENBLATT_M10
100
AcDbAlignedDimension
 13
880.4333882251635
 23
1719.913869585802
 33
0.0
 14
506.5616455939407
 24
319.9138695858028
 34
0.0
 50
90.0
100
AcDbRotatedDimension
1001
ACAD
1000
DSTYLE
1002
{
1070
    40
1040
120.0
1002
}
  0
LEADER
  5
80F5
330
80DB
100
AcDbEntity
  8
KOTIERUNG
100
AcDbLeader
  3
TYPENBLATT_M50
 73
     0
 40
94.69417917235107
 41
250.3240109140519
 76
     2
 10
954.0262092798283
 20
565.2715927818331
 30
0.0
 10
366.5472331351721
 20
447.7378468046354
 30
0.0
210
0.0
220
0.0
230
-1.0
213
0.0
223
-12.5
233
0.0
1001
ACAD
1000
DSTYLE
1002
{
1070
   147
1040
0.075
1070
    77
1070
     0
1002
}
  0
LEADER
  5
80F6
330
80DB
100
AcDbEntity
  8
KOTIERUNG
100
AcDbLeader
  3
TYPENBLATT_M50
 73
     0
 75
     1
 40
94.67030468394725
 41
235.6650750341064
 76
     3
 10
908.6838247981223
 20
1488.230230704615
 30
0.0
 10
501.2012702698321
 20
1664.861029489985
 30
0.0
 10
376.2012702698321
 20
1664.861029489985
 30
0.0
210
0.0
220
0.0
230
-1.0
213
0.0
223
-12.5
233
0.0
1001
ACAD
1000
DSTYLE
1002
{
1070
   147
1040
0.075
1070
    77
1070
     0
1002
}
  0
LEADER
  5
80F7
330
80DB
100
AcDbEntity
  8
KOTIERUNG
100
AcDbLeader
  3
TYPENBLATT_M50
 73
     0
 40
94.07344247385173
 41
235.6650750341064
 76
     2
 10
869.4170246353888
 20
1462.009707735436
 30
0.0
 10
366.5472331351721
 20
1491.986944843651
 30
0.0
210
0.0
220
0.0
230
-1.0
213
0.0
223
-12.5
233
0.0
1001
ACAD
1000
DSTYLE
1002
{
1070
   147
1040
0.075
1070
    77
1070
     0
1002
}
  0
LEADER
  5
80F8
330
80DB
100
AcDbEntity
  8
KOTIERUNG
100
AcDbLeader
  3
TYPENBLATT_M50
 73
     0
 75
     1
 40
94.67030468394725
 41
250.3717598908595
 76
     3
 10
762.6849228916321
 20
1139.495755732731
 30
0.0
 10
498.7877798681129
 20
1293.376887636881
 30
0.0
 10
373.7877798681129
 20
1293.376887636881
 30
0.0
210
0.0
220
0.0
230
-1.0
213
0.0
223
-12.5
233
0.0
1001
ACAD
1000
DSTYLE
1002
{
1070
   147
1040
0.075
1070
    77
1070
     0
1002
}
  0
LEADER
  5
80F9
330
80DB
100
AcDbEntity
  8
KOTIERUNG
100
AcDbLeader
  3
TYPENBLATT_M50
 73
     0
 75
     1
 40
153.2423829013188
 41
346.012960436562
 76
     3
 10
615.4379096133325
 20
1165.962704987178
 30
0.0
 10
491.547233135172
 20
1095.242956515108
 30
0.0
 10
366.5472331351721
 20
1095.242956515108
 30
0.0
210
0.0
220
0.0
230
-1.0
213
0.0
223
-12.5
233
0.0
1001
ACAD
1000
DSTYLE
1002
{
1070
   147
1040
0.075
1070
    77
1070
     0
1002
}
  0
ENDBLK
  5
80FB
330
80DB
100
AcDbEntity
  8
0
100
AcDbBlockEnd
  0
ENDSEC
  0
SECTION
  2
ENTITIES
  0
LINE
  5
155
330
18
100
AcDbEntity
  8
35
100
AcDbLine
 10
7402.071420511344
 20
168.2535050489837
 30
0.0
 11
7404.964504740533
 21
140.727647295716
 31
0.0
  0
ARC
  5
157
330
18
100
AcDbEntity
  8
35
100
AcDbCircle
 10
7359.032179558766
 20
47.74534756869434
 30
0.0
 40
16.8
100
AcDbArc
 50
186.0
 51
246.8801387770752
  0
LINE
  5
159
330
18
100
AcDbEntity
  8
35
100
AcDbLine
 10
7352.435559709928
 20
32.29463216228305
 30
0.0
 11
7422.312335184073
 21
2.461028219631771
 31
0.0
  0
LINE
  5
15D
330
18
100
AcDbEntity
  8
35
100
AcDbLine
 10
7346.272700733521
 20
90.31179381875881
 30
0.0
 11
7399.145671003497
 21
127.8485788487037
 31
0.0
  0
LINE
  5
15F
330
18
100
AcDbEntity
  8
35
100
AcDbLine
 10
7339.290100249079
 20
74.85691168234371
 30
0.0
 11
7342.324211716579
 21
45.98926938579779
 31
0.0
  0
ARC
  5
161
330
18
100
AcDbEntity
  8
35
100
AcDbCircle
 10
7355.998068091264
 20
76.61298986524025
 30
0.0
 40
16.8
100
AcDbArc
 50
125.3725732019014
 51
186.0
  0
ARC
  5
162
330
18
100
AcDbEntity
  8
35
100
AcDbCircle
 10
7391.041198205377
 20
139.2642488099691
 30
0.0
 40
14.0
100
AcDbArc
 50
305.3725732019014
 51
5.999999999999898
  0
ARC
  5
164
330
18
100
AcDbEntity
  8
35
100
AcDbCircle
 10
7334.917635457117
 20
277.1799087992172
 30
0.0
 40
16.8
100
AcDbArc
 50
125.1198612229247
 51
186.0
  0
LINE
  5
167
330
18
100
AcDbEntity
  8
35
100
AcDbLine
 10
7331.287043669544
 20
232.8907967114421
 30
0.0
 11
7390.808949126228
 21
207.1671891425288
 31
0.0
  0
LINE
  5
168
330
18
100
AcDbEntity
  8
35
100
AcDbLine
 10
7402.071420511344
 20
168.2535050489837
 30
0.0
 11
7399.178336282155
 21
195.7793628022516
 31
0.0
  0
ARC
  5
16A
330
18
100
AcDbEntity
  8
35
100
AcDbCircle
 10
7385.255029746999
 20
194.3159643165045
 30
0.0
 40
14.0
100
AcDbArc
 50
6.000000000000031
 51
66.62742679809852
  0
LINE
  5
16C
330
18
100
AcDbEntity
  8
35
100
AcDbLine
 10
7321.243779082431
 20
246.5561883197747
 30
0.0
 11
7318.209667614929
 21
275.4238306163206
 31
0.0
  0
ARC
  5
16F
330
18
100
AcDbEntity
  8
35
100
AcDbCircle
 10
7337.951746924618
 20
248.3122665026713
 30
0.0
 40
16.8
100
AcDbArc
 50
186.0
 51
246.6274267980986
  0
LINE
  5
170
330
18
100
AcDbEntity
  8
35
100
AcDbLine
 10
7325.252783214532
 20
290.9214746171656
 30
0.0
 11
7387.399828452678
 21
334.6313412726349
 31
0.0
  0
LINE
  5
1B3
330
18
100
AcDbEntity
  8
25
 62
     2
100
AcDbLine
 10
7411.618830706879
 20
169.2569782963533
 30
0.0
 11
7408.218846988642
 21
201.4271018873869
 31
0.0
  0
LINE
  5
1B4
330
18
100
AcDbEntity
  8
25
 62
     2
100
AcDbLine
 10
7411.618830706879
 20
169.2569782963533
 30
0.0
 11
7414.999153906716
 21
137.0953514000416
 31
0.0
  0
ARC
  5
1B5
330
18
100
AcDbEntity
  8
25
 62
     2
100
AcDbCircle
 10
7394.313098483056
 20
134.9211593640743
 30
0.0
 40
20.8
100
AcDbArc
 50
305.3725732019014
 51
6.000000000000007
  0
LINE
  5
1B6
330
18
100
AcDbEntity
  8
25
 62
     2
100
AcDbLine
 10
7353.48105922743
 20
80.42395039167832
 30
0.0
 11
7406.354029497404
 21
117.9607354216227
 31
0.0
  0
ARC
  5
1B7
330
18
100
AcDbEntity
  8
25
 62
     2
100
AcDbCircle
 10
7387.532791564982
 20
199.2529098514196
 30
0.0
 40
20.8
100
AcDbArc
 50
6.000000000000031
 51
66.62742679809857
  0
LINE
  5
1B8
330
18
100
AcDbEntity
  8
25
 62
     2
100
AcDbLine
 10
7336.262423471723
 20
244.0697657332835
 30
0.0
 11
7395.784328928408
 21
218.3461581643701
 31
0.0
  0
LINE
  5
240
330
18
100
AcDbEntity
  8
25
100
AcDbLine
 10
7772.744220222204
 20
-1785.368658727365
 30
0.0
 11
7772.744220222204
 21
214.6313412726349
 31
0.0
  0
LINE
  5
241
330
18
100
AcDbEntity
  8
25
100
AcDbLine
 10
7632.744220222204
 20
-1785.368658727365
 30
0.0
 11
7632.744220222203
 21
214.6313412726349
 31
0.0
  0
LINE
  5
248
330
18
100
AcDbEntity
  8
25
100
AcDbLine
 10
7772.744220222204
 20
214.6313412726349
 30
0.0
 11
7632.744220222203
 21
214.6313412726349
 31
0.0
  0
LINE
  5
401
330
18
100
AcDbEntity
  8
25
100
AcDbLine
 10
7632.744220222203
 20
19.63134127263493
 30
0.0
 11
7425.556011492618
 21
74.9206497704813
 31
0.0
  0
LINE
  5
402
330
18
100
AcDbEntity
  8
25
100
AcDbLine
 10
7632.744220222203
 20
284.6313412726349
 30
0.0
 11
7403.514529635248
 21
284.6313412726349
 31
0.0
  0
LINE
  5
408
330
18
100
AcDbEntity
  8
25
100
AcDbLine
 10
7407.718699045874
 20
244.6313412726349
 30
0.0
 11
7358.244220222203
 21
244.6313412726349
 31
0.0
  0
LINE
  5
40B
330
18
100
AcDbEntity
  8
25
100
AcDbLine
 10
7408.244220222202
 20
239.6313412726349
 30
0.0
 11
7425.556011492618
 21
74.9206497704813
 31
0.0
  0
LINE
  5
40D
330
18
100
AcDbEntity
  8
25
100
AcDbLine
 10
7408.244220222202
 20
239.6313412726349
 30
0.0
 11
7403.514529635248
 21
284.6313412726349
 31
0.0
  0
LINE
  5
415
330
18
100
AcDbEntity
  8
25
100
AcDbLine
 10
7632.744220222203
 20
284.6313412726349
 30
0.0
 11
7632.744220222203
 21
19.63134127263493
 31
0.0
  0
LINE
  5
423
330
18
100
AcDbEntity
  8
50
100
AcDbLine
 10
7338.117635457116
 20
-535.3686587273651
 30
0.0
 11
7338.117635457116
 21
-535.368658727365
 31
0.0
  0
LINE
  5
424
330
18
100
AcDbEntity
  8
50
100
AcDbLine
 10
8132.289614433565
 20
-535.368658727365
 30
0.0
 11
7081.614908809751
 21
-535.368658727365
 31
0.0
  0
ARC
  5
44C
330
18
100
AcDbEntity
  8
35
100
AcDbCircle
 10
7623.744220222203
 20
-299.3686587273646
 30
0.0
 40
9.0
100
AcDbArc
 50
240.0000000000007
 51
0.0
  0
LINE
  5
44E
330
18
100
AcDbEntity
  8
35
100
AcDbLine
 10
7619.244220222203
 20
-307.1628873614245
 30
0.0
 11
7577.244220222202
 21
-282.914176055461
 31
0.0
  0
LINE
  5
451
330
18
100
AcDbEntity
  8
35
100
AcDbLine
 10
7619.244220222203
 20
-153.5744300933045
 30
0.0
 11
7577.244220222202
 21
-177.8231413992687
 31
0.0
  0
ARC
  5
455
330
18
100
AcDbEntity
  8
35
100
AcDbCircle
 10
7623.744220222203
 20
-161.3686587273646
 30
0.0
 40
9.0
100
AcDbArc
 50
0.0
 51
120.0000000000003
  0
LINE
  5
457
330
18
100
AcDbEntity
  8
35
100
AcDbLine
 10
7632.744220222203
 20
-161.3686587273646
 30
0.0
 11
7632.744220222203
 21
-199.3686587273646
 31
0.0
  0
LINE
  5
45D
330
18
100
AcDbEntity
  8
35
100
AcDbLine
 10
7632.744220222203
 20
-261.3686587273646
 30
0.0
 11
7632.744220222203
 21
-299.3686587273646
 31
0.0
  0
LINE
  5
460
330
18
100
AcDbEntity
  8
35
100
AcDbLine
 10
7572.744220222204
 20
-275.1199474214009
 30
0.0
 11
7572.744220222204
 21
-185.6173700333286
 31
0.0
  0
ARC
  5
464
330
18
100
AcDbEntity
  8
35
100
AcDbCircle
 10
7581.744220222202
 20
-185.6173700333288
 30
0.0
 40
9.0
100
AcDbArc
 50
119.9999999999999
 51
180.0
  0
ARC
  5
468
330
18
100
AcDbEntity
  8
35
100
AcDbCircle
 10
7581.744220222202
 20
-275.1199474214009
 30
0.0
 40
9.0
100
AcDbArc
 50
180.0
 51
240.0000000000001
  0
DIMENSION
  5
B2B
330
18
100
AcDbEntity
  8
KOTIERUNG
100
AcDbDimension
  2
*D0
 10
7228.389483783478
 20
-535.368658727365
 30
0.0
 11
7199.441895959466
 21
-100.3686587273639
 31
0.0
 70
    32
 71
     5
 42
870.0
  3
TYPENBLATT_M10
100
AcDbAlignedDimension
 13
7387.399828452678
 23
334.6313412726349
 33
0.0
 14
7338.117635457116
 24
-535.368658727365
 34
0.0
 50
90.0
100
AcDbRotatedDimension
1001
ACAD
1000
DSTYLE
1002
{
1070
   178
1070
   256
1002
}
  0
ARC
  5
D0F
330
18
100
AcDbEntity
  8
35
100
AcDbCircle
 10
7643.744220222202
 20
-891.6768050352533
 30
0.0
 40
11.0
100
AcDbArc
 50
180.0
 51
264.3968516704707
  0
ARC
  5
D11
330
18
100
AcDbEntity
  8
35
100
AcDbCircle
 10
7643.744220222202
 20
-831.6240855210931
 30
0.0
 40
11.0
100
AcDbArc
 50
95.60314832952933
 51
180.0
  0
LINE
  5
D12
330
18
100
AcDbEntity
  8
35
100
AcDbLine
 10
7632.744220222202
 20
-891.6768050352539
 30
0.0
 11
7632.744220222202
 21
-861.6504452781738
 31
0.0
  0
LINE
  5
D16
330
18
100
AcDbEntity
  8
35
100
AcDbLine
 10
7632.744220222202
 20
-831.6240855210935
 30
0.0
 11
7632.744220222202
 21
-861.6504452781738
 31
0.0
  0
LINE
  5
D1A
330
18
100
AcDbEntity
  8
35
100
AcDbLine
 10
7642.670206775325
 20
-902.6242474359206
 30
0.0
 11
7760.670206775325
 21
-914.2007949155249
 31
0.0
  0
LINE
  5
D1D
330
18
100
AcDbEntity
  8
35
100
AcDbLine
 10
7642.670206775325
 20
-820.6766431204268
 30
0.0
 11
7760.670206775325
 21
-809.1000956408224
 31
0.0
  0
LINE
  5
D1E
330
18
100
AcDbEntity
  8
35
100
AcDbLine
 10
7772.744220222202
 20
-884.1504452781737
 30
0.0
 11
7772.744220222202
 21
-903.2533525148574
 31
0.0
  0
LINE
  5
D21
330
18
100
AcDbEntity
  8
35
100
AcDbLine
 10
7772.744220222202
 20
-839.1504452781736
 30
0.0
 11
7772.744220222202
 21
-820.0475380414891
 31
0.0
  0
ARC
  5
D25
330
18
100
AcDbEntity
  8
35
100
AcDbCircle
 10
7761.744220222202
 20
-820.0475380414886
 30
0.0
 40
11.0
100
AcDbArc
 50
0.0
 51
95.60314832952931
  0
ARC
  5
D27
330
18
100
AcDbEntity
  8
35
100
AcDbCircle
 10
7761.744220222202
 20
-903.2533525148568
 30
0.0
 40
11.0
100
AcDbArc
 50
264.3968516704707
 51
0.0
  0
MTEXT
  5
10E0
330
18
100
AcDbEntity
  8
KOTIERUNG
100
AcDbMText
 10
7495.698312492914
 20
470.9395909145314
 30
0.0
 40
25.0
 41
0.0
 71
     4
 72
     1
  1
\A1;
  7
VOEST
 73
     1
 44
1.0
1001
ACAD
1000
MTEXTBEGIN
1070
    73
1070
     1
1070
    44
1040
1.0
1070
    74
1070
     0
1000
MTEXTEND
  0
LINE
  5
180B
330
18
100
AcDbEntity
  8
25
100
AcDbLine
 10
7959.744220222197
 20
814.631341272635
 30
0.0
 11
7799.744220222201
 21
814.631341272635
 31
0.0
  0
LINE
  5
182D
330
18
100
AcDbEntity
  8
25
100
AcDbLine
 10
7799.744220222203
 20
-1685.368658727365
 30
0.0
 11
7799.744220222201
 21
814.631341272635
 31
0.0
  0
LINE
  5
182E
330
18
100
AcDbEntity
  8
25
100
AcDbLine
 10
7959.744220222197
 20
-1685.368658727365
 30
0.0
 11
7959.744220222197
 21
814.631341272635
 31
0.0
  0
DIMENSION
  5
18A2
330
18
100
AcDbEntity
  8
25
100
AcDbDimension
  2
*D1
 10
7135.760592231346
 20
-535.368658727365
 30
0.0
 11
7106.813004407334
 21
164.6313412726361
 31
0.0
 70
    32
 71
     5
 42
1400.0
  3
TYPENBLATT_M10
100
AcDbAlignedDimension
 13
7792.744220222203
 23
864.631341272635
 33
0.0
 14
7212.676983783478
 24
-535.368658727365
 34
0.0
 50
90.0
100
AcDbRotatedDimension
1001
ACAD
1000
DSTYLE
1002
{
1070
   178
1070
   256
1002
}
  0
LINE
  5
1CE0
330
18
100
AcDbEntity
  8
KOTIERUNG
100
AcDbLine
 10
7632.744220222204
 20
-1785.368658727365
 30
0.0
 11
7772.744220222204
 21
-1785.368658727365
 31
0.0
  0
DIMENSION
  5
1CE1
330
18
100
AcDbEntity
  8
KOTIERUNG
100
AcDbDimension
  2
*D2
 10
7318.117635457117
 20
707.0642300128028
 30
0.0
 11
7527.976943918566
 21
707.0642300128028
 31
0.0
 70
   160
 71
     5
 42
399.8265847650846
  3
TYPENBLATT_M10
100
AcDbAlignedDimension
 13
7717.9442202222
 23
842.3237062695552
 33
0.0
 14
7318.117635457117
 24
277.1799087992172
 34
0.0
100
AcDbRotatedDimension
1001
ACAD
1000
DSTYLE
1002
{
1070
   178
1070
   256
1002
}
  0
LINE
  5
1D83
330
18
100
AcDbEntity
  8
KOTIERUNG
100
AcDbLine
 10
7799.744220222201
 20
-1685.368658727365
 30
0.0
 11
7959.744220222197
 21
-1685.368658727365
 31
0.0
  0
ARC
  5
1E93
330
18
100
AcDbEntity
  8
25
 62
     2
100
AcDbCircle
 10
7778.944220222202
 20
665.2925591441611
 30
0.0
 40
20.8
100
AcDbArc
 50
299.3725732019015
 51
0.0
  0
ARC
  5
1E95
330
18
100
AcDbEntity
  8
35
100
AcDbCircle
 10
7776.144220222201
 20
669.9538633996374
 30
0.0
 40
14.0
100
AcDbArc
 50
299.3725732019015
 51
359.9999999999999
  0
LINE
  5
1E98
330
18
100
AcDbEntity
  8
35
100
AcDbLine
 10
7726.568697809293
 20
567.6056255697585
 30
0.0
 11
7792.944220222202
 21
530.6313412726353
 31
0.0
  0
LINE
  5
1E9A
330
18
100
AcDbEntity
  8
35
100
AcDbLine
 10
7726.504044370291
 20
625.9491573223833
 30
0.0
 11
7783.011033432124
 21
657.7535815856788
 31
0.0
  0
ARC
  5
1E9D
330
18
100
AcDbEntity
  8
35
100
AcDbCircle
 10
7734.7442202222
 20
582.2821658049788
 30
0.0
 40
16.8
100
AcDbArc
 50
180.0
 51
240.8801387770752
  0
ARC
  5
1E9E
330
18
100
AcDbEntity
  8
35
100
AcDbCircle
 10
7734.744220222201
 20
611.3088191456336
 30
0.0
 40
16.8
100
AcDbArc
 50
119.3725732019014
 51
180.0
  0
LINE
  5
1EA0
330
18
100
AcDbEntity
  8
35
100
AcDbLine
 10
7717.9442202222
 20
611.3088191456334
 30
0.0
 11
7717.9442202222
 21
582.2821658049786
 31
0.0
  0
LINE
  5
1EA4
330
18
100
AcDbEntity
  8
25
 62
     2
100
AcDbLine
 10
7732.639353643683
 20
615.362001900128
 30
0.0
 11
7789.146342705517
 21
647.1664261634229
 31
0.0
  0
LINE
  5
1EA9
330
18
100
AcDbEntity
  8
25
 62
     2
100
AcDbLine
 10
7732.620688974103
 20
779.911185877857
 30
0.0
 11
7789.127678035936
 21
748.1067616145618
 31
0.0
  0
ARC
  5
1EAA
330
18
100
AcDbEntity
  8
35
100
AcDbCircle
 10
7734.744220222201
 20
783.9538633996371
 30
0.0
 40
16.8
100
AcDbArc
 50
180.0
 51
240.6274267980986
  0
LINE
  5
1EAD
330
18
100
AcDbEntity
  8
35
100
AcDbLine
 10
7726.504044370291
 20
769.3135252228871
 30
0.0
 11
7783.011033432128
 21
737.5091009595917
 31
0.0
  0
ARC
  5
1EB4
330
18
100
AcDbEntity
  8
25
 62
     2
100
AcDbCircle
 10
7778.925555552619
 20
729.980628633824
 30
0.0
 40
20.8
100
AcDbArc
 50
0.0000000000000239
 51
60.62742679809857
  0
LINE
  5
1EB5
330
18
100
AcDbEntity
  8
25
 62
     2
100
AcDbLine
 10
7799.744220222203
 20
697.6313412726351
 30
0.0
 11
7799.744220222201
 21
665.2925591441612
 31
0.0
  0
LINE
  5
1EB6
330
18
100
AcDbEntity
  8
25
 62
     2
100
AcDbLine
 10
7799.744220222203
 20
697.6313412726351
 30
0.0
 11
7799.725555552621
 21
729.9806286338239
 31
0.0
  0
ARC
  5
1EB8
330
18
100
AcDbEntity
  8
35
100
AcDbCircle
 10
7776.144220222201
 20
725.3088191456338
 30
0.0
 40
14.0
100
AcDbArc
 50
0.0000000000000239
 51
60.62742679809851
  0
LINE
  5
1EBA
330
18
100
AcDbEntity
  8
35
100
AcDbLine
 10
7790.144220222201
 20
697.631341272635
 30
0.0
 11
7790.144220222202
 21
725.3088191456336
 31
0.0
  0
LINE
  5
1EBC
330
18
100
AcDbEntity
  8
35
100
AcDbLine
 10
7790.144220222201
 20
697.631341272635
 30
0.0
 11
7790.144220222201
 21
669.9538633996369
 31
0.0
  0
LINE
  5
1EBF
330
18
100
AcDbEntity
  8
35
100
AcDbLine
 10
7726.568697809293
 20
827.657056975512
 30
0.0
 11
7792.944220222202
 21
864.6313412726353
 31
0.0
  0
LINE
  5
1EC1
330
18
100
AcDbEntity
  8
35
100
AcDbLine
 10
7717.9442202222
 20
783.953863399637
 30
0.0
 11
7717.9442202222
 21
812.9805167402917
 31
0.0
  0
ARC
  5
1EC3
330
18
100
AcDbEntity
  8
35
100
AcDbCircle
 10
7734.744220222201
 20
812.9805167402921
 30
0.0
 40
16.8
100
AcDbArc
 50
119.1198612229247
 51
180.0
  0
LINE
  5
8CEA
330
18
100
AcDbEntity
  8
LS
100
AcDbLine
 10
7381.262317318181
 20
320.7786158427941
 30
0.0
 11
7340.364800002856
 21
292.0141746446259
 31
0.0
  0
LINE
  5
8CEE
330
18
100
AcDbEntity
  8
LS
100
AcDbLine
 10
7413.428799826836
 20
14.73497804506905
 30
0.0
 11
7367.444527783944
 21
34.36777521422801
 31
0.0
  0
LINE
  5
8CF2
330
18
100
AcDbEntity
  8
LS
100
AcDbLine
 10
7785.392326914628
 20
851.4960471293106
 30
0.0
 11
7741.712147643136
 21
827.1641351861324
 31
0.0
  0
LINE
  5
8CFD
330
18
100
AcDbEntity
  8
35
100
AcDbLine
 10
7959.744220222198
 20
-907.4868195966413
 30
0.0
 11
7959.744220222198
 21
-825.4868195966412
 31
0.0
  0
LINE
  5
8D05
330
18
100
AcDbEntity
  8
35
100
AcDbLine
 10
7799.744220222201
 20
-825.4868195966412
 30
0.0
 11
7799.744220222201
 21
-907.4868195966413
 31
0.0
  0
LINE
  5
8D07
330
18
100
AcDbEntity
  8
35
100
AcDbLine
 10
7799.744220222201
 20
-866.4868195966413
 30
0.0
 11
7959.744220222197
 21
-866.4868195966413
 31
0.0
  0
TEXT
  5
8D1C
330
18
100
AcDbEntity
  8
TEXT
100
AcDbText
 10
6911.932960843597
 20
1062.477942868787
 30
0.0
 40
100.0
  1
KREMSBARRIER 1 RH3
  7
VOESTB
100
AcDbText
  0
TEXT
  5
8D1D
330
18
100
AcDbEntity
  8
TEXT
100
AcDbText
 10
7099.839271779308
 20
941.1626471302225
 30
0.0
 40
75.0
  1
Steherabstand 1,90m
  7
VOESTB
100
AcDbText
  0
VIEWPORT
  5
1DF
102
{ACAD_XDICTIONARY
360
8D30
102
}
330
15
100
AcDbEntity
 67
     1
  8
0
100
AcDbViewport
 10
153.3431316254467
 20
161.2769831011094
 30
0.0
 40
479.4926781383508
 41
316.6161263266492
 68
     1
 69
     1
 12
153.3431316254467
 22
161.2769831011094
 13
0.0
 23
0.0
 14
0.5
 24
0.5
 15
0.5
 25
0.5
 16
0.0
 26
0.0
 36
1.0
 17
0.0
 27
0.0
 37
0.0
 42
50.0
 43
0.0
 44
0.0
 45
316.6161263266492
 50
0.0
 51
0.0
 72
   100
 90
    32800
  1

281
     0
 71
     1
 74
     0
110
0.0
120
0.0
130
0.0
111
1.0
121
0.0
131
0.0
112
0.0
122
1.0
132
0.0
 79
     0
146
0.0
  0
VIEWPORT
  5
477
102
{ACAD_XDICTIONARY
360
8D32
102
}
330
15
100
AcDbEntity
 67
     1
  8
FENSTER
100
AcDbViewport
 10
114.1925007664705
 20
159.2894491576392
 30
0.0
 40
140.483208528389
 41
260.6091063646591
 68
     2
 69
     2
 12
7557.902486488008
 22
-296.2881903844282
 13
0.0
 23
0.0
 14
0.5
 24
0.5
 15
0.5
 25
0.5
 16
0.0
 26
0.0
 36
1.0
 17
0.0
 27
0.0
 37
0.0
 42
50.0
 43
0.0
 44
0.0
 45
3015.975240571283
 50
0.0
 51
0.0
 72
   100
 90
    32800
  1

281
     0
 71
     1
 74
     0
110
0.0
120
0.0
130
0.0
111
1.0
121
0.0
131
0.0
112
0.0
122
1.0
132
0.0
 79
     0
146
0.0
  0
MTEXT
  5
13A5
330
15
100
AcDbEntity
 67
     1
  8
KOTIERUNG
100
AcDbMText
 10
334.574239722046
 20
33.70865160095127
 30
0.0
 40
2.5
 41
0.0
 71
     4
 72
     1
  1
\A1;
  7
VOEST
 73
     1
 44
1.0
1001
ACAD
1000
MTEXTBEGIN
1070
    73
1070
     1
1070
    44
1040
1.0
1070
    74
1070
     0
1000
MTEXTEND
  0
MTEXT
  5
1505
330
15
100
AcDbEntity
 67
     1
  8
BLATTTEXT
100
AcDbMText
 10
170.1309310268098
 20
188.4899274501241
 30
0.0
 40
125.0
 41
0.0
 71
     4
 72
     1
  1
\A1;
  7
VOEST
 73
     1
 44
1.0
1001
ACAD
1000
MTEXTBEGIN
1070
    73
1070
     1
1070
    44
1040
1.0
1070
    74
1070
     0
1000
MTEXTEND
  0
MTEXT
  5
1509
330
15
100
AcDbEntity
 67
     1
  8
BLATTTEXT
100
AcDbMText
 10
122.2170016261258
 20
214.8213238210264
 30
0.0
 40
2.5
 41
0.0
 71
     4
 72
     1
  1
\A1;
  7
VOEST
 73
     1
 44
1.0
1001
ACAD
1000
MTEXTBEGIN
1070
    73
1070
     1
1070
    44
1040
1.0
1070
    74
1070
     0
1000
MTEXTEND
  0
MTEXT
  5
150D
330
15
100
AcDbEntity
 67
     1
  8
BLATTTEXT
100
AcDbMText
 10
122.2170016261258
 20
214.9995195096872
 30
0.0
 40
2.5
 41
0.0
 71
     4
 72
     1
  1
\A1;
  7
VOEST
 73
     1
 44
1.0
1001
ACAD
1000
MTEXTBEGIN
1070
    73
1070
     1
1070
    44
1040
1.0
1070
    74
1070
     0
1000
MTEXTEND
  0
MTEXT
  5
150F
330
15
100
AcDbEntity
 67
     1
  8
BLATTTEXT
100
AcDbMText
 10
122.2170016261258
 20
214.9995195096872
 30
0.0
 40
2.5
 41
0.0
 71
     4
 72
     1
  1
\A1;
  7
VOEST
 73
     1
 44
1.0
1001
ACAD
1000
MTEXTBEGIN
1070
    73
1070
     1
1070
    44
1040
1.0
1070
    74
1070
     0
1000
MTEXTEND
  0
MTEXT
  5
1513
330
15
100
AcDbEntity
 67
     1
  8
BLATTTEXT
100
AcDbMText
 10
130.9001099666395
 20
219.6788439368279
 30
0.0
 40
2.5
 41
0.0
 71
     4
 72
     1
  1
\A1;
  7
VOEST
 73
     1
 44
1.0
1001
ACAD
1000
MTEXTBEGIN
1070
    73
1070
     1
1070
    44
1040
1.0
1070
    74
1070
     0
1000
MTEXTEND
  0
INSERT
  5
1F3B
330
15
100
AcDbEntity
 67
     1
  8
25
100
AcDbBlockReference
  2
LOGO ACAD
 10
25.18755427600467
 20
34.34000886869126
 30
0.0
 41
1.199999999999999
 42
1.199999999999999
 43
1.199999999999999
  0
MTEXT
  5
8055
330
15
100
AcDbEntity
 67
     1
  8
BLATTTEXT
100
AcDbMText
 10
247.642137778342
 20
247.9744527537337
 30
0.0
 40
2.5
 41
0.0
 71
     4
 72
     1
  1
\A1; 
  7
VOEST
 11
0.0000000000000001
 21
1.0
 31
0.0
 73
     1
 44
1.0
1001
ACAD
1000
MTEXTBEGIN
1070
    73
1070
     1
1070
    44
1040
1.0
1070
    74
1070
     0
1000
MTEXTEND
  0
MTEXT
  5
805C
330
15
100
AcDbEntity
 67
     1
  8
BLATTTEXT
100
AcDbMText
 10
145.9147327726372
 20
127.8531824127017
 30
0.0
 40
2.5
 41
0.0
 71
     4
 72
     1
  1
\A1; 
  7
VOEST
 11
-0.0000000000000002
 21
-1.0
 31
0.0
 73
     1
 44
1.0
1001
ACAD
1000
MTEXTBEGIN
1070
    73
1070
     1
1070
    44
1040
1.0
1070
    74
1070
     0
1000
MTEXTEND
  0
ENDSEC
  0
SECTION
  2
OBJECTS
  0
DICTIONARY
  5
C
330
0
100
AcDbDictionary
281
     1
  3
ACAD_COLOR
350
8D0C
  3
ACAD_GROUP
350
D
  3
ACAD_LAYOUT
350
16EC
  3
ACAD_MATERIAL
350
8D0B
  3
ACAD_MLINESTYLE
350
1B
  3
ACAD_PLOTSETTINGS
350
16ED
  3
ACAD_PLOTSTYLENAME
350
16EA
  3
AcadDim
350
7E05
  3
ACDBHEADERROUNDTRIPXREC
350
8D2D
  3
ACDBVARIABLEDICTIONARY
350
1109
  3
CONTENTDICTIONARY
350
23
  0
DICTIONARY
  5
8D30
330
1DF
100
AcDbDictionary
280
     1
281
     1
  3
ACAD_XREC_ROUNDTRIP
360
8D31
  0
DICTIONARY
  5
8D32
330
477
100
AcDbDictionary
280
     1
281
     1
  3
ACAD_XREC_ROUNDTRIP
360
8D33
  0
DICTIONARY
  5
8D0C
102
{ACAD_REACTORS
330
C
102
}
330
C
100
AcDbDictionary
281
     1
  0
DICTIONARY
  5
D
102
{ACAD_REACTORS
330
C
102
}
330
C
100
AcDbDictionary
281
     1
  3
*A1
350
2B48
  3
*A10
350
8AE4
  3
*A11
350
1F8A
  3
*A12
350
2B49
  3
*A13
350
8AE5
  3
*A14
350
8AE6
  3
*A15
350
8AE7
  3
*A16
350
95A
  3
*A17
350
2B4B
  3
*A18
350
2B4C
  3
*A19
350
2B4D
  3
*A2
350
95B
  3
*A20
350
95D
  3
*A21
350
2B4E
  3
*A22
350
2B4F
  3
*A23
350
8AE3
  3
*A3
350
1F8B
  3
*A4
350
95C
  3
*A5
350
1E86
  3
*A6
350
2B4A
  3
*A7
350
1B2
  3
*A8
350
1D2
  3
*A9
350
8AE2
  0
DICTIONARY
  5
16EC
102
{ACAD_REACTORS
330
C
102
}
330
C
100
AcDbDictionary
281
     1
  3
KB1RH3
350
16EF
  3
Model
350
16EE
  0
DICTIONARY
  5
8D0B
102
{ACAD_REACTORS
330
C
102
}
330
C
100
AcDbDictionary
281
     1
  0
DICTIONARY
  5
1B
102
{ACAD_REACTORS
330
C
102
}
330
C
100
AcDbDictionary
281
     1
  3
STANDARD
350
1C
  0
DICTIONARY
  5
16ED
102
{ACAD_REACTORS
330
C
102
}
330
C
100
AcDbDictionary
281
     1
  0
ACDBDICTIONARYWDFLT
  5
16EA
102
{ACAD_REACTORS
330
C
102
}
330
C
100
AcDbDictionary
281
     1
  3
Normal
350
16EB
100
AcDbDictionaryWithDefault
340
16EB
  0
XRECORD
  5
7E05
102
{ACAD_REACTORS
330
C
102
}
330
C
100
AcDbXrecord
280
     1
 90
   990106
  3

 60
     0
 61
     0
 62
     1
 63
     3
 64
     0
 65
     0
 66
     0
 67
     3
 68
     1
 69
     0
 70
     0
 71
     0
 72
     0
 40
0.0
170
     0
  0
DICTIONARY
  5
8D2D
102
{ACAD_REACTORS
330
C
102
}
330
C
100
AcDbDictionary
281
     1
  3
COLORDICT
350
8D2F
  3
MATERIALDICT
350
8D2E
  0
DICTIONARY
  5
1109
102
{ACAD_REACTORS
330
C
102
}
330
C
100
AcDbDictionary
281
     1
  3
DIMASSOC
350
8D2B
  3
PROJECTNAME
350
8D2C
  3
SORTENTS
350
110A
  0
DICTIONARY
  5
23
102
{ACAD_REACTORS
330
C
102
}
330
C
100
AcDbDictionary
281
     1
  0
XRECORD
  5
8D31
102
{ACAD_REACTORS
330
8D30
102
}
330
8D30
100
AcDbXrecord
280
     1
102
SHADEPLOT
 70
     0
  0
XRECORD
  5
8D33
102
{ACAD_REACTORS
330
8D32
102
}
330
8D32
100
AcDbXrecord
280
     1
102
SHADEPLOT
 70
     0
  0
GROUP
  5
2B48
102
{ACAD_REACTORS
330
D
102
}
330
D
100
AcDbGroup
300

 70
     1
 71
     1
  0
GROUP
  5
8AE4
102
{ACAD_REACTORS
330
D
102
}
330
D
100
AcDbGroup
300

 70
     1
 71
     1
  0
GROUP
  5
1F8A
102
{ACAD_REACTORS
330
D
102
}
330
D
100
AcDbGroup
300

 70
     1
 71
     1
  0
GROUP
  5
2B49
102
{ACAD_REACTORS
330
D
102
}
330
D
100
AcDbGroup
300

 70
     1
 71
     1
  0
GROUP
  5
8AE5
102
{ACAD_REACTORS
330
D
102
}
330
D
100
AcDbGroup
300

 70
     1
 71
     1
  0
GROUP
  5
8AE6
102
{ACAD_REACTORS
330
D
102
}
330
D
100
AcDbGroup
300

 70
     1
 71
     1
  0
GROUP
  5
8AE7
102
{ACAD_REACTORS
330
D
102
}
330
D
100
AcDbGroup
300

 70
     1
 71
     1
  0
GROUP
  5
95A
102
{ACAD_REACTORS
330
D
102
}
330
D
100
AcDbGroup
300

 70
     1
 71
     1
  0
GROUP
  5
2B4B
102
{ACAD_REACTORS
330
D
102
}
330
D
100
AcDbGroup
300

 70
     1
 71
     1
  0
GROUP
  5
2B4C
102
{ACAD_REACTORS
330
D
102
}
330
D
100
AcDbGroup
300

 70
     1
 71
     1
  0
GROUP
  5
2B4D
102
{ACAD_REACTORS
330
D
102
}
330
D
100
AcDbGroup
300

 70
     1
 71
     1
  0
GROUP
  5
95B
102
{ACAD_REACTORS
330
D
102
}
330
D
100
AcDbGroup
300

 70
     1
 71
     1
  0
GROUP
  5
95D
102
{ACAD_REACTORS
330
D
102
}
330
D
100
AcDbGroup
300

 70
     1
 71
     1
  0
GROUP
  5
2B4E
102
{ACAD_REACTORS
330
D
102
}
330
D
100
AcDbGroup
300

 70
     1
 71
     1
  0
GROUP
  5
2B4F
102
{ACAD_REACTORS
330
D
102
}
330
D
100
AcDbGroup
300

 70
     1
 71
     1
  0
GROUP
  5
8AE3
102
{ACAD_REACTORS
330
D
102
}
330
D
100
AcDbGroup
300

 70
     1
 71
     1
  0
GROUP
  5
1F8B
102
{ACAD_REACTORS
330
D
102
}
330
D
100
AcDbGroup
300

 70
     1
 71
     1
  0
GROUP
  5
95C
102
{ACAD_REACTORS
330
D
102
}
330
D
100
AcDbGroup
300

 70
     1
 71
     1
  0
GROUP
  5
1E86
102
{ACAD_REACTORS
330
D
102
}
330
D
100
AcDbGroup
300

 70
     1
 71
     1
  0
GROUP
  5
2B4A
102
{ACAD_REACTORS
330
D
102
}
330
D
100
AcDbGroup
300

 70
     1
 71
     1
  0
GROUP
  5
1B2
102
{ACAD_REACTORS
330
D
102
}
330
D
100
AcDbGroup
300

 70
     1
 71
     1
  0
GROUP
  5
1D2
102
{ACAD_REACTORS
330
D
102
}
330
D
100
AcDbGroup
300

 70
     1
 71
     1
  0
GROUP
  5
8AE2
102
{ACAD_REACTORS
330
D
102
}
330
D
100
AcDbGroup
300

 70
     1
 71
     1
  0
LAYOUT
  5
16EF
102
{ACAD_XDICTIONARY
360
8D36
102
}
102
{ACAD_REACTORS
330
16EC
102
}
330
16EC
100
AcDbPlotSettings
  1

  2
\\VAKF11\Lexmark Optra E312 lex15
  4
A4
  6

 40
6.805083274841308
 41
5.535083293914794
 42
6.974411010742187
 43
7.14373779296875
 44
209.9733276367187
 45
296.9259948730469
 46
0.0
 47
0.0
 48
16.65039792250013
 49
17.2260091523874
140
214.3858294265624
141
299.1966492105656
142
1.0
143
1.007857526032267
 70
   690
 72
     1
 73
     0
 74
     4
  7
monochrome.ctb
 75
     0
147
0.9922037333359988
148
-16.65039792250013
149
-17.2260091523874
100
AcDbLayout
  1
KB1RH3
 70
     1
 71
     1
 10
9.791843528675007
 20
11.6474337973999
 11
221.4150420533812
 21
310.9065324048188
 12
0.0
 22
0.0
 32
0.0
 14
25.2631664434597
 24
22.83473931200745
 34
0.0
 15
249.6262782967595
 25
289.5940023399687
 35
0.0
146
0.0
 13
0.0
 23
0.0
 33
0.0
 16
1.0
 26
0.0
 36
0.0
 17
0.0
 27
1.0
 37
0.0
 76
     0
330
15
331
1DF
  0
LAYOUT
  5
16EE
102
{ACAD_XDICTIONARY
360
8D34
102
}
102
{ACAD_REACTORS
330
16EC
102
}
330
16EC
100
AcDbPlotSettings
  1

  2
\\VAKF3\Lexmark Optra R Plus Series lex4 FS
  4

  6

 40
0.0
 41
0.0
 42
0.0
 43
0.0
 44
0.0
 45
0.0
 46
0.0
 47
0.0
 48
0.0
 49
0.0
140
0.0
141
0.0
142
1.0
143
1.0
 70
 11952
 72
     0
 73
     1
 74
     0
  7

 75
     0
147
1.0
148
-173675.1017672017
149
18410.35045465417
100
AcDbLayout
  1
Model
 70
     1
 71
     0
 10
0.0
 20
0.0
 11
12.0
 21
9.0
 12
0.0
 22
0.0
 32
0.0
 14
0.0
 24
0.0
 34
0.0
 15
0.0
 25
0.0
 35
0.0
146
0.0
 13
0.0
 23
0.0
 33
0.0
 16
1.0
 26
0.0
 36
0.0
 17
0.0
 27
1.0
 37
0.0
 76
     0
330
18
  0
MLINESTYLE
  5
1C
102
{ACAD_REACTORS
330
1B
102
}
330
1B
100
AcDbMlineStyle
  2
STANDARD
 70
     0
  3

 62
   256
 51
90.0
 52
90.0
 71
     2
 49
0.5
 62
   256
  6
BYLAYER
 49
-0.5
 62
   256
  6
BYLAYER
  0
ACDBPLACEHOLDER
  5
16EB
102
{ACAD_REACTORS
330
16EA
102
}
330
16EA
  0
XRECORD
  5
8D2F
102
{ACAD_REACTORS
330
8D2D
102
}
330
8D2D
100
AcDbXrecord
280
     1
340
8D0C
  0
XRECORD
  5
8D2E
102
{ACAD_REACTORS
330
8D2D
102
}
330
8D2D
100
AcDbXrecord
280
     1
340
8D0B
  0
DICTIONARYVAR
  5
8D2B
102
{ACAD_REACTORS
330
1109
102
}
330
1109
100
DictionaryVariables
280
     0
  1
1
  0
DICTIONARYVAR
  5
8D2C
102
{ACAD_REACTORS
330
1109
102
}
330
1109
100
DictionaryVariables
280
     0
  1

  0
DICTIONARYVAR
  5
110A
102
{ACAD_REACTORS
330
1109
102
}
330
1109
100
DictionaryVariables
280
     0
  1
96
  0
DICTIONARY
  5
8D36
330
16EF
100
AcDbDictionary
280
     1
281
     1
  3
ACAD_XREC_ROUNDTRIP
360
8D37
  0
DICTIONARY
  5
8D34
330
16EE
100
AcDbDictionary
280
     1
281
     1
  3
ACAD_XREC_ROUNDTRIP
360
8D35
  0
XRECORD
  5
8D37
102
{ACAD_REACTORS
330
8D36
102
}
330
8D36
100
AcDbXrecord
280
     1
102
SHADEPLOT
 70
     1
102
SHADEPLOTRESLEVEL
 70
     2
102
SHADEPLOTCUSTOMDPI
 70
   150
  0
XRECORD
  5
8D35
102
{ACAD_REACTORS
330
8D34
102
}
330
8D34
100
AcDbXrecord
280
     1
102
SHADEPLOT
 70
     0
102
SHADEPLOTRESLEVEL
 70
     2
102
SHADEPLOTCUSTOMDPI
 70
   300
  0
ENDSEC
  0
EOF
