  0
SECTION
  2
HEADER
  9
$ACADVER
  1
AC1015
  9
$ACADMAINTVER
 70
    20
  9
$DWGCODEPAGE
  3
ANSI_1252
  9
$INSBASE
 10
0.0
 20
0.0
 30
0.0
  9
$EXTMIN
 10
14670.24142432923
 20
-5844.266040953399
 30
0.0
  9
$EXTMAX
 10
19550.79913885029
 20
-3111.927409573574
 30
0.0
  9
$LIMMIN
 10
-1091.180495341761
 20
-619.6501650024412
  9
$LIMMAX
 10
1056.97244419739
 20
951.0353648293053
  9
$ORTHOMODE
 70
     0
  9
$REGENMODE
 70
     1
  9
$FILLMODE
 70
     1
  9
$QTEXTMODE
 70
     0
  9
$MIRRTEXT
 70
     1
  9
$LTSCALE
 40
1.0
  9
$ATTMODE
 70
     1
  9
$TEXTSIZE
 40
4.0
  9
$TRACEWID
 40
0.05
  9
$TEXTSTYLE
  7
AN150
  9
$CLAYER
  8
Dämpfungsbügel
  9
$CELTYPE
  6
BYLAYER
  9
$CECOLOR
 62
   256
  9
$CELTSCALE
 40
1.0
  9
$DISPSILH
 70
     0
  9
$DIMSCALE
 40
100.0
  9
$DIMASZ
 40
0.25
  9
$DIMEXO
 40
0.5
  9
$DIMDLI
 40
0.5
  9
$DIMRND
 40
0.0
  9
$DIMDLE
 40
0.0
  9
$DIMEXE
 40
0.25
  9
$DIMTP
 40
0.0
  9
$DIMTM
 40
0.0
  9
$DIMTXT
 40
0.25
  9
$DIMCEN
 40
0.09
  9
$DIMTSZ
 40
0.0
  9
$DIMTOL
 70
     0
  9
$DIMLIM
 70
     0
  9
$DIMTIH
 70
     0
  9
$DIMTOH
 70
     0
  9
$DIMSE1
 70
     0
  9
$DIMSE2
 70
     0
  9
$DIMTAD
 70
     1
  9
$DIMZIN
 70
     0
  9
$DIMBLK
  1

  9
$DIMASO
 70
     1
  9
$DIMSHO
 70
     1
  9
$DIMPOST
  1

  9
$DIMAPOST
  1

  9
$DIMALT
 70
     0
  9
$DIMALTD
 70
     2
  9
$DIMALTF
 40
25.4
  9
$DIMLFAC
 40
1.0
  9
$DIMTOFL
 70
     0
  9
$DIMTVP
 40
0.0
  9
$DIMTIX
 70
     0
  9
$DIMSOXD
 70
     0
  9
$DIMSAH
 70
     0
  9
$DIMBLK1
  1

  9
$DIMBLK2
  1

  9
$DIMSTYLE
  2
TYPENBLATT_M10
  9
$DIMCLRD
 70
     0
  9
$DIMCLRE
 70
     0
  9
$DIMCLRT
 70
     0
  9
$DIMTFAC
 40
1.0
  9
$DIMGAP
 40
0.075
  9
$DIMJUST
 70
     0
  9
$DIMSD1
 70
     0
  9
$DIMSD2
 70
     0
  9
$DIMTOLJ
 70
     1
  9
$DIMTZIN
 70
     0
  9
$DIMALTZ
 70
     0
  9
$DIMALTTZ
 70
     0
  9
$DIMUPT
 70
     0
  9
$DIMDEC
 70
     0
  9
$DIMTDEC
 70
     4
  9
$DIMALTU
 70
     2
  9
$DIMALTTD
 70
     2
  9
$DIMTXSTY
  7
VOEST
  9
$DIMAUNIT
 70
     0
  9
$DIMADEC
 70
     0
  9
$DIMALTRND
 40
0.0
  9
$DIMAZIN
 70
     0
  9
$DIMDSEP
 70
    46
  9
$DIMATFIT
 70
     3
  9
$DIMFRAC
 70
     0
  9
$DIMLDRBLK
  1

  9
$DIMLUNIT
 70
     2
  9
$DIMLWD
 70
    -2
  9
$DIMLWE
 70
    -2
  9
$DIMTMOVE
 70
     0
  9
$LUNITS
 70
     2
  9
$LUPREC
 70
     4
  9
$SKETCHINC
 40
0.1
  9
$FILLETRAD
 40
10.0
  9
$AUNITS
 70
     0
  9
$AUPREC
 70
     4
  9
$MENU
  1
acad
  9
$ELEVATION
 40
0.0
  9
$PELEVATION
 40
0.0
  9
$THICKNESS
 40
0.0
  9
$LIMCHECK
 70
     0
  9
$CHAMFERA
 40
0.0
  9
$CHAMFERB
 40
0.0
  9
$CHAMFERC
 40
1.0
  9
$CHAMFERD
 40
0.0
  9
$SKPOLY
 70
     0
  9
$TDCREATE
 40
2451353.418328530
  9
$TDUCREATE
 40
2451353.376661864
  9
$TDUPDATE
 40
2453710.454358796
  9
$TDUUPDATE
 40
2453710.412692130
  9
$TDINDWG
 40
3.3556861458
  9
$TDUSRTIMER
 40
3.3556861458
  9
$USRTIMER
 70
     1
  9
$ANGBASE
 50
0.0
  9
$ANGDIR
 70
     0
  9
$PDMODE
 70
     0
  9
$PDSIZE
 40
0.0
  9
$PLINEWID
 40
0.0
  9
$SPLFRAME
 70
     0
  9
$SPLINETYPE
 70
     6
  9
$SPLINESEGS
 70
    50
  9
$HANDSEED
  5
4384
  9
$SURFTAB1
 70
     6
  9
$SURFTAB2
 70
     6
  9
$SURFTYPE
 70
     6
  9
$SURFU
 70
     6
  9
$SURFV
 70
     6
  9
$UCSBASE
  2

  9
$UCSNAME
  2

  9
$UCSORG
 10
0.0
 20
0.0
 30
0.0
  9
$UCSXDIR
 10
1.0
 20
0.0
 30
0.0
  9
$UCSYDIR
 10
0.0
 20
1.0
 30
0.0
  9
$UCSORTHOREF
  2

  9
$UCSORTHOVIEW
 70
     0
  9
$UCSORGTOP
 10
0.0
 20
0.0
 30
0.0
  9
$UCSORGBOTTOM
 10
0.0
 20
0.0
 30
0.0
  9
$UCSORGLEFT
 10
0.0
 20
0.0
 30
0.0
  9
$UCSORGRIGHT
 10
0.0
 20
0.0
 30
0.0
  9
$UCSORGFRONT
 10
0.0
 20
0.0
 30
0.0
  9
$UCSORGBACK
 10
0.0
 20
0.0
 30
0.0
  9
$PUCSBASE
  2

  9
$PUCSNAME
  2

  9
$PUCSORG
 10
0.0
 20
0.0
 30
0.0
  9
$PUCSXDIR
 10
1.0
 20
0.0
 30
0.0
  9
$PUCSYDIR
 10
0.0
 20
1.0
 30
0.0
  9
$PUCSORTHOREF
  2

  9
$PUCSORTHOVIEW
 70
     0
  9
$PUCSORGTOP
 10
0.0
 20
0.0
 30
0.0
  9
$PUCSORGBOTTOM
 10
0.0
 20
0.0
 30
0.0
  9
$PUCSORGLEFT
 10
0.0
 20
0.0
 30
0.0
  9
$PUCSORGRIGHT
 10
0.0
 20
0.0
 30
0.0
  9
$PUCSORGFRONT
 10
0.0
 20
0.0
 30
0.0
  9
$PUCSORGBACK
 10
0.0
 20
0.0
 30
0.0
  9
$USERI1
 70
     0
  9
$USERI2
 70
     0
  9
$USERI3
 70
     0
  9
$USERI4
 70
     0
  9
$USERI5
 70
     0
  9
$USERR1
 40
0.0
  9
$USERR2
 40
0.0
  9
$USERR3
 40
0.0
  9
$USERR4
 40
0.0
  9
$USERR5
 40
0.0
  9
$WORLDVIEW
 70
     1
  9
$SHADEDGE
 70
     3
  9
$SHADEDIF
 70
    70
  9
$TILEMODE
 70
     1
  9
$MAXACTVP
 70
    48
  9
$PINSBASE
 10
0.0
 20
0.0
 30
0.0
  9
$PLIMCHECK
 70
     0
  9
$PEXTMIN
 10
0.8574641266502851
 20
1.072749859388778
 30
0.0
  9
$PEXTMAX
 10
32.48684314339033
 20
44.17903098561107
 30
0.0
  9
$PLIMMIN
 10
-0.1512494425135334
 20
-0.1512499963204692
  9
$PLIMMAX
 10
32.95874888502707
 20
46.65874996523219
  9
$UNITMODE
 70
     0
  9
$VISRETAIN
 70
     1
  9
$PLINEGEN
 70
     0
  9
$PSLTSCALE
 70
     1
  9
$TREEDEPTH
 70
  3020
  9
$CMLSTYLE
  2
STANDARD
  9
$CMLJUST
 70
     0
  9
$CMLSCALE
 40
1.0
  9
$PROXYGRAPHICS
 70
     1
  9
$MEASUREMENT
 70
     0
  9
$CELWEIGHT
370
    -1
  9
$ENDCAPS
280
     0
  9
$JOINSTYLE
280
     0
  9
$LWDISPLAY
290
     0
  9
$INSUNITS
 70
     0
  9
$HYPERLINKBASE
  1

  9
$STYLESHEET
  1
monochrome.ctb
  9
$XEDIT
290
     1
  9
$CEPSNTYPE
380
     0
  9
$PSTYLEMODE
290
     1
  9
$FINGERPRINTGUID
  2
{9534987B-55C5-11D5-8B32-0050046A49B2}
  9
$VERSIONGUID
  2
{7F573047-C014-48C6-ACCA-8E53876861E3}
  9
$EXTNAMES
290
     1
  9
$PSVPSCALE
 40
0.0
  9
$OLESTARTUP
290
     0
  0
ENDSEC
  0
SECTION
  2
CLASSES
  0
CLASS
  1
DICTIONARYVAR
  2
AcDbDictionaryVar
  3
ObjectDBX Classes
 90
        0
280
     0
281
     0
  0
CLASS
  1
ACDBDICTIONARYWDFLT
  2
AcDbDictionaryWithDefault
  3
ObjectDBX Classes
 90
        0
280
     0
281
     0
  0
CLASS
  1
ACDBPLACEHOLDER
  2
AcDbPlaceHolder
  3
ObjectDBX Classes
 90
        0
280
     0
281
     0
  0
CLASS
  1
LAYOUT
  2
AcDbLayout
  3
ObjectDBX Classes
 90
        0
280
     0
281
     0
  0
CLASS
  1
RASTERVARIABLES
  2
AcDbRasterVariables
  3
ISM
 90
        0
280
     0
281
     0
  0
CLASS
  1
IMAGEDEF
  2
AcDbRasterImageDef
  3
ISM
 90
        0
280
     0
281
     0
  0
CLASS
  1
IMAGEDEF_REACTOR
  2
AcDbRasterImageDefReactor
  3
ISM
 90
    32769
280
     0
281
     0
  0
CLASS
  1
IMAGE
  2
AcDbRasterImage
  3
ISM
 90
    32895
280
     0
281
     1
  0
CLASS
  1
DIMASSOC
  2
AcDbDimAssoc
  3
"AcDbDimAssoc|Product Desc:     AcDim ARX App For Dimension|Company:          Autodesk, Inc.|WEB Address:      www.autodesk.com"
 90
        0
280
     0
281
     0
  0
CLASS
  1
TABLESTYLE
  2
AcDbTableStyle
  3
ObjectDBX Classes
 90
     2047
280
     0
281
     0
  0
ENDSEC
  0
SECTION
  2
TABLES
  0
TABLE
  2
VPORT
  5
8
330
0
100
AcDbSymbolTable
 70
     2
  0
VPORT
  5
437C
330
8
100
AcDbSymbolTableRecord
100
AcDbViewportTableRecord
  2
*Active
 70
     0
 10
0.0
 20
0.0
 11
1.0
 21
1.0
 12
17137.83182154733
 22
-4478.026434500599
 13
0.0
 23
0.0
 14
0.5
 24
0.5
 15
0.5
 25
0.5
 16
0.0
 26
0.0
 36
1.0
 17
0.0
 27
0.0
 37
0.0
 40
3123.527662403846
 41
1.289855072463768
 42
50.0
 43
0.0
 44
0.0
 50
0.0
 51
0.0
 71
     0
 72
   100
 73
     1
 74
     1
 75
     0
 76
     0
 77
     0
 78
     0
281
     0
 65
     1
110
0.0
120
0.0
130
0.0
111
1.0
121
0.0
131
0.0
112
0.0
122
1.0
132
0.0
 79
     0
146
0.0
  0
ENDTAB
  0
TABLE
  2
LTYPE
  5
5
330
0
100
AcDbSymbolTable
 70
     3
  0
LTYPE
  5
12
330
5
100
AcDbSymbolTableRecord
100
AcDbLinetypeTableRecord
  2
BYBLOCK
 70
     0
  3

 72
    65
 73
     0
 40
0.0
  0
LTYPE
  5
13
330
5
100
AcDbSymbolTableRecord
100
AcDbLinetypeTableRecord
  2
BYLAYER
 70
     0
  3

 72
    65
 73
     0
 40
0.0
  0
LTYPE
  5
14
330
5
100
AcDbSymbolTableRecord
100
AcDbLinetypeTableRecord
  2
CONTINUOUS
 70
     0
  3
Solid line
 72
    65
 73
     0
 40
0.0
  0
LTYPE
  5
222
330
5
100
AcDbSymbolTableRecord
100
AcDbLinetypeTableRecord
  2
STRICHPUNKT
 70
     0
  3
Strichpunkt __ . __ . __ . __ . __ . __ . __ . 
 72
    65
 73
     4
 40
25.4
 49
12.7
 74
     0
 49
-6.349999999999999
 74
     0
 49
0.0
 74
     0
 49
-6.349999999999999
 74
     0
  0
LTYPE
  5
223
330
5
100
AcDbSymbolTableRecord
100
AcDbLinetypeTableRecord
  2
STRICHLINIE
 70
     0
  3
Strichlinie __ __ __ __ __ __ __ __ __ __ __ __
 72
    65
 73
     2
 40
19.05
 49
12.7
 74
     0
 49
-6.349999999999999
 74
     0
  0
ENDTAB
  0
TABLE
  2
LAYER
  5
2
330
0
100
AcDbSymbolTable
 70
    18
  0
LAYER
  5
E
330
2
100
AcDbSymbolTableRecord
100
AcDbLayerTableRecord
  2
0
 70
     0
 62
     7
  6
CONTINUOUS
370
    -3
390
16EB
  0
LAYER
  5
4A
330
2
100
AcDbSymbolTableRecord
100
AcDbLayerTableRecord
  2
HILFSLINIEN
 70
     0
 62
     3
  6
CONTINUOUS
290
     0
370
    -3
390
16EB
  0
LAYER
  5
12F
330
2
100
AcDbSymbolTableRecord
100
AcDbLayerTableRecord
  2
25
 70
     0
 62
     7
  6
CONTINUOUS
370
    -3
390
16EB
  0
LAYER
  5
1DA
330
2
100
AcDbSymbolTableRecord
100
AcDbLayerTableRecord
  2
35
 70
     0
 62
     2
  6
CONTINUOUS
370
    -3
390
16EB
  0
LAYER
  5
224
330
2
100
AcDbSymbolTableRecord
100
AcDbLayerTableRecord
  2
KOTIERUNG
 70
     0
 62
     7
  6
CONTINUOUS
370
    -3
390
16EB
  0
LAYER
  5
225
330
2
100
AcDbSymbolTableRecord
100
AcDbLayerTableRecord
  2
DEFPOINTS
 70
     0
 62
     7
  6
CONTINUOUS
290
     0
370
    -3
390
16EB
  0
LAYER
  5
226
330
2
100
AcDbSymbolTableRecord
100
AcDbLayerTableRecord
  2
18
 70
     0
 62
     1
  6
CONTINUOUS
370
    -3
390
16EB
  0
LAYER
  5
425
330
2
100
AcDbSymbolTableRecord
100
AcDbLayerTableRecord
  2
50
 70
     0
 62
    33
  6
CONTINUOUS
370
    -3
390
16EB
  0
LAYER
  5
471
330
2
100
AcDbSymbolTableRecord
100
AcDbLayerTableRecord
  2
FENSTER
 70
     0
 62
     4
  6
CONTINUOUS
290
     0
370
    -3
390
16EB
  0
LAYER
  5
474
330
2
100
AcDbSymbolTableRecord
100
AcDbLayerTableRecord
  2
A4-BLATT
 70
     0
 62
     6
  6
CONTINUOUS
290
     0
370
    -3
390
16EB
  0
LAYER
  5
12F9
330
2
100
AcDbSymbolTableRecord
100
AcDbLayerTableRecord
  2
BLATTHILFSLINIEN
 70
     0
 62
   252
  6
CONTINUOUS
290
     0
370
    -3
390
16EB
  0
LAYER
  5
14E1
330
2
100
AcDbSymbolTableRecord
100
AcDbLayerTableRecord
  2
BESCHRIFTUNGM
 70
     0
 62
     7
  6
CONTINUOUS
290
     0
370
    -3
390
16EB
  0
LAYER
  5
14EF
330
2
100
AcDbSymbolTableRecord
100
AcDbLayerTableRecord
  2
BLATTTEXT
 70
     0
 62
     7
  6
CONTINUOUS
370
    -3
390
16EB
  0
LAYER
  5
18AE
330
2
100
AcDbSymbolTableRecord
100
AcDbLayerTableRecord
  2
LOGO
 70
     0
 62
     7
  6
CONTINUOUS
370
    -3
390
16EB
  0
LAYER
  5
1A60
330
2
100
AcDbSymbolTableRecord
100
AcDbLayerTableRecord
  2
70
 70
     0
 62
     5
  6
CONTINUOUS
370
    -3
390
16EB
  0
LAYER
  5
1A61
330
2
100
AcDbSymbolTableRecord
100
AcDbLayerTableRecord
  2
PLANKOPF
 70
     0
 62
     7
  6
CONTINUOUS
370
    -3
390
16EB
  0
LAYER
  5
1D2D
330
2
100
AcDbSymbolTableRecord
100
AcDbLayerTableRecord
  2
Dämpfungsbügel
 70
     0
 62
     2
  6
CONTINUOUS
370
    -3
390
16EB
  0
LAYER
  5
1D2E
330
2
100
AcDbSymbolTableRecord
100
AcDbLayerTableRecord
  2
LOCHBILD
 70
     0
 62
     2
  6
CONTINUOUS
370
    -3
390
16EB
  0
ENDTAB
  0
TABLE
  2
STYLE
  5
3
330
0
100
AcDbSymbolTable
 70
    11
  0
STYLE
  5
F
330
3
100
AcDbSymbolTableRecord
100
AcDbTextStyleTableRecord
  2
STANDARD
 70
     0
 40
0.0
 41
1.0
 50
0.0
 71
     0
 42
25.0
  3
ARIALN.TTF
  4

1001
ACAD
1000
Arial Narrow
1071
       34
  0
STYLE
  5
428
330
3
100
AcDbSymbolTableRecord
100
AcDbTextStyleTableRecord
  2
VOEST
 70
     0
 40
0.0
 41
1.0
 50
0.0
 71
     0
 42
4.0
  3
ARIALN.TTF
  4

1001
ACAD
1000
Arial Narrow
1071
       34
  0
STYLE
  5
14E5
330
3
100
AcDbSymbolTableRecord
100
AcDbTextStyleTableRecord
  2
ARIALFETT
 70
     0
 40
0.0
 41
1.0
 50
0.0
 71
     0
 42
4.0
  3
ARIALN.TTF
  4

1001
ACAD
1000
Arial Narrow
1071
       34
  0
STYLE
  5
16D3
330
3
100
AcDbSymbolTableRecord
100
AcDbTextStyleTableRecord
  2
VOESTB
 70
     0
 40
0.0
 41
1.0
 50
0.0
 71
     0
 42
4.0
  3
ARIALNB.TTF
  4

1001
ACAD
1000
Arial Narrow
1071
 33554466
  0
STYLE
  5
18AF
330
3
100
AcDbSymbolTableRecord
100
AcDbTextStyleTableRecord
  2
LOGO
 70
     0
 40
0.0
 41
1.0
 50
0.0
 71
     0
 42
3.0
  3
ARIBLK.TTF
  4

1001
ACAD
1000
Arial Black
1071
       34
  0
STYLE
  5
1A62
330
3
100
AcDbSymbolTableRecord
100
AcDbTextStyleTableRecord
  2
Stil1
 70
     0
 40
0.0
 41
1.175
 50
0.0
 71
     0
 42
6.158564712355089
  3
swissb.ttf
  4

1001
ACAD
1000
Swis721 BT
1071
 33554466
  0
STYLE
  5
1A63
330
3
100
AcDbSymbolTableRecord
100
AcDbTextStyleTableRecord
  2
Stil2
 70
     0
 40
0.0
 41
1.175
 50
0.0
 71
     0
 42
6.158564712355089
  3
swissel.ttf
  4

1001
ACAD
1000
Swis721 LtEx BT
1071
       34
  0
STYLE
  5
1A75
330
3
100
AcDbSymbolTableRecord
100
AcDbTextStyleTableRecord
  2
AN150
 70
     0
 40
0.0
 41
1.5
 50
0.0
 71
     0
 42
4.0
  3
ARIALN.TTF
  4

1001
ACAD
1000
Arial Narrow
1071
       34
  0
STYLE
  5
3ED7
330
3
100
AcDbSymbolTableRecord
100
AcDbTextStyleTableRecord
  2
LOGO1
 70
     0
 40
0.0
 41
1.175
 50
0.0
 71
     0
 42
6.158564712355089
  3
swissb.ttf
  4

1001
ACAD
1000
Swis721 BT
1071
 33554466
  0
STYLE
  5
3ED8
330
3
100
AcDbSymbolTableRecord
100
AcDbTextStyleTableRecord
  2
LOGO3
 70
     0
 40
0.0
 41
1.175
 50
0.0
 71
     0
 42
6.158564712355089
  3
swissel.ttf
  4

1001
ACAD
1000
Swis721 LtEx BT
1071
       34
  0
STYLE
  5
3ED9
330
3
100
AcDbSymbolTableRecord
100
AcDbTextStyleTableRecord
  2
LOGO2
 70
     0
 40
0.0
 41
1.175
 50
0.0
 71
     0
 42
6.158564712355089
  3
swiss.ttf
  4

1001
ACAD
1000
Swis721 BT
1071
       34
  0
ENDTAB
  0
TABLE
  2
VIEW
  5
6
330
0
100
AcDbSymbolTable
 70
     0
  0
ENDTAB
  0
TABLE
  2
UCS
  5
7
330
0
100
AcDbSymbolTable
 70
     0
  0
ENDTAB
  0
TABLE
  2
APPID
  5
9
330
0
100
AcDbSymbolTable
 70
     5
  0
APPID
  5
10
330
9
100
AcDbSymbolTableRecord
100
AcDbRegAppTableRecord
  2
ACAD
 70
     0
  0
APPID
  5
24
330
9
100
AcDbSymbolTableRecord
100
AcDbRegAppTableRecord
  2
CONTENTTABDATA
 70
     0
  0
APPID
  5
25
330
9
100
AcDbSymbolTableRecord
100
AcDbRegAppTableRecord
  2
CONTENTCURRENTTAB
 70
     0
  0
APPID
  5
116
330
9
100
AcDbSymbolTableRecord
100
AcDbRegAppTableRecord
  2
CONTENTBLOCKICON
 70
     0
  0
APPID
  5
117
330
9
100
AcDbSymbolTableRecord
100
AcDbRegAppTableRecord
  2
CONTENTBLOCKDESCRIPTION
 70
     0
  0
ENDTAB
  0
TABLE
  2
DIMSTYLE
  5
A
330
0
100
AcDbSymbolTable
 70
    11
100
AcDbDimStyleTable
 71
     2
340
1D2F
340
EF9
  0
DIMSTYLE
105
1D
330
A
100
AcDbSymbolTableRecord
100
AcDbDimStyleTableRecord
  2
STANDARD
 70
     0
340
F
  0
DIMSTYLE
105
B80
330
A
100
AcDbSymbolTableRecord
100
AcDbDimStyleTableRecord
  2
TYPENBLATT
 70
     0
 40
100.0
 41
0.25
 42
0.5
 43
0.5
 44
0.25
 73
     0
 74
     0
140
0.25
147
0.125
271
     0
340
428
  0
DIMSTYLE
105
EF9
330
A
100
AcDbSymbolTableRecord
100
AcDbDimStyleTableRecord
  2
TYPENBLATT_M10
 70
     0
 40
100.0
 41
0.25
 42
0.5
 43
0.5
 44
0.25
 73
     0
 74
     0
 77
     1
140
0.25
147
0.075
271
     0
340
428
  0
DIMSTYLE
105
EFA
330
A
100
AcDbSymbolTableRecord
100
AcDbDimStyleTableRecord
  2
TYPENBLATT_M50
 70
     0
 40
500.0
 41
0.25
 42
0.1
 43
0.5
 44
0.25
 73
     0
 74
     0
 77
     1
140
0.25
147
0.075
271
     0
340
428
  0
DIMSTYLE
105
10C6
330
A
100
AcDbSymbolTableRecord
100
AcDbDimStyleTableRecord
  2
TYPENBLATT_BESCHR
 70
     0
 40
100.0
 41
0.25
 42
0.5
 43
0.25
 44
0.25
 73
     0
 74
     0
140
0.25
141
0.0
147
0.075
271
     0
340
428
  0
DIMSTYLE
105
1A64
330
A
100
AcDbSymbolTableRecord
100
AcDbDimStyleTableRecord
  2
STIL10
 70
     0
 41
25.0
 42
25.0
 43
100.0
 44
20.0
 73
     0
 74
     0
140
25.0
147
5.0
271
     0
340
428
  0
DIMSTYLE
105
1A65
330
A
100
AcDbSymbolTableRecord
100
AcDbDimStyleTableRecord
  2
STIL5
 70
     0
 40
0.35
 41
25.0
 42
25.0
 43
100.0
 44
20.0
 47
2.0
 48
2.0
 73
     0
 74
     0
140
25.0
147
5.0
271
     0
272
     0
340
428
  0
DIMSTYLE
105
1A66
330
A
100
AcDbSymbolTableRecord
100
AcDbDimStyleTableRecord
  2
STIL5Tol
 70
     0
 40
0.5
 41
25.0
 42
25.0
 43
100.0
 44
20.0
 47
2.0
 48
2.0
 71
     1
 73
     0
 74
     0
140
25.0
147
5.0
271
     0
272
     0
340
428
  0
DIMSTYLE
105
1A67
330
A
100
AcDbSymbolTableRecord
100
AcDbDimStyleTableRecord
  2
STIL2
 70
     0
 40
0.2
 41
35.0
 42
35.0
 43
75.0
 44
17.5
 47
2.0
 48
1.0
 73
     0
 74
     0
140
35.0
146
0.75
147
5.0
271
     0
272
     0
340
428
  0
DIMSTYLE
105
1D2F
102
{ACAD_REACTORS
330
204C
330
2055
330
2052
330
204F
330
1ED1
330
1ECE
330
3C8A
330
3BFB
330
3BF8
330
3F57
102
}
330
A
100
AcDbSymbolTableRecord
100
AcDbDimStyleTableRecord
  2
ISO-25
 70
     0
 40
10.0
 41
2.5
 42
0.625
 43
3.75
 44
1.25
 73
     0
 74
     0
 77
     1
 78
     8
140
2.5
141
2.5
143
0.03937007874016
147
0.625
171
     3
172
     1
271
     2
272
     2
274
     3
278
    44
283
     0
284
     8
340
F
  0
DIMSTYLE
105
414A
330
A
100
AcDbSymbolTableRecord
100
AcDbDimStyleTableRecord
  2
STIL2.5
 70
     0
 40
2.5
 41
5.0
 42
1.0
 43
1.0
 44
1.0
 73
     0
 74
     0
140
3.5
147
1.0
271
     0
272
     0
340
428
341
4146
  0
ENDTAB
  0
TABLE
  2
BLOCK_RECORD
  5
1
330
0
100
AcDbSymbolTable
 70
    24
  0
BLOCK_RECORD
  5
18
330
1
100
AcDbSymbolTableRecord
100
AcDbBlockTableRecord
  2
*MODEL_SPACE
340
16EE
  0
BLOCK_RECORD
  5
3B94
330
1
100
AcDbSymbolTableRecord
100
AcDbBlockTableRecord
  2
*Paper_Space
340
3B95
  0
BLOCK_RECORD
  5
2058
330
1
100
AcDbSymbolTableRecord
100
AcDbBlockTableRecord
  2
*D0
340
0
  0
BLOCK_RECORD
  5
2064
330
1
100
AcDbSymbolTableRecord
100
AcDbBlockTableRecord
  2
*D1
340
0
  0
BLOCK_RECORD
  5
2070
330
1
100
AcDbSymbolTableRecord
100
AcDbBlockTableRecord
  2
*D2
340
0
  0
BLOCK_RECORD
  5
207C
330
1
100
AcDbSymbolTableRecord
100
AcDbBlockTableRecord
  2
*D3
340
0
  0
BLOCK_RECORD
  5
2088
330
1
100
AcDbSymbolTableRecord
100
AcDbBlockTableRecord
  2
*D4
340
0
  0
BLOCK_RECORD
  5
2094
330
1
100
AcDbSymbolTableRecord
100
AcDbBlockTableRecord
  2
*D5
340
0
  0
BLOCK_RECORD
  5
3D62
330
1
100
AcDbSymbolTableRecord
100
AcDbBlockTableRecord
  2
*D17
340
0
  0
BLOCK_RECORD
  5
3D6E
330
1
100
AcDbSymbolTableRecord
100
AcDbBlockTableRecord
  2
*D18
340
0
  0
BLOCK_RECORD
  5
3D7A
330
1
100
AcDbSymbolTableRecord
100
AcDbBlockTableRecord
  2
*D19
340
0
  0
BLOCK_RECORD
  5
3ECD
330
1
100
AcDbSymbolTableRecord
100
AcDbBlockTableRecord
  2
VOESTALPINE LOGO
340
0
310
2800000020000000200000000100080000000000000400000000000000000000000000000000000000000000000080000080000000808000800000008000800080800000C0C0C000C0DCC000F0CAA6000020400000206000002080000020A0000020C0000020E00000400000004020000040400000406000004080000040A0
310
000040C0000040E00000600000006020000060400000606000006080000060A0000060C0000060E00000800000008020000080400000806000008080000080A0000080C0000080E00000A0000000A0200000A0400000A0600000A0800000A0A00000A0C00000A0E00000C0000000C0200000C0400000C0600000C0800000C0
310
A00000C0C00000C0E00000E0000000E0200000E0400000E0600000E0800000E0A00000E0C00000E0E00040000000400020004000400040006000400080004000A0004000C0004000E00040200000402020004020400040206000402080004020A0004020C0004020E000404000004040200040404000404060004040800040
310
40A0004040C0004040E00040600000406020004060400040606000406080004060A0004060C0004060E00040800000408020004080400040806000408080004080A0004080C0004080E00040A0000040A0200040A0400040A0600040A0800040A0A00040A0C00040A0E00040C0000040C0200040C0400040C0600040C08000
310
40C0A00040C0C00040C0E00040E0000040E0200040E0400040E0600040E0800040E0A00040E0C00040E0E00080000000800020008000400080006000800080008000A0008000C0008000E00080200000802020008020400080206000802080008020A0008020C0008020E00080400000804020008040400080406000804080
310
008040A0008040C0008040E00080600000806020008060400080606000806080008060A0008060C0008060E00080800000808020008080400080806000808080008080A0008080C0008080E00080A0000080A0200080A0400080A0600080A0800080A0A00080A0C00080A0E00080C0000080C0200080C0400080C0600080C0
310
800080C0A00080C0C00080C0E00080E0000080E0200080E0400080E0600080E0800080E0A00080E0C00080E0E000C0000000C0002000C0004000C0006000C0008000C000A000C000C000C000E000C0200000C0202000C0204000C0206000C0208000C020A000C020C000C020E000C0400000C0402000C0404000C0406000C0
310
408000C040A000C040C000C040E000C0600000C0602000C0604000C0606000C0608000C060A000C060C000C060E000C0800000C0802000C0804000C0806000C0808000C080A000C080C000C080E000C0A00000C0A02000C0A04000C0A06000C0A08000C0A0A000C0A0C000C0A0E000C0C00000C0C02000C0C04000C0C06000
310
C0C08000C0C0A000F0FBFF00A4A0A000808080000000FF0000FF000000FFFF00FF000000FF00FF00FFFF0000FFFFFF0000000000000000000000000000000000000000000000000000000000000000000000000000000000000000000000000000000000000000000000000000000000000000000000000000000000000000
310
00000000000000000000000000000000000000000000000000000000000000000000000000000000000000000000000000000000000000000000000000000000000000000000000000000000000000000000000000000000000000000000000000000000000000000000000000000000000000000000000000000000000000
310
00000000000000000000000000000000000000000000000000000000000000000000000000000000000000000000000000000000000000000000000000000000000000000000000000000000000000000000000000000000000000000000000000000000000000000000000000000000000000000000000000000000000000
310
000000000000000000000000000000000000000000000000000000000000000000000000000000000000000000000000000000000000000000000000000000000000000000000000000000000000000000000000000000000000000000000000000000000000000000000000000000000000000000FFFFFFFFFFFFFFFFFFFF
310
FFFFFFFFFFFFFFFFFFFFFFFFFF000000000000000000FFFF00FF00FF00FF00FFA2A2A2A2A2A2A2A2A200000000000000000000000000FFFFFFFFFFFFFFFFFFFFA2A2A2A2A2A2A2A2A2A20000000000000000000000FFFFFFFFFFFFFFFFFFFFFFA2A2A2A2A2A2A2A2A2A2000000000000000000000000000000000000000000
310
00000000000000000000000000000000000000000000000000000000000000000000000000000000000000000000000000000000000000000000000000000000000000000000000000000000000000000000000000000000000000000000000000000000000000000000000000000000000000000000000000000000000000
310
00000000000000000000000000000000000000000000000000000000000000000000000000000000000000000000000000000000000000000000000000000000000000000000000000000000000000000000000000000000000000000000000000000000000000000000000000000000000000000000000000000000000000
310
00000000000000000000000000000000000000000000000000000000000000000000000000000000000000000000000000000000000000000000000000000000000000000000000000000000000000000000000000000000000000000000000000000000000000000000000000000000000000000000000000000000000000
310
0000000000000000000000000000000000000000000000000000000000000000000000000000000000000000000000000000000000000000
102
{BLKREFS
331
3FBE
102
}
1001
ACAD
1000
DesignCenter Data
1002
{
1070
     1
1070
     4
1002
}
  0
BLOCK_RECORD
  5
3ED3
330
1
100
AcDbSymbolTableRecord
100
AcDbBlockTableRecord
  2
LOGO ACAD
340
0
1001
ACAD
1000
DesignCenter Data
1002
{
1070
     1
1070
     4
1002
}
  0
BLOCK_RECORD
  5
3F58
330
1
100
AcDbSymbolTableRecord
100
AcDbBlockTableRecord
  2
*D22
340
0
  0
BLOCK_RECORD
  5
4146
330
1
100
AcDbSymbolTableRecord
100
AcDbBlockTableRecord
  2
_DotSmall
340
0
  0
ENDTAB
  0
ENDSEC
  0
SECTION
  2
BLOCKS
  0
BLOCK
  5
19
330
18
100
AcDbEntity
  8
0
100
AcDbBlockBegin
  2
*MODEL_SPACE
 70
     0
 10
0.0
 20
0.0
 30
0.0
  3
*MODEL_SPACE
  1

  0
ENDBLK
  5
1A
330
18
100
AcDbEntity
  8
0
100
AcDbBlockEnd
  0
BLOCK
  5
3B96
330
3B94
100
AcDbEntity
 67
     1
  8
0
100
AcDbBlockBegin
  2
*Paper_Space
 70
     0
 10
0.0
 20
0.0
 30
0.0
  3
*Paper_Space
  1

  0
ENDBLK
  5
3B97
330
3B94
100
AcDbEntity
 67
     1
  8
0
100
AcDbBlockEnd
  0
BLOCK
  5
2062
330
2058
100
AcDbEntity
  8
0
100
AcDbBlockBegin
  2
*D0
 70
     1
 10
0.0
 20
0.0
 30
0.0
  3
*D0
  1

  0
LINE
  5
422A
330
2058
100
AcDbEntity
  8
KOTIERUNG
 62
     0
370
    -2
100
AcDbLine
 10
17078.4310559584
 20
-4125.786183363567
 30
0.0
 11
17069.0560559584
 21
-4125.786183363567
 31
0.0
  0
LINE
  5
422B
330
2058
100
AcDbEntity
  8
KOTIERUNG
 62
     0
370
    -2
100
AcDbLine
 10
17444.07863438202
 20
-4677.398090607121
 30
0.0
 11
17069.0560559584
 21
-4677.398090607121
 31
0.0
  0
LINE
  5
422C
330
2058
100
AcDbEntity
  8
KOTIERUNG
 62
     0
370
    -2
100
AcDbLine
 10
17087.8060559584
 20
-4163.286183363567
 30
0.0
 11
17087.8060559584
 21
-4639.898090607121
 31
0.0
  0
SOLID
  5
422D
330
2058
100
AcDbEntity
  8
KOTIERUNG
 62
     0
100
AcDbTrace
 10
17081.5560559584
 20
-4163.286183363567
 30
0.0
 11
17094.0560559584
 21
-4163.286183363567
 31
0.0
 12
17087.8060559584
 22
-4125.786183363567
 32
0.0
 13
17087.8060559584
 23
-4125.786183363567
 33
0.0
  0
SOLID
  5
422E
330
2058
100
AcDbEntity
  8
KOTIERUNG
 62
     0
100
AcDbTrace
 10
17081.5560559584
 20
-4639.898090607121
 30
0.0
 11
17094.0560559584
 21
-4639.898090607121
 31
0.0
 12
17087.8060559584
 22
-4677.398090607121
 32
0.0
 13
17087.8060559584
 23
-4677.398090607121
 33
0.0
  0
MTEXT
  5
422F
330
2058
100
AcDbEntity
  8
KOTIERUNG
 62
     0
100
AcDbMText
 10
17059.28456891884
 20
-4401.592136985342
 30
0.0
 40
37.5
 41
0.0
 71
     5
 72
     1
  1
930
 11
0.0000000000000001
 21
1.0
 31
0.0
 73
     1
 44
1.0
1001
ACAD
1000
MTEXTBEGIN
1070
    73
1070
     1
1070
    44
1040
1.0
1070
    74
1070
     0
1000
MTEXTEND
  0
POINT
  5
4230
330
2058
100
AcDbEntity
  8
DEFPOINTS
 62
     0
100
AcDbPoint
 10
17087.8060559584
 20
-4125.786183363567
 30
0.0
  0
POINT
  5
4231
330
2058
100
AcDbEntity
  8
DEFPOINTS
 62
     0
100
AcDbPoint
 10
17453.45363438202
 20
-4677.398090607121
 30
0.0
  0
POINT
  5
4232
330
2058
100
AcDbEntity
  8
DEFPOINTS
 62
     0
100
AcDbPoint
 10
17087.8060559584
 20
-4677.398090607121
 30
0.0
  0
ENDBLK
  5
2063
330
2058
100
AcDbEntity
  8
0
100
AcDbBlockEnd
  0
BLOCK
  5
206E
330
2064
100
AcDbEntity
  8
0
100
AcDbBlockBegin
  2
*D1
 70
     1
 10
0.0
 20
0.0
 30
0.0
  3
*D1
  1

  0
LINE
  5
42F2
330
2064
100
AcDbEntity
  8
KOTIERUNG
 62
     0
370
    -2
100
AcDbLine
 10
17232.7786736648
 20
-3255.786183363567
 30
0.0
 11
17065.79631006047
 21
-3255.786183363567
 31
0.0
  0
LINE
  5
42F3
330
2064
100
AcDbEntity
  8
KOTIERUNG
 62
     0
370
    -2
100
AcDbLine
 10
17078.4310559584
 20
-4125.786183363567
 30
0.0
 11
17065.79631006047
 21
-4125.786183363567
 31
0.0
  0
LINE
  5
42F4
330
2064
100
AcDbEntity
  8
KOTIERUNG
 62
     0
370
    -2
100
AcDbLine
 10
17084.54631006047
 20
-3293.286183363567
 30
0.0
 11
17084.54631006047
 21
-4088.286183363567
 31
0.0
  0
SOLID
  5
42F5
330
2064
100
AcDbEntity
  8
KOTIERUNG
 62
     0
100
AcDbTrace
 10
17078.29631006047
 20
-3293.286183363567
 30
0.0
 11
17090.79631006047
 21
-3293.286183363567
 31
0.0
 12
17084.54631006047
 22
-3255.786183363567
 32
0.0
 13
17084.54631006047
 23
-3255.786183363567
 33
0.0
  0
SOLID
  5
42F6
330
2064
100
AcDbEntity
  8
KOTIERUNG
 62
     0
100
AcDbTrace
 10
17078.29631006047
 20
-4088.286183363567
 30
0.0
 11
17090.79631006047
 21
-4088.286183363567
 31
0.0
 12
17084.54631006047
 22
-4125.786183363567
 32
0.0
 13
17084.54631006047
 23
-4125.786183363567
 33
0.0
  0
MTEXT
  5
42F7
330
2064
100
AcDbEntity
  8
KOTIERUNG
 62
     0
100
AcDbMText
 10
17056.02482302091
 20
-3557.073328883328
 30
0.0
 40
37.5
 41
0.0
 71
     5
 72
     1
  1
\A1;870{\H28.125000;±40}
 11
0.0000000000000001
 21
1.0
 31
0.0
 73
     1
 44
1.0
1001
ACAD
1000
MTEXTBEGIN
1070
    73
1070
     1
1070
    44
1040
1.0
1070
    74
1070
     0
1000
MTEXTEND
  0
POINT
  5
42F8
330
2064
100
AcDbEntity
  8
DEFPOINTS
 62
     0
100
AcDbPoint
 10
17242.1536736648
 20
-3255.786183363567
 30
0.0
  0
POINT
  5
42F9
330
2064
100
AcDbEntity
  8
DEFPOINTS
 62
     0
100
AcDbPoint
 10
17087.8060559584
 20
-4125.786183363567
 30
0.0
  0
POINT
  5
42FA
330
2064
100
AcDbEntity
  8
DEFPOINTS
 62
     0
100
AcDbPoint
 10
17084.54631006047
 20
-4125.786183363567
 30
0.0
  0
ENDBLK
  5
206F
330
2064
100
AcDbEntity
  8
0
100
AcDbBlockEnd
  0
BLOCK
  5
207A
330
2070
100
AcDbEntity
  8
0
100
AcDbBlockBegin
  2
*D2
 70
     1
 10
0.0
 20
0.0
 30
0.0
  3
*D2
  1

  0
LINE
  5
423C
330
2070
100
AcDbEntity
  8
KOTIERUNG
 62
     0
370
    -2
100
AcDbLine
 10
17602.82863438202
 20
-3355.398886919704
 30
0.0
 11
17715.11653717446
 21
-3355.398886919704
 31
0.0
  0
LINE
  5
423D
330
2070
100
AcDbEntity
  8
KOTIERUNG
 62
     0
370
    -2
100
AcDbLine
 10
17602.82863438202
 20
-4125.786183363567
 30
0.0
 11
17715.11653717446
 21
-4125.786183363567
 31
0.0
  0
LINE
  5
423E
330
2070
100
AcDbEntity
  8
KOTIERUNG
 62
     0
370
    -2
100
AcDbLine
 10
17696.36653717446
 20
-3392.898886919704
 30
0.0
 11
17696.36653717446
 21
-4088.286183363567
 31
0.0
  0
SOLID
  5
423F
330
2070
100
AcDbEntity
  8
KOTIERUNG
 62
     0
100
AcDbTrace
 10
17690.11653717446
 20
-3392.898886919704
 30
0.0
 11
17702.61653717446
 21
-3392.898886919704
 31
0.0
 12
17696.36653717446
 22
-3355.398886919704
 32
0.0
 13
17696.36653717446
 23
-3355.398886919704
 33
0.0
  0
SOLID
  5
4240
330
2070
100
AcDbEntity
  8
KOTIERUNG
 62
     0
100
AcDbTrace
 10
17690.11653717446
 20
-4088.286183363567
 30
0.0
 11
17702.61653717446
 21
-4088.286183363567
 31
0.0
 12
17696.36653717446
 22
-4125.786183363567
 32
0.0
 13
17696.36653717446
 23
-4125.786183363567
 33
0.0
  0
MTEXT
  5
4241
330
2070
100
AcDbEntity
  8
KOTIERUNG
 62
     0
100
AcDbMText
 10
17667.8450501349
 20
-3740.592535141633
 30
0.0
 40
37.5
 41
0.0
 71
     5
 72
     1
  1
770
 11
0.0000000000000001
 21
1.0
 31
0.0
 73
     1
 44
1.0
1001
ACAD
1000
MTEXTBEGIN
1070
    73
1070
     1
1070
    44
1040
1.0
1070
    74
1070
     0
1000
MTEXTEND
  0
POINT
  5
4242
330
2070
100
AcDbEntity
  8
DEFPOINTS
 62
     0
100
AcDbPoint
 10
17593.45363438202
 20
-3355.398886919704
 30
0.0
  0
POINT
  5
4243
330
2070
100
AcDbEntity
  8
DEFPOINTS
 62
     0
100
AcDbPoint
 10
17593.45363438202
 20
-4125.786183363567
 30
0.0
  0
POINT
  5
4244
330
2070
100
AcDbEntity
  8
DEFPOINTS
 62
     0
100
AcDbPoint
 10
17696.36653717446
 20
-4125.786183363567
 30
0.0
  0
ENDBLK
  5
207B
330
2070
100
AcDbEntity
  8
0
100
AcDbBlockEnd
  0
BLOCK
  5
2086
330
207C
100
AcDbEntity
  8
0
100
AcDbBlockBegin
  2
*D3
 70
     1
 10
0.0
 20
0.0
 30
0.0
  3
*D3
  1

  0
LINE
  5
4233
330
207C
100
AcDbEntity
  8
KOTIERUNG
 62
     0
370
    -2
100
AcDbLine
 10
17602.82863438202
 20
-3355.398886919704
 30
0.0
 11
17715.11653717446
 21
-3355.398886919704
 31
0.0
  0
LINE
  5
4234
330
207C
100
AcDbEntity
  8
KOTIERUNG
 62
     0
370
    -2
100
AcDbLine
 10
17251.52867366479
 20
-3255.786183363567
 30
0.0
 11
17715.11653717446
 21
-3255.786183363568
 31
0.0
  0
LINE
  5
4235
330
207C
100
AcDbEntity
  8
KOTIERUNG
 62
     0
370
    -2
100
AcDbLine
 10
17696.36653717446
 20
-3317.898886919703
 30
0.0
 11
17696.36653717446
 21
-3293.286183363568
 31
0.0
  0
SOLID
  5
4236
330
207C
100
AcDbEntity
  8
KOTIERUNG
 62
     0
100
AcDbTrace
 10
17690.11653717446
 20
-3317.898886919703
 30
0.0
 11
17702.61653717446
 21
-3317.898886919703
 31
0.0
 12
17696.36653717446
 22
-3355.398886919704
 32
0.0
 13
17696.36653717446
 23
-3355.398886919704
 33
0.0
  0
SOLID
  5
4237
330
207C
100
AcDbEntity
  8
KOTIERUNG
 62
     0
100
AcDbTrace
 10
17690.11653717446
 20
-3293.286183363568
 30
0.0
 11
17702.61653717446
 21
-3293.286183363568
 31
0.0
 12
17696.36653717446
 22
-3255.786183363568
 32
0.0
 13
17696.36653717446
 23
-3255.786183363568
 33
0.0
  0
MTEXT
  5
4238
330
207C
100
AcDbEntity
  8
KOTIERUNG
 62
     0
100
AcDbMText
 10
17667.8450501349
 20
-3305.592535141633
 30
0.0
 40
37.5
 41
0.0
 71
     5
 72
     1
  1
100
 11
0.0000000000000001
 21
1.0
 31
0.0
 73
     1
 44
1.0
1001
ACAD
1000
MTEXTBEGIN
1070
    73
1070
     1
1070
    44
1040
1.0
1070
    74
1070
     0
1000
MTEXTEND
  0
POINT
  5
4239
330
207C
100
AcDbEntity
  8
DEFPOINTS
 62
     0
100
AcDbPoint
 10
17593.45363438202
 20
-3355.398886919704
 30
0.0
  0
POINT
  5
423A
330
207C
100
AcDbEntity
  8
DEFPOINTS
 62
     0
100
AcDbPoint
 10
17242.1536736648
 20
-3255.786183363567
 30
0.0
  0
POINT
  5
423B
330
207C
100
AcDbEntity
  8
DEFPOINTS
 62
     0
100
AcDbPoint
 10
17696.36653717446
 20
-3255.786183363568
 30
0.0
  0
ENDBLK
  5
2087
330
207C
100
AcDbEntity
  8
0
100
AcDbBlockEnd
  0
BLOCK
  5
2092
330
2088
100
AcDbEntity
  8
0
100
AcDbBlockBegin
  2
*D4
 70
     1
 10
0.0
 20
0.0
 30
0.0
  3
*D4
  1

  0
LINE
  5
4269
330
2088
100
AcDbEntity
  8
KOTIERUNG
 62
     0
370
    -2
100
AcDbLine
 10
17150.3344445718
 20
-3338.314699019128
 30
0.0
 11
17150.3344445718
 21
-3151.486584198404
 31
0.0
  0
LINE
  5
426A
330
2088
100
AcDbEntity
  8
KOTIERUNG
 62
     0
370
    -2
100
AcDbLine
 10
17593.45363438202
 20
-3346.023886919703
 30
0.0
 11
17593.45363438202
 21
-3151.486584198404
 31
0.0
  0
LINE
  5
426B
330
2088
100
AcDbEntity
  8
KOTIERUNG
 62
     0
370
    -2
100
AcDbLine
 10
17187.8344445718
 20
-3170.236584198403
 30
0.0
 11
17555.95363438202
 21
-3170.236584198403
 31
0.0
  0
SOLID
  5
426C
330
2088
100
AcDbEntity
  8
KOTIERUNG
 62
     0
100
AcDbTrace
 10
17187.8344445718
 20
-3163.986584198403
 30
0.0
 11
17187.8344445718
 21
-3176.486584198404
 31
0.0
 12
17150.3344445718
 22
-3170.236584198403
 32
0.0
 13
17150.3344445718
 23
-3170.236584198403
 33
0.0
  0
SOLID
  5
426D
330
2088
100
AcDbEntity
  8
KOTIERUNG
 62
     0
100
AcDbTrace
 10
17555.95363438202
 20
-3163.986584198403
 30
0.0
 11
17555.95363438202
 21
-3176.486584198404
 31
0.0
 12
17593.45363438202
 22
-3170.236584198403
 32
0.0
 13
17593.45363438202
 23
-3170.236584198403
 33
0.0
  0
MTEXT
  5
426E
330
2088
100
AcDbEntity
  8
KOTIERUNG
 62
     0
100
AcDbMText
 10
17371.89403947691
 20
-3141.71509715884
 30
0.0
 40
37.5
 41
0.0
 71
     5
 72
     1
  1
440
 73
     1
 44
1.0
1001
ACAD
1000
MTEXTBEGIN
1070
    73
1070
     1
1070
    44
1040
1.0
1070
    74
1070
     0
1000
MTEXTEND
  0
POINT
  5
426F
330
2088
100
AcDbEntity
  8
DEFPOINTS
 62
     0
100
AcDbPoint
 10
17150.3344445718
 20
-3347.689699019128
 30
0.0
  0
POINT
  5
4270
330
2088
100
AcDbEntity
  8
DEFPOINTS
 62
     0
100
AcDbPoint
 10
17593.45363438202
 20
-3355.398886919703
 30
0.0
  0
POINT
  5
4271
330
2088
100
AcDbEntity
  8
DEFPOINTS
 62
     0
100
AcDbPoint
 10
17593.45363438202
 20
-3170.236584198403
 30
0.0
  0
ENDBLK
  5
2093
330
2088
100
AcDbEntity
  8
0
100
AcDbBlockEnd
  0
BLOCK
  5
209E
330
2094
100
AcDbEntity
  8
0
100
AcDbBlockBegin
  2
*D5
 70
     1
 10
0.0
 20
0.0
 30
0.0
  3
*D5
  1

  0
LINE
  5
4304
330
2094
100
AcDbEntity
  8
KOTIERUNG
 62
     0
370
    -2
100
AcDbLine
 10
17150.2441459977
 20
-3620.157189119846
 30
0.0
 11
17150.2441459977
 21
-3771.567576180718
 31
0.0
  0
LINE
  5
4305
330
2094
100
AcDbEntity
  8
KOTIERUNG
 62
     0
370
    -2
100
AcDbLine
 10
17453.45363438202
 20
-3669.839380319813
 30
0.0
 11
17453.45363438202
 21
-3771.567576180718
 31
0.0
  0
LINE
  5
4306
330
2094
100
AcDbEntity
  8
KOTIERUNG
 62
     0
370
    -2
100
AcDbLine
 10
17187.7441459977
 20
-3752.817576180718
 30
0.0
 11
17415.95363438202
 21
-3752.817576180718
 31
0.0
  0
SOLID
  5
4307
330
2094
100
AcDbEntity
  8
KOTIERUNG
 62
     0
100
AcDbTrace
 10
17187.7441459977
 20
-3746.567576180718
 30
0.0
 11
17187.7441459977
 21
-3759.067576180718
 31
0.0
 12
17150.2441459977
 22
-3752.817576180718
 32
0.0
 13
17150.2441459977
 23
-3752.817576180718
 33
0.0
  0
SOLID
  5
4308
330
2094
100
AcDbEntity
  8
KOTIERUNG
 62
     0
100
AcDbTrace
 10
17415.95363438202
 20
-3746.567576180718
 30
0.0
 11
17415.95363438202
 21
-3759.067576180718
 31
0.0
 12
17453.45363438202
 22
-3752.817576180718
 32
0.0
 13
17453.45363438202
 23
-3752.817576180718
 33
0.0
  0
MTEXT
  5
4309
330
2094
100
AcDbEntity
  8
KOTIERUNG
 62
     0
100
AcDbMText
 10
17301.84889018986
 20
-3724.296089141154
 30
0.0
 40
37.5
 41
0.0
 71
     5
 72
     1
  1
300
 73
     1
 44
1.0
1001
ACAD
1000
MTEXTBEGIN
1070
    73
1070
     1
1070
    44
1040
1.0
1070
    74
1070
     0
1000
MTEXTEND
  0
POINT
  5
430A
330
2094
100
AcDbEntity
  8
DEFPOINTS
 62
     0
100
AcDbPoint
 10
17150.2441459977
 20
-3610.782189119845
 30
0.0
  0
POINT
  5
430B
330
2094
100
AcDbEntity
  8
DEFPOINTS
 62
     0
100
AcDbPoint
 10
17453.45363438202
 20
-3660.464380319812
 30
0.0
  0
POINT
  5
430C
330
2094
100
AcDbEntity
  8
DEFPOINTS
 62
     0
100
AcDbPoint
 10
17453.45363438202
 20
-3752.817576180718
 30
0.0
  0
ENDBLK
  5
209F
330
2094
100
AcDbEntity
  8
0
100
AcDbBlockEnd
  0
BLOCK
  5
3D6C
330
3D62
100
AcDbEntity
  8
0
100
AcDbBlockBegin
  2
*D17
 70
     1
 10
0.0
 20
0.0
 30
0.0
  3
*D17
  1

  0
LINE
  5
3D63
330
3D62
100
AcDbEntity
  8
KOTIERUNG
 62
     0
370
    -2
100
AcDbLine
 10
17125.55267611032
 20
-5493.016080236164
 30
0.0
 11
17125.55267611032
 21
-5284.043270935639
 31
0.0
  0
LINE
  5
3D64
330
3D62
100
AcDbEntity
  8
KOTIERUNG
 62
     0
370
    -2
100
AcDbLine
 10
15125.55267611032
 20
-5493.016080236164
 30
0.0
 11
15125.55267611032
 21
-5284.043270935639
 31
0.0
  0
LINE
  5
3D65
330
3D62
100
AcDbEntity
  8
KOTIERUNG
 62
     0
370
    -2
100
AcDbLine
 10
17000.55267611032
 20
-5346.543270935639
 30
0.0
 11
15250.55267611032
 21
-5346.543270935639
 31
0.0
  0
SOLID
  5
3D66
330
3D62
100
AcDbEntity
  8
KOTIERUNG
 62
     0
100
AcDbTrace
 10
17000.55267611032
 20
-5325.709937602306
 30
0.0
 11
17000.55267611032
 21
-5367.376604268972
 31
0.0
 12
17125.55267611032
 22
-5346.543270935639
 32
0.0
 13
17125.55267611032
 23
-5346.543270935639
 33
0.0
  0
SOLID
  5
3D67
330
3D62
100
AcDbEntity
  8
KOTIERUNG
 62
     0
100
AcDbTrace
 10
15250.55267611032
 20
-5325.709937602306
 30
0.0
 11
15250.55267611032
 21
-5367.376604268972
 31
0.0
 12
15125.55267611032
 22
-5346.543270935639
 32
0.0
 13
15125.55267611032
 23
-5346.543270935639
 33
0.0
  0
MTEXT
  5
3D68
330
3D62
100
AcDbEntity
  8
KOTIERUNG
 62
     0
100
AcDbMText
 10
16125.55267611032
 20
-5251.471647470427
 30
0.0
 40
125.0
 41
0.0
 71
     5
 72
     1
  1
2000
 73
     1
 44
1.0
1001
ACAD
1000
MTEXTBEGIN
1070
    73
1070
     1
1070
    44
1040
1.0
1070
    74
1070
     0
1000
MTEXTEND
  0
POINT
  5
3D69
330
3D62
100
AcDbEntity
  8
DEFPOINTS
 62
     0
100
AcDbPoint
 10
17125.55267611032
 20
-5524.266080236164
 30
0.0
  0
POINT
  5
3D6A
330
3D62
100
AcDbEntity
  8
DEFPOINTS
 62
     0
100
AcDbPoint
 10
15125.55267611032
 20
-5524.266080236164
 30
0.0
  0
POINT
  5
3D6B
330
3D62
100
AcDbEntity
  8
DEFPOINTS
 62
     0
100
AcDbPoint
 10
15125.55267611032
 20
-5346.543270935639
 30
0.0
  0
ENDBLK
  5
3D6D
330
3D62
100
AcDbEntity
  8
0
100
AcDbBlockEnd
  0
BLOCK
  5
3D78
330
3D6E
100
AcDbEntity
  8
0
100
AcDbBlockBegin
  2
*D18
 70
     1
 10
0.0
 20
0.0
 30
0.0
  3
*D18
  1

  0
LINE
  5
3D6F
330
3D6E
100
AcDbEntity
  8
KOTIERUNG
 62
     0
370
    -2
100
AcDbLine
 10
19125.55267611032
 20
-5493.016080236164
 30
0.0
 11
19125.55267611032
 21
-5284.043270935639
 31
0.0
  0
LINE
  5
3D70
330
3D6E
100
AcDbEntity
  8
KOTIERUNG
 62
     0
370
    -2
100
AcDbLine
 10
17125.55267611032
 20
-5493.016080236164
 30
0.0
 11
17125.55267611032
 21
-5284.043270935639
 31
0.0
  0
LINE
  5
3D71
330
3D6E
100
AcDbEntity
  8
KOTIERUNG
 62
     0
370
    -2
100
AcDbLine
 10
19000.55267611032
 20
-5346.543270935639
 30
0.0
 11
17250.55267611032
 21
-5346.543270935639
 31
0.0
  0
SOLID
  5
3D72
330
3D6E
100
AcDbEntity
  8
KOTIERUNG
 62
     0
100
AcDbTrace
 10
19000.55267611032
 20
-5325.709937602306
 30
0.0
 11
19000.55267611032
 21
-5367.376604268972
 31
0.0
 12
19125.55267611032
 22
-5346.543270935639
 32
0.0
 13
19125.55267611032
 23
-5346.543270935639
 33
0.0
  0
SOLID
  5
3D73
330
3D6E
100
AcDbEntity
  8
KOTIERUNG
 62
     0
100
AcDbTrace
 10
17250.55267611032
 20
-5325.709937602306
 30
0.0
 11
17250.55267611032
 21
-5367.376604268972
 31
0.0
 12
17125.55267611032
 22
-5346.543270935639
 32
0.0
 13
17125.55267611032
 23
-5346.543270935639
 33
0.0
  0
MTEXT
  5
3D74
330
3D6E
100
AcDbEntity
  8
KOTIERUNG
 62
     0
100
AcDbMText
 10
18125.55267611032
 20
-5251.471647470427
 30
0.0
 40
125.0
 41
0.0
 71
     5
 72
     1
  1
2000
 73
     1
 44
1.0
1001
ACAD
1000
MTEXTBEGIN
1070
    73
1070
     1
1070
    44
1040
1.0
1070
    74
1070
     0
1000
MTEXTEND
  0
POINT
  5
3D75
330
3D6E
100
AcDbEntity
  8
DEFPOINTS
 62
     0
100
AcDbPoint
 10
19125.55267611032
 20
-5524.266080236164
 30
0.0
  0
POINT
  5
3D76
330
3D6E
100
AcDbEntity
  8
DEFPOINTS
 62
     0
100
AcDbPoint
 10
17125.55267611032
 20
-5524.266080236164
 30
0.0
  0
POINT
  5
3D77
330
3D6E
100
AcDbEntity
  8
DEFPOINTS
 62
     0
100
AcDbPoint
 10
17125.55267611032
 20
-5346.543270935639
 30
0.0
  0
ENDBLK
  5
3D79
330
3D6E
100
AcDbEntity
  8
0
100
AcDbBlockEnd
  0
BLOCK
  5
3D84
330
3D7A
100
AcDbEntity
  8
0
100
AcDbBlockBegin
  2
*D19
 70
     1
 10
0.0
 20
0.0
 30
0.0
  3
*D19
  1

  0
LINE
  5
3D7B
330
3D7A
100
AcDbEntity
  8
KOTIERUNG
 62
     0
370
    -2
100
AcDbLine
 10
19125.55267611032
 20
-5493.016080236164
 30
0.0
 11
19125.55267611032
 21
-5024.550802840604
 31
0.0
  0
LINE
  5
3D7C
330
3D7A
100
AcDbEntity
  8
KOTIERUNG
 62
     0
370
    -2
100
AcDbLine
 10
15125.55267611032
 20
-5493.016080236164
 30
0.0
 11
15125.55267611032
 21
-5024.550802840604
 31
0.0
  0
LINE
  5
3D7D
330
3D7A
100
AcDbEntity
  8
KOTIERUNG
 62
     0
370
    -2
100
AcDbLine
 10
19000.55267611032
 20
-5087.050802840604
 30
0.0
 11
15250.55267611032
 21
-5087.050802840604
 31
0.0
  0
SOLID
  5
3D7E
330
3D7A
100
AcDbEntity
  8
KOTIERUNG
 62
     0
100
AcDbTrace
 10
19000.55267611032
 20
-5066.217469507271
 30
0.0
 11
19000.55267611032
 21
-5107.884136173937
 31
0.0
 12
19125.55267611032
 22
-5087.050802840604
 32
0.0
 13
19125.55267611032
 23
-5087.050802840604
 33
0.0
  0
SOLID
  5
3D7F
330
3D7A
100
AcDbEntity
  8
KOTIERUNG
 62
     0
100
AcDbTrace
 10
15250.55267611032
 20
-5066.217469507271
 30
0.0
 11
15250.55267611032
 21
-5107.884136173937
 31
0.0
 12
15125.55267611032
 22
-5087.050802840604
 32
0.0
 13
15125.55267611032
 23
-5087.050802840604
 33
0.0
  0
MTEXT
  5
3D80
330
3D7A
100
AcDbEntity
  8
KOTIERUNG
 62
     0
100
AcDbMText
 10
17125.55267611032
 20
-4991.979179375392
 30
0.0
 40
125.0
 41
0.0
 71
     5
 72
     1
  1
\A1;4000{\H93.750000;±7}
 73
     1
 44
1.0
1001
ACAD
1000
MTEXTBEGIN
1070
    73
1070
     1
1070
    44
1040
1.0
1070
    74
1070
     0
1000
MTEXTEND
  0
POINT
  5
3D81
330
3D7A
100
AcDbEntity
  8
DEFPOINTS
 62
     0
100
AcDbPoint
 10
19125.55267611032
 20
-5524.266080236164
 30
0.0
  0
POINT
  5
3D82
330
3D7A
100
AcDbEntity
  8
DEFPOINTS
 62
     0
100
AcDbPoint
 10
15125.55267611032
 20
-5524.266080236164
 30
0.0
  0
POINT
  5
3D83
330
3D7A
100
AcDbEntity
  8
DEFPOINTS
 62
     0
100
AcDbPoint
 10
15125.55267611032
 20
-5087.050802840604
 30
0.0
  0
ENDBLK
  5
3D85
330
3D7A
100
AcDbEntity
  8
0
100
AcDbBlockEnd
  0
BLOCK
  5
3ECE
330
3ECD
100
AcDbEntity
  8
0
100
AcDbBlockBegin
  2
VOESTALPINE LOGO
 70
     0
 10
0.0
 20
0.0
 30
0.0
  3
VOESTALPINE LOGO
  1

  0
TEXT
  5
3ECF
330
3ECD
100
AcDbEntity
  8
0
 62
   155
100
AcDbText
 10
-2.022376810040597
 20
1.345163130846486
 30
0.0
 40
4.761899999999999
  1
alpine
 41
1.29
  7
LOGO2
100
AcDbText
  0
TEXT
  5
3ED0
330
3ECD
100
AcDbEntity
  8
0
 62
     7
100
AcDbText
 10
-24.96332103124969
 20
-3.319987708589252
 30
0.0
 40
2.050802049214244
  1
KREMS FINALTECHNIK GMBH
 41
1.219999999999999
  7
LOGO3
100
AcDbText
  0
TEXT
  5
3ED1
330
3ECD
100
AcDbEntity
  8
0
 62
     7
100
AcDbText
 10
-25.59751279130563
 20
1.29203428188444
 30
0.0
 40
4.761899999999999
  1
voest
 41
1.379999999999999
  7
LOGO1
100
AcDbText
  0
ENDBLK
  5
3ED2
330
3ECD
100
AcDbEntity
  8
0
100
AcDbBlockEnd
  0
BLOCK
  5
3ED4
330
3ED3
100
AcDbEntity
  8
0
100
AcDbBlockBegin
  2
LOGO ACAD
 70
     0
 10
0.0
 20
0.0
 30
0.0
  3
LOGO ACAD
  1

  0
INSERT
  5
3FBE
330
3ED3
100
AcDbEntity
  8
0
100
AcDbBlockReference
  2
VOESTALPINE LOGO
 10
25.66052293085149
 20
-5.598002378525222
 30
0.0
  0
ENDBLK
  5
3ED6
330
3ED3
100
AcDbEntity
  8
0
100
AcDbBlockEnd
  0
BLOCK
  5
3F62
330
3F58
100
AcDbEntity
  8
0
100
AcDbBlockBegin
  2
*D22
 70
     1
 10
0.0
 20
0.0
 30
0.0
  3
*D22
  1

  0
LINE
  5
4257
330
3F58
100
AcDbEntity
  8
KOTIERUNG
 62
     0
370
    -2
100
AcDbLine
 10
17453.45363438202
 20
-3705.237382650283
 30
0.0
 11
17453.45363438202
 21
-3771.56757618072
 31
0.0
  0
LINE
  5
4258
330
3F58
100
AcDbEntity
  8
KOTIERUNG
 62
     0
370
    -2
100
AcDbLine
 10
17593.45363438202
 20
-3705.237382650283
 30
0.0
 11
17593.45363438202
 21
-3771.56757618072
 31
0.0
  0
LINE
  5
4259
330
3F58
100
AcDbEntity
  8
KOTIERUNG
 62
     0
370
    -2
100
AcDbLine
 10
17490.95363438202
 20
-3752.81757618072
 30
0.0
 11
17555.95363438202
 21
-3752.81757618072
 31
0.0
  0
SOLID
  5
425A
330
3F58
100
AcDbEntity
  8
KOTIERUNG
 62
     0
100
AcDbTrace
 10
17490.95363438202
 20
-3746.56757618072
 30
0.0
 11
17490.95363438202
 21
-3759.06757618072
 31
0.0
 12
17453.45363438202
 22
-3752.81757618072
 32
0.0
 13
17453.45363438202
 23
-3752.81757618072
 33
0.0
  0
SOLID
  5
425B
330
3F58
100
AcDbEntity
  8
KOTIERUNG
 62
     0
100
AcDbTrace
 10
17555.95363438202
 20
-3746.56757618072
 30
0.0
 11
17555.95363438202
 21
-3759.06757618072
 31
0.0
 12
17593.45363438202
 22
-3752.81757618072
 32
0.0
 13
17593.45363438202
 23
-3752.81757618072
 33
0.0
  0
MTEXT
  5
425C
330
3F58
100
AcDbEntity
  8
KOTIERUNG
 62
     0
100
AcDbMText
 10
17523.45363438202
 20
-3724.296089141156
 30
0.0
 40
37.5
 41
0.0
 71
     5
 72
     1
  1
140
 73
     1
 44
1.0
1001
ACAD
1000
MTEXTBEGIN
1070
    73
1070
     1
1070
    44
1040
1.0
1070
    74
1070
     0
1000
MTEXTEND
  0
POINT
  5
425D
330
3F58
100
AcDbEntity
  8
DEFPOINTS
 62
     0
100
AcDbPoint
 10
17453.45363438202
 20
-3695.862382650283
 30
0.0
  0
POINT
  5
425E
330
3F58
100
AcDbEntity
  8
DEFPOINTS
 62
     0
100
AcDbPoint
 10
17593.45363438202
 20
-3695.862382650283
 30
0.0
  0
POINT
  5
425F
330
3F58
100
AcDbEntity
  8
DEFPOINTS
 62
     0
100
AcDbPoint
 10
17593.45363438202
 20
-3752.81757618072
 30
0.0
  0
ENDBLK
  5
3F63
330
3F58
100
AcDbEntity
  8
0
100
AcDbBlockEnd
  0
BLOCK
  5
4147
330
4146
100
AcDbEntity
  8
0
100
AcDbBlockBegin
  2
_DotSmall
 70
     0
 10
0.0
 20
0.0
 30
0.0
  3
_DotSmall
  1

  0
LWPOLYLINE
  5
4148
330
4146
100
AcDbEntity
  8
0
 62
     0
100
AcDbPolyline
 90
        2
 70
     1
 43
0.5
 10
-0.0625
 20
0.0
 42
1.0
 10
0.0625
 20
0.0
 42
1.0
  0
ENDBLK
  5
4149
330
4146
100
AcDbEntity
  8
0
100
AcDbBlockEnd
  0
ENDSEC
  0
SECTION
  2
ENTITIES
  0
MTEXT
  5
10E0
330
18
100
AcDbEntity
  8
KOTIERUNG
100
AcDbMText
 10
7495.698312492914
 20
470.9395909145314
 30
0.0
 40
25.0
 41
0.0
 71
     4
 72
     1
  1
\A1;
  7
VOEST
 73
     1
 44
1.0
1001
ACAD
1000
MTEXTBEGIN
1070
    73
1070
     1
1070
    44
1040
1.0
1070
    74
1070
     0
1000
MTEXTEND
  0
LINE
  5
1ECD
330
18
100
AcDbEntity
  8
18
  6
STRICHLINIE
 48
0.3
100
AcDbLine
 10
17460.45363438202
 20
-3430.898886919704
 30
0.0
 11
17460.45363438202
 21
-3550.898886919704
 31
0.0
  0
DIMENSION
  5
1ECE
330
18
100
AcDbEntity
  8
KOTIERUNG
100
AcDbDimension
  2
*D5
 10
17453.45363438202
 20
-3752.817576180718
 30
0.0
 11
17301.84889018986
 21
-3724.296089141154
 31
0.0
 70
    32
  1
300
 71
     5
 42
303.2094883843238
  3
ISO-25
100
AcDbAlignedDimension
 13
17150.2441459977
 23
-3610.782189119845
 33
0.0
 14
17453.45363438202
 24
-3660.464380319812
 34
0.0
100
AcDbRotatedDimension
1001
ACAD
1000
DSTYLE
1002
{
1070
    40
1040
15.0
1070
   271
1070
     0
1002
}
  0
DIMENSION
  5
1ED1
330
18
100
AcDbEntity
  8
KOTIERUNG
100
AcDbDimension
  2
*D0
 10
17087.8060559584
 20
-4677.398090607121
 30
0.0
 11
17059.28456891884
 21
-4401.592136985342
 31
0.0
 70
    32
  1
930
 71
     5
 42
551.611907243554
  3
ISO-25
100
AcDbAlignedDimension
 13
17087.8060559584
 23
-4125.786183363567
 33
0.0
 14
17453.45363438202
 24
-4677.398090607121
 34
0.0
 50
90.0
100
AcDbRotatedDimension
1001
ACAD
1000
DSTYLE
1002
{
1070
    40
1040
15.0
1070
   271
1070
     0
1002
}
  0
LINE
  5
200A
330
18
100
AcDbEntity
  8
LOCHBILD
100
AcDbLine
 10
17453.45363438202
 20
-4278.000663177072
 30
0.0
 11
17453.45363438202
 21
-4677.398090607121
 31
0.0
  0
LINE
  5
200B
330
18
100
AcDbEntity
  8
LOCHBILD
100
AcDbLine
 10
17593.45363438202
 20
-4255.606621141936
 30
0.0
 11
17593.45363438202
 21
-4677.398090607121
 31
0.0
  0
LINE
  5
200C
330
18
100
AcDbEntity
  8
18
  6
STRICHPUNKT
 48
5.0
100
AcDbLine
 10
17441.5605857245
 20
-4279.903044831079
 30
0.0
 11
17605.34668303954
 21
-4253.704239487915
 31
0.0
  0
LINE
  5
200D
330
18
100
AcDbEntity
  8
18
  6
STRICHPUNKT
 48
5.0
100
AcDbLine
 10
17441.5605857245
 20
-4273.904991597168
 30
0.0
 11
17605.34668303954
 21
-4247.70618625402
 31
0.0
  0
LINE
  5
200E
102
{ACAD_REACTORS
330
2051
102
}
330
18
100
AcDbEntity
  8
50
100
AcDbLine
 10
16758.52606934403
 20
-4125.786183363567
 30
0.0
 11
17725.78127798557
 21
-4125.786183363567
 31
0.0
  0
LINE
  5
2021
330
18
100
AcDbEntity
  8
18
  6
STRICHPUNKT
 48
10.0
100
AcDbLine
 10
17479.55764561718
 20
-3466.898886919704
 30
0.0
 11
17419.54126003063
 21
-3466.898886919704
 31
0.0
  0
LINE
  5
2022
330
18
100
AcDbEntity
  8
18
  6
STRICHPUNKT
 48
10.0
100
AcDbLine
 10
17479.55764561717
 20
-3536.898886919704
 30
0.0
 11
17419.54126003063
 21
-3536.898886919704
 31
0.0
  0
LINE
  5
2039
330
18
100
AcDbEntity
  8
LOCHBILD
100
AcDbLine
 10
17544.00783307978
 20
-3496.398886919704
 30
0.0
 11
17544.00783307978
 21
-3514.398886919704
 31
0.0
  0
LINE
  5
203A
330
18
100
AcDbEntity
  8
LOCHBILD
100
AcDbLine
 10
17561.92182973542
 20
-3496.398886919704
 30
0.0
 11
17561.92182973542
 21
-3514.398886919704
 31
0.0
  0
ARC
  5
203B
330
18
100
AcDbEntity
  8
LOCHBILD
100
AcDbCircle
 10
17552.9648314076
 20
-3496.355987977737
 30
0.0
 40
8.957101058030296
100
AcDbArc
 50
359.7255878100611
 51
180.2744121899388
  0
ARC
  5
203C
330
18
100
AcDbEntity
  8
LOCHBILD
100
AcDbCircle
 10
17552.9648314076
 20
-3514.44178586167
 30
0.0
 40
8.957101058030524
100
AcDbArc
 50
179.7255878100612
 51
0.2744121899388216
  0
LINE
  5
203D
330
18
100
AcDbEntity
  8
LOCHBILD
100
AcDbLine
 10
17544.49602101018
 20
-3496.398886919704
 30
0.0
 11
17544.49602101018
 21
-3514.398886919704
 31
0.0
  0
ARC
  5
203E
330
18
100
AcDbEntity
  8
LOCHBILD
100
AcDbCircle
 10
17553.453019338
 20
-3496.355987977737
 30
0.0
 40
8.957101058030296
100
AcDbArc
 50
91.56158622533952
 51
180.2744121899388
  0
ARC
  5
203F
330
18
100
AcDbEntity
  8
LOCHBILD
100
AcDbCircle
 10
17553.453019338
 20
-3514.44178586167
 30
0.0
 40
8.957101058030524
100
AcDbArc
 50
179.7255878100612
 51
268.4384137746605
  0
ARC
  5
2040
330
18
100
AcDbEntity
  8
LOCHBILD
100
AcDbCircle
 10
17553.453019338
 20
-3444.441785861671
 30
0.0
 40
8.957101058030524
100
AcDbArc
 50
179.7255878100612
 51
268.4384137746605
  0
ARC
  5
2041
330
18
100
AcDbEntity
  8
LOCHBILD
100
AcDbCircle
 10
17553.453019338
 20
-3426.355987977737
 30
0.0
 40
8.957101058030296
100
AcDbArc
 50
91.56158622533952
 51
180.2744121899388
  0
LINE
  5
2042
330
18
100
AcDbEntity
  8
LOCHBILD
100
AcDbLine
 10
17544.49602101018
 20
-3426.398886919704
 30
0.0
 11
17544.49602101018
 21
-3444.398886919703
 31
0.0
  0
ARC
  5
2043
330
18
100
AcDbEntity
  8
LOCHBILD
100
AcDbCircle
 10
17552.9648314076
 20
-3444.441785861671
 30
0.0
 40
8.957101058030524
100
AcDbArc
 50
179.7255878100612
 51
0.2744121899388216
  0
ARC
  5
2044
330
18
100
AcDbEntity
  8
LOCHBILD
100
AcDbCircle
 10
17552.9648314076
 20
-3426.355987977737
 30
0.0
 40
8.957101058030296
100
AcDbArc
 50
359.7255878100611
 51
180.2744121899388
  0
LINE
  5
2045
330
18
100
AcDbEntity
  8
LOCHBILD
100
AcDbLine
 10
17561.92182973542
 20
-3426.398886919704
 30
0.0
 11
17561.92182973542
 21
-3444.398886919703
 31
0.0
  0
LINE
  5
2046
330
18
100
AcDbEntity
  8
LOCHBILD
100
AcDbLine
 10
17544.00783307978
 20
-3426.398886919704
 30
0.0
 11
17544.00783307978
 21
-3444.398886919703
 31
0.0
  0
LINE
  5
2047
330
18
100
AcDbEntity
  8
LOCHBILD
100
AcDbLine
 10
17453.45363438202
 20
-4677.398090607121
 30
0.0
 11
17593.45363438202
 21
-4677.398090607121
 31
0.0
  0
LINE
  5
2048
330
18
100
AcDbEntity
  8
LOCHBILD
100
AcDbLine
 10
17593.45363438202
 20
-3355.398886919704
 30
0.0
 11
17593.45363438202
 21
-4249.608567908018
 31
0.0
  0
LINE
  5
2049
330
18
100
AcDbEntity
  8
LOCHBILD
100
AcDbLine
 10
17453.45363438202
 20
-3355.398886919704
 30
0.0
 11
17453.45363438202
 21
-4272.002609943147
 31
0.0
  0
LINE
  5
204A
102
{ACAD_REACTORS
330
2051
330
2054
330
2057
102
}
330
18
100
AcDbEntity
  8
LOCHBILD
100
AcDbLine
 10
17453.45363438202
 20
-3355.398886919704
 30
0.0
 11
17593.45363438202
 21
-3355.398886919704
 31
0.0
  0
HATCH
  5
204B
330
18
100
AcDbEntity
  8
18
  6
STRICHLINIE
 48
0.3
100
AcDbHatch
 10
0.0
 20
0.0
 30
0.0
210
0.0
220
0.0
230
1.0
  2
EARTH
 70
     0
 71
     0
 91
        3
 92
        7
 72
     0
 73
     1
 93
        4
 10
16758.52606934402
 20
-4125.786183363567
 10
16758.52606934402
 20
-4194.50657212331
 10
17453.45363438202
 20
-4194.50657212331
 10
17453.45363438202
 20
-4125.786183363567
 97
        0
 92
        7
 72
     0
 73
     1
 93
        4
 10
17588.45363438202
 20
-4194.50657212331
 10
17588.45363438202
 20
-4125.786183363567
 10
17458.45363438202
 20
-4125.786183363567
 10
17458.45363438202
 20
-4194.50657212331
 97
        0
 92
        7
 72
     0
 73
     1
 93
        4
 10
17725.78127798557
 20
-4194.50657212331
 10
17725.78127798557
 20
-4125.786183363567
 10
17593.45363438202
 20
-4125.786183363567
 10
17593.45363438202
 20
-4194.50657212331
 97
        0
 75
     0
 76
     1
 52
45.0
 41
7.0
 77
     0
 78
     6
 53
45.0
 43
17197.61519520743
 44
3095.134482034499
 45
0.0000000000000071
 46
62.86179284748406
 79
     2
 49
44.44999999999999
 49
-44.44999999999999
 53
45.0
 43
17185.82860904853
 44
3106.9210681934
 45
0.0000000000000071
 46
62.86179284748406
 79
     2
 49
44.44999999999999
 49
-44.44999999999999
 53
45.0
 43
17174.04202288963
 44
3118.707654352302
 45
0.0000000000000071
 46
62.86179284748406
 79
     2
 49
44.44999999999999
 49
-44.44999999999999
 53
135.0
 43
17174.04202288963
 44
3126.565378458241
 45
-62.86179284748406
 46
0.0000000000000071
 79
     2
 49
44.44999999999999
 49
-44.44999999999999
 53
135.0
 43
17185.82860904853
 44
3138.351964617143
 45
-62.86179284748406
 46
0.0000000000000071
 79
     2
 49
44.44999999999999
 49
-44.44999999999999
 53
135.0
 43
17197.61519520743
 44
3150.138550776044
 45
-62.86179284748406
 46
0.0000000000000071
 79
     2
 49
44.44999999999999
 49
-44.44999999999999
 47
1.559174811946683
 98
        3
 10
17314.16397543085
 20
-4156.806569004648
 10
17544.98378908997
 20
-4170.839079137875
 10
17646.35749970897
 20
-4169.280040114345
  0
DIMENSION
  5
204C
330
18
100
AcDbEntity
  8
KOTIERUNG
100
AcDbDimension
  2
*D1
 10
17084.54631006047
 20
-4125.786183363567
 30
0.0
 11
17084.54631006047
 21
-3557.073328883328
 31
0.0
 70
   160
 71
     5
 42
870.0
  3
ISO-25
100
AcDbAlignedDimension
 13
17242.1536736648
 23
-3255.786183363567
 33
0.0
 14
17087.8060559584
 24
-4125.786183363567
 34
0.0
 50
90.0
100
AcDbRotatedDimension
1001
ACAD
1000
DSTYLE
1002
{
1070
    40
1040
15.0
1070
   283
1070
     1
1070
   146
1040
0.75
1070
    47
1040
40.0
1070
   147
1040
0.625
1070
    48
1040
40.0
1070
    72
1070
     0
1070
    71
1070
     1
1002
}
  0
DIMENSION
  5
204F
102
{ACAD_XDICTIONARY
360
2050
102
}
102
{ACAD_REACTORS
330
2051
102
}
330
18
100
AcDbEntity
  8
KOTIERUNG
100
AcDbDimension
  2
*D2
 10
17696.36653717446
 20
-4125.786183363567
 30
0.0
 11
17667.8450501349
 21
-3740.592535141633
 31
0.0
 70
    32
 71
     5
 42
770.3872964438637
  3
ISO-25
100
AcDbAlignedDimension
 13
17593.45363438202
 23
-3355.398886919704
 33
0.0
 14
17593.45363438202
 24
-4125.786183363567
 34
0.0
 50
90.0
100
AcDbRotatedDimension
1001
ACAD
1000
DSTYLE
1002
{
1070
    40
1040
15.0
1070
   271
1070
     0
1002
}
  0
DIMENSION
  5
2052
102
{ACAD_XDICTIONARY
360
2053
102
}
102
{ACAD_REACTORS
330
2054
102
}
330
18
100
AcDbEntity
  8
KOTIERUNG
100
AcDbDimension
  2
*D3
 10
17696.36653717446
 20
-3255.786183363568
 30
0.0
 11
17667.8450501349
 21
-3305.592535141633
 31
0.0
 70
    32
 71
     5
 42
99.61270355613624
  3
ISO-25
100
AcDbAlignedDimension
 13
17593.45363438202
 23
-3355.398886919704
 33
0.0
 14
17242.1536736648
 24
-3255.786183363567
 34
0.0
 50
90.0
100
AcDbRotatedDimension
1001
ACAD
1000
DSTYLE
1002
{
1070
    40
1040
15.0
1070
   271
1070
     0
1002
}
  0
DIMENSION
  5
2055
102
{ACAD_XDICTIONARY
360
2056
102
}
102
{ACAD_REACTORS
330
2057
102
}
330
18
100
AcDbEntity
  8
KOTIERUNG
100
AcDbDimension
  2
*D4
 10
17593.45363438202
 20
-3170.236584198403
 30
0.0
 11
17371.89403947691
 21
-3141.71509715884
 31
0.0
 70
    32
  1
440
 71
     5
 42
443.1191898102188
  3
ISO-25
100
AcDbAlignedDimension
 13
17150.3344445718
 23
-3347.689699019128
 33
0.0
 14
17593.45363438202
 24
-3355.398886919703
 34
0.0
100
AcDbRotatedDimension
1001
ACAD
1000
DSTYLE
1002
{
1070
    40
1040
15.0
1070
   271
1070
     0
1002
}
  0
LINE
  5
3BF6
330
18
100
AcDbEntity
  8
25
100
AcDbLine
 10
19549.21686001873
 20
-5750.566040953403
 30
0.0
 11
14670.24142432923
 21
-5750.566040953403
 31
0.0
  0
LINE
  5
3BF7
330
18
100
AcDbEntity
  8
25
100
AcDbLine
 10
19550.79913885029
 20
-5844.266040953399
 30
0.0
 11
14670.24142432923
 21
-5844.266040953386
 31
0.0
  0
DIMENSION
  5
3BF8
102
{ACAD_XDICTIONARY
360
3BF9
102
}
102
{ACAD_REACTORS
330
3BFA
102
}
330
18
100
AcDbEntity
  8
KOTIERUNG
100
AcDbDimension
  2
*D19
 10
15125.55267611032
 20
-5087.050802840604
 30
0.0
 11
17125.55267611032
 21
-4991.979179375392
 31
0.0
 70
    32
 71
     5
 42
4000.0
  3
ISO-25
100
AcDbAlignedDimension
 13
19125.55267611032
 23
-5524.266080236164
 33
0.0
 14
15125.55267611032
 24
-5524.266080236164
 34
0.0
 50
180.0
100
AcDbRotatedDimension
1001
ACAD
1000
DSTYLE
1002
{
1070
    40
1040
50.0
1070
    47
1040
7.0
1070
    48
1040
7.0
1070
    71
1070
     1
1070
   146
1040
0.75
1070
   283
1070
     1
1002
}
  0
DIMENSION
  5
3BFB
102
{ACAD_XDICTIONARY
360
3BFC
102
}
102
{ACAD_REACTORS
330
3BFD
102
}
330
18
100
AcDbEntity
  8
KOTIERUNG
100
AcDbDimension
  2
*D18
 10
17125.55267611032
 20
-5346.543270935639
 30
0.0
 11
18125.55267611032
 21
-5251.471647470427
 31
0.0
 70
    32
 71
     5
 42
2000.0
  3
ISO-25
100
AcDbAlignedDimension
 13
19125.55267611032
 23
-5524.266080236164
 33
0.0
 14
17125.55267611032
 24
-5524.266080236164
 34
0.0
 50
180.0
100
AcDbRotatedDimension
1001
ACAD
1000
DSTYLE
1002
{
1070
    40
1040
50.0
1002
}
  0
LINE
  5
3C5A
330
18
100
AcDbEntity
  8
25
100
AcDbLine
 10
19180.55267611032
 20
-5539.266080236164
 30
0.0
 11
19180.55267611032
 21
-5750.566040953403
 31
0.0
  0
LINE
  5
3C5B
330
18
100
AcDbEntity
  8
25
100
AcDbLine
 10
19070.55267611032
 20
-5539.266080236164
 30
0.0
 11
19070.55267611032
 21
-5750.566040953403
 31
0.0
  0
LINE
  5
3C70
330
18
100
AcDbEntity
  8
25
100
AcDbLine
 10
18985.55267611032
 20
-5750.566040953403
 30
0.0
 11
18985.55267611032
 21
-5844.266040953399
 31
0.0
  0
LWPOLYLINE
  5
3C7A
330
18
100
AcDbEntity
  8
25
100
AcDbPolyline
 90
       22
 70
     1
 43
0.0
 10
19103.05267611032
 20
-5404.266080236165
 10
19083.94976887364
 20
-5404.266080236165
 42
0.4431554385007358
 10
19077.97843665509
 20
-5410.851905752657
 10
19089.5549841347
 20
-5528.851905752657
 42
0.3858521034142784
 10
19095.52631635324
 20
-5534.266080236164
 10
19125.55267611032
 20
-5534.266080236164
 10
19155.5790358674
 20
-5534.266080236164
 42
0.3858521034142783
 10
19161.55036808595
 20
-5528.851905752657
 10
19173.12691556555
 20
-5410.851905752657
 42
0.4431554385007359
 10
19167.15558334701
 20
-5404.266080236165
 10
19148.05267611032
 20
-5404.266080236165
 10
19148.05267611032
 20
-5399.266080236164
 10
19167.15558334701
 20
-5399.266080236164
 42
-0.4431554385007359
 10
19178.10302574767
 20
-5411.340093683044
 10
19166.52647826807
 20
-5529.340093683043
 42
-0.3858521034142783
 10
19155.5790358674
 20
-5539.266080236164
 10
19125.55267611032
 20
-5539.266080236164
 10
19095.52631635324
 20
-5539.266080236164
 42
-0.3858521034142784
 10
19084.57887395258
 20
-5529.340093683043
 10
19073.00232647297
 20
-5411.340093683044
 42
-0.4431554385007358
 10
19083.94976887364
 20
-5399.266080236164
 10
19103.05267611032
 20
-5399.266080236164
  0
LINE
  5
3C7B
330
18
100
AcDbEntity
  8
25
100
AcDbLine
 10
19070.55267611032
 20
-5539.266080236164
 30
0.0
 11
19180.55267611032
 21
-5539.266080236164
 31
0.0
  0
LINE
  5
3C7C
330
18
100
AcDbEntity
  8
18
  6
STRICHLINIE
 48
0.2
100
AcDbLine
 10
19171.21798299206
 20
-5430.309696952376
 30
0.0
 11
19176.19409317418
 21
-5430.797884882762
 31
0.0
  0
LINE
  5
3C7D
330
18
100
AcDbEntity
  8
18
  6
STRICHLINIE
 48
0.2
100
AcDbLine
 10
19169.46050644263
 20
-5448.223693608
 30
0.0
 11
19174.43661662475
 21
-5448.711881538402
 31
0.0
  0
LINE
  5
3C7E
330
18
100
AcDbEntity
  8
18
  6
STRICHPUNKT
 48
0.2
100
AcDbLine
 10
19160.3870243531
 20
-5438.290319419394
 30
0.0
 11
19185.26757526371
 21
-5440.731259071384
 31
0.0
  0
LINE
  5
3C7F
330
18
100
AcDbEntity
  8
18
  6
STRICHLINIE
 48
0.2
100
AcDbLine
 10
19134.55267611032
 20
-5534.266080236164
 30
0.0
 11
19134.55267611032
 21
-5539.266080236164
 31
0.0
  0
LINE
  5
3C80
330
18
100
AcDbEntity
  8
18
  6
STRICHLINIE
 48
0.2
100
AcDbLine
 10
19079.88736922858
 20
-5430.309696952376
 30
0.0
 11
19074.91125904646
 21
-5430.797884882762
 31
0.0
  0
LINE
  5
3C81
330
18
100
AcDbEntity
  8
18
  6
STRICHLINIE
 48
0.2
100
AcDbLine
 10
19081.64484577802
 20
-5448.223693608
 30
0.0
 11
19076.6687355959
 21
-5448.711881538402
 31
0.0
  0
LINE
  5
3C82
330
18
100
AcDbEntity
  8
18
  6
STRICHPUNKT
 48
0.2
100
AcDbLine
 10
19090.71832786754
 20
-5438.290319419394
 30
0.0
 11
19065.83777695694
 21
-5440.731259071384
 31
0.0
  0
LINE
  5
3C83
330
18
100
AcDbEntity
  8
18
  6
STRICHLINIE
 48
0.2
100
AcDbLine
 10
19116.55267611032
 20
-5534.266080236164
 30
0.0
 11
19116.55267611032
 21
-5539.266080236164
 31
0.0
  0
LINE
  5
3C84
102
{ACAD_REACTORS
330
3BFA
330
3BFD
102
}
330
18
100
AcDbEntity
  8
18
  6
STRICHPUNKT
 48
0.2
100
AcDbLine
 10
19125.55267611032
 20
-5524.266080236164
 30
0.0
 11
19125.55267611032
 21
-5549.266080236164
 31
0.0
  0
DIMENSION
  5
3C8A
102
{ACAD_XDICTIONARY
360
3C8B
102
}
102
{ACAD_REACTORS
330
3C8C
102
}
330
18
100
AcDbEntity
  8
KOTIERUNG
100
AcDbDimension
  2
*D17
 10
15125.55267611032
 20
-5346.543270935639
 30
0.0
 11
16125.55267611032
 21
-5251.471647470427
 31
0.0
 70
    32
 71
     5
 42
2000.0
  3
ISO-25
100
AcDbAlignedDimension
 13
17125.55267611032
 23
-5524.266080236164
 33
0.0
 14
15125.55267611032
 24
-5524.266080236164
 34
0.0
 50
180.0
100
AcDbRotatedDimension
1001
ACAD
1000
DSTYLE
1002
{
1070
    40
1040
50.0
1002
}
  0
LINE
  5
3C8D
330
18
100
AcDbEntity
  8
25
100
AcDbLine
 10
17070.55267611032
 20
-5539.266080236164
 30
0.0
 11
17070.55267611032
 21
-5750.566040953403
 31
0.0
  0
LINE
  5
3C8E
330
18
100
AcDbEntity
  8
25
100
AcDbLine
 10
17180.55267611032
 20
-5539.266080236164
 30
0.0
 11
17180.55267611032
 21
-5750.566040953403
 31
0.0
  0
LINE
  5
3C9C
330
18
100
AcDbEntity
  8
25
100
AcDbLine
 10
17070.55267611032
 20
-5539.266080236164
 30
0.0
 11
17180.55267611032
 21
-5539.266080236164
 31
0.0
  0
LINE
  5
3C9D
102
{ACAD_REACTORS
330
3BFD
330
3C8C
102
}
330
18
100
AcDbEntity
  8
18
  6
STRICHPUNKT
 48
0.2
100
AcDbLine
 10
17125.55267611032
 20
-5524.266080236164
 30
0.0
 11
17125.55267611032
 21
-5549.266080236164
 31
0.0
  0
LINE
  5
3CB0
330
18
100
AcDbEntity
  8
25
100
AcDbLine
 10
15070.55267611032
 20
-5539.266080236164
 30
0.0
 11
15070.55267611032
 21
-5750.566040953403
 31
0.0
  0
LINE
  5
3CB1
330
18
100
AcDbEntity
  8
25
100
AcDbLine
 10
15180.55267611032
 20
-5539.266080236164
 30
0.0
 11
15180.55267611032
 21
-5750.566040953403
 31
0.0
  0
LINE
  5
3CC3
330
18
100
AcDbEntity
  8
25
100
AcDbLine
 10
14985.55267611032
 20
-5750.566040953403
 30
0.0
 11
14985.55267611032
 21
-5844.266040953399
 31
0.0
  0
LINE
  5
3CD3
330
18
100
AcDbEntity
  8
25
100
AcDbLine
 10
15070.55267611032
 20
-5539.266080236164
 30
0.0
 11
15180.55267611032
 21
-5539.266080236164
 31
0.0
  0
LINE
  5
3CD4
102
{ACAD_REACTORS
330
3BFA
330
3C8C
102
}
330
18
100
AcDbEntity
  8
18
  6
STRICHPUNKT
 48
0.2
100
AcDbLine
 10
15125.55267611032
 20
-5524.266080236164
 30
0.0
 11
15125.55267611032
 21
-5549.266080236164
 31
0.0
  0
DIMENSION
  5
3F57
330
18
100
AcDbEntity
  8
KOTIERUNG
100
AcDbDimension
  2
*D22
 10
17593.45363438202
 20
-3752.81757618072
 30
0.0
 11
17523.45363438202
 21
-3724.296089141156
 31
0.0
 70
    32
 71
     5
 42
140.0
  3
ISO-25
100
AcDbAlignedDimension
 13
17453.45363438202
 23
-3695.862382650283
 33
0.0
 14
17593.45363438202
 24
-3695.862382650283
 34
0.0
100
AcDbRotatedDimension
1001
ACAD
1000
DSTYLE
1002
{
1070
    40
1040
15.0
1070
   271
1070
     0
1002
}
  0
LINE
  5
427E
330
18
100
AcDbEntity
  8
18
  6
STRICHLINIE
 48
0.075
100
AcDbLine
 10
19185.55267611031
 20
-5750.566040953404
 30
0.0
 11
19185.55267611032
 21
-5844.266040953399
 31
0.0
  0
LINE
  5
4280
330
18
100
AcDbEntity
  8
18
  6
STRICHLINIE
 48
0.075
100
AcDbLine
 10
15185.55267611032
 20
-5750.566040953404
 30
0.0
 11
15185.55267611032
 21
-5844.266040953385
 31
0.0
  0
LINE
  5
428C
330
18
100
AcDbEntity
  8
25
100
AcDbLine
 10
15148.05267611032
 20
-5399.266080236164
 30
0.0
 11
15167.15558334701
 21
-5399.266080236164
 31
0.0
  0
ARC
  5
428D
330
18
100
AcDbEntity
  8
25
100
AcDbCircle
 10
15167.155583347
 20
-5410.266080236164
 30
0.0
 40
11.0
100
AcDbArc
 50
354.3968516704601
 51
89.99999999999053
  0
LINE
  5
428E
330
18
100
AcDbEntity
  8
25
100
AcDbLine
 10
15178.10302574767
 20
-5411.340093683044
 30
0.0
 11
15166.52647826807
 21
-5529.340093683043
 31
0.0
  0
ARC
  5
428F
330
18
100
AcDbEntity
  8
25
100
AcDbCircle
 10
15155.5790358674
 20
-5528.266080236166
 30
0.0
 40
10.99999999999858
100
AcDbArc
 50
270.0
 51
354.3968516704687
  0
LINE
  5
4290
330
18
100
AcDbEntity
  8
25
100
AcDbLine
 10
15155.5790358674
 20
-5539.266080236164
 30
0.0
 11
15125.55267611032
 21
-5539.266080236164
 31
0.0
  0
LINE
  5
4291
330
18
100
AcDbEntity
  8
25
100
AcDbLine
 10
15125.55267611032
 20
-5539.266080236164
 30
0.0
 11
15095.52631635324
 21
-5539.266080236164
 31
0.0
  0
ARC
  5
4292
330
18
100
AcDbEntity
  8
25
100
AcDbCircle
 10
15095.52631635324
 20
-5528.266080236166
 30
0.0
 40
10.99999999999818
100
AcDbArc
 50
185.6031483295314
 51
270.0
  0
LINE
  5
4293
330
18
100
AcDbEntity
  8
25
100
AcDbLine
 10
15084.57887395258
 20
-5529.340093683043
 30
0.0
 11
15073.00232647297
 21
-5411.340093683044
 31
0.0
  0
ARC
  5
4294
330
18
100
AcDbEntity
  8
25
100
AcDbCircle
 10
15083.94976887364
 20
-5410.266080236164
 30
0.0
 40
11.00000000000057
100
AcDbArc
 50
90.00000000000948
 51
185.6031483295399
  0
LINE
  5
4295
330
18
100
AcDbEntity
  8
25
100
AcDbLine
 10
15083.94976887364
 20
-5399.266080236164
 30
0.0
 11
15103.05267611032
 21
-5399.266080236164
 31
0.0
  0
LINE
  5
42A2
330
18
100
AcDbEntity
  8
25
100
AcDbLine
 10
17148.05267611032
 20
-5399.266080236164
 30
0.0
 11
17167.15558334701
 21
-5399.266080236164
 31
0.0
  0
ARC
  5
42A3
330
18
100
AcDbEntity
  8
25
100
AcDbCircle
 10
17167.15558334701
 20
-5410.266080236164
 30
0.0
 40
11.0
100
AcDbArc
 50
354.3968516704592
 51
90.0
  0
LINE
  5
42A4
330
18
100
AcDbEntity
  8
25
100
AcDbLine
 10
17178.10302574767
 20
-5411.340093683044
 30
0.0
 11
17166.52647826807
 21
-5529.340093683043
 31
0.0
  0
ARC
  5
42A5
330
18
100
AcDbEntity
  8
25
100
AcDbCircle
 10
17155.5790358674
 20
-5528.266080236166
 30
0.0
 40
10.99999999999858
100
AcDbArc
 50
270.0
 51
354.3968516704687
  0
LINE
  5
42A6
330
18
100
AcDbEntity
  8
25
100
AcDbLine
 10
17155.5790358674
 20
-5539.266080236164
 30
0.0
 11
17125.55267611032
 21
-5539.266080236164
 31
0.0
  0
LINE
  5
42A7
330
18
100
AcDbEntity
  8
25
100
AcDbLine
 10
17125.55267611032
 20
-5539.266080236164
 30
0.0
 11
17095.52631635324
 21
-5539.266080236164
 31
0.0
  0
ARC
  5
42A8
330
18
100
AcDbEntity
  8
25
100
AcDbCircle
 10
17095.52631635324
 20
-5528.266080236166
 30
0.0
 40
10.99999999999818
100
AcDbArc
 50
185.6031483295314
 51
270.0
  0
LINE
  5
42A9
330
18
100
AcDbEntity
  8
25
100
AcDbLine
 10
17084.57887395258
 20
-5529.340093683043
 30
0.0
 11
17073.00232647297
 21
-5411.340093683044
 31
0.0
  0
ARC
  5
42AA
330
18
100
AcDbEntity
  8
25
100
AcDbCircle
 10
17083.94976887364
 20
-5410.266080236164
 30
0.0
 40
10.99999999999876
100
AcDbArc
 50
90.0
 51
185.6031483295408
  0
LINE
  5
42AB
330
18
100
AcDbEntity
  8
25
100
AcDbLine
 10
17083.94976887364
 20
-5399.266080236164
 30
0.0
 11
17103.05267611032
 21
-5399.266080236164
 31
0.0
  0
LINE
  5
42B8
330
18
100
AcDbEntity
  8
18
  6
STRICHLINIE
 48
0.3
100
AcDbLine
 10
17593.45363438202
 20
-4396.708822181476
 30
0.0
 11
17593.45363438202
 21
-4377.605914944796
 31
0.0
  0
ARC
  5
42B9
330
18
100
AcDbEntity
  8
18
  6
STRICHLINIE
 48
0.3
100
AcDbCircle
 10
17582.45363438202
 20
-4377.605914944796
 30
0.0
 40
11.0
100
AcDbArc
 50
0.0
 51
95.60314832953896
  0
LINE
  5
42BA
330
18
100
AcDbEntity
  8
18
  6
STRICHLINIE
 48
0.3
100
AcDbLine
 10
17581.37962093514
 20
-4366.658472544126
 30
0.0
 11
17463.37962093514
 21
-4378.235020023732
 31
0.0
  0
ARC
  5
42BB
330
18
100
AcDbEntity
  8
18
  6
STRICHLINIE
 48
0.3
100
AcDbCircle
 10
17464.45363438202
 20
-4389.1824624244
 30
0.0
 40
11.00000000000057
100
AcDbArc
 50
95.6031483295399
 51
180.0000000000094
  0
LINE
  5
42BC
330
18
100
AcDbEntity
  8
18
  6
STRICHLINIE
 48
0.3
100
AcDbLine
 10
17453.45363438202
 20
-4389.182462424401
 30
0.0
 11
17453.45363438202
 21
-4419.208822181476
 31
0.0
  0
LINE
  5
42BD
330
18
100
AcDbEntity
  8
18
  6
STRICHLINIE
 48
0.3
100
AcDbLine
 10
17453.45363438202
 20
-4419.208822181476
 30
0.0
 11
17453.45363438202
 21
-4449.235181938557
 31
0.0
  0
ARC
  5
42BE
330
18
100
AcDbEntity
  8
18
  6
STRICHLINIE
 48
0.3
100
AcDbCircle
 10
17464.45363438202
 20
-4449.235181938558
 30
0.0
 40
11.0
100
AcDbArc
 50
179.9999999999905
 51
264.3968516704601
  0
LINE
  5
42BF
330
18
100
AcDbEntity
  8
18
  6
STRICHLINIE
 48
0.3
100
AcDbLine
 10
17463.37962093514
 20
-4460.182624339226
 30
0.0
 11
17581.37962093514
 21
-4471.759171818832
 31
0.0
  0
ARC
  5
42C0
330
18
100
AcDbEntity
  8
18
  6
STRICHLINIE
 48
0.3
100
AcDbCircle
 10
17582.45363438202
 20
-4460.811729418163
 30
0.0
 40
11.00000000000238
100
AcDbArc
 50
264.396851670461
 51
0.0
  0
LINE
  5
42C1
330
18
100
AcDbEntity
  8
18
  6
STRICHLINIE
 48
0.3
100
AcDbLine
 10
17593.45363438202
 20
-4460.811729418163
 30
0.0
 11
17593.45363438202
 21
-4441.708822181476
 31
0.0
  0
LINE
  5
42C3
330
18
100
AcDbEntity
  8
35
100
AcDbLine
 10
17426.53789554646
 20
-3608.535689694441
 30
0.0
 11
17257.01850589623
 21
-3511.879702696539
 31
0.0
  0
ARC
  5
42C4
330
18
100
AcDbEntity
  8
35
100
AcDbCircle
 10
17251.07468000587
 20
-3522.304237879696
 30
0.0
 40
11.99999999999613
100
AcDbArc
 50
60.30922383829449
 51
133.3328661616794
  0
LINE
  5
42C5
330
18
100
AcDbEntity
  8
35
100
AcDbLine
 10
17242.83985152101
 20
-3513.575687036346
 30
0.0
 11
17190.52923756931
 21
-3562.927399773113
 31
0.0
  0
LINE
  5
42D1
330
18
100
AcDbEntity
  8
35
100
AcDbLine
 10
17183.76623879159
 20
-3302.955107974244
 30
0.0
 11
17224.01359556494
 21
-3273.018133542703
 31
0.0
  0
ARC
  5
42D2
330
18
100
AcDbEntity
  8
35
100
AcDbCircle
 10
17234.75642956233
 20
-3287.460831272163
 30
0.0
 40
18.00000000000256
100
AcDbArc
 50
70.66062030666251
 51
126.642778364353
  0
LINE
  5
42D3
330
18
100
AcDbEntity
  8
35
100
AcDbLine
 10
17240.71736345432
 20
-3270.476507113241
 30
0.0
 11
17441.41456827403
 21
-3340.914562760792
 31
0.0
  0
ARC
  5
42D4
330
18
100
AcDbEntity
  8
35
100
AcDbCircle
 10
17435.45363438203
 20
-3357.898886919698
 30
0.0
 40
17.99999999998842
100
AcDbArc
 50
359.9999999999798
 51
70.66062030661152
  0
LINE
  5
42D5
330
18
100
AcDbEntity
  8
35
100
AcDbLine
 10
17453.45363438202
 20
-3357.898886919704
 30
0.0
 11
17453.45363438202
 21
-3592.898886919704
 31
0.0
  0
ARC
  5
42D6
330
18
100
AcDbEntity
  8
35
100
AcDbCircle
 10
17435.45363438202
 20
-3592.898886919705
 30
0.0
 40
18.0
100
AcDbArc
 50
240.3092238382744
 51
0.000000000002895
  0
ARC
  5
42D7
330
18
100
AcDbEntity
  8
35
100
AcDbCircle
 10
17190.94414599769
 20
-3480.782189119842
 30
0.0
 40
50.00000000000728
100
AcDbArc
 50
359.9999999999959
 51
46.6671338383424
  0
LINE
  5
42D8
330
18
100
AcDbEntity
  8
35
100
AcDbLine
 10
17225.25593135125
 20
-3444.413227272524
 30
0.0
 11
17166.87365352293
 21
-3389.333288678003
 31
0.0
  0
ARC
  5
42D9
330
18
100
AcDbEntity
  8
35
100
AcDbCircle
 10
17203.24414599769
 20
-3350.782189119843
 30
0.0
 40
53.00000000000143
100
AcDbArc
 50
126.6427783643238
 51
226.6671338383531
  0
LINE
  5
42DA
330
18
100
AcDbEntity
  8
35
100
AcDbLine
 10
17171.61246811651
 20
-3308.25646802753
 30
0.0
 11
17242.1536736648
 21
-3255.786183363567
 31
0.0
  0
LINE
  5
42E5
330
18
100
AcDbEntity
  8
35
100
AcDbLine
 10
17242.1536736648
 20
-3705.778194876117
 30
0.0
 11
17171.61246811651
 21
-3653.307910212154
 31
0.0
  0
ARC
  5
42E6
330
18
100
AcDbEntity
  8
35
100
AcDbCircle
 10
17203.24414599769
 20
-3610.782189119845
 30
0.0
 40
52.99999999999894
100
AcDbArc
 50
133.3328661616496
 51
233.3572216356739
  0
LINE
  5
42E7
330
18
100
AcDbEntity
  8
35
100
AcDbLine
 10
17166.87365352293
 20
-3572.231089561689
 30
0.0
 11
17225.25593135125
 21
-3517.151150967161
 31
0.0
  0
ARC
  5
42E8
330
18
100
AcDbEntity
  8
35
100
AcDbCircle
 10
17190.9441459977
 20
-3480.782189119846
 30
0.0
 40
49.99999999999601
100
AcDbArc
 50
313.3328661616513
 51
0.0
  0
VIEWPORT
  5
3B9C
102
{ACAD_XDICTIONARY
360
4382
102
}
330
3B94
100
AcDbEntity
 67
     1
  8
0
100
AcDbViewport
 10
29.90604224702551
 20
22.16324002955657
 30
0.0
 40
84.49986195797702
 41
53.76627504865481
 68
     1
 69
     1
 12
29.90604224702551
 22
22.16324002955657
 13
0.0
 23
0.0
 14
10.0
 24
10.0
 15
10.0
 25
10.0
 16
0.0
 26
0.0
 36
1.0
 17
0.0
 27
0.0
 37
0.0
 42
50.0
 43
0.0
 44
0.0
 45
53.76627504865481
 50
0.0
 51
0.0
 72
   100
 90
    32800
  1

281
     0
 71
     1
 74
     0
110
0.0
120
0.0
130
0.0
111
1.0
121
0.0
131
0.0
112
0.0
122
1.0
132
0.0
 79
     0
146
0.0
  0
ENDSEC
  0
SECTION
  2
OBJECTS
  0
DICTIONARY
  5
C
330
0
100
AcDbDictionary
281
     1
  3
ACAD_COLOR
350
1ACC
  3
ACAD_GROUP
350
D
  3
ACAD_IMAGE_DICT
350
1BA2
  3
ACAD_IMAGE_VARS
350
1BA3
  3
ACAD_LAYOUT
350
16EC
  3
ACAD_MATERIAL
350
1ACB
  3
ACAD_MLINESTYLE
350
1B
  3
ACAD_PLOTSETTINGS
350
16ED
  3
ACAD_PLOTSTYLENAME
350
16EA
  3
ACAD_TABLESTYLE
350
4372
  3
ACDBHEADERROUNDTRIPXREC
350
437D
  3
ACDBVARIABLEDICTIONARY
350
1109
  3
CONTENTDICTIONARY
350
23
  0
DICTIONARY
  5
2050
330
204F
100
AcDbDictionary
280
     1
281
     1
  3
ACAD_DIMASSOC
360
2051
  0
DICTIONARY
  5
2053
330
2052
100
AcDbDictionary
280
     1
281
     1
  3
ACAD_DIMASSOC
360
2054
  0
DICTIONARY
  5
2056
330
2055
100
AcDbDictionary
280
     1
281
     1
  3
ACAD_DIMASSOC
360
2057
  0
DICTIONARY
  5
3BF9
330
3BF8
100
AcDbDictionary
280
     1
281
     1
  3
ACAD_DIMASSOC
360
3BFA
  0
DICTIONARY
  5
3BFC
330
3BFB
100
AcDbDictionary
280
     1
281
     1
  3
ACAD_DIMASSOC
360
3BFD
  0
DICTIONARY
  5
3C8B
330
3C8A
100
AcDbDictionary
280
     1
281
     1
  3
ACAD_DIMASSOC
360
3C8C
  0
DICTIONARY
  5
4382
330
3B9C
100
AcDbDictionary
280
     1
281
     1
  3
ACAD_XREC_ROUNDTRIP
360
4383
  0
DICTIONARY
  5
1ACC
102
{ACAD_REACTORS
330
C
102
}
330
C
100
AcDbDictionary
281
     1
  0
DICTIONARY
  5
D
102
{ACAD_REACTORS
330
C
102
}
330
C
100
AcDbDictionary
281
     1
  3
*A1
350
1B1
  3
*A10
350
95D
  3
*A11
350
1B2
  3
*A12
350
1C3
  3
*A13
350
1D2
  3
*A14
350
46A
  3
*A2
350
46B
  3
*A3
350
95A
  3
*A4
350
1A48
  3
*A5
350
1A49
  3
*A6
350
1A4A
  3
*A7
350
1A4B
  3
*A8
350
95B
  3
*A9
350
95C
  0
DICTIONARY
  5
1BA2
102
{ACAD_REACTORS
330
C
102
}
330
C
100
AcDbDictionary
281
     1
  3
C301 H2 Damm explosions_3D
350
3E29
  3
C301 H2 Damm_3D
350
3E26
  0
RASTERVARIABLES
  5
1BA3
102
{ACAD_REACTORS
330
C
102
}
330
C
100
AcDbRasterVariables
 90
        0
 70
     1
 71
     1
 72
     0
  0
DICTIONARY
  5
16EC
102
{ACAD_REACTORS
330
C
102
}
330
C
100
AcDbDictionary
281
     1
  3
Layout1
350
3B95
  3
Model
350
16EE
  0
DICTIONARY
  5
1ACB
102
{ACAD_REACTORS
330
C
102
}
330
C
100
AcDbDictionary
281
     1
  0
DICTIONARY
  5
1B
102
{ACAD_REACTORS
330
C
102
}
330
C
100
AcDbDictionary
281
     1
  3
STANDARD
350
1C
  0
DICTIONARY
  5
16ED
102
{ACAD_REACTORS
330
C
102
}
330
C
100
AcDbDictionary
281
     1
  0
ACDBDICTIONARYWDFLT
  5
16EA
102
{ACAD_REACTORS
330
C
102
}
330
C
100
AcDbDictionary
281
     1
  3
Normal
350
16EB
100
AcDbDictionaryWithDefault
340
16EB
  0
DICTIONARY
  5
4372
102
{ACAD_REACTORS
330
C
102
}
330
C
100
AcDbDictionary
281
     1
  3
Standard
350
4373
  0
DICTIONARY
  5
437D
102
{ACAD_REACTORS
330
C
102
}
330
C
100
AcDbDictionary
281
     1
  0
DICTIONARY
  5
1109
102
{ACAD_REACTORS
330
C
102
}
330
C
100
AcDbDictionary
281
     1
  3
CTABLESTYLE
350
437B
  3
DIMASSOC
350
436F
  3
PROJECTNAME
350
4370
  3
SORTENTS
350
110A
  0
DICTIONARY
  5
23
102
{ACAD_REACTORS
330
C
102
}
330
C
100
AcDbDictionary
281
     1
  0
DIMASSOC
  5
2051
102
{ACAD_REACTORS
330
2050
102
}
330
2050
100
AcDbDimAssoc
330
204F
 90
        3
 70
     0
 71
     0
  1
AcDbOsnapPointRef
 72
     1
331
204A
 73
     2
 91
        0
 40
1.0
 10
0.0
 20
0.0
 30
2.000000000000000E+50
 75
     0
  1
AcDbOsnapPointRef
 72
     8
331
200E
 73
     2
 91
        0
 40
0.8631926275285756
 10
0.0
 20
0.0
 30
0.0
 75
     1
  1
AcDbOsnapPointRef
 72
     1
331
204A
 73
     2
 91
        0
 40
1.0
 10
0.0
 20
0.0
 30
2.000000000000000E+50
 75
     0
  0
DIMASSOC
  5
2054
102
{ACAD_REACTORS
330
2053
102
}
330
2053
100
AcDbDimAssoc
330
2052
 90
        1
 70
     0
 71
     0
  1
AcDbOsnapPointRef
 72
     1
331
204A
 73
     2
 91
        0
 40
1.0
 10
0.0
 20
0.0
 30
2.000000000000000E+50
 75
     0
  0
DIMASSOC
  5
2057
102
{ACAD_REACTORS
330
2056
102
}
330
2056
100
AcDbDimAssoc
330
2055
 90
        2
 70
     0
 71
     0
  1
AcDbOsnapPointRef
 72
     1
331
204A
 73
     2
 91
        0
 40
1.0
 10
0.0
 20
0.0
 30
2.000000000000000E+50
 75
     0
  0
DIMASSOC
  5
3BFA
102
{ACAD_REACTORS
330
3BF9
102
}
330
3BF9
100
AcDbDimAssoc
330
3BF8
 90
        3
 70
     0
 71
     0
  1
AcDbOsnapPointRef
 72
    13
331
3C84
 73
     2
 91
        0
 40
0.0
 10
0.0
 20
0.0
 30
2.000000000000000E+50
 75
     0
  1
AcDbOsnapPointRef
 72
    13
331
3CD4
 73
     2
 91
        0
 40
0.0
 10
0.0
 20
0.0
 30
2.000000000000000E+50
 75
     0
  0
DIMASSOC
  5
3BFD
102
{ACAD_REACTORS
330
3BFC
102
}
330
3BFC
100
AcDbDimAssoc
330
3BFB
 90
        3
 70
     0
 71
     0
  1
AcDbOsnapPointRef
 72
    13
331
3C84
 73
     2
 91
        0
 40
0.0
 10
0.0
 20
0.0
 30
2.000000000000000E+50
 75
     0
  1
AcDbOsnapPointRef
 72
    13
331
3C9D
 73
     2
 91
        0
 40
0.0
 10
0.0
 20
0.0
 30
2.000000000000000E+50
 75
     0
  0
DIMASSOC
  5
3C8C
102
{ACAD_REACTORS
330
3C8B
102
}
330
3C8B
100
AcDbDimAssoc
330
3C8A
 90
        3
 70
     0
 71
     0
  1
AcDbOsnapPointRef
 72
    13
331
3C9D
 73
     2
 91
        0
 40
0.0
 10
0.0
 20
0.0
 30
2.000000000000000E+50
 75
     0
  1
AcDbOsnapPointRef
 72
    13
331
3CD4
 73
     2
 91
        0
 40
0.0
 10
0.0
 20
0.0
 30
2.000000000000000E+50
 75
     0
  0
XRECORD
  5
4383
102
{ACAD_REACTORS
330
4382
102
}
330
4382
100
AcDbXrecord
280
     1
102
SHADEPLOT
 70
     0
  0
GROUP
  5
1B1
102
{ACAD_REACTORS
330
D
102
}
330
D
100
AcDbGroup
300

 70
     1
 71
     1
  0
GROUP
  5
95D
102
{ACAD_REACTORS
330
D
102
}
330
D
100
AcDbGroup
300

 70
     1
 71
     1
  0
GROUP
  5
1B2
102
{ACAD_REACTORS
330
D
102
}
330
D
100
AcDbGroup
300

 70
     1
 71
     1
  0
GROUP
  5
1C3
102
{ACAD_REACTORS
330
D
102
}
330
D
100
AcDbGroup
300

 70
     1
 71
     1
  0
GROUP
  5
1D2
102
{ACAD_REACTORS
330
D
102
}
330
D
100
AcDbGroup
300

 70
     1
 71
     1
  0
GROUP
  5
46A
102
{ACAD_REACTORS
330
D
102
}
330
D
100
AcDbGroup
300

 70
     1
 71
     1
  0
GROUP
  5
46B
102
{ACAD_REACTORS
330
D
102
}
330
D
100
AcDbGroup
300

 70
     1
 71
     1
  0
GROUP
  5
95A
102
{ACAD_REACTORS
330
D
102
}
330
D
100
AcDbGroup
300

 70
     1
 71
     1
  0
GROUP
  5
1A48
102
{ACAD_REACTORS
330
D
102
}
330
D
100
AcDbGroup
300

 70
     1
 71
     1
  0
GROUP
  5
1A49
102
{ACAD_REACTORS
330
D
102
}
330
D
100
AcDbGroup
300

 70
     1
 71
     1
  0
GROUP
  5
1A4A
102
{ACAD_REACTORS
330
D
102
}
330
D
100
AcDbGroup
300

 70
     1
 71
     1
  0
GROUP
  5
1A4B
102
{ACAD_REACTORS
330
D
102
}
330
D
100
AcDbGroup
300

 70
     1
 71
     1
  0
GROUP
  5
95B
102
{ACAD_REACTORS
330
D
102
}
330
D
100
AcDbGroup
300

 70
     1
 71
     1
  0
GROUP
  5
95C
102
{ACAD_REACTORS
330
D
102
}
330
D
100
AcDbGroup
300

 70
     1
 71
     1
  0
IMAGEDEF
  5
3E29
102
{ACAD_REACTORS
330
1BA2
102
}
330
1BA2
100
AcDbRasterImageDef
 90
        0
  1
F:\TB\Leitschienenprospekt\Zeichnungen\Bitmaps\S3\C301 H2 Damm explosions_3D.bmp
 10
2048.0
 20
1366.0
 11
0.4882812609139367
 21
0.4882812609139367
280
     1
281
     2
  0
IMAGEDEF
  5
3E26
102
{ACAD_REACTORS
330
1BA2
102
}
330
1BA2
100
AcDbRasterImageDef
 90
        0
  1
F:\TB\Leitschienenprospekt\Zeichnungen\Bitmaps\S3\C301 H2 Damm_3D.bmp
 10
2048.0
 20
1536.0
 11
0.4882812609139367
 21
0.4882812609139367
280
     1
281
     2
  0
LAYOUT
  5
3B95
102
{ACAD_XDICTIONARY
360
4380
102
}
102
{ACAD_REACTORS
330
16EC
102
}
330
16EC
100
AcDbPlotSettings
  1

  2
\\VAKF11\Oce TDS600
  4
User261
  6

 40
3.841749906539916
 41
3.841721773147583
 42
3.8416748046875
 43
3.84173583984375
 44
1188.973999023437
 45
840.9939575195313
 46
0.0
 47
0.0
 48
0.0
 49
0.0
140
0.0
141
0.0
142
1.0
143
1.0
 70
   690
 72
     0
 73
     1
 74
     5
  7
monochrome.ctb
 75
    16
147
1.0
148
0.0
149
0.0
100
AcDbLayout
  1
Layout1
 70
     1
 71
     1
 10
-0.1512494425135334
 20
-0.1512499963204692
 11
32.95874888502707
 21
46.65874996523219
 12
0.0
 22
0.0
 32
0.0
 14
0.8574641266502851
 24
1.072749859388778
 34
0.0
 15
32.48684314339033
 25
44.17903098561107
 35
0.0
146
0.0
 13
0.0
 23
0.0
 33
0.0
 16
1.0
 26
0.0
 36
0.0
 17
0.0
 27
1.0
 37
0.0
 76
     0
330
3B94
331
3B9C
  0
LAYOUT
  5
16EE
102
{ACAD_XDICTIONARY
360
437E
102
}
102
{ACAD_REACTORS
330
16EC
102
}
330
16EC
100
AcDbPlotSettings
  1

  2
none_device
  4
Letter_(8.50_x_11.00_Inches)
  6

 40
6.349999904632568
 41
6.349999904632568
 42
6.350006103515625
 43
6.350006103515625
 44
215.8999938964844
 45
279.3999938964844
 46
0.0
 47
0.0
 48
0.0
 49
0.0
140
0.0
141
0.0
142
1.0
143
1.0
 70
 11952
 72
     0
 73
     1
 74
     0
  7

 75
     0
147
1.0
148
-205442.5510303156
149
83059.70278648507
100
AcDbLayout
  1
Model
 70
     1
 71
     0
 10
0.0
 20
0.0
 11
12.0
 21
9.0
 12
0.0
 22
0.0
 32
0.0
 14
0.0
 24
0.0
 34
0.0
 15
0.0
 25
0.0
 35
0.0
146
0.0
 13
0.0
 23
0.0
 33
0.0
 16
1.0
 26
0.0
 36
0.0
 17
0.0
 27
1.0
 37
0.0
 76
     0
330
18
  0
MLINESTYLE
  5
1C
102
{ACAD_REACTORS
330
1B
102
}
330
1B
100
AcDbMlineStyle
  2
STANDARD
 70
     0
  3

 62
   256
 51
90.0
 52
90.0
 71
     2
 49
0.5
 62
   256
  6
BYLAYER
 49
-0.5
 62
   256
  6
BYLAYER
  0
ACDBPLACEHOLDER
  5
16EB
102
{ACAD_REACTORS
330
16EA
102
}
330
16EA
  0
TABLESTYLE
  5
4373
102
{ACAD_REACTORS
330
4372
102
}
330
4372
100
AcDbTableStyle
  3
Standard
 70
     0
 71
     0
 40
0.06
 41
0.06
280
     0
281
     0
  7
STANDARD
140
0.18
170
     2
 62
     0
 63
     7
283
     0
274
    -2
284
     1
 64
     0
275
    -2
285
     1
 65
     0
276
    -2
286
     1
 66
     0
277
    -2
287
     1
 67
     0
278
    -2
288
     1
 68
     0
279
    -2
289
     1
 69
     0
  7
STANDARD
140
0.25
170
     5
 62
     0
 63
     7
283
     0
274
    -2
284
     1
 64
     0
275
    -2
285
     1
 65
     0
276
    -2
286
     1
 66
     0
277
    -2
287
     1
 67
     0
278
    -2
288
     1
 68
     0
279
    -2
289
     1
 69
     0
  7
STANDARD
140
0.18
170
     5
 62
     0
 63
     7
283
     0
274
    -2
284
     1
 64
     0
275
    -2
285
     1
 65
     0
276
    -2
286
     1
 66
     0
277
    -2
287
     1
 67
     0
278
    -2
288
     1
 68
     0
279
    -2
289
     1
 69
     0
  0
DICTIONARYVAR
  5
437B
102
{ACAD_REACTORS
330
1109
102
}
330
1109
100
DictionaryVariables
280
     0
  1
STANDARD
  0
DICTIONARYVAR
  5
436F
102
{ACAD_REACTORS
330
1109
102
}
330
1109
100
DictionaryVariables
280
     0
  1
1
  0
DICTIONARYVAR
  5
4370
102
{ACAD_REACTORS
330
1109
102
}
330
1109
100
DictionaryVariables
280
     0
  1

  0
DICTIONARYVAR
  5
110A
102
{ACAD_REACTORS
330
1109
102
}
330
1109
100
DictionaryVariables
280
     0
  1
96
  0
DICTIONARY
  5
4380
330
3B95
100
AcDbDictionary
280
     1
281
     1
  3
ACAD_XREC_ROUNDTRIP
360
4381
  0
DICTIONARY
  5
437E
330
16EE
100
AcDbDictionary
280
     1
281
     1
  3
ACAD_XREC_ROUNDTRIP
360
437F
  0
XRECORD
  5
4381
102
{ACAD_REACTORS
330
4380
102
}
330
4380
100
AcDbXrecord
280
     1
102
SHADEPLOT
 70
     1
102
SHADEPLOTRESLEVEL
 70
     2
102
SHADEPLOTCUSTOMDPI
 70
   200
  0
XRECORD
  5
437F
102
{ACAD_REACTORS
330
437E
102
}
330
437E
100
AcDbXrecord
280
     1
102
SHADEPLOT
 70
     0
102
SHADEPLOTRESLEVEL
 70
     2
102
SHADEPLOTCUSTOMDPI
 70
   300
  0
ENDSEC
  0
EOF
