  0
SECTION
  2
HEADER
  9
$ACADVER
  1
AC1024
  9
$ACADMAINTVER
 70
   225
  9
$DWGCODEPAGE
  3
ANSI_1252
  9
$LASTSAVEDBY
  1
v301019
  9
$INSBASE
 10
0.0
 20
0.0
 30
0.0
  9
$EXTMIN
 10
96370.57991790509
 20
71236.03644907895
 30
0.0
  9
$EXTMAX
 10
103701.5378352531
 20
75511.54915459436
 30
0.0
  9
$LIMMIN
 10
0.0
 20
0.0
  9
$LIMMAX
 10
420.0
 20
297.0
  9
$ORTHOMODE
 70
     0
  9
$REGENMODE
 70
     1
  9
$FILLMODE
 70
     1
  9
$QTEXTMODE
 70
     0
  9
$MIRRTEXT
 70
     0
  9
$LTSCALE
 40
1.0
  9
$ATTMODE
 70
     1
  9
$TEXTSIZE
 40
9636.79627554867
  9
$TRACEWID
 40
1.0
  9
$TEXTSTYLE
  7
VOEST
  9
$CLAYER
  8
18
  9
$CELTYPE
  6
ByLayer
  9
$CECOLOR
 62
   256
  9
$CELTSCALE
 40
1.0
  9
$DISPSILH
 70
     0
  9
$DIMSCALE
 40
1.5
  9
$DIMASZ
 40
5.0
  9
$DIMEXO
 40
1.0
  9
$DIMDLI
 40
1.0
  9
$DIMRND
 40
0.0
  9
$DIMDLE
 40
0.0
  9
$DIMEXE
 40
1.0
  9
$DIMTP
 40
0.0
  9
$DIMTM
 40
0.0
  9
$DIMTXT
 40
3.5
  9
$DIMCEN
 40
0.0
  9
$DIMTSZ
 40
0.0
  9
$DIMTOL
 70
     0
  9
$DIMLIM
 70
     0
  9
$DIMTIH
 70
     0
  9
$DIMTOH
 70
     0
  9
$DIMSE1
 70
     0
  9
$DIMSE2
 70
     0
  9
$DIMTAD
 70
     0
  9
$DIMZIN
 70
     0
  9
$DIMBLK
  1

  9
$DIMASO
 70
     1
  9
$DIMSHO
 70
     1
  9
$DIMPOST
  1

  9
$DIMAPOST
  1

  9
$DIMALT
 70
     0
  9
$DIMALTD
 70
     2
  9
$DIMALTF
 40
25.4
  9
$DIMLFAC
 40
1.0
  9
$DIMTOFL
 70
     0
  9
$DIMTVP
 40
0.0
  9
$DIMTIX
 70
     0
  9
$DIMSOXD
 70
     0
  9
$DIMSAH
 70
     0
  9
$DIMBLK1
  1

  9
$DIMBLK2
  1

  9
$DIMSTYLE
  2
STIL2
  9
$DIMCLRD
 70
     0
  9
$DIMCLRE
 70
     0
  9
$DIMCLRT
 70
     0
  9
$DIMTFAC
 40
1.0
  9
$DIMGAP
 40
1.0
  9
$DIMJUST
 70
     0
  9
$DIMSD1
 70
     0
  9
$DIMSD2
 70
     0
  9
$DIMTOLJ
 70
     1
  9
$DIMTZIN
 70
     0
  9
$DIMALTZ
 70
     0
  9
$DIMALTTZ
 70
     0
  9
$DIMUPT
 70
     0
  9
$DIMDEC
 70
     0
  9
$DIMTDEC
 70
     0
  9
$DIMALTU
 70
     2
  9
$DIMALTTD
 70
     2
  9
$DIMTXSTY
  7
VOEST
  9
$DIMAUNIT
 70
     0
  9
$DIMADEC
 70
     0
  9
$DIMALTRND
 40
0.0
  9
$DIMAZIN
 70
     0
  9
$DIMDSEP
 70
    46
  9
$DIMATFIT
 70
     3
  9
$DIMFRAC
 70
     0
  9
$DIMLDRBLK
  1
DotSmall
  9
$DIMLUNIT
 70
     2
  9
$DIMLWD
 70
    -2
  9
$DIMLWE
 70
    -2
  9
$DIMTMOVE
 70
     0
  9
$DIMFXL
 40
1.0
  9
$DIMFXLON
 70
     0
  9
$DIMJOGANG
 40
1.570796326794896
  9
$DIMTFILL
 70
     0
  9
$DIMTFILLCLR
 70
     0
  9
$DIMARCSYM
 70
     0
  9
$DIMLTYPE
  6

  9
$DIMLTEX1
  6

  9
$DIMLTEX2
  6

  9
$DIMTXTDIRECTION
 70
     0
  9
$LUNITS
 70
     2
  9
$LUPREC
 70
     4
  9
$SKETCHINC
 40
1.0
  9
$FILLETRAD
 40
0.0
  9
$AUNITS
 70
     0
  9
$AUPREC
 70
     0
  9
$MENU
  1
.
  9
$ELEVATION
 40
0.0
  9
$PELEVATION
 40
0.0
  9
$THICKNESS
 40
0.0
  9
$LIMCHECK
 70
     0
  9
$CHAMFERA
 40
20.0
  9
$CHAMFERB
 40
20.0
  9
$CHAMFERC
 40
20.0
  9
$CHAMFERD
 40
0.0
  9
$SKPOLY
 70
     0
  9
$TDCREATE
 40
2452110.533136574
  9
$TDUCREATE
 40
2452110.449813414
  9
$TDUPDATE
 40
2458128.431435185
  9
$TDUUPDATE
 40
2458128.389768519
  9
$TDINDWG
 40
22.1861193403
  9
$TDUSRTIMER
 40
22.1861193403
  9
$USRTIMER
 70
     1
  9
$ANGBASE
 50
0.0
  9
$ANGDIR
 70
     0
  9
$PDMODE
 70
     0
  9
$PDSIZE
 40
0.0
  9
$PLINEWID
 40
0.0
  9
$SPLFRAME
 70
     0
  9
$SPLINETYPE
 70
     6
  9
$SPLINESEGS
 70
  1000
  9
$HANDSEED
  5
86937
  9
$SURFTAB1
 70
     6
  9
$SURFTAB2
 70
     6
  9
$SURFTYPE
 70
     6
  9
$SURFU
 70
     6
  9
$SURFV
 70
     6
  9
$UCSBASE
  2

  9
$UCSNAME
  2

  9
$UCSORG
 10
0.0
 20
0.0
 30
0.0
  9
$UCSXDIR
 10
1.0
 20
0.0
 30
0.0
  9
$UCSYDIR
 10
0.0
 20
1.0
 30
0.0
  9
$UCSORTHOREF
  2

  9
$UCSORTHOVIEW
 70
     0
  9
$UCSORGTOP
 10
0.0
 20
0.0
 30
0.0
  9
$UCSORGBOTTOM
 10
0.0
 20
0.0
 30
0.0
  9
$UCSORGLEFT
 10
0.0
 20
0.0
 30
0.0
  9
$UCSORGRIGHT
 10
0.0
 20
0.0
 30
0.0
  9
$UCSORGFRONT
 10
0.0
 20
0.0
 30
0.0
  9
$UCSORGBACK
 10
0.0
 20
0.0
 30
0.0
  9
$PUCSBASE
  2

  9
$PUCSNAME
  2

  9
$PUCSORG
 10
0.0
 20
0.0
 30
0.0
  9
$PUCSXDIR
 10
1.0
 20
0.0
 30
0.0
  9
$PUCSYDIR
 10
0.0
 20
1.0
 30
0.0
  9
$PUCSORTHOREF
  2

  9
$PUCSORTHOVIEW
 70
     0
  9
$PUCSORGTOP
 10
0.0
 20
0.0
 30
0.0
  9
$PUCSORGBOTTOM
 10
0.0
 20
0.0
 30
0.0
  9
$PUCSORGLEFT
 10
0.0
 20
0.0
 30
0.0
  9
$PUCSORGRIGHT
 10
0.0
 20
0.0
 30
0.0
  9
$PUCSORGFRONT
 10
0.0
 20
0.0
 30
0.0
  9
$PUCSORGBACK
 10
0.0
 20
0.0
 30
0.0
  9
$USERI1
 70
     0
  9
$USERI2
 70
     0
  9
$USERI3
 70
     0
  9
$USERI4
 70
     0
  9
$USERI5
 70
     0
  9
$USERR1
 40
0.0
  9
$USERR2
 40
0.0
  9
$USERR3
 40
0.0
  9
$USERR4
 40
0.0
  9
$USERR5
 40
0.0
  9
$WORLDVIEW
 70
     1
  9
$SHADEDGE
 70
     3
  9
$SHADEDIF
 70
    70
  9
$TILEMODE
 70
     1
  9
$MAXACTVP
 70
    64
  9
$PINSBASE
 10
0.0
 20
0.0
 30
0.0
  9
$PLIMCHECK
 70
     0
  9
$PEXTMIN
 10
0.0
 20
0.0
 30
0.0
  9
$PEXTMAX
 10
0.0
 20
0.0
 30
0.0
  9
$PLIMMIN
 10
0.0
 20
0.0
  9
$PLIMMAX
 10
12.0
 20
9.0
  9
$UNITMODE
 70
     0
  9
$VISRETAIN
 70
     1
  9
$PLINEGEN
 70
     0
  9
$PSLTSCALE
 70
     1
  9
$TREEDEPTH
 70
  3020
  9
$CMLSTYLE
  2
Standard
  9
$CMLJUST
 70
     0
  9
$CMLSCALE
 40
20.0
  9
$PROXYGRAPHICS
 70
     1
  9
$MEASUREMENT
 70
     1
  9
$CELWEIGHT
370
    -1
  9
$ENDCAPS
280
     0
  9
$JOINSTYLE
280
     0
  9
$LWDISPLAY
290
     1
  9
$INSUNITS
 70
     4
  9
$HYPERLINKBASE
  1

  9
$STYLESHEET
  1
monochrome.ctb
  9
$XEDIT
290
     1
  9
$CEPSNTYPE
380
     0
  9
$PSTYLEMODE
290
     1
  9
$FINGERPRINTGUID
  2
{CF1E6B46-540A-11D5-A59B-000102FA756E}
  9
$VERSIONGUID
  2
{EA102BDA-9C07-BC4E-82E4-D931008DAAFF}
  9
$EXTNAMES
290
     1
  9
$PSVPSCALE
 40
0.0
  9
$OLESTARTUP
290
     0
  9
$SORTENTS
280
   127
  9
$INDEXCTL
280
     0
  9
$HIDETEXT
280
     0
  9
$XCLIPFRAME
280
     0
  9
$HALOGAP
280
     0
  9
$OBSCOLOR
 70
   257
  9
$OBSLTYPE
280
     0
  9
$INTERSECTIONDISPLAY
280
     0
  9
$INTERSECTIONCOLOR
 70
   257
  9
$DIMASSOC
280
     2
  9
$PROJECTNAME
  1

  9
$CAMERADISPLAY
290
     0
  9
$LENSLENGTH
 40
50.0
  9
$CAMERAHEIGHT
 40
0.0
  9
$STEPSPERSEC
 40
2.0
  9
$STEPSIZE
 40
6.0
  9
$3DDWFPREC
 40
2.0
  9
$PSOLWIDTH
 40
0.25
  9
$PSOLHEIGHT
 40
4.0
  9
$LOFTANG1
 40
1.570796326794896
  9
$LOFTANG2
 40
1.570796326794896
  9
$LOFTMAG1
 40
0.0
  9
$LOFTMAG2
 40
0.0
  9
$LOFTPARAM
 70
     7
  9
$LOFTNORMALS
280
     1
  9
$LATITUDE
 40
37.795
  9
$LONGITUDE
 40
-122.394
  9
$NORTHDIRECTION
 40
0.0
  9
$TIMEZONE
 70
 -8000
  9
$LIGHTGLYPHDISPLAY
280
     1
  9
$TILEMODELIGHTSYNCH
280
     1
  9
$CMATERIAL
347
6F68
  9
$SOLIDHIST
280
     1
  9
$SHOWHIST
280
     1
  9
$DWFFRAME
280
     2
  9
$DGNFRAME
280
     0
  9
$REALWORLDSCALE
290
     1
  9
$INTERFERECOLOR
 62
     1
  9
$INTERFEREOBJVS
345
6F8A
  9
$INTERFEREVPVS
346
6F87
  9
$CSHADOW
280
     0
  9
$SHADOWPLANELOCATION
 40
0.0
  0
ENDSEC
  0
SECTION
  2
CLASSES
  0
CLASS
  1
ACDBDICTIONARYWDFLT
  2
AcDbDictionaryWithDefault
  3
ObjectDBX Classes
 90
        0
 91
        1
280
     0
281
     0
  0
CLASS
  1
ACDBPLACEHOLDER
  2
AcDbPlaceHolder
  3
ObjectDBX Classes
 90
        0
 91
        1
280
     0
281
     0
  0
CLASS
  1
LAYOUT
  2
AcDbLayout
  3
ObjectDBX Classes
 90
        0
 91
        7
280
     0
281
     0
  0
CLASS
  1
TABLESTYLE
  2
AcDbTableStyle
  3
ObjectDBX Classes
 90
     4095
 91
        1
280
     0
281
     0
  0
CLASS
  1
DICTIONARYVAR
  2
AcDbDictionaryVar
  3
ObjectDBX Classes
 90
        0
 91
       11
280
     0
281
     0
  0
CLASS
  1
SORTENTSTABLE
  2
AcDbSortentsTable
  3
ObjectDBX Classes
 90
        0
 91
        2
280
     0
281
     0
  0
CLASS
  1
DIMASSOC
  2
AcDbDimAssoc
  3
"AcDbDimAssoc|Product Desc:     AcDim ARX App For Dimension|Company:          Autodesk, Inc.|WEB Address:      www.autodesk.com"
 90
        0
 91
      121
280
     0
281
     0
  0
CLASS
  1
MATERIAL
  2
AcDbMaterial
  3
ObjectDBX Classes
 90
     1153
 91
        3
280
     0
281
     0
  0
CLASS
  1
VISUALSTYLE
  2
AcDbVisualStyle
  3
ObjectDBX Classes
 90
     4095
 91
       26
280
     0
281
     0
  0
CLASS
  1
SCALE
  2
AcDbScale
  3
ObjectDBX Classes
 90
     1153
 91
       17
280
     0
281
     0
  0
CLASS
  1
MLEADERSTYLE
  2
AcDbMLeaderStyle
  3
ACDB_MLEADERSTYLE_CLASS
 90
     4095
 91
        1
280
     0
281
     0
  0
CLASS
  1
CELLSTYLEMAP
  2
AcDbCellStyleMap
  3
ObjectDBX Classes
 90
     1152
 91
        4
280
     0
281
     0
  0
CLASS
  1
ARC_DIMENSION
  2
AcDbArcDimension
  3
ObjectDBX Classes
 90
     1025
 91
        0
280
     0
281
     1
  0
CLASS
  1
SOLID_BACKGROUND
  2
AcDbSolidBackground
  3
SCENEOE
 90
     4095
 91
        0
280
     0
281
     0
  0
CLASS
  1
NPOCOLLECTION
  2
AcDbImpNonPersistentObjectsCollection
  3
ObjectDBX Classes
 90
     1153
 91
        0
280
     0
281
     0
  0
CLASS
  1
AEC_REFEDIT_STATUS_TRACKER
  2
AecDbRefEditStatusTracker
  3
AecArchBase70|Product Desc: Autodesk Architectural Desktop 2007 |Company: Autodesk,Inc. |WEB Address: www.autodesk.com
 90
      129
 91
        0
280
     0
281
     0
  0
CLASS
  1
MULTILEADER
  2
AcDbMLeader
  3
ACDB_MLEADER_CLASS
 90
     1025
 91
        0
280
     0
281
     1
  0
CLASS
  1
ACAD_EVALUATION_GRAPH
  2
AcDbEvalGraph
  3
ObjectDBX Classes
 90
     1153
 91
        0
280
     0
281
     0
  0
CLASS
  1
BLOCKLINEARPARAMETER
  2
AcDbBlockLinearParameter
  3
ObjectDBX Classes
 90
     1153
 91
        0
280
     0
281
     0
  0
CLASS
  1
BLOCKLINEARGRIP
  2
AcDbBlockLinearGrip
  3
ObjectDBX Classes
 90
     1153
 91
        0
280
     0
281
     0
  0
CLASS
  1
BLOCKGRIPLOCATIONCOMPONENT
  2
AcDbBlockGripExpr
  3
ObjectDBX Classes
 90
     1153
 91
        0
280
     0
281
     0
  0
CLASS
  1
BLOCKSTRETCHACTION
  2
AcDbBlockStretchAction
  3
ObjectDBX Classes
 90
     1153
 91
        0
280
     0
281
     0
  0
CLASS
  1
ACDB_DYNAMICBLOCKPURGEPREVENTER_VERSION
  2
AcDbDynamicBlockPurgePreventer
  3
ObjectDBX Classes
 90
     1153
 91
        0
280
     0
281
     0
  0
CLASS
  1
ACDB_BLOCKREPRESENTATION_DATA
  2
AcDbBlockRepresentationData
  3
ObjectDBX Classes
 90
     1153
 91
        0
280
     0
281
     0
  0
CLASS
  1
ACDBASSOCNETWORK
  2
AcDbAssocNetwork
  3
ObjectDBX Classes
 90
     1025
 91
        0
280
     0
281
     0
  0
CLASS
  1
ACDBASSOC2DCONSTRAINTGROUP
  2
AcDbAssoc2dConstraintGroup
  3
ObjectDBX Classes
 90
     1025
 91
        0
280
     0
281
     0
  0
CLASS
  1
ACDBASSOCVALUEDEPENDENCY
  2
AcDbAssocValueDependency
  3
ObjectDBX Classes
 90
     1025
 91
        0
280
     0
281
     0
  0
CLASS
  1
ACDBASSOCGEOMDEPENDENCY
  2
AcDbAssocGeomDependency
  3
ObjectDBX Classes
 90
     1025
 91
        0
280
     0
281
     0
  0
CLASS
  1
ACDBASSOCDEPENDENCY
  2
AcDbAssocDependency
  3
ObjectDBX Classes
 90
     1025
 91
        0
280
     0
281
     0
  0
CLASS
  1
BLOCKPARAMDEPENDENCYBODY
  2
AcDbBlockParameterDependencyBody
  3
ObjectDBX Classes
 90
        1
 91
        0
280
     0
281
     0
  0
CLASS
  1
ASSOCDIMDEPENDENCYBODY
  2
AcDbAssocDimDependencyBody
  3
ObjectDBX Classes
 90
     1025
 91
        0
280
     0
281
     0
  0
CLASS
  1
ACDBASSOCVARIABLE
  2
AcDbAssocVariable
  3
ObjectDBX Classes
 90
     1025
 91
        0
280
     0
281
     0
  0
CLASS
  1
ACDB_DYNAMICBLOCKPROXYNODE
  2
AcDbDynamicBlockProxyNode
  3
ObjectDBX Classes
 90
     1153
 91
        0
280
     0
281
     0
  0
CLASS
  1
BLOCKHORIZONTALCONSTRAINTPARAMETER
  2
AcDbBlockHorizontalConstraintParameter
  3
ObjectDBX Classes
 90
     1153
 91
        0
280
     0
281
     0
  0
CLASS
  1
BLOCKVERTICALCONSTRAINTPARAMETER
  2
AcDbBlockVerticalConstraintParameter
  3
ObjectDBX Classes
 90
     1153
 91
        0
280
     0
281
     0
  0
CLASS
  1
BLOCKLOOKUPACTION
  2
AcDbBlockLookupAction
  3
ObjectDBX Classes
 90
     1153
 91
        0
280
     0
281
     0
  0
CLASS
  1
BLOCKPROPERTIESTABLE
  2
AcDbBlockPropertiesTable
  3
ObjectDBX Classes
 90
     1153
 91
        0
280
     0
281
     0
  0
CLASS
  1
BLOCKPROPERTIESTABLEGRIP
  2
AcDbBlockPropertiesTableGrip
  3
ObjectDBX Classes
 90
     1153
 91
        0
280
     0
281
     0
  0
CLASS
  1
BLOCKUSERPARAMETER
  2
AcDbBlockUserParameter
  3
ObjectDBX Classes
 90
     1153
 91
        0
280
     0
281
     0
  0
CLASS
  1
BLOCKLOOKUPPARAMETER
  2
AcDbBlockLookupParameter
  3
ObjectDBX Classes
 90
     1153
 91
        0
280
     0
281
     0
  0
CLASS
  1
BLOCKMOVEACTION
  2
AcDbBlockMoveAction
  3
ObjectDBX Classes
 90
     1153
 91
        0
280
     0
281
     0
  0
CLASS
  1
BLOCKSCALEACTION
  2
AcDbBlockScaleAction
  3
ObjectDBX Classes
 90
     1153
 91
        0
280
     0
281
     0
  0
CLASS
  1
BLOCKLOOKUPGRIP
  2
AcDbBlockLookupGrip
  3
ObjectDBX Classes
 90
     1153
 91
        0
280
     0
281
     0
  0
CLASS
  1
BLOCKVISIBILITYPARAMETER
  2
AcDbBlockVisibilityParameter
  3
ObjectDBX Classes
 90
     1153
 91
        0
280
     0
281
     0
  0
CLASS
  1
BLOCKARRAYACTION
  2
AcDbBlockArrayAction
  3
ObjectDBX Classes
 90
     1153
 91
        0
280
     0
281
     0
  0
CLASS
  1
ACDBSECTIONVIEWSTYLE
  2
AcDbSectionViewStyle
  3
ObjectDBX Classes
 90
     1025
 91
        6
280
     0
281
     0
  0
CLASS
  1
ACDBDETAILVIEWSTYLE
  2
AcDbDetailViewStyle
  3
ObjectDBX Classes
 90
     1025
 91
        6
280
     0
281
     0
  0
CLASS
  1
ACME_DOCUMENT
  2
AcMeDbDoc
  3
AcMeServices
 90
     1024
 91
        0
280
     0
281
     0
  0
CLASS
  1
AMGSETTINGSOBJ
  2
AmgSettingsObj
  3
"AcadM|Product Description: AutoCAD Mechanical|Company: Autodesk, Inc."
 90
     1024
 91
        3
280
     0
281
     0
  0
CLASS
  1
ACMESCOPE
  2
AcMeScope
  3
AcMeServices
 90
     1024
 91
        1
280
     0
281
     0
  0
CLASS
  1
ACMECOMMANDHISTORY
  2
AcMeCommandHistory
  3
AcMeServices
 90
     1024
 91
        1
280
     0
281
     0
  0
CLASS
  1
ACIMSYSVARMAN
  2
AcImSysVarManager
  3
AcMeServices
 90
     1024
 91
        3
280
     0
281
     0
  0
CLASS
  1
ACIMINTSYSVAR
  2
AcImIntSysVar
  3
AcMeServices
 90
     1024
 91
        3
280
     0
281
     0
  0
CLASS
  1
ACMESTATEMGR
  2
AcMeStateMgr
  3
AcMeServices
 90
     1024
 91
        1
280
     0
281
     0
  0
CLASS
  1
ACDBENTITYCACHE
  2
AcMeEntityCache
  3
AcMeServices
 90
     1024
 91
        0
280
     0
281
     0
  0
CLASS
  1
ACGREFMASTER
  2
AcGrefMaster
  3
AcAttribServices
 90
     1024
 91
        1
280
     0
281
     0
  0
CLASS
  1
ACME_DATABASE
  2
AcMeDbDatabase
  3
AcMeServices
 90
     1024
 91
        0
280
     0
281
     0
  0
CLASS
  1
ACRFINSADJUSTERMGR
  2
AcRfInsAdjusterMgr
  3
AcMeServices
 90
     1024
 91
        0
280
     0
281
     0
  0
CLASS
  1
ACGREFACADMASTER
  2
AcGrefacadMaster
  3
AcGrefServices
 90
     1024
 91
        1
280
     0
281
     0
  0
CLASS
  1
AMDTMENUSTATEMGR
  2
AmdtMenuStateMgr
  3
McadcomServices
 90
     1024
 91
        0
280
     0
281
     0
  0
CLASS
  1
AMDTMCOMMENUSTATE
  2
AmdtMcomMenuState
  3
McadcomServices
 90
     1024
 91
        0
280
     0
281
     0
  0
CLASS
  1
AMIMASTER
  2
AmiMaster
  3
AmiServices
 90
     1024
 91
        1
280
     0
281
     0
  0
CLASS
  1
MAPIAMMOUDLE
  2
MApiAmModule
  3
MApiAmServices
 90
     1024
 91
        1
280
     0
281
     0
  0
CLASS
  1
ACIMSTRSYSVAR
  2
AcImStrSysVar
  3
AcMeServices
 90
     1024
 91
        5
280
     0
281
     0
  0
CLASS
  1
AMDTAMMENUSTATE
  2
AmdtAmMenuState
  3
DesignerAssemblies
 90
     1024
 91
        0
280
     0
281
     0
  0
CLASS
  1
ACAMPROJECT
  2
AcAmProject
  3
DesignerAssemblies
 90
     1024
 91
        1
280
     0
281
     0
  0
CLASS
  1
ACAMGRCOMPDEF
  2
AcAmGrCompDef
  3
DesignerAssemblies
 90
     1024
 91
        1
280
     0
281
     0
  0
CLASS
  1
ACAMCOMPDEF
  2
AcAmCompDef
  3
DesignerAssemblies
 90
     1024
 91
        1
280
     0
281
     0
  0
CLASS
  1
ACAMCOMPDEFMGR
  2
AcAmCompDefMgr
  3
DesignerAssemblies
 90
     1024
 91
        1
280
     0
281
     0
  0
CLASS
  1
AMCONTEXTMGR
  2
AcAmContextMgr
  3
DesignerAssemblies
 90
     1024
 91
        1
280
     0
281
     0
  0
CLASS
  1
ACAMCONTEXTMODELER
  2
AcAmContextModeler
  3
DesignerAssemblies
 90
     1024
 91
        1
280
     0
281
     0
  0
CLASS
  1
ACMDATADICTIONARY
  2
AcmDataDictionary
  3
"AcmSymBB|Product Description: AutoCAD Mechanical|Company: Autodesk, Inc."
 90
     1024
 91
        1
280
     0
281
     0
  0
CLASS
  1
ACAMGRCOMPDEFSET
  2
AcAmGrCompDefSet
  3
DesignerAssemblies
 90
     1024
 91
        0
280
     0
281
     0
  0
CLASS
  1
AMDTBROWSERDBTAB
  2
AmdtBrowserDbTab
  3
McadcomServices
 90
     1024
 91
        0
280
     0
281
     0
  0
CLASS
  1
CBROWSERAPPOBJECT
  2
CBrowserAppObject
  3
McadcomServices
 90
     1024
 91
        0
280
     0
281
     0
  0
CLASS
  1
DM_PLACEHOLDER
  2
AcDmSelsetPlaceholder
  3
McadcomServices
 90
     1024
 91
        0
280
     0
281
     0
  0
CLASS
  1
ACMSTANDARDDIN
  2
AcmStandardDIN
  3
"Amdt_StdImp|Product Description: AutoCAD Mechanical|Company: Autodesk, Inc."
 90
     1024
 91
        1
280
     0
281
     0
  0
CLASS
  1
AMDTEDGESTANDARDDIN13715
  2
AmdtEdgeStdDIN13715
  3
"Amdt_StdImp|Product Description: AutoCAD Mechanical|Company: Autodesk, Inc."
 90
     1024
 91
        1
280
     0
281
     0
  0
CLASS
  1
ACMSURFSTANDARDDIN2002
  2
AcmSurfTextStdDIN2002
  3
"Amdt_StdImp|Product Description: AutoCAD Mechanical|Company: Autodesk, Inc."
 90
     1024
 91
        1
280
     0
281
     0
  0
CLASS
  1
ACMFCFSTANDARDDIN2008
  2
AcmFCFStdDIN2008
  3
"Amdt_StdImp|Product Description: AutoCAD Mechanical|Company: Autodesk, Inc."
 90
     1024
 91
        1
280
     0
281
     0
  0
CLASS
  1
ACMWELDSTANDARDDIN
  2
AcmWeldingStdDIN
  3
"Amdt_StdImp|Product Description: AutoCAD Mechanical|Company: Autodesk, Inc."
 90
     1024
 91
        1
280
     0
281
     0
  0
CLASS
  1
ACMIDSTANDARDDIN2008
  2
AcmIdStdDIN2008
  3
"Amdt_StdImp|Product Description: AutoCAD Mechanical|Company: Autodesk, Inc."
 90
     1024
 91
        0
280
     0
281
     0
  0
CLASS
  1
ACMDATUMSTANDARDDIN
  2
AcmDatumStdDIN
  3
"Amdt_StdImp|Product Description: AutoCAD Mechanical|Company: Autodesk, Inc."
 90
     1024
 91
        0
280
     0
281
     0
  0
CLASS
  1
ACMBOMSTANDARDDIN
  2
AcmBOMStdDIN
  3
"Amdt_StdImp|Product Description: AutoCAD Mechanical|Company: Autodesk, Inc."
 90
     1024
 91
        1
280
     0
281
     0
  0
CLASS
  1
ACMDETAILSTANDARDDIN
  2
AmdtDetailSymStdDIN
  3
"Amdt_StdImp|Product Description: AutoCAD Mechanical|Company: Autodesk, Inc."
 90
     1024
 91
        1
280
     0
281
     0
  0
CLASS
  1
ACMSECTIONSTANDARDDIN
  2
AmdtSectionSymStdDIN
  3
"Amdt_StdImp|Product Description: AutoCAD Mechanical|Company: Autodesk, Inc."
 90
     1024
 91
        1
280
     0
281
     0
  0
CLASS
  1
ACMCENTERLINESTANDARDDIN
  2
AmdtCenterLineStdDIN
  3
"Amdt_StdImp|Product Description: AutoCAD Mechanical|Company: Autodesk, Inc."
 90
     1024
 91
        1
280
     0
281
     0
  0
CLASS
  1
ACMTHREADLINESTANDARDDIN
  2
AmdtThreadLineStdDIN
  3
"Amdt_StdImp|Product Description: AutoCAD Mechanical|Company: Autodesk, Inc."
 90
     1024
 91
        1
280
     0
281
     0
  0
CLASS
  1
ACMNOTESTANDARDDIN
  2
AmdtNoteStdDIN
  3
"Amdt_StdImp|Product Description: AutoCAD Mechanical|Company: Autodesk, Inc."
 90
     1024
 91
        1
280
     0
281
     0
  0
CLASS
  1
ACMTAPERSTANDARDDIN
  2
AcmTaperStdDIN
  3
"Amdt_StdImp|Product Description: AutoCAD Mechanical|Company: Autodesk, Inc."
 90
     1024
 91
        1
280
     0
281
     0
  0
CLASS
  1
ACMANOOTATIONVIEWSTANDARDDIN
  2
AmdtAnViewStdDIN
  3
"Amdt_StdImp|Product Description: AutoCAD Mechanical|Company: Autodesk, Inc."
 90
     1024
 91
        1
280
     0
281
     0
  0
CLASS
  1
ACAMGLAYSTD
  2
AcAmgLayStd
  3
"AmgLay|Product Description: AutoCAD Mechanical|Company: Autodesk, Inc."
 90
     1024
 91
        1
280
     0
281
     0
  0
CLASS
  1
ACAMGDIMSTD
  2
AcAmgDimStd
  3
"AmgDim|Product Description: AutoCAD Mechanical|Company: Autodesk, Inc."
 90
     1024
 91
        1
280
     0
281
     0
  0
CLASS
  1
AMGOBJPROPCFG
  2
AmgObjPropCfg
  3
"AmgLay|Product Description: AutoCAD Mechanical|Company: Autodesk, Inc."
 90
     1024
 91
        1
280
     0
281
     0
  0
CLASS
  1
ACAMGHOLECHARTSTDDIN
  2
AcAmgHoleChartStdDIN
  3
AmgDim|Product Description: AutoCAD Mechanical|Company: Autodesk, Inc.
 90
     1024
 91
        1
280
     0
281
     0
  0
CLASS
  1
ACAMGTITLESTD
  2
AcAmgTitleStd
  3
"AmgTitle|Product Description: AutoCAD Mechanical|Company: Autodesk, Inc."
 90
     1024
 91
        1
280
     0
281
     0
  0
CLASS
  1
AMDTNOTETEMPLATEDB
  2
AmdtNoteTemplateDB
  3
AcmSymBB|Product Description: AutoCAD Mechanical|Company: Autodesk, Inc.
 90
     1024
 91
        6
280
     0
281
     0
  0
CLASS
  1
ACAMGFILTERDAT
  2
AcAmgFilterDat
  3
"AcadM|Product Description: AutoCAD Mechanical|Company: Autodesk, Inc."
 90
     1024
 91
        0
280
     0
281
     0
  0
CLASS
  1
CAMSSTRUCTBTNSTATE
  2
StructBtnState
  3
DesignerAssemblies
 90
     1024
 91
        1
280
     0
281
     0
  0
CLASS
  1
ACDB_LEADEROBJECTCONTEXTDATA_CLASS
  2
AcDbLeaderObjectContextData
  3
ObjectDBX Classes
 90
     1153
 91
        0
280
     0
281
     0
  0
CLASS
  1
EXACXREFPANELOBJECT
  2
ExAcXREFPanelObject
  3
EXAC_ESW
 90
     1025
 91
        0
280
     0
281
     0
  0
CLASS
  1
ACSH_HISTORY_CLASS
  2
AcDbShHistory
  3
ObjectDBX Classes
 90
     1153
 91
        0
280
     0
281
     0
  0
CLASS
  1
ACSH_EXTRUSION_CLASS
  2
AcDbShExtrusion
  3
ObjectDBX Classes
 90
     1153
 91
        0
280
     0
281
     0
  0
CLASS
  1
ACSH_BOOLEAN_CLASS
  2
AcDbShBoolean
  3
ObjectDBX Classes
 90
     1153
 91
        0
280
     0
281
     0
  0
CLASS
  1
ACDBASSOCPERSSUBENTMANAGER
  2
AcDbAssocPersSubentManager
  3
ObjectDBX Classes
 90
     1024
 91
        1
280
     0
281
     0
  0
CLASS
  1
ACDBPERSSUBENTMANAGER
  2
AcDbPersSubentManager
  3
AcDbPersSubentManager
 90
     1024
 91
        1
280
     0
281
     0
  0
CLASS
  1
IMAGEDEF
  2
AcDbRasterImageDef
  3
ISM
 90
        0
 91
        2
280
     0
281
     0
  0
CLASS
  1
RASTERVARIABLES
  2
AcDbRasterVariables
  3
ISM
 90
        0
 91
        1
280
     0
281
     0
  0
CLASS
  1
IMAGEDEF_REACTOR
  2
AcDbRasterImageDefReactor
  3
ISM
 90
        1
 91
        2
280
     0
281
     0
  0
CLASS
  1
IMAGE
  2
AcDbRasterImage
  3
ISM
 90
     2175
 91
        2
280
     0
281
     1
  0
CLASS
  1
ACMIDSTANDARDDIN2012
  2
AcmIdStdDIN2012
  3
"Amdt_StdImp|Product Description: AutoCAD Mechanical|Company: Autodesk, Inc."
 90
     1024
 91
        1
280
     0
281
     0
  0
CLASS
  1
ACMDATUMSTANDARDDIN2008
  2
AcmDatumStdDIN2008
  3
"Amdt_StdImp|Product Description: AutoCAD Mechanical|Company: Autodesk, Inc."
 90
     1024
 91
        1
280
     0
281
     0
  0
CLASS
  1
ACMSECTIONSTANDARDCUSTOM
  2
AmdtSectionSymStdCustom
  3
"Amdt_StdImp|Product Description: AutoCAD Mechanical|Company: Autodesk, Inc."
 90
     1024
 91
        5
280
     0
281
     0
  0
CLASS
  1
ACMDETAILTANDARDCUSTOM
  2
AmdtDetailSymStdCustom
  3
"Amdt_StdImp|Product Description: AutoCAD Mechanical|Company: Autodesk, Inc."
 90
     1024
 91
        5
280
     0
281
     0
  0
CLASS
  1
FIELD
  2
AcDbField
  3
ObjectDBX Classes
 90
     1152
 91
       23
280
     0
281
     0
  0
CLASS
  1
FIELDLIST
  2
AcDbFieldList
  3
ObjectDBX Classes
 90
     1152
 91
        1
280
     0
281
     0
  0
CLASS
  1
ACAECUSTOBJ
  2
AcAeEditorObj
  3
AcAeEditorObj
 90
     1024
 91
        0
280
     0
281
     0
  0
CLASS
  1
ACMDATAENTRYBLOCK
  2
AcmDataEntryBlock
  3
AcmSymBB|Product Description: AutoCAD Mechanical|Company: Autodesk, Inc.
 90
     1024
 91
        1
280
     0
281
     0
  0
CLASS
  1
RAPIDRTRENDERSETTINGS
  2
AcDbRapidRTRenderSettings
  3
ObjectDBX Classes
 90
     1024
 91
        7
280
     0
281
     0
  0
CLASS
  1
PLANESURFACE
  2
AcDbPlaneSurface
  3
ObjectDBX Classes
 90
     4095
 91
        0
280
     0
281
     1
  0
CLASS
  1
ACDBASSOCACTION
  2
AcDbAssocAction
  3
ObjectDBX Classes
 90
     1025
 91
        0
280
     0
281
     0
  0
CLASS
  1
ACDBASSOCPLANESURFACEACTIONBODY
  2
AcDbAssocPlaneSurfaceActionBody
  3
ObjectDBX Classes
 90
     1025
 91
        0
280
     0
281
     0
  0
CLASS
  1
ACDBASSOCPATHACTIONPARAM
  2
AcDbAssocPathActionParam
  3
ObjectDBX Classes
 90
     1025
 91
        0
280
     0
281
     0
  0
CLASS
  1
ACDBASSOCEDGEACTIONPARAM
  2
AcDbAssocEdgeActionParam
  3
ObjectDBX Classes
 90
     1025
 91
        0
280
     0
281
     0
  0
ENDSEC
  0
SECTION
  2
TABLES
  0
TABLE
  2
VPORT
  5
8
102
{ACAD_XDICTIONARY
360
7037
102
}
330
0
100
AcDbSymbolTable
 70
     1
  0
VPORT
  5
6F66
330
8
100
AcDbSymbolTableRecord
100
AcDbViewportTableRecord
  2
*Active
 70
     0
 10
0.0
 20
0.0
 11
1.0
 21
1.0
 12
-51833.78858672618
 22
97879.6404599393
 13
0.0
 23
0.0
 14
10.0
 24
10.0
 15
10.0
 25
10.0
 16
0.0
 26
0.0
 36
1.0
 17
153399.7480289819
 27
-24444.63775000724
 37
6.139816558002745
 40
9001.198359343019
 41
1.955135773317591
 42
50.0
 43
0.0
 44
0.0
 50
0.0
 51
0.0
 71
     0
 72
  1000
 73
     1
 74
     3
 75
     0
 76
     0
 77
     0
 78
     1
281
     0
 65
     1
110
0.0
120
0.0
130
0.0
111
1.0
121
0.0
131
0.0
112
0.0
122
1.0
132
0.0
 79
     0
146
0.0
348
6F86
 60
     3
 61
     5
292
     1
282
     1
141
0.0
142
0.0
 63
   250
421
  3355443
1001
ACAD_NAV_VCDISPLAY
1070
     3
  0
ENDTAB
  0
TABLE
  2
LTYPE
  5
5
330
0
100
AcDbSymbolTable
 70
    18
  0
LTYPE
  5
14
330
5
100
AcDbSymbolTableRecord
100
AcDbLinetypeTableRecord
  2
ByBlock
 70
     0
  3

 72
    65
 73
     0
 40
0.0
  0
LTYPE
  5
15
330
5
100
AcDbSymbolTableRecord
100
AcDbLinetypeTableRecord
  2
ByLayer
 70
     0
  3

 72
    65
 73
     0
 40
0.0
  0
LTYPE
  5
16
330
5
100
AcDbSymbolTableRecord
100
AcDbLinetypeTableRecord
  2
Continuous
 70
     0
  3
Solid line
 72
    65
 73
     0
 40
0.0
  0
LTYPE
  5
4378
330
5
100
AcDbSymbolTableRecord
100
AcDbLinetypeTableRecord
  2
STRICHLINIE
 70
     0
  3
Strichlinie __ __ __ __ __ __ __ __ __ __ __ __
 72
    65
 73
     2
 40
19.05
 49
12.7
 74
     0
 49
-6.349999999999999
 74
     0
  0
LTYPE
  5
96E2
330
5
100
AcDbSymbolTableRecord
100
AcDbLinetypeTableRecord
  2
ACAD_ISO10W100
 70
     0
  3
ISO Strichpunktlinie __ . __ . __ . __ . __ . _
 72
    65
 73
     4
 40
18.0
 49
12.0
 74
     0
 49
-3.0
 74
     0
 49
0.0
 74
     0
 49
-3.0
 74
     0
  0
LTYPE
  5
55813
330
5
100
AcDbSymbolTableRecord
100
AcDbLinetypeTableRecord
  2
PHANTOM2
 70
     0
  3
Phantom (.5x) ___ _ _ ___ _ _ ___ _ _ ___ _ _
 72
    65
 73
     6
 40
31.75
 49
15.875
 74
     0
 49
-3.174999999999999
 74
     0
 49
3.174999999999999
 74
     0
 49
-3.174999999999999
 74
     0
 49
3.174999999999999
 74
     0
 49
-3.174999999999999
 74
     0
  0
LTYPE
  5
5585C
330
5
100
AcDbSymbolTableRecord
100
AcDbLinetypeTableRecord
  2
ACDINWELD
 70
     0
  3
_ _ _ _ _
 72
    65
 73
     2
 40
2.0
 49
2.0
 74
     0
 49
-1.0
 74
     0
  0
LTYPE
  5
5585D
330
5
100
AcDbSymbolTableRecord
100
AcDbLinetypeTableRecord
  2
ACDINTGL
 70
     0
  3
_ _ _ _ _
 72
    65
 73
     2
 40
3.0
 49
2.0
 74
     0
 49
-1.0
 74
     0
  0
LTYPE
  5
5585E
330
5
100
AcDbSymbolTableRecord
100
AcDbLinetypeTableRecord
  2
ACDINTGB
 70
     0
  3
__ . . __ . .
 72
    65
 73
     6
 40
9.0
 49
4.0
 74
     0
 49
-1.0
 74
     0
 49
1.0
 74
     0
 49
-1.0
 74
     0
 49
1.0
 74
     0
 49
-1.0
 74
     0
  0
LTYPE
  5
5B61E
330
5
100
AcDbSymbolTableRecord
100
AcDbLinetypeTableRecord
  2
Amconstr
 70
     0
  3
_______________________
 72
    65
 73
     2
 40
9999.0
 49
9999.0
 74
     0
 49
0.0
 74
     0
  0
LTYPE
  5
5B61F
330
5
100
AcDbSymbolTableRecord
100
AcDbLinetypeTableRecord
  2
Amzigzag
 70
     0
  3
/\/-/\/-/\/-/\/-/\/-/\/
 72
    65
 73
     2
 40
11.0001
 49
0.0001
 74
     4
 75
   136
340
5B627
 46
0.04
 50
0.0
 44
0.0
 45
0.0
 49
-11.0
 74
     0
  0
LTYPE
  5
5B620
330
5
100
AcDbSymbolTableRecord
100
AcDbLinetypeTableRecord
  2
AM_DIN_F_W050
 70
     0
  3
__ __ __ __ __ __ __ __ __ __ __ __ __ __ __
 72
    65
 73
     2
 40
6.25
 49
4.75
 74
     0
 49
-1.5
 74
     0
  0
LTYPE
  5
5B621
330
5
100
AcDbSymbolTableRecord
100
AcDbLinetypeTableRecord
  2
AM_DIN_G_W050
 70
     0
  3
____ . ____ . ____ . ____ . ____ . ____ . ____
 72
    65
 73
     4
 40
13.75
 49
9.75
 74
     0
 49
-1.5
 74
     0
 49
1.0
 74
     0
 49
-1.5
 74
     0
  0
LTYPE
  5
5B622
330
5
100
AcDbSymbolTableRecord
100
AcDbLinetypeTableRecord
  2
AM_DIN_K_W050
 70
     0
  3
_____ . . _____ . . _____ . . ____ .. ____
 72
    65
 73
     6
 40
16.25
 49
9.75
 74
     0
 49
-1.5
 74
     0
 49
1.0
 74
     0
 49
-1.5
 74
     0
 49
1.0
 74
     0
 49
-1.5
 74
     0
  0
LTYPE
  5
5B623
330
5
100
AcDbSymbolTableRecord
100
AcDbLinetypeTableRecord
  2
AM_DIN_G_W050x2
 70
     0
  3
__ . __ . __ . __ . __ . __
 72
    65
 73
     4
 40
6.875
 49
4.75
 74
     0
 49
-0.875
 74
     0
 49
0.375
 74
     0
 49
-0.875
 74
     0
  0
LTYPE
  5
5B624
330
5
100
AcDbSymbolTableRecord
100
AcDbLinetypeTableRecord
  2
AM_DIN_F_W050x2
 70
     0
  3
 _ _ _ _ _ _ _ _ _ _ _ _
 72
    65
 73
     2
 40
3.125
 49
2.25
 74
     0
 49
-0.875
 74
     0
  0
ENDTAB
  0
TABLE
  2
LAYER
  5
2
102
{ACAD_XDICTIONARY
360
8F9
102
}
330
0
100
AcDbSymbolTable
 70
    20
  0
LAYER
  5
10
102
{ACAD_XDICTIONARY
360
7012
102
}
330
2
100
AcDbSymbolTableRecord
100
AcDbLayerTableRecord
  2
0
 70
     0
 62
     7
  6
Continuous
370
    -3
390
F
347
6F78
  0
LAYER
  5
42
102
{ACAD_XDICTIONARY
360
7014
102
}
330
2
100
AcDbSymbolTableRecord
100
AcDbLayerTableRecord
  2
18
 70
     0
 62
     1
  6
Continuous
370
    -3
390
F
347
6F78
  0
LAYER
  5
43
102
{ACAD_XDICTIONARY
360
7016
102
}
330
2
100
AcDbSymbolTableRecord
100
AcDbLayerTableRecord
  2
25
 70
     0
 62
     7
  6
Continuous
370
    -3
390
F
347
6F78
  0
LAYER
  5
44
102
{ACAD_XDICTIONARY
360
7018
102
}
330
2
100
AcDbSymbolTableRecord
100
AcDbLayerTableRecord
  2
35
 70
     0
 62
     2
  6
Continuous
370
    -3
390
F
347
6F78
  0
LAYER
  5
165
102
{ACAD_XDICTIONARY
360
7022
102
}
330
2
100
AcDbSymbolTableRecord
100
AcDbLayerTableRecord
  2
KOTIERUNG
 70
     0
 62
     7
  6
Continuous
370
    -3
390
F
347
6F78
  0
LAYER
  5
166
330
2
100
AcDbSymbolTableRecord
100
AcDbLayerTableRecord
  2
DEFPOINTS
 70
     0
 62
     7
  6
Continuous
290
     0
370
    -3
390
F
347
6F78
  0
LAYER
  5
1FB
102
{ACAD_XDICTIONARY
360
7026
102
}
330
2
100
AcDbSymbolTableRecord
100
AcDbLayerTableRecord
  2
50
 70
     0
 62
    33
  6
Continuous
370
    -3
390
F
347
6F78
  0
LAYER
  5
5291A
330
2
100
AcDbSymbolTableRecord
100
AcDbLayerTableRecord
  2
*ADSK_CONSTRAINTS
 70
     0
 62
     7
  6
Continuous
370
    -3
390
F
347
6F78
  0
ENDTAB
  0
TABLE
  2
STYLE
  5
3
330
0
100
AcDbSymbolTable
 70
    10
  0
STYLE
  5
11
330
3
100
AcDbSymbolTableRecord
100
AcDbTextStyleTableRecord
  2
Standard
 70
     0
 40
0.0
 41
1.0
 50
0.0
 71
     0
 42
2.5
  3
arial.ttf
  4

1001
ACAD
1000
Arial
1071
       34
  0
STYLE
  5
49
330
3
100
AcDbSymbolTableRecord
100
AcDbTextStyleTableRecord
  2
VOEST
 70
     0
 40
0.0
 41
1.0
 50
0.0
 71
     0
 42
9636.79627554867
  3
ARIALN.TTF
  4

1001
ACAD
1000
Arial Narrow
1071
       34
  0
STYLE
  5
5585B
330
3
100
AcDbSymbolTableRecord
100
AcDbTextStyleTableRecord
  2
ACDINGDT
 70
     0
 40
0.0
 41
1.0
 50
0.0
 71
     0
 42
200.0
  3
amgdt.shx
  4

  0
STYLE
  5
5B627
330
3
100
AcDbSymbolTableRecord
100
AcDbTextStyleTableRecord
  2

 70
     1
 40
0.0
 41
1.0
 50
0.0
 71
     0
 42
0.2
  3
genltshp.shx
  4

  0
STYLE
  5
6663B
330
3
100
AcDbSymbolTableRecord
100
AcDbTextStyleTableRecord
  2
ACISOTS
 70
     0
 40
1.0
 41
1.0
 50
0.0
 71
     0
 42
2.5
  3
isocp.shx
  4

  0
ENDTAB
  0
TABLE
  2
VIEW
  5
6
330
0
100
AcDbSymbolTable
 70
     4
  0
ENDTAB
  0
TABLE
  2
UCS
  5
7
330
0
100
AcDbSymbolTable
 70
     0
  0
ENDTAB
  0
TABLE
  2
APPID
  5
9
330
0
100
AcDbSymbolTable
 70
    50
  0
APPID
  5
12
330
9
100
AcDbSymbolTableRecord
100
AcDbRegAppTableRecord
  2
ACAD
 70
     0
  0
APPID
  5
9BC
330
9
100
AcDbSymbolTableRecord
100
AcDbRegAppTableRecord
  2
ACAD_EXEMPT_FROM_CAD_STANDARDS
 70
     0
  0
APPID
  5
1B7A
330
9
100
AcDbSymbolTableRecord
100
AcDbRegAppTableRecord
  2
ACAD_PSEXT
 70
     0
  0
APPID
  5
2A1D
330
9
100
AcDbSymbolTableRecord
100
AcDbRegAppTableRecord
  2
ACAD_DSTYLE_DIMTEXT_FILL
 70
     0
  0
APPID
  5
2A1E
330
9
100
AcDbSymbolTableRecord
100
AcDbRegAppTableRecord
  2
ACAD_DSTYLE_DIMEXT_LENGTH
 70
     0
  0
APPID
  5
2A1F
330
9
100
AcDbSymbolTableRecord
100
AcDbRegAppTableRecord
  2
ACAD_DSTYLE_DIMEXT_ENABLED
 70
     0
  0
APPID
  5
2A20
330
9
100
AcDbSymbolTableRecord
100
AcDbRegAppTableRecord
  2
ACAD_DSTYLE_DIM_LINETYPE
 70
     0
  0
APPID
  5
2A21
330
9
100
AcDbSymbolTableRecord
100
AcDbRegAppTableRecord
  2
ACAD_DSTYLE_DIM_EXT1_LINETYPE
 70
     0
  0
APPID
  5
2A22
330
9
100
AcDbSymbolTableRecord
100
AcDbRegAppTableRecord
  2
ACAD_DSTYLE_DIM_EXT2_LINETYPE
 70
     0
  0
APPID
  5
2ADE
330
9
100
AcDbSymbolTableRecord
100
AcDbRegAppTableRecord
  2
ACAD_DSTYLE_DIMJOGGED_JOGANGLE_SYMBOL
 70
     0
  0
APPID
  5
2C02
330
9
100
AcDbSymbolTableRecord
100
AcDbRegAppTableRecord
  2
ACAD_DSTYLE_DIMARC_LENGTH_SYMBOL
 70
     0
  0
APPID
  5
581C
330
9
100
AcDbSymbolTableRecord
100
AcDbRegAppTableRecord
  2
AC650_R2
 70
     0
  0
APPID
  5
58E1
330
9
100
AcDbSymbolTableRecord
100
AcDbRegAppTableRecord
  2
DCO15
 70
     0
  0
APPID
  5
6FA5
330
9
100
AcDbSymbolTableRecord
100
AcDbRegAppTableRecord
  2
ACAD_MLEADERVER
 70
     0
  0
APPID
  5
7E46
330
9
100
AcDbSymbolTableRecord
100
AcDbRegAppTableRecord
  2
ACAD_DSTYLE_DIMRADIAL_EXTENSION
 70
     0
  0
APPID
  5
81D6
330
9
100
AcDbSymbolTableRecord
100
AcDbRegAppTableRecord
  2
AcAecLayerStandard
 70
     0
  0
APPID
  5
96E4
330
9
100
AcDbSymbolTableRecord
100
AcDbRegAppTableRecord
  2
ACAD_DSTYLE_DIMJAG
 70
     0
  0
APPID
  5
96E5
330
9
100
AcDbSymbolTableRecord
100
AcDbRegAppTableRecord
  2
ACAD_DSTYLE_DIMTALN
 70
     0
  0
APPID
  5
3A226
330
9
100
AcDbSymbolTableRecord
100
AcDbRegAppTableRecord
  2
AcDbDynamicBlockGUID
 70
     0
  0
APPID
  5
3A227
330
9
100
AcDbSymbolTableRecord
100
AcDbRegAppTableRecord
  2
AcDbBlockRepETag
 70
     0
  0
APPID
  5
52807
330
9
100
AcDbSymbolTableRecord
100
AcDbRegAppTableRecord
  2
AcadAnnotative
 70
     0
  0
APPID
  5
52808
330
9
100
AcDbSymbolTableRecord
100
AcDbRegAppTableRecord
  2
AcDbDynamicBlockTrueName
 70
     0
  0
APPID
  5
52809
330
9
100
AcDbSymbolTableRecord
100
AcDbRegAppTableRecord
  2
AcDbBlockRepBTag
 70
     0
  0
APPID
  5
5291B
330
9
100
AcDbSymbolTableRecord
100
AcDbRegAppTableRecord
  2
AcadBPTGraphNodeId
 70
     0
  0
APPID
  5
5291C
330
9
100
AcDbSymbolTableRecord
100
AcDbRegAppTableRecord
  2
ACAD_BCONSTRUCTION
 70
     0
  0
APPID
  5
5291D
330
9
100
AcDbSymbolTableRecord
100
AcDbRegAppTableRecord
  2
AcDbDynamicBlockTrueName2
 70
     0
  0
APPID
  5
5580C
330
9
100
AcDbSymbolTableRecord
100
AcDbRegAppTableRecord
  2
MCAD_NO_VIS
 70
     0
  0
APPID
  5
5580D
330
9
100
AcDbSymbolTableRecord
100
AcDbRegAppTableRecord
  2
ACAD_TEMP_GRAPHIC
 70
     0
  0
APPID
  5
55819
330
9
100
AcDbSymbolTableRecord
100
AcDbRegAppTableRecord
  2
ACATTRIBSERVICES
 70
     0
  0
APPID
  5
55831
330
9
100
AcDbSymbolTableRecord
100
AcDbRegAppTableRecord
  2
DESIGNERASSEMBLIES
 70
     0
  0
APPID
  5
5584C
330
9
100
AcDbSymbolTableRecord
100
AcDbRegAppTableRecord
  2
ACAD_DSTYLE_DIMBREAK
 70
     0
  0
APPID
  5
55866
330
9
100
AcDbSymbolTableRecord
100
AcDbRegAppTableRecord
  2
GENIUS_GENSCREG_15
 70
     0
  0
APPID
  5
55867
330
9
100
AcDbSymbolTableRecord
100
AcDbRegAppTableRecord
  2
GENIUS_GENOBJ-N-SDF_13
 70
     0
  0
APPID
  5
55868
330
9
100
AcDbSymbolTableRecord
100
AcDbRegAppTableRecord
  2
GENIUS_GENODEF_13
 70
     0
  0
APPID
  5
55869
330
9
100
AcDbSymbolTableRecord
100
AcDbRegAppTableRecord
  2
ACAD_NAV_VCDISPLAY
 70
     0
  0
APPID
  5
558DC
330
9
100
AcDbSymbolTableRecord
100
AcDbRegAppTableRecord
  2
GENIUS_GENDTOL_13
 70
     0
  0
APPID
  5
558DD
330
9
100
AcDbSymbolTableRecord
100
AcDbRegAppTableRecord
  2
ACAD_DSTYLE_DIMINSPECT
 70
     0
  0
APPID
  5
558F2
330
9
100
AcDbSymbolTableRecord
100
AcDbRegAppTableRecord
  2
AcadAnnoMonitorAlertIconDisabled
 70
     0
  0
APPID
  5
5717C
330
9
100
AcDbSymbolTableRecord
100
AcDbRegAppTableRecord
  2
GradientColor1ACI
 70
     0
  0
APPID
  5
5717D
330
9
100
AcDbSymbolTableRecord
100
AcDbRegAppTableRecord
  2
GradientColor2ACI
 70
     0
  0
APPID
  5
5D485
330
9
100
AcDbSymbolTableRecord
100
AcDbRegAppTableRecord
  2
ACAD_OBJECT_CHANGE_GUID
 70
     0
  0
APPID
  5
6005C
330
9
100
AcDbSymbolTableRecord
100
AcDbRegAppTableRecord
  2
GENIUS_GENREC_14
 70
     0
  0
APPID
  5
6005D
330
9
100
AcDbSymbolTableRecord
100
AcDbRegAppTableRecord
  2
GENIUS_GENOBJ-N-REC_13
 70
     0
  0
APPID
  5
64F7C
330
9
100
AcDbSymbolTableRecord
100
AcDbRegAppTableRecord
  2
ACCMTRANSPARENCY
 70
     0
  0
APPID
  5
655D3
330
9
100
AcDbSymbolTableRecord
100
AcDbRegAppTableRecord
  2
ACAUTHENVIRON
 70
     0
  0
APPID
  5
68AB3
330
9
100
AcDbSymbolTableRecord
100
AcDbRegAppTableRecord
  2
ACAD_SPLINE_DATA
 70
     0
  0
APPID
  5
799AB
330
9
100
AcDbSymbolTableRecord
100
AcDbRegAppTableRecord
  2
ACAD_DIMASSOC_CALC_DIMLFAC
 70
     0
  0
APPID
  5
799AC
330
9
100
AcDbSymbolTableRecord
100
AcDbRegAppTableRecord
  2
ACAD_DIMASSOC_DIMLFAC
 70
     0
  0
APPID
  5
799AD
330
9
100
AcDbSymbolTableRecord
100
AcDbRegAppTableRecord
  2
ACAD_DIMASSOC_OVERRIDDEN_DIMLFAC
 70
     0
  0
APPID
  5
84A50
330
9
100
AcDbSymbolTableRecord
100
AcDbRegAppTableRecord
  2
ACAD_ASSOCPERSSUBENTMANAGER
 70
     0
  0
ENDTAB
  0
TABLE
  2
DIMSTYLE
  5
A
330
0
100
AcDbSymbolTable
 70
    17
100
AcDbDimStyleTable
 71
     2
340
206
340
5D6
  0
DIMSTYLE
105
206
330
A
100
AcDbSymbolTableRecord
100
AcDbDimStyleTableRecord
  2
STIL2
 70
     0
 40
1.5
 41
5.0
 42
1.0
 43
1.0
 44
1.0
 50
90.0
 73
     0
 74
     0
140
3.5
141
0.0
147
1.0
271
     0
272
     0
340
49
341
202
1001
ACAD_DSTYLE_DIMJAG
1070
   388
1040
1.5
1001
ACAD_DSTYLE_DIMTALN
1070
   392
1070
     0
1001
ACAD_DSTYLE_DIMJOGGED_JOGANGLE_SYMBOL
1070
   384
1040
1.570796326794896
  0
DIMSTYLE
105
5D6
102
{ACAD_REACTORS
330
82AEA
330
82B1E
330
82B39
330
82BA3
330
82BA2
330
82BC3
330
82BC0
102
}
330
A
100
AcDbSymbolTableRecord
100
AcDbDimStyleTableRecord
  2
ISO-25
 70
     0
 41
2.5
 42
0.625
 43
3.75
 44
1.25
 73
     0
 74
     0
 77
     1
 78
     8
140
2.5
141
2.5
143
0.03937007874016
147
0.625
171
     3
172
     1
271
     2
272
     2
274
     3
278
    44
283
     0
284
     8
340
11
  0
DIMSTYLE
105
8B2
330
A
100
AcDbSymbolTableRecord
100
AcDbDimStyleTableRecord
  2
STANDARD
 70
     0
340
11
  0
DIMSTYLE
105
5584B
102
{ACAD_REACTORS
330
5E303
102
}
330
A
100
AcDbSymbolTableRecord
100
AcDbDimStyleTableRecord
  2
AM_DIN
 70
     0
  4
"
 41
3.5
 42
1.0
 43
10.0
 44
1.0
 47
0.1
 48
0.1
 50
90.0
 73
     0
 74
     0
 77
     1
 78
     8
 79
     2
140
3.5
141
0.0
143
0.0393701
146
0.71
147
1.5
172
     1
176
   256
177
   256
178
     2
271
     2
272
     3
274
     4
283
     0
284
     8
340
11
345
14
346
14
347
14
371
    -1
372
    -1
1001
ACAD_DSTYLE_DIMJAG
1070
   388
1040
1.5
1001
ACAD_DSTYLE_DIMBREAK
1070
   391
1040
3.75
  0
DIMSTYLE
105
5584E
330
A
100
AcDbSymbolTableRecord
100
AcDbDimStyleTableRecord
  2
AM_DIN$3
 70
     0
  4
"
 41
3.5
 42
1.0
 43
10.0
 44
1.0
 47
0.1
 48
0.1
 50
90.0
 73
     0
 77
     1
 78
     8
 79
     2
140
3.5
141
0.0
143
0.0393701
146
0.71
147
1.5
176
   256
177
   256
178
     2
271
     2
272
     3
274
     4
283
     0
284
     8
288
     1
289
     0
340
11
345
14
346
14
347
14
371
    -1
372
    -1
1001
ACAD_DSTYLE_DIMBREAK
1070
   391
1040
3.75
1001
ACAD_DSTYLE_DIMJAG
1070
   388
1040
1.5
  0
DIMSTYLE
105
5584F
330
A
100
AcDbSymbolTableRecord
100
AcDbDimStyleTableRecord
  2
AM_DIN$4
 70
     0
  4
"
 41
3.5
 42
1.0
 43
10.0
 44
1.0
 47
0.1
 48
0.1
 50
90.0
 73
     0
 77
     1
 78
     8
 79
     2
140
3.5
141
0.0
143
0.0393701
146
0.71
147
1.5
176
   256
177
   256
178
     2
271
     2
272
     3
274
     4
283
     0
284
     8
288
     1
289
     0
340
11
345
14
346
14
347
14
371
    -1
372
    -1
1001
ACAD_DSTYLE_DIMBREAK
1070
   391
1040
3.75
1001
ACAD_DSTYLE_DIMJAG
1070
   388
1040
1.5
  0
DIMSTYLE
105
55850
330
A
100
AcDbSymbolTableRecord
100
AcDbDimStyleTableRecord
  2
AM_DIN$6
 70
     0
  4
"
 41
3.5
 42
1.0
 43
10.0
 44
1.0
 47
0.1
 48
0.1
 50
90.0
 73
     0
 74
     0
 78
     8
 79
     2
140
3.5
141
0.0
143
0.0393701
146
0.71
147
1.5
172
     1
176
   256
177
   256
178
     2
271
     2
272
     3
274
     4
283
     0
284
     8
340
11
345
14
346
14
347
14
371
    -1
372
    -1
1001
ACAD_DSTYLE_DIMBREAK
1070
   391
1040
3.75
1001
ACAD_DSTYLE_DIMJAG
1070
   388
1040
1.5
  0
DIMSTYLE
105
55851
330
A
100
AcDbSymbolTableRecord
100
AcDbDimStyleTableRecord
  2
AM_DIN$7
 70
     0
  4
"
 41
3.5
 42
1.0
 43
10.0
 44
1.0
 47
0.1
 48
0.1
 50
90.0
 73
     0
 74
     0
 77
     1
 78
     8
 79
     2
140
3.5
141
0.0
143
0.0393701
146
0.71
147
1.5
172
     1
176
   256
177
   256
178
     2
271
     2
272
     3
274
     4
283
     0
284
     8
340
11
345
14
346
14
347
14
371
    -1
372
    -1
1001
ACAD_DSTYLE_DIMBREAK
1070
   391
1040
3.75
1001
ACAD_DSTYLE_DIMJAG
1070
   388
1040
1.5
  0
DIMSTYLE
105
55852
330
A
100
AcDbSymbolTableRecord
100
AcDbDimStyleTableRecord
  2
AM_DIN$SF
 70
     0
  4
"
 41
3.5
 42
1.0
 43
10.0
 44
1.0
 47
0.1
 48
0.1
 50
90.0
 73
     0
 74
     0
 75
     1
 76
     1
 77
     1
 78
     8
 79
     2
140
3.5
141
0.0
143
0.0393701
146
0.71
147
1.5
172
     1
176
   256
177
   256
178
     2
271
     2
272
     3
274
     4
283
     0
284
     8
340
11
345
14
346
14
347
14
371
    -1
372
    -1
1001
ACAD_DSTYLE_DIMBREAK
1070
   391
1040
3.75
1001
ACAD_DSTYLE_DIMJAG
1070
   388
1040
1.5
  0
DIMSTYLE
105
55857
330
A
100
AcDbSymbolTableRecord
100
AcDbDimStyleTableRecord
  2
AM_DIN$SH
 70
     0
  4
"
 41
3.5
 42
1.0
 43
10.0
 44
1.0
 47
0.1
 48
0.1
 50
90.0
 73
     0
 74
     0
 75
     1
 76
     1
 77
     1
 78
     8
 79
     2
140
3.5
141
0.0
143
0.0393701
144
2.0
146
0.71
147
1.5
172
     1
173
     1
176
   256
177
   256
178
     2
271
     2
272
     3
274
     4
283
     0
284
     8
340
11
343
55853
345
14
346
14
347
14
371
    -1
372
    -1
1001
ACAD_DSTYLE_DIMBREAK
1070
   391
1040
3.75
1001
ACAD_DSTYLE_DIMJAG
1070
   388
1040
1.5
  0
ENDTAB
  0
TABLE
  2
BLOCK_RECORD
  5
1
330
0
100
AcDbSymbolTable
 70
   196
  0
BLOCK_RECORD
  5
1F
102
{ACAD_XDICTIONARY
360
EC7
102
}
330
1
100
AcDbSymbolTableRecord
100
AcDbBlockTableRecord
  2
*Model_Space
340
22
 70
     0
280
     1
281
     0
  0
BLOCK_RECORD
  5
8683F
330
1
100
AcDbSymbolTableRecord
100
AcDbBlockTableRecord
  2
*Paper_Space
340
86840
 70
     0
280
     1
281
     0
  0
BLOCK_RECORD
  5
202
330
1
100
AcDbSymbolTableRecord
100
AcDbBlockTableRecord
  2
_DotSmall
340
0
 70
     0
280
     1
281
     0
  0
BLOCK_RECORD
  5
55853
330
1
100
AcDbSymbolTableRecord
100
AcDbBlockTableRecord
  2
GENAXEH
340
0
 70
     0
280
     1
281
     0
  0
BLOCK_RECORD
  5
5E2F5
330
1
100
AcDbSymbolTableRecord
100
AcDbBlockTableRecord
  2
*U2
340
0
 70
     0
280
     1
281
     0
  0
BLOCK_RECORD
  5
5E326
330
1
100
AcDbSymbolTableRecord
100
AcDbBlockTableRecord
  2
_ACMFILLED30
340
0
 70
     0
280
     1
281
     0
  0
BLOCK_RECORD
  5
6650E
330
1
100
AcDbSymbolTableRecord
100
AcDbBlockTableRecord
  2
_ACMFILLED15
340
0
 70
     0
280
     1
281
     0
  0
BLOCK_RECORD
  5
66512
330
1
100
AcDbSymbolTableRecord
100
AcDbBlockTableRecord
  2
_ACMFILLEDHALF
340
0
 70
     0
280
     1
281
     0
  0
BLOCK_RECORD
  5
82D14
330
1
100
AcDbSymbolTableRecord
100
AcDbBlockTableRecord
  2
*D174
340
0
 70
     0
280
     1
281
     0
  0
BLOCK_RECORD
  5
82D2C
330
1
100
AcDbSymbolTableRecord
100
AcDbBlockTableRecord
  2
*D175
340
0
 70
     0
280
     1
281
     0
  0
BLOCK_RECORD
  5
82D38
330
1
100
AcDbSymbolTableRecord
100
AcDbBlockTableRecord
  2
*D176
340
0
 70
     0
280
     1
281
     0
  0
BLOCK_RECORD
  5
82DAA
330
1
100
AcDbSymbolTableRecord
100
AcDbBlockTableRecord
  2
*D177
340
0
 70
     0
280
     1
281
     0
  0
BLOCK_RECORD
  5
82DC2
330
1
100
AcDbSymbolTableRecord
100
AcDbBlockTableRecord
  2
*D178
340
0
 70
     0
280
     1
281
     0
  0
BLOCK_RECORD
  5
82E11
330
1
100
AcDbSymbolTableRecord
100
AcDbBlockTableRecord
  2
*D179
340
0
 70
     0
280
     1
281
     0
  0
BLOCK_RECORD
  5
82E1D
330
1
100
AcDbSymbolTableRecord
100
AcDbBlockTableRecord
  2
*D180
340
0
 70
     0
280
     1
281
     0
  0
ENDTAB
  0
ENDSEC
  0
SECTION
  2
BLOCKS
  0
BLOCK
  5
20
330
1F
100
AcDbEntity
  8
0
100
AcDbBlockBegin
  2
*Model_Space
 70
     0
 10
0.0
 20
0.0
 30
0.0
  3
*Model_Space
  1

  0
ENDBLK
  5
21
330
1F
100
AcDbEntity
  8
0
100
AcDbBlockEnd
  0
BLOCK
  5
86841
330
8683F
100
AcDbEntity
 67
     1
  8
0
100
AcDbBlockBegin
  2
*Paper_Space
 70
     0
 10
0.0
 20
0.0
 30
0.0
  3
*Paper_Space
  1

  0
ENDBLK
  5
86842
330
8683F
100
AcDbEntity
 67
     1
  8
0
100
AcDbBlockEnd
  0
BLOCK
  5
204
330
202
100
AcDbEntity
  8
0
100
AcDbBlockBegin
  2
_DotSmall
 70
     0
 10
0.0
 20
0.0
 30
0.0
  3
_DotSmall
  1

  0
LWPOLYLINE
  5
203
330
202
100
AcDbEntity
  8
0
 62
     0
100
AcDbPolyline
 90
        2
 70
     1
 43
0.5
 10
-0.0625
 20
0.0
 42
1.0
 10
0.0625
 20
0.0
 42
1.0
  0
ENDBLK
  5
205
330
202
100
AcDbEntity
  8
0
100
AcDbBlockEnd
  0
BLOCK
  5
55855
330
55853
100
AcDbEntity
  8
0
100
AcDbBlockBegin
  2
GENAXEH
 70
     0
 10
0.0
 20
0.0
 30
0.0
  3
GENAXEH
  1

  0
LINE
  5
55854
330
55853
100
AcDbEntity
  8
0
100
AcDbLine
 10
-1.0
 20
0.0
 30
0.0
 11
1.0
 21
0.0
 31
0.0
  0
ENDBLK
  5
55856
330
55853
100
AcDbEntity
  8
0
100
AcDbBlockEnd
  0
BLOCK
  5
5E2F6
330
5E2F5
100
AcDbEntity
  8
0
100
AcDbBlockBegin
  2
*U2
 70
     1
 10
0.0
 20
0.0
 30
0.0
  3
*U2
  1

  0
ENDBLK
  5
5E2F7
330
5E2F5
100
AcDbEntity
  8
0
100
AcDbBlockEnd
  0
BLOCK
  5
5E327
330
5E326
100
AcDbEntity
  8
0
100
AcDbBlockBegin
  2
_ACMFILLED30
 70
     0
 10
0.0
 20
0.0
 30
0.0
  3
_ACMFILLED30
  1

  0
TRACE
  5
5E329
330
5E326
100
AcDbEntity
  8
35
 62
     0
100
AcDbTrace
 10
-1.0
 20
-0.26794919
 30
0.0
 11
-1.0
 21
0.26794919
 31
0.0
 12
0.0
 22
0.0
 32
0.0
 13
0.0
 23
0.0
 33
0.0
  0
ENDBLK
  5
5E328
330
5E326
100
AcDbEntity
  8
0
100
AcDbBlockEnd
  0
BLOCK
  5
6650F
330
6650E
100
AcDbEntity
  8
0
100
AcDbBlockBegin
  2
_ACMFILLED15
 70
     0
 10
0.0
 20
0.0
 30
0.0
  3
_ACMFILLED15
  1

  0
TRACE
  5
66510
330
6650E
100
AcDbEntity
  8
0
 62
     0
100
AcDbTrace
 10
-1.0
 20
-0.131652497
 30
0.0
 11
-1.0
 21
0.131652497
 31
0.0
 12
0.0
 22
0.0
 32
0.0
 13
0.0
 23
0.0
 33
0.0
  0
ENDBLK
  5
66511
330
6650E
100
AcDbEntity
  8
0
100
AcDbBlockEnd
  0
BLOCK
  5
66513
330
66512
100
AcDbEntity
  8
0
100
AcDbBlockBegin
  2
_ACMFILLEDHALF
 70
     0
 10
0.0
 20
0.0
 30
0.0
  3
_ACMFILLEDHALF
  1

  0
TRACE
  5
66514
330
66512
100
AcDbEntity
  8
25
 62
     0
100
AcDbTrace
 10
-0.8
 20
0.0
 30
0.0
 11
-1.0
 21
0.166666666
 31
0.0
 12
0.0
 22
0.0
 32
0.0
 13
0.0
 23
0.0
 33
0.0
  0
LINE
  5
66515
330
66512
100
AcDbEntity
  8
25
 62
     0
100
AcDbLine
 10
-1.0
 20
0.0
 30
0.0
 11
-0.8
 21
0.0
 31
0.0
  0
ENDBLK
  5
66516
330
66512
100
AcDbEntity
  8
0
100
AcDbBlockEnd
  0
BLOCK
  5
82D15
330
82D14
100
AcDbEntity
  8
0
100
AcDbBlockBegin
  2
*D174
 70
     1
 10
0.0
 20
0.0
 30
0.0
  3
*D174
  1

  0
LINE
  5
867F8
330
82D14
100
AcDbEntity
  8
0
 62
     0
440
 16777216
370
    -2
100
AcDbLine
 10
100047.4124167054
 20
75365.07665618424
 30
0.0
 11
99406.97920399076
 21
75365.07665618424
 31
0.0
  0
LINE
  5
867F9
330
82D14
100
AcDbEntity
  8
0
 62
     0
440
 16777216
370
    -2
100
AcDbLine
 10
99700.18905697935
 20
74165.2240224517
 30
0.0
 11
99406.97920399076
 21
74165.2240224517
 31
0.0
  0
LINE
  5
867FA
330
82D14
100
AcDbEntity
  8
0
 62
     0
440
 16777216
370
    -2
100
AcDbLine
 10
99429.97920399076
 20
75296.07665618424
 30
0.0
 11
99429.97920399076
 21
74234.2240224517
 31
0.0
  0
SOLID
  5
867FB
330
82D14
100
AcDbEntity
  8
0
 62
     0
440
 16777216
100
AcDbTrace
 10
99418.47920399077
 20
75296.07665618424
 30
0.0
 11
99441.47920399077
 21
75296.07665618424
 31
0.0
 12
99429.97920399076
 22
75365.07665618424
 32
0.0
 13
99429.97920399076
 23
75365.07665618424
 33
0.0
  0
SOLID
  5
867FC
330
82D14
100
AcDbEntity
  8
0
 62
     0
440
 16777216
100
AcDbTrace
 10
99418.47920399077
 20
74234.2240224517
 30
0.0
 11
99441.47920399077
 21
74234.2240224517
 31
0.0
 12
99429.97920399076
 22
74165.2240224517
 32
0.0
 13
99429.97920399076
 23
74165.2240224517
 33
0.0
  0
MTEXT
  5
867FD
330
82D14
100
AcDbEntity
  8
0
 62
     0
440
 16777216
100
AcDbMText
 10
99388.49625023904
 20
74765.15033931793
 30
0.0
 40
57.5
 41
0.0
 46
0.0
 71
     5
 72
     1
  1
\A1;{\fArial|b0|i0|c0|p34;\H0.92336x;1200{\H43.125;±40}}
  7
VOEST
 11
0.0000000000000001
 21
1.0
 31
0.0
 73
     1
 44
1.0
  0
POINT
  5
867FE
330
82D14
100
AcDbEntity
  8
DEFPOINTS
 62
     0
440
 16777216
100
AcDbPoint
 10
100070.4124167054
 20
75365.07665618424
 30
0.0
  0
POINT
  5
867FF
330
82D14
100
AcDbEntity
  8
DEFPOINTS
 62
     0
440
 16777216
100
AcDbPoint
 10
99723.18905697935
 20
74165.2240224517
 30
0.0
  0
POINT
  5
86800
330
82D14
100
AcDbEntity
  8
DEFPOINTS
 62
     0
440
 16777216
100
AcDbPoint
 10
99429.97920399076
 20
74165.2240224517
 30
0.0
  0
ENDBLK
  5
82D16
330
82D14
100
AcDbEntity
  8
0
100
AcDbBlockEnd
  0
BLOCK
  5
82D2D
330
82D2C
100
AcDbEntity
  8
0
100
AcDbBlockBegin
  2
*D175
 70
     1
 10
0.0
 20
0.0
 30
0.0
  3
*D175
  1

  0
LINE
  5
867D4
330
82D2C
100
AcDbEntity
  8
KOTIERUNG
 62
     0
440
 16777216
370
    -2
100
AcDbLine
 10
100669.0588765791
 20
71810.56400831063
 30
0.0
 11
100669.0588765791
 21
71977.66250375847
 31
0.0
  0
LINE
  5
867D5
330
82D2C
100
AcDbEntity
  8
KOTIERUNG
 62
     0
440
 16777216
370
    -2
100
AcDbLine
 10
99403.05887657912
 20
71810.57309997116
 30
0.0
 11
99403.05887657912
 21
71977.66250375847
 31
0.0
  0
LINE
  5
867D6
330
82D2C
100
AcDbEntity
  8
KOTIERUNG
 62
     0
440
 16777216
370
    -2
100
AcDbLine
 10
100529.0588765791
 20
71907.66250375848
 30
0.0
 11
99543.05887657913
 21
71907.66250375848
 31
0.0
  0
SOLID
  5
867D7
330
82D2C
100
AcDbEntity
  8
KOTIERUNG
 62
     0
440
 16777216
100
AcDbTrace
 10
100529.0588765791
 20
71930.9958370918
 30
0.0
 11
100529.0588765791
 21
71884.32917042514
 31
0.0
 12
100669.0588765791
 22
71907.66250375848
 32
0.0
 13
100669.0588765791
 23
71907.66250375848
 33
0.0
  0
SOLID
  5
867D8
330
82D2C
100
AcDbEntity
  8
KOTIERUNG
 62
     0
440
 16777216
100
AcDbTrace
 10
99543.05887657913
 20
71930.9958370918
 30
0.0
 11
99543.05887657913
 21
71884.32917042514
 31
0.0
 12
99403.05887657912
 22
71907.66250375848
 32
0.0
 13
99403.05887657912
 23
71907.66250375848
 33
0.0
  0
MTEXT
  5
867D9
330
82D2C
100
AcDbEntity
  8
KOTIERUNG
 62
     0
440
 16777216
100
AcDbMText
 10
100036.0588765791
 20
72014.14272203951
 30
0.0
 40
140.0
 41
0.0
 46
0.0
 71
     5
 72
     1
  1
\A1;1266{\H105;±15}
  7
VOEST
 73
     1
 44
1.0
  0
POINT
  5
867DA
330
82D2C
100
AcDbEntity
  8
DEFPOINTS
 62
     0
440
 16777216
100
AcDbPoint
 10
100669.0588765791
 20
71775.56400831062
 30
0.0
  0
POINT
  5
867DB
330
82D2C
100
AcDbEntity
  8
DEFPOINTS
 62
     0
440
 16777216
100
AcDbPoint
 10
99403.05887657912
 20
71775.57309997117
 30
0.0
  0
POINT
  5
867DC
330
82D2C
100
AcDbEntity
  8
DEFPOINTS
 62
     0
440
 16777216
100
AcDbPoint
 10
99403.05887657912
 20
71907.66250375848
 30
0.0
  0
ENDBLK
  5
82D2E
330
82D2C
100
AcDbEntity
  8
0
100
AcDbBlockEnd
  0
BLOCK
  5
82D39
330
82D38
100
AcDbEntity
  8
0
100
AcDbBlockBegin
  2
*D176
 70
     1
 10
0.0
 20
0.0
 30
0.0
  3
*D176
  1

  0
LINE
  5
867DD
330
82D38
100
AcDbEntity
  8
KOTIERUNG
 62
     0
440
 16777216
370
    -2
100
AcDbLine
 10
99403.0588765791
 20
71810.57309997116
 30
0.0
 11
99403.0588765791
 21
71977.66250375845
 31
0.0
  0
LINE
  5
867DE
330
82D38
100
AcDbEntity
  8
KOTIERUNG
 62
     0
440
 16777216
370
    -2
100
AcDbLine
 10
98136.05887657908
 20
71810.57309997116
 30
0.0
 11
98136.05887657908
 21
71977.66250375845
 31
0.0
  0
LINE
  5
867DF
330
82D38
100
AcDbEntity
  8
KOTIERUNG
 62
     0
440
 16777216
370
    -2
100
AcDbLine
 10
99263.05887657909
 20
71907.66250375844
 30
0.0
 11
98276.05887657909
 21
71907.66250375844
 31
0.0
  0
SOLID
  5
867E0
330
82D38
100
AcDbEntity
  8
KOTIERUNG
 62
     0
440
 16777216
100
AcDbTrace
 10
99263.05887657909
 20
71930.99583709178
 30
0.0
 11
99263.05887657909
 21
71884.32917042511
 31
0.0
 12
99403.0588765791
 22
71907.66250375844
 32
0.0
 13
99403.0588765791
 23
71907.66250375844
 33
0.0
  0
SOLID
  5
867E1
330
82D38
100
AcDbEntity
  8
KOTIERUNG
 62
     0
440
 16777216
100
AcDbTrace
 10
98276.05887657909
 20
71930.99583709178
 30
0.0
 11
98276.05887657909
 21
71884.32917042511
 31
0.0
 12
98136.05887657908
 22
71907.66250375844
 32
0.0
 13
98136.05887657908
 23
71907.66250375844
 33
0.0
  0
MTEXT
  5
867E2
330
82D38
100
AcDbEntity
  8
KOTIERUNG
 62
     0
440
 16777216
100
AcDbMText
 10
98769.55887657908
 20
72014.14272203948
 30
0.0
 40
140.0
 41
0.0
 46
0.0
 71
     5
 72
     1
  1
\A1;1267{\H105;±15}
  7
VOEST
 73
     1
 44
1.0
  0
POINT
  5
867E3
330
82D38
100
AcDbEntity
  8
DEFPOINTS
 62
     0
440
 16777216
100
AcDbPoint
 10
99403.0588765791
 20
71775.57309997117
 30
0.0
  0
POINT
  5
867E4
330
82D38
100
AcDbEntity
  8
DEFPOINTS
 62
     0
440
 16777216
100
AcDbPoint
 10
98136.05887657908
 20
71775.57309997117
 30
0.0
  0
POINT
  5
867E5
330
82D38
100
AcDbEntity
  8
DEFPOINTS
 62
     0
440
 16777216
100
AcDbPoint
 10
98136.05887657908
 20
71907.66250375844
 30
0.0
  0
ENDBLK
  5
82D3A
330
82D38
100
AcDbEntity
  8
0
100
AcDbBlockEnd
  0
BLOCK
  5
82DAB
330
82DAA
100
AcDbEntity
  8
0
100
AcDbBlockBegin
  2
*D177
 70
     1
 10
0.0
 20
0.0
 30
0.0
  3
*D177
  1

  0
LINE
  5
867EF
330
82DAA
100
AcDbEntity
  8
0
 62
     0
440
 16777216
370
    -2
100
AcDbLine
 10
99700.18905697935
 20
74165.2240224517
 30
0.0
 11
99533.49215277169
 21
74165.2240224517
 31
0.0
  0
LINE
  5
867F0
330
82DAA
100
AcDbEntity
  8
0
 62
     0
440
 16777216
370
    -2
100
AcDbLine
 10
99753.55275962989
 20
74965.07898308476
 30
0.0
 11
99533.49215277169
 21
74965.07898308476
 31
0.0
  0
LINE
  5
867F1
330
82DAA
100
AcDbEntity
  8
0
 62
     0
440
 16777216
370
    -2
100
AcDbLine
 10
99556.49215277169
 20
74234.2240224517
 30
0.0
 11
99556.49215277169
 21
74896.07898308476
 31
0.0
  0
SOLID
  5
867F2
330
82DAA
100
AcDbEntity
  8
0
 62
     0
440
 16777216
100
AcDbTrace
 10
99544.9921527717
 20
74234.2240224517
 30
0.0
 11
99567.9921527717
 21
74234.2240224517
 31
0.0
 12
99556.49215277169
 22
74165.2240224517
 32
0.0
 13
99556.49215277169
 23
74165.2240224517
 33
0.0
  0
SOLID
  5
867F3
330
82DAA
100
AcDbEntity
  8
0
 62
     0
440
 16777216
100
AcDbTrace
 10
99544.9921527717
 20
74896.07898308476
 30
0.0
 11
99567.9921527717
 21
74896.07898308476
 31
0.0
 12
99556.49215277169
 22
74965.07898308476
 32
0.0
 13
99556.49215277169
 23
74965.07898308476
 33
0.0
  0
MTEXT
  5
867F4
330
82DAA
100
AcDbEntity
  8
0
 62
     0
440
 16777216
100
AcDbMText
 10
99515.00919901997
 20
74565.15150276818
 30
0.0
 40
57.5
 41
0.0
 46
0.0
 71
     5
 72
     1
  1
\A1;{\fArial|b0|i0|c0|p34;\H0.92336x;800{\H43.125;±40}}
  7
VOEST
 11
0.0000000000000001
 21
1.0
 31
0.0
 73
     1
 44
1.0
  0
POINT
  5
867F5
330
82DAA
100
AcDbEntity
  8
DEFPOINTS
 62
     0
440
 16777216
100
AcDbPoint
 10
99723.18905697935
 20
74165.2240224517
 30
0.0
  0
POINT
  5
867F6
330
82DAA
100
AcDbEntity
  8
DEFPOINTS
 62
     0
440
 16777216
100
AcDbPoint
 10
99776.55275962989
 20
74965.07898308476
 30
0.0
  0
POINT
  5
867F7
330
82DAA
100
AcDbEntity
  8
DEFPOINTS
 62
     0
440
 16777216
100
AcDbPoint
 10
99556.49215277169
 20
74965.07898308476
 30
0.0
  0
ENDBLK
  5
82DAC
330
82DAA
100
AcDbEntity
  8
0
100
AcDbBlockEnd
  0
BLOCK
  5
82DC3
330
82DC2
100
AcDbEntity
  8
0
100
AcDbBlockBegin
  2
*D178
 70
     1
 10
0.0
 20
0.0
 30
0.0
  3
*D178
  1

  0
LINE
  5
867E6
330
82DC2
100
AcDbEntity
  8
0
 62
     0
440
 16777216
370
    -2
100
AcDbLine
 10
100266.9086239352
 20
74360.96330552699
 30
0.0
 11
100266.9086239352
 21
75445.02408638154
 31
0.0
  0
LINE
  5
867E7
330
82DC2
100
AcDbEntity
  8
0
 62
     0
440
 16777216
370
    -2
100
AcDbLine
 10
99703.18905697928
 20
74921.41181292071
 30
0.0
 11
99703.18905697928
 21
75445.02408638154
 31
0.0
  0
LINE
  5
867E8
330
82DC2
100
AcDbEntity
  8
0
 62
     0
440
 16777216
370
    -2
100
AcDbLine
 10
100197.9086239352
 20
75422.02408638154
 30
0.0
 11
99772.18905697927
 21
75422.02408638154
 31
0.0
  0
SOLID
  5
867E9
330
82DC2
100
AcDbEntity
  8
0
 62
     0
440
 16777216
100
AcDbTrace
 10
100197.9086239352
 20
75433.52408638154
 30
0.0
 11
100197.9086239352
 21
75410.52408638154
 31
0.0
 12
100266.9086239352
 22
75422.02408638154
 32
0.0
 13
100266.9086239352
 23
75422.02408638154
 33
0.0
  0
SOLID
  5
867EA
330
82DC2
100
AcDbEntity
  8
0
 62
     0
440
 16777216
100
AcDbTrace
 10
99772.18905697927
 20
75433.52408638154
 30
0.0
 11
99772.18905697927
 21
75410.52408638154
 31
0.0
 12
99703.18905697928
 22
75422.02408638154
 32
0.0
 13
99703.18905697928
 23
75422.02408638154
 33
0.0
  0
MTEXT
  5
867EB
330
82DC2
100
AcDbEntity
  8
0
 62
     0
440
 16777216
100
AcDbMText
 10
99985.04884045726
 20
75465.75703317554
 30
0.0
 40
57.5
 41
0.0
 46
0.0
 71
     5
 72
     1
  1
\A1;564{\H43.125;±20}
  7
VOEST
 73
     1
 44
1.0
  0
POINT
  5
867EC
330
82DC2
100
AcDbEntity
  8
DEFPOINTS
 62
     0
440
 16777216
100
AcDbPoint
 10
100266.9086239352
 20
74337.96330552699
 30
0.0
  0
POINT
  5
867ED
330
82DC2
100
AcDbEntity
  8
DEFPOINTS
 62
     0
440
 16777216
100
AcDbPoint
 10
99703.18905697928
 20
74898.41181292071
 30
0.0
  0
POINT
  5
867EE
330
82DC2
100
AcDbEntity
  8
DEFPOINTS
 62
     0
440
 16777216
100
AcDbPoint
 10
99703.18905697928
 20
75422.02408638154
 30
0.0
  0
ENDBLK
  5
82DC4
330
82DC2
100
AcDbEntity
  8
0
100
AcDbBlockEnd
  0
BLOCK
  5
82E12
330
82E11
100
AcDbEntity
  8
0
100
AcDbBlockBegin
  2
*D179
 70
     1
 10
0.0
 20
0.0
 30
0.0
  3
*D179
  1

  0
LINE
  5
86801
330
82E11
100
AcDbEntity
  8
KOTIERUNG
 62
     0
440
 16777216
370
    -2
100
AcDbLine
 10
101936.0588765791
 20
71810.57309997118
 30
0.0
 11
101936.0588765791
 21
72227.01145563644
 31
0.0
  0
LINE
  5
86802
330
82E11
100
AcDbEntity
  8
KOTIERUNG
 62
     0
440
 16777216
370
    -2
100
AcDbLine
 10
98136.05887657908
 20
71810.57309997116
 30
0.0
 11
98136.05887657908
 21
72227.01145563644
 31
0.0
  0
LINE
  5
86803
330
82E11
100
AcDbEntity
  8
KOTIERUNG
 62
     0
440
 16777216
370
    -2
100
AcDbLine
 10
101796.0588765791
 20
72157.01145563644
 30
0.0
 11
98276.05887657909
 21
72157.01145563644
 31
0.0
  0
SOLID
  5
86804
330
82E11
100
AcDbEntity
  8
KOTIERUNG
 62
     0
440
 16777216
100
AcDbTrace
 10
101796.0588765791
 20
72180.34478896977
 30
0.0
 11
101796.0588765791
 21
72133.67812230311
 31
0.0
 12
101936.0588765791
 22
72157.01145563644
 32
0.0
 13
101936.0588765791
 23
72157.01145563644
 33
0.0
  0
SOLID
  5
86805
330
82E11
100
AcDbEntity
  8
KOTIERUNG
 62
     0
440
 16777216
100
AcDbTrace
 10
98276.05887657909
 20
72180.34478896977
 30
0.0
 11
98276.05887657909
 21
72133.67812230311
 31
0.0
 12
98136.05887657908
 22
72157.01145563644
 32
0.0
 13
98136.05887657908
 23
72157.01145563644
 33
0.0
  0
MTEXT
  5
86806
330
82E11
100
AcDbEntity
  8
KOTIERUNG
 62
     0
440
 16777216
100
AcDbMText
 10
100036.0588765791
 20
72263.49167391748
 30
0.0
 40
140.0
 41
0.0
 46
0.0
 71
     5
 72
     1
  1
\A1;3800{\H105;±9}
  7
VOEST
 73
     1
 44
1.0
  0
POINT
  5
86807
330
82E11
100
AcDbEntity
  8
DEFPOINTS
 62
     0
440
 16777216
100
AcDbPoint
 10
101936.0588765791
 20
71775.57309997118
 30
0.0
  0
POINT
  5
86808
330
82E11
100
AcDbEntity
  8
DEFPOINTS
 62
     0
440
 16777216
100
AcDbPoint
 10
98136.05887657908
 20
71775.57309997117
 30
0.0
  0
POINT
  5
86809
330
82E11
100
AcDbEntity
  8
DEFPOINTS
 62
     0
440
 16777216
100
AcDbPoint
 10
98136.05887657908
 20
72157.01145563644
 30
0.0
  0
ENDBLK
  5
82E13
330
82E11
100
AcDbEntity
  8
0
100
AcDbBlockEnd
  0
BLOCK
  5
82E1E
330
82E1D
100
AcDbEntity
  8
0
100
AcDbBlockBegin
  2
*D180
 70
     1
 10
0.0
 20
0.0
 30
0.0
  3
*D180
  1

  0
LINE
  5
8680A
330
82E1D
100
AcDbEntity
  8
KOTIERUNG
 62
     0
440
 16777216
370
    -2
100
AcDbLine
 10
101936.0588765791
 20
71810.57309997116
 30
0.0
 11
101936.0588765791
 21
71977.66250375847
 31
0.0
  0
LINE
  5
8680B
330
82E1D
100
AcDbEntity
  8
KOTIERUNG
 62
     0
440
 16777216
370
    -2
100
AcDbLine
 10
100669.0588765791
 20
71810.56400831064
 30
0.0
 11
100669.0588765791
 21
71977.66250375847
 31
0.0
  0
LINE
  5
8680C
330
82E1D
100
AcDbEntity
  8
KOTIERUNG
 62
     0
440
 16777216
370
    -2
100
AcDbLine
 10
101796.0588765791
 20
71907.66250375848
 30
0.0
 11
100809.0588765791
 21
71907.66250375848
 31
0.0
  0
SOLID
  5
8680D
330
82E1D
100
AcDbEntity
  8
KOTIERUNG
 62
     0
440
 16777216
100
AcDbTrace
 10
101796.0588765791
 20
71930.9958370918
 30
0.0
 11
101796.0588765791
 21
71884.32917042514
 31
0.0
 12
101936.0588765791
 22
71907.66250375848
 32
0.0
 13
101936.0588765791
 23
71907.66250375848
 33
0.0
  0
SOLID
  5
8680E
330
82E1D
100
AcDbEntity
  8
KOTIERUNG
 62
     0
440
 16777216
100
AcDbTrace
 10
100809.0588765791
 20
71930.9958370918
 30
0.0
 11
100809.0588765791
 21
71884.32917042514
 31
0.0
 12
100669.0588765791
 22
71907.66250375848
 32
0.0
 13
100669.0588765791
 23
71907.66250375848
 33
0.0
  0
MTEXT
  5
8680F
330
82E1D
100
AcDbEntity
  8
KOTIERUNG
 62
     0
440
 16777216
100
AcDbMText
 10
101302.5588765791
 20
72014.14272203951
 30
0.0
 40
140.0
 41
0.0
 46
0.0
 71
     5
 72
     1
  1
\A1;1267{\H105;±15}
  7
VOEST
 73
     1
 44
1.0
  0
POINT
  5
86810
330
82E1D
100
AcDbEntity
  8
DEFPOINTS
 62
     0
440
 16777216
100
AcDbPoint
 10
101936.0588765791
 20
71775.57309997117
 30
0.0
  0
POINT
  5
86811
330
82E1D
100
AcDbEntity
  8
DEFPOINTS
 62
     0
440
 16777216
100
AcDbPoint
 10
100669.0588765791
 20
71775.56400831064
 30
0.0
  0
POINT
  5
86812
330
82E1D
100
AcDbEntity
  8
DEFPOINTS
 62
     0
440
 16777216
100
AcDbPoint
 10
100669.0588765791
 20
71907.66250375848
 30
0.0
  0
ENDBLK
  5
82E1F
330
82E1D
100
AcDbEntity
  8
0
100
AcDbBlockEnd
  0
ENDSEC
  0
SECTION
  2
ENTITIES
  0
DIMENSION
  5
82AEA
330
1F
100
AcDbEntity
  8
0
100
AcDbDimension
280
     0
  2
*D174
 10
99429.97920399076
 20
74165.2240224517
 30
0.0
 11
99388.49625023904
 21
74765.15033931793
 31
0.0
 70
    32
 71
     5
 42
1199.852633732545
 73
     0
 74
     0
 75
     0
  3
ISO-25
100
AcDbAlignedDimension
 13
100070.4124167054
 23
75365.07665618422
 33
0.0
 14
99723.1890569793
 24
74165.22402245167
 34
0.0
 50
90.0
100
AcDbRotatedDimension
1001
ACAD
1000
DSTYLE
1002
{
1070
   340
1005
49
1070
     3
1000
{\fArial|b0|i0|c0|p34;\H0.92336x;<>}
1070
    40
1040
23.0
1070
    41
1040
3.0
1070
    42
1040
1.0
1070
    44
1040
1.0
1070
    47
1040
40.0
1070
    48
1040
40.0
1070
    71
1070
     1
1070
   146
1040
0.75
1070
   271
1070
     0
1070
   283
1070
     1
1002
}
  0
HATCH
  5
82AEB
330
1F
100
AcDbEntity
  8
18
100
AcDbHatch
 10
0.0
 20
0.0
 30
0.0
210
0.0
220
0.0
230
1.0
  2
ANSI31
 70
     0
 71
     0
 91
        3
 92
        1
 93
        4
 72
     1
 10
99398.26456291314
 20
74165.22402245169
 11
99398.26456291314
 21
74104.08102202887
 72
     1
 10
99398.26456291314
 20
74104.08102202887
 11
99723.1890569793
 21
74104.08102202887
 72
     1
 10
99723.1890569793
 20
74104.08102202887
 11
99723.1890569793
 21
74165.22402245167
 72
     1
 10
99723.1890569793
 20
74165.22402245167
 11
99398.26456291314
 21
74165.22402245167
 97
        0
 92
       16
 93
        2
 72
     1
 10
99517.48289459139
 20
74104.21899892989
 11
99555.51154397747
 21
74104.21899892989
 72
     1
 10
99555.51154397747
 20
74104.21899892989
 11
99517.48289459139
 21
74104.21899892989
 97
        0
 92
        1
 93
        4
 72
     1
 10
99281.96504847813
 20
74165.22402245169
 11
99281.96504847814
 21
74104.08102202885
 72
     1
 10
99281.96504847814
 20
74104.08102202885
 11
99398.26456291314
 21
74104.08102202887
 72
     1
 10
99398.26456291314
 20
74104.08102202887
 11
99398.26456291314
 21
74165.22402245167
 72
     1
 10
99398.26456291314
 20
74165.22402245167
 11
99281.96504847813
 21
74165.22402245169
 97
        0
 75
     0
 76
     1
 52
90.0
 41
10.0
 77
     0
 78
     1
 53
135.0
 43
0.0
 44
0.0
 45
-22.45064030267288
 46
-22.45064030267288
 79
     0
 98
        3
 10
98993.83002262863
 20
74133.09787318688
 10
99293.72480097935
 20
74130.67980225704
 10
99446.09072178298
 20
74137.93396262225
1001
ACAD
1010
0.0
1020
0.0
1030
0.0
  0
LINE
  5
82AEC
330
1F
100
AcDbEntity
  8
50
100
AcDbLine
 10
99281.96504847816
 20
74165.22402245167
 30
0.0
 11
99723.1890569793
 21
74165.22402245167
 31
0.0
  0
HATCH
  5
82AED
330
1F
100
AcDbEntity
  8
18
100
AcDbHatch
 10
0.0
 20
0.0
 30
0.0
210
0.0
220
0.0
230
1.0
  2
ANSI33
 70
     0
 71
     0
 91
        1
 92
        1
 93
        5
 72
     1
 10
100519.2542147865
 20
74120.01417100706
 11
100519.2542147865
 21
74334.26882078641
 72
     1
 10
100519.2542147865
 20
74334.26882078641
 11
99744.49786917389
 21
74314.89991214608
 72
     1
 10
99744.49786917389
 20
74314.89991214608
 11
99723.1890569793
 21
74245.20743675274
 72
     1
 10
99723.1890569793
 20
74245.20743675274
 11
99723.1890569793
 21
74113.12917559222
 72
     1
 10
99723.1890569793
 20
74113.12917559222
 11
100519.2542147865
 21
74120.01417100706
 97
        0
 75
     0
 76
     1
 52
0.0
 41
10.0
 77
     0
 78
     2
 53
45.0
 43
0.0
 44
0.0
 45
-44.90128060534576
 46
44.90128060534576
 79
     0
 53
45.0
 43
44.9013
 44
0.0
 45
-44.90128060534576
 46
44.90128060534576
 79
     2
 49
31.75
 49
-15.875
 98
        1
 10
101119.3217419928
 20
74201.73294335726
1001
GradientColor1ACI
1070
     5
1001
GradientColor2ACI
1070
     2
1001
ACAD
1010
0.0
1020
0.0
1030
0.0
  0
LINE
  5
82AEE
330
1F
100
AcDbEntity
  8
50
100
AcDbLine
 10
99723.1890569793
 20
74245.20743675274
 30
0.0
 11
99744.49786917389
 21
74314.89991214608
 31
0.0
  0
LINE
  5
82AEF
330
1F
100
AcDbEntity
  8
50
100
AcDbLine
 10
99744.49786917389
 20
74314.89991214608
 30
0.0
 11
100519.2542147865
 21
74334.2688207864
 31
0.0
  0
LINE
  5
82AF7
330
1F
100
AcDbEntity
  8
50
100
AcDbLine
 10
99723.1890569793
 20
74089.52240843157
 30
0.0
 11
99723.1890569793
 21
74245.20743675274
 31
0.0
  0
LINE
  5
82AF8
330
1F
100
AcDbEntity
  8
25
100
AcDbLine
 10
99769.79722382337
 20
74954.90697017772
 30
0.0
 11
99776.04527161362
 21
74704.98505857568
 31
0.0
  0
LINE
  5
82AF9
330
1F
100
AcDbEntity
  8
25
100
AcDbLine
 10
99769.79722382337
 20
74954.90697017772
 30
0.0
 11
100074.3432825354
 21
74962.52062164577
 31
0.0
  0
LINE
  5
82AFA
330
1F
100
AcDbEntity
  8
25
100
AcDbLine
 10
99776.04527161362
 20
74704.98505857568
 30
0.0
 11
100080.5913303256
 21
74712.59871004373
 31
0.0
  0
LINE
  5
82AFE
330
1F
100
AcDbEntity
  8
25
100
AcDbLine
 10
100074.3432825354
 20
74962.52062164575
 30
0.0
 11
100080.5913303256
 21
74712.59871004373
 31
0.0
  0
LWPOLYLINE
  5
82B00
102
{ACAD_REACTORS
330
82B20
330
82B3B
102
}
330
1F
100
AcDbEntity
  8
25
100
AcDbPolyline
 90
       16
 70
     1
 43
0.0
 10
99783.30065124328
 20
74695.16331855455
 10
99717.97802158159
 20
74737.98526118579
 42
-0.5193727904429901
 10
99716.64963263638
 20
74778.8672936038
 10
99760.85872627258
 20
74812.14350191945
 42
0.5146286902193649
 10
99759.98422536456
 20
74847.12353823892
 10
99714.16758739476
 20
74878.14910326433
 42
-0.519372790442988
 10
99713.45149203552
 20
74919.04644302201
 10
99776.55275962984
 20
74965.07898308474
 10
99778.61548232077
 20
74962.25140901841
 10
99715.51421472636
 20
74916.21886895567
 42
0.51937279044299
 10
99716.13005673535
 20
74881.04715676407
 10
99761.94669470515
 20
74850.02159173866
 42
-0.5146286902193694
 10
99762.9635562261
 20
74809.34713090206
 10
99718.75446258984
 20
74776.07092258643
 42
0.5193727904429913
 10
99719.89687708273
 20
74740.91237470694
 10
99785.21950674451
 20
74698.09043207569
  0
LWPOLYLINE
  5
82B11
330
1F
100
AcDbEntity
  8
25
100
AcDbPolyline
 90
       16
 70
     1
 43
0.0
 10
100068.8984288374
 20
75095.08090095695
 10
100004.9166244093
 20
75139.88149714464
 42
-0.5193727904429901
 10
100004.8397417062
 20
75180.78503343268
 10
100050.0463019517
 20
75212.69297775335
 42
0.5146286902193649
 10
100050.2425089806
 20
75247.68339352044
 10
100005.3966247444
 20
75280.0963024777
 42
-0.519372790442988
 10
100005.93221731
 20
75320.99640434092
 10
100070.4124167054
 20
75365.07665618422
 10
100072.3876571673
 20
75362.18729204696
 10
100007.9074577718
 20
75318.10704020367
 42
0.51937279044299
 10
100007.4468481655
 20
75282.93295260128
 10
100052.2927324017
 20
75250.52004364402
 42
-0.5146286902193694
 10
100052.0645846937
 20
75209.8335136823
 10
100006.8580244481
 20
75177.92556936166
 42
0.5193727904429913
 10
100006.9241435728
 20
75142.74852815392
 10
100070.905948001
 20
75097.94793196626
  0
DIMENSION
  5
82B1E
102
{ACAD_XDICTIONARY
360
82B1F
102
}
102
{ACAD_REACTORS
330
82B20
102
}
330
1F
100
AcDbEntity
  8
0
100
AcDbDimension
280
     0
  2
*D177
 10
99556.49215277169
 20
74965.07898308476
 30
0.0
 11
99515.00919901997
 21
74565.15150276818
 31
0.0
 70
    32
 71
     5
 42
799.8549606330635
 73
     0
 74
     0
 75
     0
  3
ISO-25
100
AcDbAlignedDimension
 13
99723.1890569793
 23
74165.22402245167
 33
0.0
 14
99776.55275962984
 24
74965.07898308474
 34
0.0
 50
90.0
100
AcDbRotatedDimension
1001
ACAD
1000
DSTYLE
1002
{
1070
   340
1005
49
1070
     3
1000
{\fArial|b0|i0|c0|p34;\H0.92336x;<>}
1070
    40
1040
23.0
1070
    41
1040
3.0
1070
    42
1040
1.0
1070
    44
1040
1.0
1070
    47
1040
40.0
1070
    48
1040
40.0
1070
    71
1070
     1
1070
   146
1040
0.75
1070
   271
1070
     0
1070
   283
1070
     1
1002
}
  0
LWPOLYLINE
  5
82B21
330
1F
100
AcDbEntity
  8
25
100
AcDbPolyline
 90
        4
 70
     1
 43
0.0
 10
100170.7947008615
 20
75205.74493843433
 10
100063.3282788732
 20
75203.0582778849
 10
100061.7037864477
 20
75268.03797490142
 10
100169.1702084362
 20
75270.72463545087
  0
LWPOLYLINE
  5
82B23
330
1F
100
AcDbEntity
  8
25
100
AcDbPolyline
 90
        8
 70
     1
 43
0.0
 10
100124.2161311487
 20
75228.31281679454
 10
100136.2123829055
 20
75228.61272308841
 42
0.4142135623730951
 10
100144.9846420028
 20
75237.83484162649
 10
100144.9846420028
 20
75237.83484162649
 42
0.4142135623730951
 10
100135.7625234647
 20
75246.60710072377
 10
100123.7662717078
 20
75246.3071944299
 42
0.4142135623730951
 10
100114.9940126106
 20
75237.08507589178
 10
100114.9940126106
 20
75237.08507589178
 42
0.4142135623730951
  0
LINE
  5
82B24
330
1F
100
AcDbEntity
  8
18
  6
ACAD_ISO10W100
 48
0.5
100
AcDbLine
 10
100089.6892761188
 20
74353.53907085532
 30
0.0
 11
100090.9388856768
 21
74303.5546885349
 31
0.0
  0
LINE
  5
82B25
330
1F
100
AcDbEntity
  8
25
100
AcDbLine
 10
100090.0677409902
 20
74333.54228345336
 30
0.0
 11
100068.3267171055
 21
75203.18323884072
 31
0.0
  0
LWPOLYLINE
  5
82B26
102
{ACAD_REACTORS
330
82B3B
102
}
330
1F
100
AcDbEntity
  8
25
100
AcDbPolyline
 90
        4
 70
     1
 43
0.0
 10
99947.25849899621
 20
74319.96892789163
 10
100267.1585458468
 20
74327.9664290629
 10
100266.9086239352
 20
74337.96330552699
 10
99947.00857708462
 20
74329.96580435571
  0
LINE
  5
82B27
330
1F
100
AcDbEntity
  8
25
100
AcDbLine
 10
100215.0286967912
 20
74336.66630734838
 30
0.0
 11
100191.286115189
 21
75286.36957143628
 31
0.0
  0
LINE
  5
82B2C
330
1F
100
AcDbEntity
  8
25
100
AcDbLine
 10
100066.325159388
 20
75283.24554754124
 30
0.0
 11
100191.286115189
 21
75286.36957143628
 31
0.0
  0
LINE
  5
82B33
330
1F
100
AcDbEntity
  8
18
  6
ACAD_ISO10W100
 48
0.5
100
AcDbLine
 10
100001.4915538139
 20
74351.33412779769
 30
0.0
 11
100002.7411633719
 21
74301.34974547729
 31
0.0
  0
LWPOLYLINE
  5
82B34
330
1F
100
AcDbEntity
  8
25
100
AcDbPolyline
 90
        8
 70
     1
 43
0.0
 10
100158.271430669
 20
74466.28830669628
 10
100157.9715243751
 20
74478.28455845319
 42
0.4142135623730951
 10
100148.749405837
 20
74487.05681755042
 10
100148.749405837
 20
74487.05681755042
 42
0.4142135623730951
 10
100139.9771467397
 20
74477.83469901231
 10
100140.2770530336
 20
74465.8384472554
 42
0.4142135623730951
 10
100149.4991715718
 20
74457.06618815817
 10
100149.4991715718
 20
74457.06618815817
 42
0.4142135623730951
  0
LWPOLYLINE
  5
82B35
330
1F
100
AcDbEntity
  8
25
100
AcDbPolyline
 90
        8
 70
     1
 43
0.0
 10
100141.7765845033
 20
75126.08215332565
 10
100141.4766782094
 20
75138.07840508254
 42
0.4142135623730951
 10
100132.2545596712
 20
75146.85066417977
 10
100132.2545596712
 20
75146.85066417977
 42
0.4142135623730951
 10
100123.482300574
 20
75137.62854564166
 10
100123.7822068679
 20
75125.63229388476
 42
0.4142135623730951
 10
100133.0043254061
 20
75116.86003478753
 10
100133.0043254061
 20
75116.86003478753
 42
0.4142135623730951
  0
DIMENSION
  5
82B39
102
{ACAD_XDICTIONARY
360
82B3A
102
}
102
{ACAD_REACTORS
330
82B3B
102
}
330
1F
100
AcDbEntity
  8
0
100
AcDbDimension
280
     0
  2
*D178
 10
99703.18905697928
 20
75422.02408638154
 30
0.0
 11
99985.04884045726
 21
75465.75703317554
 31
0.0
 70
    32
 71
     5
 42
563.7195669559587
 73
     0
 74
     0
 75
     0
  3
ISO-25
100
AcDbAlignedDimension
 13
100266.9086239352
 23
74337.96330552699
 33
0.0
 14
99703.18905697928
 24
74898.41181292071
 34
0.0
 50
180.0
100
AcDbRotatedDimension
1001
ACAD
1000
DSTYLE
1002
{
1070
   340
1005
49
1070
    40
1040
23.0
1070
    41
1040
3.0
1070
    42
1040
1.0
1070
    44
1040
1.0
1070
    47
1040
20.0
1070
    48
1040
20.0
1070
    71
1070
     1
1070
   146
1040
0.75
1070
   271
1070
     0
1070
   283
1070
     1
1002
}
  0
LINE
  5
82B5C
330
1F
100
AcDbEntity
  8
25
100
AcDbLine
 10
96391.11155479774
 20
71312.8588270031
 30
0.0
 11
103681.0061983604
 21
71312.8588270031
 31
0.0
  0
LINE
  5
82B5D
330
1F
100
AcDbEntity
  8
25
100
AcDbLine
 10
96380.09251346495
 20
71236.03644907895
 30
0.0
 11
103692.0252396932
 21
71236.03644907896
 31
0.0
  0
LINE
  5
82B5F
330
1F
100
AcDbEntity
  8
18
  6
STRICHLINIE
 48
0.07
100
AcDbLine
 10
102096.0588765791
 20
71312.8588270031
 30
0.0
 11
102096.0588765791
 21
71236.03644907896
 31
0.0
  0
LINE
  5
82B60
330
1F
100
AcDbEntity
  8
25
100
AcDbLine
 10
101776.0588765791
 20
71312.8588270031
 30
0.0
 11
101776.0588765792
 21
71236.03644907896
 31
0.0
  0
CIRCLE
  5
82B67
330
1F
100
AcDbEntity
  8
25
100
AcDbCircle
 10
101936.0588765791
 20
71510.57309997118
 30
0.0
 40
12.0
  0
ARC
  5
82B68
330
1F
100
AcDbEntity
  8
25
100
AcDbCircle
 10
102071.9496415572
 20
71598.79837975916
 30
0.0
 40
12.0
100
AcDbArc
 50
55.33157326397766
 51
124.6684267360223
  0
ARC
  5
82B69
330
1F
100
AcDbEntity
  8
25
100
AcDbCircle
 10
101800.168111601
 20
71598.79837975916
 30
0.0
 40
12.0
100
AcDbArc
 50
55.33157326397766
 51
124.6684267360223
  0
LWPOLYLINE
  5
82B6A
330
1F
100
AcDbEntity
  8
25
100
AcDbPolyline
 90
        2
 70
     0
 43
0.0
 10
101876.0588765791
 20
71483.95244128538
 10
101802.2906381476
 20
71531.84549329767
  0
LWPOLYLINE
  5
82B6B
330
1F
100
AcDbEntity
  8
25
100
AcDbPolyline
 90
       20
 70
     1
 43
0.0
 10
101909.4588765791
 20
71633.67696288234
 10
101909.4588765791
 20
71618.32696288233
 42
0.4142135623729114
 10
101914.4588765791
 20
71613.32696288233
 10
101957.6588765791
 20
71613.32696288236
 42
0.4142135623731372
 10
101962.6588765791
 20
71618.32696288236
 10
101962.6588765791
 20
71724.02696288235
 42
0.4142135623731285
 10
101957.6588765791
 20
71729.02696288234
 10
101914.4588765791
 20
71729.02696288232
 42
0.4142135623729163
 10
101909.4588765791
 20
71724.02696288233
 10
101909.4588765791
 20
71708.67696288234
 10
101904.8088765791
 20
71708.67696288232
 10
101904.8088765791
 20
71724.02696288233
 42
-0.414213562373001
 10
101914.4588765791
 20
71733.67696288234
 10
101957.6588765791
 20
71733.67696288235
 42
-0.4142135623731316
 10
101967.3088765791
 20
71724.02696288235
 10
101967.3088765791
 20
71618.32696288236
 42
-0.4142135623732124
 10
101957.6588765791
 20
71608.67696288233
 10
101914.4588765791
 20
71608.67696288233
 42
-0.4142135623729296
 10
101904.8088765791
 20
71618.32696288233
 10
101904.8088765791
 20
71633.67696288234
  0
CIRCLE
  5
82B75
330
1F
100
AcDbEntity
  8
25
100
AcDbCircle
 10
103203.058876579
 20
71510.57309997115
 30
0.0
 40
12.0
  0
ARC
  5
82B76
330
1F
100
AcDbEntity
  8
25
100
AcDbCircle
 10
103338.9496415572
 20
71598.79837975913
 30
0.0
 40
12.0
100
AcDbArc
 50
55.33157326413147
 51
124.6684267358685
  0
ARC
  5
82B77
330
1F
100
AcDbEntity
  8
25
100
AcDbCircle
 10
103067.168111601
 20
71598.79837975913
 30
0.0
 40
12.0
100
AcDbArc
 50
55.33157326413147
 51
124.6684267358685
  0
LWPOLYLINE
  5
82B78
330
1F
100
AcDbEntity
  8
25
100
AcDbPolyline
 90
        4
 70
     0
 43
0.0
 10
103258.0588765791
 20
71480.70625749201
 10
103233.0084802688
 20
71464.44261938808
 42
-0.29614813968161
 10
103173.1092728893
 20
71464.44261938808
 10
103069.2906381475
 20
71531.84549329767
  0
LWPOLYLINE
  5
82B79
330
1F
100
AcDbEntity
  8
25
100
AcDbPolyline
 90
       20
 70
     1
 43
0.0
 10
103176.4588765791
 20
71633.67696288231
 10
103176.4588765791
 20
71618.32696288231
 42
0.4142135623729114
 10
103181.4588765791
 20
71613.3269628823
 10
103224.6588765791
 20
71613.32696288233
 42
0.4142135623731372
 10
103229.6588765791
 20
71618.32696288233
 10
103229.658876579
 20
71724.02696288233
 42
0.4142135623731285
 10
103224.658876579
 20
71729.02696288232
 10
103181.4588765791
 20
71729.0269628823
 42
0.4142135623729163
 10
103176.4588765791
 20
71724.0269628823
 10
103176.4588765791
 20
71708.6769628823
 10
103171.808876579
 20
71708.6769628823
 10
103171.808876579
 20
71724.0269628823
 42
-0.414213562373001
 10
103181.4588765791
 20
71733.67696288231
 10
103224.658876579
 20
71733.67696288233
 42
-0.4142135623731316
 10
103234.308876579
 20
71724.02696288233
 10
103234.3088765791
 20
71618.32696288233
 42
-0.4142135623732124
 10
103224.6588765791
 20
71608.67696288231
 10
103181.4588765791
 20
71608.67696288231
 42
-0.4142135623729296
 10
103171.8088765791
 20
71618.32696288231
 10
103171.8088765791
 20
71633.67696288231
  0
LINE
  5
82B7D
330
1F
100
AcDbEntity
  8
18
  6
STRICHLINIE
 48
0.07
100
AcDbLine
 10
98296.05887657912
 20
71312.8588270031
 30
0.0
 11
98296.05887657915
 21
71236.03644907896
 31
0.0
  0
LINE
  5
82B7E
330
1F
100
AcDbEntity
  8
25
100
AcDbLine
 10
97976.05887657915
 20
71312.8588270031
 30
0.0
 11
97976.05887657917
 21
71236.03644907896
 31
0.0
  0
CIRCLE
  5
82B85
330
1F
100
AcDbEntity
  8
25
100
AcDbCircle
 10
98136.05887657912
 20
71510.57309997118
 30
0.0
 40
12.0
  0
ARC
  5
82B86
330
1F
100
AcDbEntity
  8
25
100
AcDbCircle
 10
98271.94964155726
 20
71598.79837975916
 30
0.0
 40
12.0
100
AcDbArc
 50
55.33157326397766
 51
124.6684267360223
  0
ARC
  5
82B87
330
1F
100
AcDbEntity
  8
25
100
AcDbCircle
 10
98000.16811160105
 20
71598.79837975916
 30
0.0
 40
12.0
100
AcDbArc
 50
55.33157326397766
 51
124.6684267360223
  0
LWPOLYLINE
  5
82B88
330
1F
100
AcDbEntity
  8
25
100
AcDbPolyline
 90
        2
 70
     0
 43
0.0
 10
98076.05887657915
 20
71483.95244128538
 10
98002.29063814766
 20
71531.84549329767
  0
LWPOLYLINE
  5
82B89
330
1F
100
AcDbEntity
  8
25
100
AcDbPolyline
 90
       20
 70
     1
 43
0.0
 10
98109.45887657915
 20
71633.67696288234
 10
98109.45887657915
 20
71618.32696288233
 42
0.4142135623729114
 10
98114.45887657914
 20
71613.32696288233
 10
98157.65887657915
 20
71613.32696288236
 42
0.4142135623731372
 10
98162.65887657916
 20
71618.32696288236
 10
98162.65887657909
 20
71724.02696288235
 42
0.4142135623731285
 10
98157.6588765791
 20
71729.02696288234
 10
98114.45887657912
 20
71729.02696288232
 42
0.4142135623729163
 10
98109.45887657911
 20
71724.02696288233
 10
98109.45887657911
 20
71708.67696288234
 10
98104.80887657911
 20
71708.67696288232
 10
98104.80887657909
 20
71724.02696288233
 42
-0.414213562373001
 10
98114.45887657912
 20
71733.67696288234
 10
98157.6588765791
 20
71733.67696288235
 42
-0.4142135623731316
 10
98167.30887657909
 20
71724.02696288235
 10
98167.30887657914
 20
71618.32696288236
 42
-0.4142135623732124
 10
98157.65887657915
 20
71608.67696288233
 10
98114.45887657914
 20
71608.67696288233
 42
-0.4142135623729296
 10
98104.80887657915
 20
71618.32696288233
 10
98104.80887657915
 20
71633.67696288234
  0
CIRCLE
  5
82B92
330
1F
100
AcDbEntity
  8
25
100
AcDbCircle
 10
100669.058876579
 20
71510.56400831061
 30
0.0
 40
12.0
  0
ARC
  5
82B93
330
1F
100
AcDbEntity
  8
25
100
AcDbCircle
 10
100804.9496415572
 20
71598.78928809859
 30
0.0
 40
12.0
100
AcDbArc
 50
55.4079610257844
 51
124.5920389742156
  0
ARC
  5
82B94
330
1F
100
AcDbEntity
  8
25
100
AcDbCircle
 10
100533.168111601
 20
71598.7892880986
 30
0.0
 40
12.0
100
AcDbArc
 50
55.40796102563056
 51
124.5920389743694
  0
LWPOLYLINE
  5
82B95
330
1F
100
AcDbEntity
  8
25
100
AcDbPolyline
 90
        4
 70
     0
 43
0.0
 10
100724.0588765791
 20
71480.69716583148
 10
100699.0084802688
 20
71464.43352772755
 42
-0.29614813968161
 10
100639.1092728893
 20
71464.43352772755
 10
100535.2766345342
 20
71531.84549329767
  0
CIRCLE
  5
82B9C
330
1F
100
AcDbEntity
  8
25
100
AcDbCircle
 10
99403.05887657906
 20
71510.57309997115
 30
0.0
 40
12.0
  0
ARC
  5
82B9D
330
1F
100
AcDbEntity
  8
25
100
AcDbCircle
 10
99538.94964155718
 20
71598.79837975913
 30
0.0
 40
12.0
100
AcDbArc
 50
55.33157326413147
 51
124.6684267358685
  0
ARC
  5
82B9E
330
1F
100
AcDbEntity
  8
25
100
AcDbCircle
 10
99267.16811160099
 20
71598.79837975913
 30
0.0
 40
12.0
100
AcDbArc
 50
55.33157326413147
 51
124.6684267358685
  0
LWPOLYLINE
  5
82B9F
330
1F
100
AcDbEntity
  8
25
100
AcDbPolyline
 90
        4
 70
     0
 43
0.0
 10
99458.05887657911
 20
71480.70625749203
 10
99433.00848026884
 20
71464.44261938808
 42
-0.29614813968161
 10
99373.10927288928
 20
71464.44261938808
 10
99269.29063814757
 20
71531.84549329767
  0
LWPOLYLINE
  5
82BA0
330
1F
100
AcDbEntity
  8
25
100
AcDbPolyline
 90
       20
 70
     1
 43
0.0
 10
100642.4588765791
 20
71633.66787122179
 10
100642.4588765791
 20
71618.31787122181
 42
0.4142135623729114
 10
100647.4588765791
 20
71613.31787122181
 10
100690.6588765791
 20
71613.31787122182
 42
0.4142135623731372
 10
100695.6588765791
 20
71618.31787122182
 10
100695.658876579
 20
71724.01787122182
 42
0.4142135623731285
 10
100690.658876579
 20
71729.01787122182
 10
100647.4588765791
 20
71729.01787122179
 42
0.4142135623729163
 10
100642.4588765791
 20
71724.01787122179
 10
100642.4588765791
 20
71708.6678712218
 10
100637.808876579
 20
71708.66787122178
 10
100637.808876579
 20
71724.01787122179
 42
-0.414213562373001
 10
100647.4588765791
 20
71733.6678712218
 10
100690.658876579
 20
71733.66787122181
 42
-0.4142135623731316
 10
100700.3088765791
 20
71724.01787122182
 10
100700.3088765791
 20
71618.31787122182
 42
-0.4142135623732124
 10
100690.6588765791
 20
71608.66787122182
 10
100647.4588765791
 20
71608.6678712218
 42
-0.4142135623729296
 10
100637.8088765791
 20
71618.31787122179
 10
100637.8088765791
 20
71633.66787122179
  0
LWPOLYLINE
  5
82BA1
330
1F
100
AcDbEntity
  8
25
100
AcDbPolyline
 90
       20
 70
     1
 43
0.0
 10
99376.45887657907
 20
71633.67696288231
 10
99376.45887657907
 20
71618.32696288231
 42
0.4142135623729114
 10
99381.45887657908
 20
71613.3269628823
 10
99424.6588765791
 20
71613.32696288233
 42
0.4142135623731372
 10
99429.6588765791
 20
71618.32696288233
 10
99429.65887657903
 20
71724.02696288233
 42
0.4142135623731285
 10
99424.65887657904
 20
71729.02696288232
 10
99381.45887657908
 20
71729.0269628823
 42
0.4142135623729163
 10
99376.45887657907
 20
71724.0269628823
 10
99376.45887657907
 20
71708.6769628823
 10
99371.80887657905
 20
71708.6769628823
 10
99371.80887657905
 20
71724.0269628823
 42
-0.414213562373001
 10
99381.45887657908
 20
71733.67696288231
 10
99424.65887657904
 20
71733.67696288233
 42
-0.4142135623731316
 10
99434.30887657905
 20
71724.02696288233
 10
99434.30887657912
 20
71618.32696288233
 42
-0.4142135623732124
 10
99424.6588765791
 20
71608.67696288231
 10
99381.45887657908
 20
71608.67696288231
 42
-0.4142135623729296
 10
99371.80887657913
 20
71618.32696288231
 10
99371.80887657913
 20
71633.67696288231
  0
DIMENSION
  5
82BA2
330
1F
100
AcDbEntity
  8
KOTIERUNG
100
AcDbDimension
280
     0
  2
*D175
 10
99403.05887657912
 20
71907.66250375848
 30
0.0
 11
100036.0588765791
 21
72014.14272203951
 31
0.0
 70
    32
 71
     5
 42
1265.999999999971
 73
     0
 74
     0
 75
     0
  3
ISO-25
100
AcDbAlignedDimension
 13
100669.0588765791
 23
71775.56400831062
 33
0.0
 14
99403.05887657912
 24
71775.57309997117
 34
0.0
 50
180.0
100
AcDbRotatedDimension
1001
ACAD
1000
DSTYLE
1002
{
1070
   340
1005
49
1070
    40
1040
56.0
1070
    47
1040
15.0
1070
    48
1040
15.0
1070
    71
1070
     1
1070
   146
1040
0.75
1070
   271
1070
     0
1070
   283
1070
     1
1002
}
  0
DIMENSION
  5
82BA3
330
1F
100
AcDbEntity
  8
KOTIERUNG
100
AcDbDimension
280
     0
  2
*D176
 10
98136.05887657908
 20
71907.66250375844
 30
0.0
 11
98769.55887657908
 21
72014.14272203948
 31
0.0
 70
    32
 71
     5
 42
1267.0
 73
     0
 74
     0
 75
     0
  3
ISO-25
100
AcDbAlignedDimension
 13
99403.0588765791
 23
71775.57309997117
 33
0.0
 14
98136.05887657908
 24
71775.57309997117
 34
0.0
 50
180.0
100
AcDbRotatedDimension
1001
ACAD
1000
DSTYLE
1002
{
1070
   340
1005
49
1070
    40
1040
56.0
1070
    47
1040
15.0
1070
    48
1040
15.0
1070
    71
1070
     1
1070
   146
1040
0.75
1070
   271
1070
     0
1070
   283
1070
     1
1002
}
  0
CIRCLE
  5
82BAE
330
1F
100
AcDbEntity
  8
25
100
AcDbCircle
 10
96869.05887657905
 20
71510.56400831061
 30
0.0
 40
12.0
  0
ARC
  5
82BAF
330
1F
100
AcDbEntity
  8
25
100
AcDbCircle
 10
97004.94964155719
 20
71598.78928809859
 30
0.0
 40
12.0
100
AcDbArc
 50
55.4079610257844
 51
124.5920389742156
  0
ARC
  5
82BB0
330
1F
100
AcDbEntity
  8
25
100
AcDbCircle
 10
96733.16811160098
 20
71598.7892880986
 30
0.0
 40
12.0
100
AcDbArc
 50
55.40796102563056
 51
124.5920389743694
  0
LWPOLYLINE
  5
82BB1
330
1F
100
AcDbEntity
  8
25
100
AcDbPolyline
 90
        4
 70
     0
 43
0.0
 10
96924.05887657908
 20
71480.69716583148
 10
96899.00848026884
 20
71464.43352772755
 42
-0.29614813968161
 10
96839.10927288929
 20
71464.43352772755
 10
96735.27663453423
 20
71531.84549329767
  0
LWPOLYLINE
  5
82BBC
330
1F
100
AcDbEntity
  8
25
100
AcDbPolyline
 90
       20
 70
     1
 43
0.0
 10
96842.45887657908
 20
71633.66787122179
 10
96842.45887657908
 20
71618.31787122181
 42
0.4142135623729114
 10
96847.45887657909
 20
71613.31787122181
 10
96890.65887657909
 20
71613.31787122182
 42
0.4142135623731372
 10
96895.65887657909
 20
71618.31787122182
 10
96895.65887657904
 20
71724.01787122182
 42
0.4142135623731285
 10
96890.65887657903
 20
71729.01787122182
 10
96847.45887657909
 20
71729.01787122179
 42
0.4142135623729163
 10
96842.45887657908
 20
71724.01787122179
 10
96842.45887657908
 20
71708.6678712218
 10
96837.80887657906
 20
71708.66787122178
 10
96837.80887657906
 20
71724.01787122179
 42
-0.414213562373001
 10
96847.45887657909
 20
71733.6678712218
 10
96890.65887657903
 20
71733.66787122181
 42
-0.4142135623731316
 10
96900.30887657906
 20
71724.01787122182
 10
96900.30887657911
 20
71618.31787122182
 42
-0.4142135623732124
 10
96890.65887657909
 20
71608.66787122182
 10
96847.45887657909
 20
71608.6678712218
 42
-0.4142135623729296
 10
96837.80887657912
 20
71618.31787122179
 10
96837.80887657912
 20
71633.66787122179
  0
DIMENSION
  5
82BC0
330
1F
100
AcDbEntity
  8
KOTIERUNG
100
AcDbDimension
280
     0
  2
*D179
 10
98136.05887657908
 20
72157.01145563644
 30
0.0
 11
100036.0588765791
 21
72263.49167391748
 31
0.0
 70
    32
 71
     5
 42
3800.000000000058
 73
     0
 74
     0
 75
     0
  3
ISO-25
100
AcDbAlignedDimension
 13
101936.0588765791
 23
71775.57309997118
 33
0.0
 14
98136.05887657908
 24
71775.57309997117
 34
0.0
 50
180.0
100
AcDbRotatedDimension
1001
ACAD
1000
DSTYLE
1002
{
1070
   340
1005
49
1070
    40
1040
56.0
1070
    47
1040
9.0
1070
    48
1040
9.0
1070
    71
1070
     1
1070
   146
1040
0.75
1070
   271
1070
     0
1070
   283
1070
     1
1002
}
  0
DIMENSION
  5
82BC3
330
1F
100
AcDbEntity
  8
KOTIERUNG
100
AcDbDimension
280
     0
  2
*D180
 10
100669.0588765791
 20
71907.66250375848
 30
0.0
 11
101302.5588765791
 21
72014.14272203951
 31
0.0
 70
    32
 71
     5
 42
1267.0
 73
     0
 74
     0
 75
     0
  3
ISO-25
100
AcDbAlignedDimension
 13
101936.0588765791
 23
71775.57309997117
 33
0.0
 14
100669.0588765791
 24
71775.56400831064
 34
0.0
 50
180.0
100
AcDbRotatedDimension
1001
ACAD
1000
DSTYLE
1002
{
1070
   340
1005
49
1070
    40
1040
56.0
1070
    47
1040
15.0
1070
    48
1040
15.0
1070
    71
1070
     1
1070
   146
1040
0.75
1070
   271
1070
     0
1070
   283
1070
     1
1002
}
  0
LINE
  5
82C59
330
1F
100
AcDbEntity
  8
25
100
AcDbLine
 10
101996.0588765791
 20
71531.84549329766
 30
0.0
 11
101996.0588765791
 21
71312.85882700309
 31
0.0
  0
LINE
  5
82C5A
330
1F
100
AcDbEntity
  8
25
100
AcDbLine
 10
101991.0588765791
 20
71531.84549329766
 30
0.0
 11
101991.0588765791
 21
71312.85882700309
 31
0.0
  0
LINE
  5
82C6B
330
1F
100
AcDbEntity
  8
25
100
AcDbLine
 10
101876.0588765791
 20
71531.84549329766
 30
0.0
 11
101876.0588765791
 21
71314.03574839269
 31
0.0
  0
LINE
  5
82C6C
330
1F
100
AcDbEntity
  8
25
100
AcDbLine
 10
101881.0588765791
 20
71531.84549329766
 30
0.0
 11
101881.0588765791
 21
71314.03574839269
 31
0.0
  0
ARC
  5
82C6D
330
1F
100
AcDbEntity
  8
25
100
AcDbCircle
 10
101886.0588765791
 20
71314.03574839269
 30
0.0
 40
5.0
100
AcDbArc
 50
180.0
 51
193.6142757170348
  0
ARC
  5
82C6E
330
1F
100
AcDbEntity
  8
25
100
AcDbCircle
 10
101886.0588765791
 20
71314.03574839269
 30
0.0
 40
10.0
100
AcDbArc
 50
180.0
 51
186.7589280015529
  0
LINE
  5
82C7F
330
1F
100
AcDbEntity
  8
25
100
AcDbLine
 10
100729.0588765791
 20
71531.84549329766
 30
0.0
 11
100729.0588765791
 21
71314.02665673217
 31
0.0
  0
LINE
  5
82C80
330
1F
100
AcDbEntity
  8
25
100
AcDbLine
 10
100724.0588765791
 20
71531.84549329766
 30
0.0
 11
100724.0588765791
 21
71314.02665673217
 31
0.0
  0
ARC
  5
82C81
330
1F
100
AcDbEntity
  8
25
100
AcDbCircle
 10
100719.0588765791
 20
71314.02665673217
 30
0.0
 40
5.0
100
AcDbArc
 50
346.492894741061
 51
0.000000000000007
  0
ARC
  5
82C82
330
1F
100
AcDbEntity
  8
25
100
AcDbCircle
 10
100719.0588765791
 20
71314.02665673217
 30
0.0
 40
10.0
100
AcDbArc
 50
353.2935250998855
 51
0.000000000000007
  0
LINE
  5
82C91
330
1F
100
AcDbEntity
  8
25
100
AcDbLine
 10
99463.05887657912
 20
71531.84549329766
 30
0.0
 11
99463.05887657912
 21
71314.03574839266
 31
0.0
  0
LINE
  5
82C92
330
1F
100
AcDbEntity
  8
25
100
AcDbLine
 10
99458.05887657911
 20
71531.84549329766
 30
0.0
 11
99458.05887657911
 21
71314.03574839266
 31
0.0
  0
ARC
  5
82C93
330
1F
100
AcDbEntity
  8
25
100
AcDbCircle
 10
99453.05887657912
 20
71314.03574839266
 30
0.0
 40
5.0
100
AcDbArc
 50
346.3857242833285
 51
0.000000000000007
  0
ARC
  5
82C94
330
1F
100
AcDbEntity
  8
25
100
AcDbCircle
 10
99453.05887657912
 20
71314.03574839266
 30
0.0
 40
10.0
100
AcDbArc
 50
353.2410719986127
 51
0.000000000000007
  0
LINE
  5
82CA9
330
1F
100
AcDbEntity
  8
25
100
AcDbLine
 10
98196.05887657914
 20
71531.84549329766
 30
0.0
 11
98196.05887657914
 21
71312.85882700309
 31
0.0
  0
LINE
  5
82CAA
330
1F
100
AcDbEntity
  8
25
100
AcDbLine
 10
98191.05887657913
 20
71531.84549329766
 30
0.0
 11
98191.05887657913
 21
71312.85882700309
 31
0.0
  0
LINE
  5
82CBB
330
1F
100
AcDbEntity
  8
25
100
AcDbLine
 10
98076.05887657915
 20
71531.84549329766
 30
0.0
 11
98076.05887657915
 21
71314.03574839269
 31
0.0
  0
LINE
  5
82CBC
330
1F
100
AcDbEntity
  8
25
100
AcDbLine
 10
98081.05887657914
 20
71531.84549329766
 30
0.0
 11
98081.05887657914
 21
71314.03574839269
 31
0.0
  0
ARC
  5
82CBD
330
1F
100
AcDbEntity
  8
25
100
AcDbCircle
 10
98086.05887657915
 20
71314.03574839269
 30
0.0
 40
5.0
100
AcDbArc
 50
180.0
 51
193.6142757170348
  0
ARC
  5
82CBE
330
1F
100
AcDbEntity
  8
25
100
AcDbCircle
 10
98086.05887657915
 20
71314.03574839269
 30
0.0
 40
10.0
100
AcDbArc
 50
180.0
 51
186.7589280015529
  0
LINE
  5
82CCF
330
1F
100
AcDbEntity
  8
25
100
AcDbLine
 10
96929.05887657909
 20
71531.84549329766
 30
0.0
 11
96929.05887657909
 21
71314.02665673217
 31
0.0
  0
LINE
  5
82CD0
330
1F
100
AcDbEntity
  8
25
100
AcDbLine
 10
96924.05887657908
 20
71531.84549329766
 30
0.0
 11
96924.05887657908
 21
71314.02665673217
 31
0.0
  0
ARC
  5
82CD1
330
1F
100
AcDbEntity
  8
25
100
AcDbCircle
 10
96919.0588765791
 20
71314.02665673217
 30
0.0
 40
5.0
100
AcDbArc
 50
346.492894741061
 51
0.000000000000007
  0
ARC
  5
82CD2
330
1F
100
AcDbEntity
  8
25
100
AcDbCircle
 10
96919.0588765791
 20
71314.02665673217
 30
0.0
 40
10.0
100
AcDbArc
 50
353.2935250998855
 51
0.000000000000007
  0
LINE
  5
82CF6
330
1F
100
AcDbEntity
  8
25
100
AcDbLine
 10
103263.0588765791
 20
71531.84549329766
 30
0.0
 11
103263.0588765791
 21
71314.03574839269
 31
0.0
  0
LINE
  5
82CF7
330
1F
100
AcDbEntity
  8
25
100
AcDbLine
 10
103258.0588765791
 20
71531.84549329766
 30
0.0
 11
103258.0588765791
 21
71314.03574839269
 31
0.0
  0
ARC
  5
82CF8
330
1F
100
AcDbEntity
  8
25
100
AcDbCircle
 10
103253.0588765791
 20
71314.03574839269
 30
0.0
 40
5.0
100
AcDbArc
 50
346.3857242829651
 51
0.000000000000007
  0
ARC
  5
82CF9
330
1F
100
AcDbEntity
  8
25
100
AcDbCircle
 10
103253.0588765791
 20
71314.03574839269
 30
0.0
 40
10.0
100
AcDbArc
 50
353.2410719984471
 51
0.000000000000007
  0
LINE
  5
82F19
330
1F
100
AcDbEntity
  8
25
100
AcDbLine
 10
100066.7022246801
 20
75268.16293585723
 30
0.0
 11
100066.325159388
 21
75283.24554754124
 31
0.0
  0
LWPOLYLINE
  5
82FC6
330
1F
100
AcDbEntity
  8
25
100
AcDbPolyline
 90
        4
 70
     0
 43
0.0
 10
98191.05887657915
 20
71480.70625749204
 10
98166.0084802689
 20
71464.4426193881
 42
-0.29614813968161
 10
98106.10927288934
 20
71464.4426193881
 10
98081.05887657914
 20
71480.70625749201
  0
LWPOLYLINE
  5
82FC7
330
1F
100
AcDbEntity
  8
25
100
AcDbPolyline
 90
        4
 70
     0
 43
0.0
 10
101991.0588765791
 20
71480.70625749204
 10
101966.0084802689
 20
71464.4426193881
 42
-0.29614813968161
 10
101906.1092728893
 20
71464.4426193881
 10
101881.0588765791
 20
71480.70625749201
  0
LINE
  5
857DD
330
1F
100
AcDbEntity
  8
25
100
AcDbLine
 10
96391.11155479774
 20
71608.6678712218
 30
0.0
 11
103681.0061983604
 21
71608.66787122182
 31
0.0
  0
LINE
  5
857DE
330
1F
100
AcDbEntity
  8
25
100
AcDbLine
 10
96380.09250572908
 20
71531.84549329766
 30
0.0
 11
103692.0252474291
 21
71531.84549329769
 31
0.0
  0
LINE
  5
857DF
330
1F
100
AcDbEntity
  8
18
  6
STRICHLINIE
 48
0.07
100
AcDbLine
 10
102096.0588765791
 20
71608.66787122182
 30
0.0
 11
102096.0588765791
 21
71531.84549329767
 31
0.0
  0
LINE
  5
857E0
330
1F
100
AcDbEntity
  8
25
100
AcDbLine
 10
101776.0588765791
 20
71608.66787122182
 30
0.0
 11
101776.0588765792
 21
71531.84549329767
 31
0.0
  0
LINE
  5
857E1
330
1F
100
AcDbEntity
  8
18
  6
STRICHLINIE
 48
0.07
100
AcDbLine
 10
98296.05887657912
 20
71608.66787122182
 30
0.0
 11
98296.05887657915
 21
71531.84549329767
 31
0.0
  0
LINE
  5
857E2
330
1F
100
AcDbEntity
  8
25
100
AcDbLine
 10
97976.05887657915
 20
71608.66787122182
 30
0.0
 11
97976.05887657917
 21
71531.84549329767
 31
0.0
  0
LWPOLYLINE
  5
857E3
330
1F
100
AcDbEntity
  8
25
100
AcDbPolyline
 90
        2
 70
     0
 43
0.0
 10
97002.84111862396
 20
71531.84549329767
 10
96929.05887657909
 20
71483.94334962485
  0
LWPOLYLINE
  5
857E4
330
1F
100
AcDbEntity
  8
25
100
AcDbPolyline
 90
        6
 70
     0
 43
0.0
 10
96669.37659425421
 20
71608.66787122182
 42
-0.278652897596801
 10
96703.2185079112
 20
71678.46920910574
 10
96839.10927288929
 20
71766.6944888937
 42
-0.296148139681571
 10
96899.00848026889
 20
71766.6944888937
 10
97034.89924524697
 20
71678.4692091057
 42
-0.2786528975967441
 10
97068.74115890396
 20
71608.66787122182
  0
LWPOLYLINE
  5
857E5
330
1F
100
AcDbEntity
  8
25
100
AcDbPolyline
 90
        2
 70
     0
 43
0.0
 10
98269.82711501065
 20
71531.84549329767
 10
98196.05887657914
 20
71483.95244128541
  0
LWPOLYLINE
  5
857E6
330
1F
100
AcDbEntity
  8
25
100
AcDbPolyline
 90
        6
 70
     0
 43
0.0
 10
97936.37743433331
 20
71608.66787122182
 42
-0.2786856956802088
 10
97970.21850791127
 20
71678.47830076629
 10
98106.10927288934
 20
71766.70358055425
 42
-0.296148139681571
 10
98166.00848026892
 20
71766.70358055425
 10
98301.89924524702
 20
71678.47830076627
 42
-0.2786856956801274
 10
98335.740318825
 20
71608.66787122182
  0
LWPOLYLINE
  5
857E7
330
1F
100
AcDbEntity
  8
25
100
AcDbPolyline
 90
        2
 70
     0
 43
0.0
 10
99536.82711501063
 20
71531.84549329767
 10
99463.05887657912
 20
71483.95244128539
  0
LWPOLYLINE
  5
857E8
330
1F
100
AcDbEntity
  8
25
100
AcDbPolyline
 90
        6
 70
     0
 43
0.0
 10
99203.37743433325
 20
71608.66787122182
 42
-0.2786856956800987
 10
99237.21850791121
 20
71678.47830076626
 10
99373.10927288928
 20
71766.70358055423
 42
-0.296148139681571
 10
99433.0084802689
 20
71766.70358055423
 10
99568.89924524697
 20
71678.47830076625
 42
-0.2786856956800175
 10
99602.74031882494
 20
71608.66787122182
  0
LWPOLYLINE
  5
857E9
102
{ACAD_REACTORS
330
82BC5
102
}
330
1F
100
AcDbEntity
  8
25
100
AcDbPolyline
 90
        2
 70
     0
 43
0.0
 10
100802.841118624
 20
71531.84549329767
 10
100729.0588765791
 20
71483.94334962485
  0
LWPOLYLINE
  5
857EA
102
{ACAD_REACTORS
330
82BC5
102
}
330
1F
100
AcDbEntity
  8
25
100
AcDbPolyline
 90
        6
 70
     0
 43
0.0
 10
100469.3765942542
 20
71608.66787122182
 42
-0.278652897596801
 10
100503.2185079112
 20
71678.46920910574
 10
100639.1092728893
 20
71766.6944888937
 42
-0.296148139681571
 10
100699.0084802689
 20
71766.6944888937
 10
100834.899245247
 20
71678.4692091057
 42
-0.2786528975967441
 10
100868.741158904
 20
71608.66787122182
  0
LWPOLYLINE
  5
857EB
102
{ACAD_REACTORS
330
82BC2
102
}
330
1F
100
AcDbEntity
  8
25
100
AcDbPolyline
 90
        2
 70
     0
 43
0.0
 10
102069.8271150106
 20
71531.84549329767
 10
101996.0588765791
 20
71483.95244128541
  0
LWPOLYLINE
  5
857EC
102
{ACAD_REACTORS
330
82BC2
102
}
330
1F
100
AcDbEntity
  8
25
100
AcDbPolyline
 90
        6
 70
     0
 43
0.0
 10
101736.3774343333
 20
71608.66787122182
 42
-0.2786856956802088
 10
101770.2185079113
 20
71678.47830076629
 10
101906.1092728893
 20
71766.70358055425
 42
-0.296148139681571
 10
101966.0084802689
 20
71766.70358055425
 10
102101.899245247
 20
71678.47830076627
 42
-0.2786856956801274
 10
102135.740318825
 20
71608.66787122182
  0
LWPOLYLINE
  5
857ED
330
1F
100
AcDbEntity
  8
25
100
AcDbPolyline
 90
        2
 70
     0
 43
0.0
 10
103336.8271150106
 20
71531.84549329767
 10
103263.0588765791
 20
71483.95244128538
  0
LWPOLYLINE
  5
857EE
330
1F
100
AcDbEntity
  8
25
100
AcDbPolyline
 90
        6
 70
     0
 43
0.0
 10
103003.3774343332
 20
71608.66787122182
 42
-0.2786856956800987
 10
103037.2185079112
 20
71678.47830076626
 10
103173.1092728893
 20
71766.70358055423
 42
-0.296148139681571
 10
103233.0084802689
 20
71766.70358055423
 10
103368.899245247
 20
71678.47830076625
 42
-0.2786856956800175
 10
103402.7403188249
 20
71608.66787122182
  0
LINE
  5
8681C
330
1F
100
AcDbEntity
  8
25
100
AcDbLine
 10
96391.11155479774
 20
71312.8588270031
 30
0.0
 11
96370.57991790509
 21
71287.61176795313
 31
0.0
  0
LINE
  5
8681D
330
1F
100
AcDbEntity
  8
25
100
AcDbLine
 10
96370.57991790509
 20
71287.61176795313
 30
0.0
 11
96395.04948766855
 21
71255.98697531779
 31
0.0
  0
LINE
  5
8681E
330
1F
100
AcDbEntity
  8
25
100
AcDbLine
 10
96395.04948766855
 20
71255.98697531779
 30
0.0
 11
96380.09251346495
 21
71236.03644907896
 31
0.0
  0
LINE
  5
8681F
330
1F
100
AcDbEntity
  8
25
100
AcDbLine
 10
96391.11155479774
 20
71608.66787122182
 30
0.0
 11
96370.57991790509
 21
71583.42081217184
 31
0.0
  0
LINE
  5
86820
330
1F
100
AcDbEntity
  8
25
100
AcDbLine
 10
96370.57991790509
 20
71583.42081217184
 30
0.0
 11
96395.04948766855
 21
71551.7960195365
 31
0.0
  0
LINE
  5
86821
330
1F
100
AcDbEntity
  8
25
100
AcDbLine
 10
96395.04948766855
 20
71551.7960195365
 30
0.0
 11
96380.09250572908
 21
71531.84549329767
 31
0.0
  0
LINE
  5
86828
330
1F
100
AcDbEntity
  8
25
100
AcDbLine
 10
103681.0061983604
 20
71312.8588270031
 30
0.0
 11
103701.5378352531
 21
71287.61176795313
 31
0.0
  0
LINE
  5
86829
330
1F
100
AcDbEntity
  8
25
100
AcDbLine
 10
103701.5378352531
 20
71287.61176795313
 30
0.0
 11
103677.0682654896
 21
71255.98697531779
 31
0.0
  0
LINE
  5
8682A
330
1F
100
AcDbEntity
  8
25
100
AcDbLine
 10
103677.0682654896
 20
71255.98697531779
 30
0.0
 11
103692.0252396932
 21
71236.03644907896
 31
0.0
  0
LINE
  5
8682B
330
1F
100
AcDbEntity
  8
25
100
AcDbLine
 10
103681.0061983604
 20
71608.66787122182
 30
0.0
 11
103701.5378352531
 21
71583.42081217184
 31
0.0
  0
LINE
  5
8682C
330
1F
100
AcDbEntity
  8
25
100
AcDbLine
 10
103701.5378352531
 20
71583.42081217184
 30
0.0
 11
103677.0682654896
 21
71551.7960195365
 31
0.0
  0
LINE
  5
8682D
330
1F
100
AcDbEntity
  8
25
100
AcDbLine
 10
103677.0682654896
 20
71551.7960195365
 30
0.0
 11
103692.0252474291
 21
71531.84549329767
 31
0.0
  0
ENDSEC
  0
SECTION
  2
OBJECTS
  0
DICTIONARY
  5
C
330
0
100
AcDbDictionary
281
     1
  3
ACAD_ASSOCPERSSUBENTMANAGER
350
5D0E4
  3
ACAD_BACKGROUND
350
D75A
  3
ACAD_CIP_PREVIOUS_PRODUCT_INFO
350
55800
  3
ACAD_COLOR
350
8DF
  3
ACAD_DETAILVIEWSTYLE
350
557EE
  3
ACAD_FIELDLIST
350
5E323
  3
ACAD_GROUP
350
D
  3
ACAD_IMAGE_DICT
350
5D21C
  3
ACAD_IMAGE_VARS
350
5D21E
  3
ACAD_LAYOUT
350
1A
  3
ACAD_MATERIAL
350
8DE
  3
ACAD_MLEADERSTYLE
350
6FA3
  3
ACAD_MLINESTYLE
350
17
  3
ACAD_PERSUBENTMGR
350
5D0E5
  3
ACAD_PLOTSETTINGS
350
19
  3
ACAD_PLOTSTYLENAME
350
E
  3
ACAD_RENDER_ACTIVE_RAPIDRT_SETTINGS
350
837E5
  3
ACAD_RENDER_RAPIDRT_SETTINGS
350
837DE
  3
ACAD_SCALELIST
350
6F91
  3
ACAD_SECTIONVIEWSTYLE
350
557EC
  3
ACAD_TABLESTYLE
350
8E8
  3
ACAD_VISUALSTYLE
350
6F80
  3
AcadDim
350
AD48
  3
ACDB_RECOMPOSE_DATA
350
868EE
  3
AcDbVariableDictionary
350
C1F
  3
AcDsDecomposeData
350
868F4
  3
ACGREF_MASTER
350
5E2E3
  3
ACGREFACAD_MASTER
350
5E2E6
  3
AcmDictionary
350
55832
  3
ACME_COMMAND_HISTORY
350
5E2DE
  3
ACME_SCOPE_NAME
350
5E2DD
  3
ACMESTATEMGR
350
5E2E1
  3
AcmeSysVarManager
350
5E2DF
  3
AcmSystemVariableManager
350
5E2EB
  3
AEC_PROPERTY_SET_DEFS
350
166A7
  3
AMG
350
55807
  3
AMGSNAPSETTINGS
350
5586C
  3
AMI_MASTER
350
5E2E9
  3
ASE_INDEX_DICTIONARY
350
30430
  3
AUTOCAD_ASSEMBLIES_PROJECT
350
5E2F4
  3
Designer_Assemblies_SysVars
350
5E2EE
  3
GREFAM_MODULE
350
6B733
  3
StructToggleButtonState
350
5E34E
  0
DICTIONARY
  5
7037
330
8
100
AcDbDictionary
280
     1
281
     1
  0
DICTIONARY
  5
8F9
330
2
100
AcDbDictionary
280
     1
281
     1
  3
ACAD_LAYERFILTERS
360
6EB0
  3
ACAD_LAYERSTATES
360
8FA
  3
ACLYDICTIONARY
360
6EAF
  0
DICTIONARY
  5
7012
330
10
100
AcDbDictionary
280
     1
281
     1
  3
ADSK_XREC_LAYER_RECONCILED
360
7013
  0
DICTIONARY
  5
7014
330
42
100
AcDbDictionary
280
     1
281
     1
  3
ADSK_XREC_LAYER_RECONCILED
360
7015
  0
DICTIONARY
  5
7016
330
43
100
AcDbDictionary
280
     1
281
     1
  3
ADSK_XREC_LAYER_RECONCILED
360
7017
  0
DICTIONARY
  5
7018
330
44
100
AcDbDictionary
280
     1
281
     1
  3
ADSK_XREC_LAYER_RECONCILED
360
7019
  0
DICTIONARY
  5
7022
330
165
100
AcDbDictionary
280
     1
281
     1
  3
ADSK_XREC_LAYER_RECONCILED
360
7023
  0
DICTIONARY
  5
7026
330
1FB
100
AcDbDictionary
280
     1
281
     1
  3
ADSK_XREC_LAYER_RECONCILED
360
7027
  0
DICTIONARY
  5
EC7
330
1F
100
AcDbDictionary
280
     1
281
     1
  3
ACAD_SORTENTS
360
EC8
  0
DICTIONARY
  5
82B1F
330
82B1E
100
AcDbDictionary
280
     1
281
     1
  3
ACAD_DIMASSOC
360
82B20
  0
DICTIONARY
  5
82B3A
330
82B39
100
AcDbDictionary
280
     1
281
     1
  3
ACAD_DIMASSOC
360
82B3B
  0
ACDBASSOCPERSSUBENTMANAGER
  5
5D0E4
102
{ACAD_REACTORS
330
C
102
}
330
C
100
AcDbAssocPersSubentManager
 90
        1
 90
        3
 90
        0
 90
        2
 90
       25
 90
        0
 90
        0
 90
        0
290
     0
  0
DICTIONARY
  5
D75A
102
{ACAD_REACTORS
330
C
102
}
330
C
100
AcDbDictionary
281
     1
  0
XRECORD
  5
55800
102
{ACAD_REACTORS
330
C
102
}
330
C
100
AcDbXrecord
280
     1
300
AMECH_PP
300
2017
300
86627AMECH_PP_2017_0F
  0
DICTIONARY
  5
8DF
102
{ACAD_REACTORS
330
C
102
}
330
C
100
AcDbDictionary
281
     1
  0
DICTIONARY
  5
557EE
102
{ACAD_REACTORS
330
C
102
}
330
C
100
AcDbDictionary
281
     1
  3
ASME Y14.35 - 1987(1)
350
6DD4E
  3
DIN 6
350
6B73D
  3
DIN 6(1)
350
5FEE8
  3
Imperial24
350
60060
  3
ISO 128-34_2001(1)
350
6DD55
  3
Metric50
350
557EF
  0
FIELDLIST
  5
5E323
102
{ACAD_REACTORS
330
C
102
}
330
C
100
AcDbIdSet
 90
       23
330
5FEEB
330
5FEEC
330
5FEED
330
5FEF1
330
5FEF2
330
5FEF3
330
6B740
330
6B741
330
6B742
330
6B746
330
6B747
330
6B748
330
6DD44
330
6DD45
330
6DD46
330
6DD47
330
6DD4B
330
6DD4C
330
6DD4D
330
6DD51
330
6DD52
330
6DD53
330
6DD54
100
AcDbFieldList
  0
DICTIONARY
  5
D
102
{ACAD_REACTORS
330
C
102
}
330
C
100
AcDbDictionary
281
     1
  0
DICTIONARY
  5
5D21C
102
{ACAD_REACTORS
330
C
102
}
330
C
100
AcDbDictionary
281
     1
  3
KB2 RH3C Brücke_3D
350
837ED
  3
KB2 RH3C Brücke_explosion_3D
350
837F0
  0
RASTERVARIABLES
  5
5D21E
102
{ACAD_REACTORS
330
C
102
}
330
C
100
AcDbRasterVariables
 90
        0
 70
     1
 71
     1
 72
     1
  0
DICTIONARY
  5
1A
102
{ACAD_REACTORS
330
C
102
}
330
C
100
AcDbDictionary
281
     1
  3
Layout1
350
86840
  3
Model
350
22
  0
DICTIONARY
  5
8DE
102
{ACAD_REACTORS
330
C
102
}
330
C
100
AcDbDictionary
281
     1
  3
ByBlock
350
6F70
  3
ByLayer
350
6F68
  3
Global
350
6F78
  0
DICTIONARY
  5
6FA3
102
{ACAD_REACTORS
330
C
102
}
330
C
100
AcDbDictionary
281
     1
  3
Standard
350
6FA4
  0
DICTIONARY
  5
17
102
{ACAD_REACTORS
330
C
102
}
330
C
100
AcDbDictionary
281
     1
  3
Standard
350
18
  0
ACDBPERSSUBENTMANAGER
  5
5D0E5
102
{ACAD_REACTORS
330
C
102
}
330
C
100
AcDbPersSubentManager
 90
        2
 90
        0
 90
        2
 90
       25
 90
        0
 90
        0
  0
DICTIONARY
  5
19
102
{ACAD_REACTORS
330
C
102
}
330
C
100
AcDbDictionary
281
     1
  0
ACDBDICTIONARYWDFLT
  5
E
102
{ACAD_REACTORS
330
C
102
}
330
C
100
AcDbDictionary
281
     1
  3
Normal
350
F
100
AcDbDictionaryWithDefault
340
F
  0
ACAD_PROXY_OBJECT
  5
837E5
102
{ACAD_REACTORS
330
C
102
}
330
C
100
AcDbProxyObject
 90
      499
 91
      618
 95
  8192031
 70
     0
162
               518
311
4193401A401D001D0019401B0024655C019401B80190019401D0008000D400800148019401B80190019401C800B401140188019401B8019401B80080018401B800
161
               201
310
40AE40E4150140502000000000000021000000000000000840CC
 94
        0
  0
DICTIONARY
  5
837DE
102
{ACAD_REACTORS
330
C
102
}
330
C
100
AcDbDictionary
281
     1
  3
Hoch
350
837E1
  3
Mittagsqualität
350
837E3
  3
Mittel
350
837E0
  3
Morgenqualität
350
837E2
  3
Nachtqualität
350
837E4
  3
Niedrig
350
837DF
  0
DICTIONARY
  5
6F91
102
{ACAD_REACTORS
330
C
102
}
330
C
100
AcDbDictionary
281
     1
  3
A0
350
6F92
  3
A1
350
6F93
  3
A2
350
6F94
  3
A3
350
6F95
  3
A4
350
6F96
  3
A5
350
6F97
  3
A6
350
6F98
  3
A7
350
6F99
  3
A8
350
6F9A
  3
A9
350
6F9B
  3
B0
350
6F9C
  3
B1
350
6F9D
  3
B2
350
6F9E
  3
B3
350
6F9F
  3
B4
350
6FA0
  3
B5
350
6FA1
  3
B6
350
6FA2
  0
DICTIONARY
  5
557EC
102
{ACAD_REACTORS
330
C
102
}
330
C
100
AcDbDictionary
281
     1
  3
ASME Y14.3 - 2003(1)
350
6DD41
  3
DIN ISO 128-40_2002-05
350
6B743
  3
DIN ISO 128-40_2002-05(1)
350
5FEEE
  3
Imperial24
350
6005E
  3
ISO 128-40_2001(E)(1)
350
6DD48
  3
Metric50
350
557ED
  0
DICTIONARY
  5
8E8
102
{ACAD_REACTORS
330
C
102
}
330
C
100
AcDbDictionary
281
     1
  3
Standard
350
8E9
  0
DICTIONARY
  5
6F80
102
{ACAD_REACTORS
330
C
102
}
330
C
100
AcDbDictionary
281
     1
  3
2dWireframe
350
6F86
  3
3D Hidden
350
6F88
  3
3dWireframe
350
6F87
  3
Basic
350
6F85
  3
Brighten
350
6F8C
  3
ColorChange
350
6F90
  3
Conceptual
350
6F89
  3
Dim
350
6F8B
  3
EdgeColorOff
350
4411D
  3
Facepattern
350
6F8F
  3
Flat
350
6F81
  3
FlatWithEdges
350
6F82
  3
Gouraud
350
6F83
  3
GouraudWithEdges
350
6F84
  3
Hidden
350
44115
  3
JitterOff
350
4411B
  3
Linepattern
350
6F8E
  3
OverhangOff
350
4411C
  3
Realistic
350
6F8A
  3
Shaded
350
4411A
  3
Shaded with edges
350
44119
  3
Shades of Gray
350
44116
  3
Sketchy
350
44117
  3
Thicken
350
6F8D
  3
Wireframe
350
44114
  3
X-Ray
350
44118
  0
XRECORD
  5
AD48
102
{ACAD_REACTORS
330
C
102
}
330
C
100
AcDbXrecord
280
     1
 90
   990106
  3

 60
     0
 61
     0
 62
     1
 63
     3
 64
     0
 65
     0
 66
     0
 67
     3
 68
     1
 69
     0
 70
     0
 71
     0
 72
     0
 40
0.0
170
     0
340
0
  0
XRECORD
  5
868EE
102
{ACAD_REACTORS
330
C
102
}
330
C
100
AcDbXrecord
280
     1
 90
        1
330
8E9
  0
DICTIONARY
  5
C1F
102
{ACAD_REACTORS
330
C
102
}
330
C
100
AcDbDictionary
281
     1
  3
CANNOSCALE
350
70A4
  3
CMLEADERSTYLE
350
70A3
  3
CTABLESTYLE
350
C20
  3
CVIEWDETAILSTYLE
350
55984
  3
CVIEWSECTIONSTYLE
350
55985
  3
HPCOLOR
350
7B128
  3
HPTRANSPARENCY
350
7B127
  3
LAYEREVAL
350
7A4A
  3
LAYERNOTIFY
350
7A4B
  3
LIGHTINGUNITS
350
7A49
  3
MSLTSCALE
350
7A48
  0
DICTIONARY
  5
868F4
102
{ACAD_REACTORS
330
C
102
}
330
C
100
AcDbDictionary
281
     1
  3
AcDsRecords
350
868F6
  3
AcDsSchemas
350
868F5
1001
ACAD
1070
     2
  0
ACAD_PROXY_OBJECT
  5
5E2E3
102
{ACAD_REACTORS
330
C
102
}
330
C
100
AcDbProxyObject
 90
      499
 91
      555
 95
  8192031
 70
     0
162
                 0
161
                34
310
0C000042CC
 94
        0
  0
ACAD_PROXY_OBJECT
  5
5E2E6
102
{ACAD_REACTORS
330
C
102
}
330
C
100
AcDbProxyObject
 90
      499
 91
      558
 95
  8192031
 70
     0
162
                 0
161
               114
310
04000041C08000000000000000000C
 94
        0
  0
DICTIONARY
  5
55832
102
{ACAD_REACTORS
330
C
102
}
330
C
100
AcDbDictionary
281
     1
  3
AcmBOMDATA
350
5E2FD
  3
AcmStdDictionary
350
55839
  0
ACAD_PROXY_OBJECT
  5
5E2DE
102
{ACAD_REACTORS
330
C
102
}
330
C
100
AcDbProxyObject
 90
      499
 91
      550
 95
  8192031
 70
     0
162
              6152
311
41934012401480148013C0148010C47005200490050005F0053005400520045005400430048004115401380110013C010C47005200490050005F0053005400520045005400430048004154C010C0104013001140107530054005200450054004300480041934012401480148013C0148010C47005200490050005F00530054
311
005200450054004300480041134013C01580114010C47005200490050005F0053005400520045005400430048004153401500114016001500105450052004100530045004110C013C0140016401184D005300470020002D00200043006F006D006D0061006E0064002000430041004E00430045004C004C00450044002E004
311
1948013C0150010401500114010455004E0044004F004115401380110013C01064D005400450044004900540041134013C01580114010443004F005000590046134014C011C008000B40080010C01BC01B401B4018401B801900080010C01040138010C0114013001300114011000B8010443004F005000590046134014C01
311
1C008000B40080010C01BC01B401B4018401B801900080010C01040138010C0114013001300114011000B80105450052004100530045004110C013C0140016401184D005300470020002D00200043006F006D006D0061006E0064002000430041004E00430045004C004C00450044002E004115401380110013C010455004E
311
0044004F004193401500114011001240150010E4C00410059004F00550054005F0043004F004E00540052004F004C0041168013C013C013401055100530041005600450049934014C011C008000B4008001580104010C00E80080008000800190019401CC01AC01D001BC01C000B8018401C801E00080011801A401B001940
311
158019401C801CC01A401BC01B800E80080010E4C00410059004F00550054005F0043004F004E00540052004F004C004114401540124015001264D005300470020002D0020005600410043003A002000200020006400650073006B0074006F0070002E006100720078002000460069006C006500560065007200730069006F
311
006E003A00200000
161
               406
310
478060180601806018060180601806018050101018060180601805010101404040601404040601806018060140404060140404
 94
        0
  0
ACAD_PROXY_OBJECT
  5
5E2DD
102
{ACAD_REACTORS
330
C
102
}
330
C
100
AcDbProxyObject
 90
      499
 91
      549
 95
  8192031
 70
     0
162
                 0
161
               274
310
140000540080000000000000000010D44600000000000000000000000000AAA406AA8C
360
5E2E0
360
5E2EC
360
5E2EF
360
5E2F0
360
5E2F1
360
5E2F2
360
5E2F3
360
5E2F8
360
5E2F9
360
5E2FA
360
5E2FB
360
5E2FC
360
63DFD
 94
        0
  0
ACAD_PROXY_OBJECT
  5
5E2E1
102
{ACAD_REACTORS
330
C
102
}
330
C
100
AcDbProxyObject
 90
      499
 91
      553
 95
  8192031
 70
     0
162
                 0
161
                50
310
1400004524128C
 94
        0
  0
ACAD_PROXY_OBJECT
  5
5E2DF
102
{ACAD_REACTORS
330
C
102
}
330
C
100
AcDbProxyObject
 90
      499
 91
      551
 95
  8192031
 70
     0
162
                 0
161
                32
310
90140A0000
330
5E2E0
 94
        0
  0
ACAD_PROXY_OBJECT
  5
5E2EB
102
{ACAD_REACTORS
330
C
102
}
330
C
100
AcDbProxyObject
 90
      499
 91
      551
 95
  8192031
 70
     0
162
                 0
161
                40
310
90240E000000
330
5E2EC
330
63DFD
 94
        0
  0
DICTIONARY
  5
166A7
102
{ACAD_REACTORS
330
C
102
}
330
C
100
AcDbDictionary
281
     1
  0
DICTIONARY
  5
55807
102
{ACAD_REACTORS
330
C
102
}
330
C
100
AcDbDictionary
281
     1
  3
AcMgSettings
350
5E2D9
  3
AMGLAYCFG
350
5E315
  0
DICTIONARY
  5
5586C
102
{ACAD_REACTORS
330
C
102
}
330
C
100
AcDbDictionary
281
     1
  0
ACAD_PROXY_OBJECT
  5
5E2E9
102
{ACAD_REACTORS
330
C
102
}
330
C
100
AcDbProxyObject
 90
      499
 91
      561
 95
  8192031
 70
     0
162
                 0
161
                34
310
050000428C
 94
        0
  0
DICTIONARY
  5
30430
102
{ACAD_REACTORS
330
C
102
}
330
C
100
AcDbDictionary
281
     1
  3
ASEBlockHierarchyIndexRecord
350
30431
1001
DCO15
1040
1700464709.909
  0
ACAD_PROXY_OBJECT
  5
5E2F4
102
{ACAD_REACTORS
330
C
102
}
330
C
100
AcDbProxyObject
 90
      499
 91
      565
 95
  8192031
 70
     0
162
                 0
161
                98
310
0E000053C0000000000000000C
330
5E2FA
330
0
330
5E2FB
330
0
330
0
330
0
330
0
330
0
 94
        0
  0
ACAD_PROXY_OBJECT
  5
5E2EE
102
{ACAD_REACTORS
330
C
102
}
330
C
100
AcDbProxyObject
 90
      499
 91
      551
 95
  8192031
 70
     0
162
                 0
161
                64
310
90541A0000000000CC
330
5E2EF
330
5E2F0
330
5E2F1
330
5E2F2
330
5E2F3
 94
        0
  0
ACAD_PROXY_OBJECT
  5
6B733
102
{ACAD_REACTORS
330
C
102
}
330
C
100
AcDbProxyObject
 90
      499
 91
      562
 95
  8192031
 70
     0
162
                 0
161
                 8
310
0575
 94
        0
  0
ACAD_PROXY_OBJECT
  5
5E34E
102
{ACAD_REACTORS
330
C
102
}
330
C
100
AcDbProxyObject
 90
      499
 91
      598
 95
  8192031
 70
     0
162
                 0
161
                 1
310
4C
 94
        0
  0
DICTIONARY
  5
6EB0
102
{ACAD_REACTORS
330
8F9
102
}
330
8F9
100
AcDbDictionary
281
     1
  0
DICTIONARY
  5
8FA
102
{ACAD_REACTORS
330
8F9
102
}
330
8F9
100
AcDbDictionary
281
     1
  0
DICTIONARY
  5
6EAF
102
{ACAD_REACTORS
330
8F9
102
}
330
8F9
100
AcDbDictionary
281
     1
1001
ACAD
1000
<All
  0
XRECORD
  5
7013
102
{ACAD_REACTORS
330
7012
102
}
330
7012
100
AcDbXrecord
280
     1
290
     1
  0
XRECORD
  5
7015
102
{ACAD_REACTORS
330
7014
102
}
330
7014
100
AcDbXrecord
280
     1
290
     1
  0
XRECORD
  5
7017
102
{ACAD_REACTORS
330
7016
102
}
330
7016
100
AcDbXrecord
280
     1
290
     1
  0
XRECORD
  5
7019
102
{ACAD_REACTORS
330
7018
102
}
330
7018
100
AcDbXrecord
280
     1
290
     1
  0
XRECORD
  5
7023
102
{ACAD_REACTORS
330
7022
102
}
330
7022
100
AcDbXrecord
280
     1
290
     1
  0
XRECORD
  5
7027
102
{ACAD_REACTORS
330
7026
102
}
330
7026
100
AcDbXrecord
280
     1
290
     1
  0
SORTENTSTABLE
  5
EC8
102
{ACAD_REACTORS
330
EC7
102
}
330
EC7
100
AcDbSortentsTable
330
1F
331
82AF7
  5
832C1
331
82B67
  5
834E1
331
82B1E
  5
832C8
331
82B00
  5
832C6
331
82AFE
  5
832C5
331
82B39
  5
833BF
331
82B2C
  5
832D0
331
82AEF
  5
832C0
331
82B60
  5
834E0
331
82AEE
  5
832BF
331
82B5F
  5
834DF
331
82AED
  5
832BE
331
82AFA
  5
832C4
331
82AEC
  5
832BD
331
82AF9
  5
832C3
331
82B27
  5
832CF
331
82B5D
  5
83441
331
82AF8
  5
832C2
331
82AEB
  5
832BC
331
82B26
  5
832CE
331
82B5C
  5
83440
331
82B11
  5
832C7
331
82AEA
  5
832BB
331
82B25
  5
832CC
331
82B35
  5
833BC
331
82B24
  5
832CB
331
82B23
  5
832CA
331
82B34
  5
833BB
331
82B33
  5
832D2
331
82B21
  5
832C9
331
857E7
  5
83B0D
331
857E6
  5
83504
331
857E5
  5
83505
331
857E4
  5
83B97
331
857E3
  5
83B98
331
857E2
  5
85812
331
857E1
  5
85811
331
857E0
  5
85810
331
857EE
  5
834ED
331
857ED
  5
834F0
331
857EC
  5
834E5
331
857DF
  5
8580F
331
857EB
  5
834E6
331
857DE
  5
857EE
331
857EA
  5
83B06
331
857DD
  5
857ED
331
857E9
  5
83B07
331
857E8
  5
83B0C
331
82B9F
  5
83B0B
331
82B9E
  5
83B0A
331
82B9D
  5
83B09
331
82B9C
  5
83B08
331
82B7E
  5
834FF
331
82C7F
  5
83C65
331
82B7D
  5
834FD
331
82B89
  5
835E5
331
82B6B
  5
834E8
331
82BAF
  5
83B14
331
82B88
  5
83503
331
82B6A
  5
834E4
331
82BAE
  5
83B13
331
82B69
  5
834E3
331
82B68
  5
834E2
331
82C5A
  5
83BA2
331
82B79
  5
834F6
331
82C59
  5
83BA1
331
82BBC
  5
83B99
331
82B78
  5
834EC
331
82B95
  5
83B05
331
82B77
  5
834EB
331
82B94
  5
83B04
331
82B76
  5
834EA
331
82B87
  5
83502
331
82B93
  5
837F2
331
82B75
  5
834E9
331
82B86
  5
83501
331
82B92
  5
837EF
331
82BA3
  5
83B12
331
82C6E
  5
83C21
331
82B85
  5
83500
331
82BA2
  5
83B11
331
82C6D
  5
83C20
331
82C6C
  5
83C1F
331
82BA1
  5
83B10
331
82CCF
  5
83D23
331
82BA0
  5
83B0E
331
82C6B
  5
83BA8
331
82CF7
  5
83D68
331
82CF6
  5
83D67
331
82BC3
  5
83BA0
331
82BB1
  5
83B16
331
82BB0
  5
83B15
331
82BC0
  5
83B9F
331
82C82
  5
83C6D
331
82C81
  5
83C6C
331
82CAA
  5
83D08
331
82C80
  5
83C66
331
82CA9
  5
83D07
331
82CBE
  5
83D22
331
82CD2
  5
83D41
331
82C94
  5
83D06
331
82CBD
  5
83D21
331
82CD1
  5
83D40
331
82C93
  5
83D05
331
82CBC
  5
83D0A
331
82CD0
  5
83D3F
331
82CF9
  5
83D9E
331
82C92
  5
83D04
331
82CBB
  5
83D09
331
82CF8
  5
83D69
331
82C91
  5
83D03
331
82FC7
  5
834E7
331
82FC6
  5
835E4
331
82F19
  5
832CD
  0
DIMASSOC
  5
82B20
102
{ACAD_REACTORS
330
82B1F
102
}
330
82B1F
100
AcDbDimAssoc
330
82B1E
 90
        2
 70
     0
 71
     0
  1
AcDbOsnapPointRef
 72
     1
331
82B00
 73
     2
 91
        7
 40
1.0
 10
0.0
 20
0.0
 30
2.000000000000000E+50
 75
     0
  0
DIMASSOC
  5
82B3B
102
{ACAD_REACTORS
330
82B3A
102
}
330
82B3A
100
AcDbDimAssoc
330
82B39
 90
        3
 70
     0
 71
     0
  1
AcDbOsnapPointRef
 72
     1
331
82B26
 73
     2
 91
        2
 40
1.0
 10
0.0
 20
0.0
 30
2.000000000000000E+50
 75
     0
  1
AcDbOsnapPointRef
 72
     2
331
82B00
 73
     2
 91
        6
 40
6.265677513385004
 10
0.0
 20
0.0
 30
0.0
 75
     0
  0
ACDBDETAILVIEWSTYLE
  5
6DD4E
102
{ACAD_XDICTIONARY
360
6DD4F
102
}
102
{ACAD_REACTORS
330
557EE
330
6DD62
102
}
330
557EE
100
AcDbModelDocViewStyle
 70
     0
  3

290
     0
100
AcDbDetailViewStyle
 70
     0
 71
     0
 90
        3
 71
     1
340
11
 62
    30
 40
0.24
340
66512
 62
     3
 40
0.24
300

 40
0.0
280
     2
 71
     2
340
16
 90
       25
 62
   256
 71
     3
340
11
 62
    30
 40
0.24
 90
        1
 40
0.0
 90
        1
300
%<\AcVar ViewType \f "%tc1">% %<\AcVar ViewDetailId>%\PMASSSTAB %<\AcVar ViewScale \f "%sn">%
 71
     4
340
16
 90
       25
 62
   256
340
16
 90
       25
 62
   256
280
     0
  0
ACDBDETAILVIEWSTYLE
  5
6B73D
102
{ACAD_XDICTIONARY
360
6B73E
102
}
102
{ACAD_REACTORS
330
5E30B
330
557EE
102
}
330
557EE
100
AcDbModelDocViewStyle
 70
     0
  3

290
     0
100
AcDbDetailViewStyle
 70
     0
 71
     0
 90
        3
 71
     1
340
11
 62
     7
 40
5.0
340
0
 62
     3
 40
5.0
300

 40
0.0
280
     0
 71
     2
340
16
 90
       25
 62
   256
 71
     3
340
11
 62
     7
 40
5.0
 90
        0
 40
0.0
 90
        1
300
%<\AcVar ViewDetailId>% %<\AcVar ViewScale \f "%sn">%
 71
     4
340
16
 90
       25
 62
   256
340
16
 90
       25
 62
   256
280
     0
  0
ACDBDETAILVIEWSTYLE
  5
5FEE8
102
{ACAD_XDICTIONARY
360
5FEE9
102
}
102
{ACAD_REACTORS
330
557EE
330
6B73A
102
}
330
557EE
100
AcDbModelDocViewStyle
 70
     0
  3

290
     0
100
AcDbDetailViewStyle
 70
     0
 71
     0
 90
        3
 71
     1
340
11
 62
     7
 40
5.0
340
0
 62
     3
 40
5.0
300

 40
0.0
280
     0
 71
     2
340
16
 90
       25
 62
   256
 71
     3
340
11
 62
     7
 40
5.0
 90
        0
 40
0.0
 90
        1
300
%<\AcVar ViewDetailId>% %<\AcVar ViewScale \f "%sn">%
 71
     4
340
16
 90
       25
 62
   256
340
16
 90
       25
 62
   256
280
     0
  0
ACDBDETAILVIEWSTYLE
  5
60060
102
{ACAD_XDICTIONARY
360
68B0F
102
}
102
{ACAD_REACTORS
330
557EE
330
6B73B
102
}
330
557EE
100
AcDbModelDocViewStyle
 70
     0
  3
Imperial24
290
     0
100
AcDbDetailViewStyle
 70
     0
 71
     0
 90
        3
 71
     1
340
11
 62
   256
 40
0.24
340
0
 62
   256
 40
0.24
300

 40
0.36
280
     3
 71
     2
340
16
 90
       25
 62
   256
 71
     3
340
11
 62
   256
 40
0.24
 90
        1
 40
0.75
 90
        1
300
%<\AcVar ViewType \f "%tc1">% %<\AcVar ViewDetailId>%\PVARIA %<\AcVar ViewScale \f "%sn">%
 71
     4
340
16
 90
       25
 62
   256
340
16
 90
       25
 62
   256
280
     0
  0
ACDBDETAILVIEWSTYLE
  5
6DD55
102
{ACAD_XDICTIONARY
360
6DD56
102
}
102
{ACAD_REACTORS
330
557EE
330
6DD63
102
}
330
557EE
100
AcDbModelDocViewStyle
 70
     0
  3

290
     0
100
AcDbDetailViewStyle
 70
     0
 71
     0
 90
        3
 71
     1
340
6663B
 62
     2
 40
5.0
340
6650E
 62
   256
 40
5.0
300

 40
0.0
280
     0
 71
     2
340
16
 90
       25
 62
   256
 71
     3
340
6663B
 62
     2
 40
5.0
 90
        0
 40
0.0
 90
        1
300
%<\AcVar ViewDetailId>% (%<\AcVar ViewScale \f "%sn">%)
 71
     4
340
16
 90
       25
 62
   256
340
16
 90
       25
 62
   256
280
     0
  0
ACDBDETAILVIEWSTYLE
  5
557EF
102
{ACAD_XDICTIONARY
360
68B09
102
}
102
{ACAD_REACTORS
330
557EE
330
6B73C
102
}
330
557EE
100
AcDbModelDocViewStyle
 70
     0
  3
Metric50
290
     0
100
AcDbDetailViewStyle
 70
     0
 71
     0
 90
        3
 71
     1
340
11
 62
   256
 40
5.0
340
0
 62
   256
 40
5.0
300

 40
0.0
280
     1
 71
     2
340
16
 90
       25
 62
   256
 71
     3
340
11
 62
   256
 40
5.0
 90
        0
 40
15.0
 90
        1
300
%<\AcVar ViewDetailId>% (%<\AcVar ViewScale \f "%sn">%)
 71
     4
340
16
 90
       25
 62
   256
340
16
 90
       25
 62
   256
280
     0
  0
IMAGEDEF
  5
837ED
102
{ACAD_REACTORS
330
5D21C
330
837EE
102
}
330
5D21C
100
AcDbRasterImageDef
 90
        0
  1
T:\Prospekt\Leitschienen\Bitmaps\S2\KB2 RH3C Brücke_3D.png
 10
779.0
 20
324.0
 11
0.0322747224373871
 21
0.0322747224373871
280
     1
281
     2
  0
IMAGEDEF
  5
837F0
102
{ACAD_REACTORS
330
5D21C
330
837F1
102
}
330
5D21C
100
AcDbRasterImageDef
 90
        0
  1
T:\Prospekt\Leitschienen\Bitmaps\S2\KB2 RH3C Brücke_explosion_3D.png
 10
573.0
 20
783.0
 11
0.1693480101608806
 21
0.1693480101608806
280
     1
281
     2
  0
LAYOUT
  5
86840
102
{ACAD_REACTORS
330
1A
102
}
330
1A
100
AcDbPlotSettings
  1

  2
\\2217psvak001\2217PRVAKF009
  4

  6

 40
0.0
 41
0.0
 42
0.0
 43
0.0
 44
0.0
 45
0.0
 46
0.0
 47
0.0
 48
0.0
 49
0.0
140
0.0
141
0.0
142
1.0
143
1.0
 70
   688
 72
     0
 73
     0
 74
     5
  7

 75
    16
147
1.0
 76
     0
 77
     2
 78
   300
148
0.0
149
0.0
100
AcDbLayout
  1
Layout1
 70
     1
 71
     1
 10
0.0
 20
0.0
 11
12.0
 21
9.0
 12
0.0
 22
0.0
 32
0.0
 14
0.0
 24
0.0
 34
0.0
 15
0.0
 25
0.0
 35
0.0
146
0.0
 13
0.0
 23
0.0
 33
0.0
 16
1.0
 26
0.0
 36
0.0
 17
0.0
 27
1.0
 37
0.0
 76
     0
330
8683F
  0
LAYOUT
  5
22
102
{ACAD_XDICTIONARY
360
45094
102
}
102
{ACAD_REACTORS
330
1A
102
}
330
1A
100
AcDbPlotSettings
  1

  2
Oce ColorWave 650 (temporär).pc3
  4
User1293
  6

 40
0.0
 41
0.0
 42
0.0
 43
0.0
 44
209.9733276367187
 45
1500.039306640625
 46
-372.2000113531795
 47
112.1587155413144
 48
2381.907766122747
 49
548.7494573893946
140
3336.281116465825
141
1824.471332947391
142
1.0
143
1.0
 70
 11940
 72
     1
 73
     0
 74
     4
  7
monochrome.ctb
 75
     0
147
0.9576720517622968
 76
     0
 77
     2
 78
   300
148
-2381.907766122747
149
-548.7494573893946
100
AcDbLayout
  1
Model
 70
     1
 71
     0
 10
0.0
 20
0.0
 11
12.0
 21
9.0
 12
0.0
 22
0.0
 32
0.0
 14
0.0
 24
0.0
 34
0.0
 15
0.0
 25
0.0
 35
0.0
146
0.0
 13
0.0
 23
0.0
 33
0.0
 16
1.0
 26
0.0
 36
0.0
 17
0.0
 27
1.0
 37
0.0
 76
     0
330
1F
331
6F66
1001
ACAD_PSEXT
1000
Oce ColorWave 650 (temporär).pc3
1000
Oce ColorWave 650
1000
VAKF - BG EG12 Reprozentrum / Wiesbauer
1000
OCE ColorWave 650
1070
     0
  0
MATERIAL
  5
6F70
102
{ACAD_XDICTIONARY
360
6F71
102
}
102
{ACAD_REACTORS
330
8DE
102
}
330
8DE
100
AcDbMaterial
  1
ByBlock
 72
     0
 43
0.0008202099737533
 43
0.0
 43
0.0
 43
0.0
 43
0.0
 43
0.0008202099737533
 43
0.0
 43
0.0
 43
0.0
 43
0.0
 43
1.0
 43
0.0
 43
0.0
 43
0.0
 43
0.0
 43
1.0
 77
     0
 47
0.0008202099737533
 47
0.0
 47
0.0
 47
0.0
 47
0.0
 47
0.0008202099737533
 47
0.0
 47
0.0
 47
0.0
 47
0.0
 47
1.0
 47
0.0
 47
0.0
 47
0.0
 47
0.0
 47
1.0
171
     0
 49
0.0008202099737533
 49
0.0
 49
0.0
 49
0.0
 49
0.0
 49
0.0008202099737533
 49
0.0
 49
0.0
 49
0.0
 49
0.0
 49
1.0
 49
0.0
 49
0.0
 49
0.0
 49
0.0
 49
1.0
175
     0
142
0.0008202099737533
142
0.0
142
0.0
142
0.0
142
0.0
142
0.0008202099737533
142
0.0
142
0.0
142
0.0
142
0.0
142
1.0
142
0.0
142
0.0
142
0.0
142
0.0
142
1.0
179
     0
144
0.0008202099737533
144
0.0
144
0.0
144
0.0
144
0.0
144
0.0008202099737533
144
0.0
144
0.0
144
0.0
144
0.0
144
1.0
144
0.0
144
0.0
144
0.0
144
0.0
144
1.0
147
0.0008202099737533
147
0.0
147
0.0
147
0.0
147
0.0
147
0.0008202099737533
147
0.0
147
0.0
147
0.0
147
0.0
147
1.0
147
0.0
147
0.0
147
0.0
147
0.0
147
1.0
  0
MATERIAL
  5
6F68
102
{ACAD_XDICTIONARY
360
6F69
102
}
102
{ACAD_REACTORS
330
8DE
102
}
330
8DE
100
AcDbMaterial
  1
ByLayer
 72
     0
 43
0.0008202099737533
 43
0.0
 43
0.0
 43
0.0
 43
0.0
 43
0.0008202099737533
 43
0.0
 43
0.0
 43
0.0
 43
0.0
 43
1.0
 43
0.0
 43
0.0
 43
0.0
 43
0.0
 43
1.0
 77
     0
 47
0.0008202099737533
 47
0.0
 47
0.0
 47
0.0
 47
0.0
 47
0.0008202099737533
 47
0.0
 47
0.0
 47
0.0
 47
0.0
 47
1.0
 47
0.0
 47
0.0
 47
0.0
 47
0.0
 47
1.0
171
     0
 49
0.0008202099737533
 49
0.0
 49
0.0
 49
0.0
 49
0.0
 49
0.0008202099737533
 49
0.0
 49
0.0
 49
0.0
 49
0.0
 49
1.0
 49
0.0
 49
0.0
 49
0.0
 49
0.0
 49
1.0
175
     0
142
0.0008202099737533
142
0.0
142
0.0
142
0.0
142
0.0
142
0.0008202099737533
142
0.0
142
0.0
142
0.0
142
0.0
142
1.0
142
0.0
142
0.0
142
0.0
142
0.0
142
1.0
179
     0
144
0.0008202099737533
144
0.0
144
0.0
144
0.0
144
0.0
144
0.0008202099737533
144
0.0
144
0.0
144
0.0
144
0.0
144
1.0
144
0.0
144
0.0
144
0.0
144
0.0
144
1.0
147
0.0008202099737533
147
0.0
147
0.0
147
0.0
147
0.0
147
0.0008202099737533
147
0.0
147
0.0
147
0.0
147
0.0
147
1.0
147
0.0
147
0.0
147
0.0
147
0.0
147
1.0
  0
MATERIAL
  5
6F78
102
{ACAD_XDICTIONARY
360
6F79
102
}
102
{ACAD_REACTORS
330
8DE
102
}
330
8DE
100
AcDbMaterial
  1
Global
 72
     0
 43
0.0008202099737533
 43
0.0
 43
0.0
 43
0.0
 43
0.0
 43
0.0008202099737533
 43
0.0
 43
0.0
 43
0.0
 43
0.0
 43
1.0
 43
0.0
 43
0.0
 43
0.0
 43
0.0
 43
1.0
 77
     0
 47
0.0008202099737533
 47
0.0
 47
0.0
 47
0.0
 47
0.0
 47
0.0008202099737533
 47
0.0
 47
0.0
 47
0.0
 47
0.0
 47
1.0
 47
0.0
 47
0.0
 47
0.0
 47
0.0
 47
1.0
171
     0
 49
0.0008202099737533
 49
0.0
 49
0.0
 49
0.0
 49
0.0
 49
0.0008202099737533
 49
0.0
 49
0.0
 49
0.0
 49
0.0
 49
1.0
 49
0.0
 49
0.0
 49
0.0
 49
0.0
 49
1.0
175
     0
142
0.0008202099737533
142
0.0
142
0.0
142
0.0
142
0.0
142
0.0008202099737533
142
0.0
142
0.0
142
0.0
142
0.0
142
1.0
142
0.0
142
0.0
142
0.0
142
0.0
142
1.0
179
     0
144
0.0008202099737533
144
0.0
144
0.0
144
0.0
144
0.0
144
0.0008202099737533
144
0.0
144
0.0
144
0.0
144
0.0
144
1.0
144
0.0
144
0.0
144
0.0
144
0.0
144
1.0
147
0.0008202099737533
147
0.0
147
0.0
147
0.0
147
0.0
147
0.0008202099737533
147
0.0
147
0.0
147
0.0
147
0.0
147
1.0
147
0.0
147
0.0
147
0.0
147
0.0
147
1.0
  0
MLEADERSTYLE
  5
6FA4
102
{ACAD_REACTORS
330
6FA3
102
}
330
6FA3
100
AcDbMLeaderStyle
179
     2
170
     2
171
     1
172
     0
 90
        2
 40
0.0
 41
0.0
173
     1
 91
-1056964608
340
14
 92
       -2
290
     1
 42
2.0
291
     1
 43
0.36
  3
Standard
 44
4.0
300

342
11
174
     1
178
     6
175
     1
176
     0
 93
-1056964608
 45
4.0
292
     0
297
     0
 46
4.0
 94
-1056964608
 47
1.0
 49
1.0
140
1.0
293
     1
141
0.0
294
     1
177
     0
142
1.0
295
     0
296
     0
143
0.125
271
     0
272
     9
273
     9
  0
MLINESTYLE
  5
18
102
{ACAD_REACTORS
330
17
102
}
330
17
100
AcDbMlineStyle
  2
STANDARD
 70
     0
  3

 62
   256
 51
90.0
 52
90.0
 71
     2
 49
0.5
 62
   256
  6
BYLAYER
 49
-0.5
 62
   256
  6
BYLAYER
  0
ACDBPLACEHOLDER
  5
F
102
{ACAD_REACTORS
330
E
102
}
330
E
  0
ACAD_PROXY_OBJECT
  5
837E1
102
{ACAD_REACTORS
330
837DE
102
}
330
837DE
100
AcDbProxyObject
 90
      499
 91
      618
 95
  8192031
 70
     0
162
               502
311
4112001BC018C01A0024695C019401B80190019401D0008000C400C000800148019401B80190019401C800B401140188019401B8019401B80080018401B800
161
               209
310
40AD0240E4290140902000000000000021000000000000000840CC
 94
        0
  0
ACAD_PROXY_OBJECT
  5
837E3
102
{ACAD_REACTORS
330
837DE
102
}
330
837DE
100
AcDbProxyObject
 90
      499
 91
      618
 95
  8192031
 70
     0
162
               614
311
43D3401A401D001D00184019C01CC01C401D4018401B001A401D0039001D00245948019401B80190019401C801D00080019803F001C8008000D800C00080013401A401B801D401D0019401B800
161
               217
310
40AD0440D014053C40902000000000000021000000000000000840CC
 94
        0
  0
ACAD_PROXY_OBJECT
  5
837E0
102
{ACAD_REACTORS
330
837DE
102
}
330
837DE
100
AcDbProxyObject
 90
      499
 91
      618
 95
  8192031
 70
     0
162
               518
311
4193401A401D001D0019401B0024655C019401B80190019401D0008000D400800148019401B80190019401C800B401140188019401B8019401B80080018401B800
161
               209
310
40AD0140E4150140502000000000000021000000000000000840CC
 94
        0
  0
ACAD_PROXY_OBJECT
  5
837E2
102
{ACAD_REACTORS
330
837DE
102
}
330
837DE
100
AcDbProxyObject
 90
      499
 91
      618
 95
  8192031
 70
     0
162
               598
311
4393401BC01C8019C019401B801C401D4018401B001A401D0039001D00245948019401B80190019401C801D00080019803F001C8008000C400C00080013401A401B801D401D0019401B800
161
               217
310
40AD0340D014050A40502000000000000021000000000000000840CC
 94
        0
  0
ACAD_PROXY_OBJECT
  5
837E4
102
{ACAD_REACTORS
330
837DE
102
}
330
837DE
100
AcDbProxyObject
 90
      499
 91
      618
 95
  8192031
 70
     0
162
               582
311
435380184018C01A001D001C401D4018401B001A401D0039001D00245948019401B80190019401C801D00080019803F001C8008000C400C80080014C01D001D401B80190019401B800
161
               241
310
40AD0540D01404D002000040902000000000000021000000000000000840CC
 94
        0
  0
ACAD_PROXY_OBJECT
  5
837DF
102
{ACAD_REACTORS
330
837DE
102
}
330
837DE
100
AcDbProxyObject
 90
      499
 91
      618
 95
  8192031
 70
     0
162
               518
311
41D3801A40194019001C801A4019C024615C019401B80190019401D0008000C400800148019401B80190019401C800B401140188019401B801940080018401B800
161
               193
310
40AE40E40501902000000000000021000000000000000840CC
 94
        0
  0
SCALE
  5
6F92
102
{ACAD_REACTORS
330
6F91
102
}
330
6F91
100
AcDbScale
 70
     0
300
1:1
140
1.0
141
1.0
290
     1
  0
SCALE
  5
6F93
102
{ACAD_REACTORS
330
6F91
102
}
330
6F91
100
AcDbScale
 70
     0
300
1:2
140
1.0
141
2.0
290
     0
  0
SCALE
  5
6F94
102
{ACAD_REACTORS
330
6F91
102
}
330
6F91
100
AcDbScale
 70
     0
300
1:4
140
1.0
141
4.0
290
     0
  0
SCALE
  5
6F95
102
{ACAD_REACTORS
330
6F91
102
}
330
6F91
100
AcDbScale
 70
     0
300
1:5
140
1.0
141
5.0
290
     0
  0
SCALE
  5
6F96
102
{ACAD_REACTORS
330
6F91
102
}
330
6F91
100
AcDbScale
 70
     0
300
1:8
140
1.0
141
8.0
290
     0
  0
SCALE
  5
6F97
102
{ACAD_REACTORS
330
6F91
102
}
330
6F91
100
AcDbScale
 70
     0
300
1:10
140
1.0
141
10.0
290
     0
  0
SCALE
  5
6F98
102
{ACAD_REACTORS
330
6F91
102
}
330
6F91
100
AcDbScale
 70
     0
300
1:16
140
1.0
141
16.0
290
     0
  0
SCALE
  5
6F99
102
{ACAD_REACTORS
330
6F91
102
}
330
6F91
100
AcDbScale
 70
     0
300
1:20
140
1.0
141
20.0
290
     0
  0
SCALE
  5
6F9A
102
{ACAD_REACTORS
330
6F91
102
}
330
6F91
100
AcDbScale
 70
     0
300
1:30
140
1.0
141
30.0
290
     0
  0
SCALE
  5
6F9B
102
{ACAD_REACTORS
330
6F91
102
}
330
6F91
100
AcDbScale
 70
     0
300
1:40
140
1.0
141
40.0
290
     0
  0
SCALE
  5
6F9C
102
{ACAD_REACTORS
330
6F91
102
}
330
6F91
100
AcDbScale
 70
     0
300
1:50
140
1.0
141
50.0
290
     0
  0
SCALE
  5
6F9D
102
{ACAD_REACTORS
330
6F91
102
}
330
6F91
100
AcDbScale
 70
     0
300
1:100
140
1.0
141
100.0
290
     0
  0
SCALE
  5
6F9E
102
{ACAD_REACTORS
330
6F91
102
}
330
6F91
100
AcDbScale
 70
     0
300
2:1
140
2.0
141
1.0
290
     0
  0
SCALE
  5
6F9F
102
{ACAD_REACTORS
330
6F91
102
}
330
6F91
100
AcDbScale
 70
     0
300
4:1
140
4.0
141
1.0
290
     0
  0
SCALE
  5
6FA0
102
{ACAD_REACTORS
330
6F91
102
}
330
6F91
100
AcDbScale
 70
     0
300
8:1
140
8.0
141
1.0
290
     0
  0
SCALE
  5
6FA1
102
{ACAD_REACTORS
330
6F91
102
}
330
6F91
100
AcDbScale
 70
     0
300
10:1
140
10.0
141
1.0
290
     0
  0
SCALE
  5
6FA2
102
{ACAD_REACTORS
330
6F91
102
}
330
6F91
100
AcDbScale
 70
     0
300
100:1
140
100.0
141
1.0
290
     0
  0
ACDBSECTIONVIEWSTYLE
  5
6DD41
102
{ACAD_XDICTIONARY
360
6DD42
102
}
102
{ACAD_REACTORS
330
557EC
330
6DD64
102
}
330
557EC
100
AcDbModelDocViewStyle
 70
     0
  3

290
     0
100
AcDbSectionViewStyle
 70
     0
 71
     0
 90
       78
 71
     1
340
11
 62
    30
 40
0.24
340
0
340
0
 62
     7
 40
0.24
300
I,O,Q,S,X,Z
 40
10.0
 90
        3
 40
0.12
 90
        1
 71
     2
340
55813
 90
       30
 62
     7
340
55813
 90
       30
 62
     7
 40
10.0
 40
0.0
 40
10.0
 71
     3
340
11
 62
    30
 40
0.24
 90
        0
 40
0.18
 90
        1
300
%<\AcVar ViewType \f "%tc1">% %<\AcVar ViewSectionStartId>%-%<\AcVar ViewSectionEndId>%
 71
     4
 62
   256
 62
   257
300
ANSI31
 40
1.0
 90
        0
290
     0
290
     0
 90
        6
 40
0.0
 40
1.570796326794896
 40
0.2617993877991494
 40
1.308996938995747
 40
-0.2617993877991494
 40
1.832595714594046
  0
ACDBSECTIONVIEWSTYLE
  5
6B743
102
{ACAD_XDICTIONARY
360
6B744
102
}
102
{ACAD_REACTORS
330
5E30C
330
557EC
102
}
330
557EC
100
AcDbModelDocViewStyle
 70
     0
  3

290
     0
100
AcDbSectionViewStyle
 70
     0
 71
     0
 90
      102
 71
     1
340
11
 62
     7
 40
5.0
340
5E326
340
5E326
 62
     7
 40
5.0
300
I,O,Q,S,X,Z
 40
10.0
 90
        0
 40
2.5
 90
        0
 71
     2
340
5B621
 90
       50
 62
     1
340
5B621
 90
       50
 62
     7
 40
10.0
 40
5.0
 40
25.0
 71
     3
340
11
 62
     7
 40
5.0
 90
        0
 40
5.25
 90
        1
300
%<\AcVar ViewSectionStartId>%-%<\AcVar ViewSectionEndId>%
 71
     4
 62
   256
 62
   257
300
ANSI31
 40
1.0
 90
        0
290
     0
290
     0
 90
        6
 40
0.0
 40
1.570796326794896
 40
0.2617993877991494
 40
1.308996938995747
 40
-0.2617993877991494
 40
1.832595714594046
  0
ACDBSECTIONVIEWSTYLE
  5
5FEEE
102
{ACAD_XDICTIONARY
360
5FEEF
102
}
102
{ACAD_REACTORS
330
557EC
330
6B737
102
}
330
557EC
100
AcDbModelDocViewStyle
 70
     0
  3

290
     0
100
AcDbSectionViewStyle
 70
     0
 71
     0
 90
      102
 71
     1
340
11
 62
     7
 40
5.0
340
5E326
340
5E326
 62
     7
 40
5.0
300
I,O,Q,S,X,Z
 40
10.0
 90
        0
 40
2.5
 90
        0
 71
     2
340
5B621
 90
       50
 62
     1
340
5B621
 90
       50
 62
     7
 40
10.0
 40
5.0
 40
25.0
 71
     3
340
11
 62
     7
 40
5.0
 90
        0
 40
5.25
 90
        1
300
%<\AcVar ViewSectionStartId>%-%<\AcVar ViewSectionEndId>%
 71
     4
 62
   256
 62
   257
300
ANSI31
 40
1.0
 90
        0
290
     0
290
     0
 90
        6
 40
0.0
 40
1.570796326794896
 40
0.2617993877991494
 40
1.308996938995747
 40
-0.2617993877991494
 40
1.832595714594046
  0
ACDBSECTIONVIEWSTYLE
  5
6005E
102
{ACAD_XDICTIONARY
360
68B0D
102
}
102
{ACAD_REACTORS
330
557EC
330
6B738
102
}
330
557EC
100
AcDbModelDocViewStyle
 70
     0
  3
Imperial24
290
     0
100
AcDbSectionViewStyle
 70
     0
 71
     0
 90
       78
 71
     1
340
11
 62
   256
 40
0.24
340
0
340
0
 62
   256
 40
0.24
300
I, O, Q, S, X, Z
 40
0.48
 90
        3
 40
0.18
 90
        1
 71
     2
340
55813
 90
       25
 62
   256
340
16
 90
       50
 62
   256
 40
0.24
 40
0.0
 40
0.24
 71
     3
340
11
 62
   256
 40
0.24
 90
        1
 40
0.75
 90
        1
300
%<\AcVar ViewType \f "%tc1">% %<\AcVar ViewSectionStartId>%-%<\AcVar ViewSectionEndId>%\PVARIA %<\AcVar ViewScale \f "%sn">%
 71
     4
 62
   256
 62
   257
300
ANSI31
 40
1.0
 90
        0
290
     0
290
     0
 90
        6
 40
0.0
 40
1.570796326794896
 40
0.2617993877991494
 40
1.308996938995747
 40
-0.2617993877991494
 40
1.832595714594046
  0
ACDBSECTIONVIEWSTYLE
  5
6DD48
102
{ACAD_XDICTIONARY
360
6DD49
102
}
102
{ACAD_REACTORS
330
557EC
330
6DD65
102
}
330
557EC
100
AcDbModelDocViewStyle
 70
     0
  3

290
     0
100
AcDbSectionViewStyle
 70
     0
 71
     0
 90
      102
 71
     1
340
6663B
 62
     2
 40
5.0
340
6650E
340
6650E
 62
     7
 40
5.0
300
I,O,Q,S,X,Z
 40
10.0
 90
        0
 40
2.5
 90
        0
 71
     2
340
16
 90
       25
 62
   256
340
16
 90
       50
 62
   256
 40
10.0
 40
5.0
 40
10.0
 71
     3
340
6663B
 62
     2
 40
5.0
 90
        0
 40
5.25
 90
        1
300
%<\AcVar ViewSectionStartId>%-%<\AcVar ViewSectionEndId>%
 71
     4
 62
   256
 62
   257
300
ANSI31
 40
1.0
 90
        0
290
     0
290
     0
 90
        6
 40
0.0
 40
1.570796326794896
 40
0.2617993877991494
 40
1.308996938995747
 40
-0.2617993877991494
 40
1.832595714594046
  0
ACDBSECTIONVIEWSTYLE
  5
557ED
102
{ACAD_XDICTIONARY
360
68B07
102
}
102
{ACAD_REACTORS
330
557EC
330
6B739
102
}
330
557EC
100
AcDbModelDocViewStyle
 70
     0
  3
Metric50
290
     0
100
AcDbSectionViewStyle
 70
     0
 71
     0
 90
      102
 71
     1
340
11
 62
   256
 40
5.0
340
0
340
0
 62
   256
 40
5.0
300
I, O, Q, S, X, Z
 40
10.0
 90
        0
 40
2.5
 90
        0
 71
     2
340
16
 90
       25
 62
   256
340
16
 90
       50
 62
   256
 40
5.0
 40
2.5
 40
5.0
 71
     3
340
11
 62
   256
 40
5.0
 90
        0
 40
15.0
 90
        1
300
%<\AcVar ViewSectionStartId>%-%<\AcVar ViewSectionEndId>% (%<\AcVar ViewScale \f "%sn">%)
 71
     4
 62
   256
 62
   257
300
ANSI31
 40
1.0
 90
        0
290
     0
290
     0
 90
        6
 40
0.0
 40
1.570796326794896
 40
0.2617993877991494
 40
1.308996938995747
 40
-0.2617993877991494
 40
1.832595714594046
  0
TABLESTYLE
  5
8E9
102
{ACAD_XDICTIONARY
360
7032
102
}
102
{ACAD_REACTORS
330
8E8
102
}
330
8E8
100
AcDbTableStyle
280
     0
  3
Standard
 70
     0
 71
     0
 40
1.5
 41
1.5
280
     0
281
     0
  7
Standard
140
4.5
170
     2
 62
     0
 63
     7
283
     0
 90
        4
 91
        0
  1

274
    -2
284
     1
 64
     0
275
    -2
285
     1
 65
     0
276
    -2
286
     1
 66
     0
277
    -2
287
     1
 67
     0
278
    -2
288
     1
 68
     0
279
    -2
289
     1
 69
     0
  7
Standard
140
6.0
170
     5
 62
     0
 63
     7
283
     0
 90
        4
 91
        0
  1

274
    -2
284
     1
 64
     0
275
    -2
285
     1
 65
     0
276
    -2
286
     1
 66
     0
277
    -2
287
     1
 67
     0
278
    -2
288
     1
 68
     0
279
    -2
289
     1
 69
     0
  7
Standard
140
4.5
170
     5
 62
     0
 63
     7
283
     0
 90
        4
 91
        0
  1

274
    -2
284
     1
 64
     0
275
    -2
285
     1
 65
     0
276
    -2
286
     1
 66
     0
277
    -2
287
     1
 67
     0
278
    -2
288
     1
 68
     0
279
    -2
289
     1
 69
     0
  0
VISUALSTYLE
  5
6F86
102
{ACAD_XDICTIONARY
360
86901
102
}
102
{ACAD_REACTORS
330
6F80
102
}
330
6F80
100
AcDbVisualStyle
  2
2dWireframe
 70
     4
177
     2
291
     0
 71
     0
176
     1
 72
     2
176
     1
 73
     0
176
     1
 90
        0
176
     1
 40
0.6
176
     1
 41
30.0
176
     1
 63
     7
421
 16777215
176
     1
 74
     1
176
     1
 91
        4
176
     1
 64
     7
176
     1
 65
   257
176
     1
 75
     1
176
     1
175
     1
176
     1
 42
1.0
176
     1
 92
        0
176
     1
 66
   257
176
     1
 43
1.0
176
     1
 76
     1
176
     1
 77
     6
176
     1
 78
     2
176
     1
 67
     7
176
     1
 79
     5
176
     1
170
     0
176
     1
171
     0
176
     1
290
     0
176
     1
 93
        1
176
     1
 44
0.0
176
     1
173
     0
176
     1
1001
ACAD
1000
AcDbSavedByObjectVersion
1070
     0
  0
VISUALSTYLE
  5
6F88
102
{ACAD_XDICTIONARY
360
86905
102
}
102
{ACAD_REACTORS
330
6F80
102
}
330
6F80
100
AcDbVisualStyle
  2
3D Hidden
 70
     6
177
     2
291
     0
 71
     1
176
     1
 72
     2
176
     1
 73
     2
176
     1
 90
        0
176
     1
 40
0.6
176
     1
 41
30.0
176
     1
 63
     7
421
 16777215
176
     1
 74
     2
176
     1
 91
        2
176
     1
 64
     7
176
     1
 65
   257
176
     1
 75
     2
176
     1
175
     1
176
     1
 42
40.0
176
     1
 92
        0
176
     1
 66
   257
176
     1
 43
1.0
176
     1
 76
     1
176
     1
 77
     6
176
     1
 78
     2
176
     1
 67
     7
176
     1
 79
     3
176
     1
170
     0
176
     1
171
     0
176
     1
290
     0
176
     1
 93
        1
176
     1
 44
0.0
176
     1
173
     0
176
     1
1001
ACAD
1000
AcDbSavedByObjectVersion
1070
     0
  0
VISUALSTYLE
  5
6F87
102
{ACAD_XDICTIONARY
360
86903
102
}
102
{ACAD_REACTORS
330
6F80
102
}
330
6F80
100
AcDbVisualStyle
  2
3dWireframe
 70
     5
177
     2
291
     0
 71
     0
176
     1
 72
     2
176
     1
 73
     0
176
     1
 90
        0
176
     1
 40
0.6
176
     1
 41
30.0
176
     1
 63
     7
421
 16777215
176
     1
 74
     1
176
     1
 91
        4
176
     1
 64
     7
176
     1
 65
   257
176
     1
 75
     1
176
     1
175
     1
176
     1
 42
1.0
176
     1
 92
        0
176
     1
 66
   257
176
     1
 43
1.0
176
     1
 76
     1
176
     1
 77
     6
176
     1
 78
     2
176
     1
 67
     7
176
     1
 79
     5
176
     1
170
     0
176
     1
171
     0
176
     1
290
     0
176
     1
 93
        1
176
     1
 44
0.0
176
     1
173
     0
176
     1
1001
ACAD
1000
AcDbSavedByObjectVersion
1070
     0
  0
VISUALSTYLE
  5
6F85
102
{ACAD_XDICTIONARY
360
868FF
102
}
102
{ACAD_REACTORS
330
6F80
102
}
330
6F80
100
AcDbVisualStyle
  2
Basic
 70
     7
177
     2
291
     1
 71
     1
176
     1
 72
     0
176
     1
 73
     1
176
     1
 90
        0
176
     1
 40
0.6
176
     1
 41
30.0
176
     1
 63
     7
421
 16777215
176
     1
 74
     0
176
     1
 91
        4
176
     1
 64
     7
176
     1
 65
   257
176
     1
 75
     1
176
     1
175
     1
176
     1
 42
1.0
176
     1
 92
        8
176
     1
 66
     7
176
     1
 43
1.0
176
     1
 76
     1
176
     1
 77
     6
176
     1
 78
     2
176
     1
 67
     7
176
     1
 79
     5
176
     1
170
     0
176
     1
171
     0
176
     1
290
     0
176
     1
 93
        1
176
     1
 44
0.0
176
     1
173
     0
176
     1
1001
ACAD
1000
AcDbSavedByObjectVersion
1070
     0
  0
VISUALSTYLE
  5
6F8C
102
{ACAD_XDICTIONARY
360
8690D
102
}
102
{ACAD_REACTORS
330
6F80
102
}
330
6F80
100
AcDbVisualStyle
  2
Brighten
 70
    12
177
     2
291
     1
 71
     2
176
     1
 72
     2
176
     1
 73
     0
176
     1
 90
        0
176
     1
 40
0.6
176
     1
 41
30.0
176
     1
 63
     7
421
 16777215
176
     1
 74
     1
176
     1
 91
        4
176
     1
 64
     7
176
     1
 65
   257
176
     1
 75
     1
176
     1
175
     1
176
     1
 42
1.0
176
     1
 92
        8
176
     1
 66
     7
176
     1
 43
1.0
176
     1
 76
     1
176
     1
 77
     6
176
     1
 78
     2
176
     1
 67
     7
176
     1
 79
     5
176
     1
170
     0
176
     1
171
     0
176
     1
290
     0
176
     1
 93
        1
176
     1
 44
50.0
176
     1
173
     0
176
     1
1001
ACAD
1000
AcDbSavedByObjectVersion
1070
     0
  0
VISUALSTYLE
  5
6F90
102
{ACAD_XDICTIONARY
360
86915
102
}
102
{ACAD_REACTORS
330
6F80
102
}
330
6F80
100
AcDbVisualStyle
  2
ColorChange
 70
    16
177
     2
291
     1
 71
     2
176
     1
 72
     2
176
     1
 73
     3
176
     1
 90
        0
176
     1
 40
0.6
176
     1
 41
30.0
176
     1
 63
     8
421
  8421504
176
     1
 74
     1
176
     1
 91
        4
176
     1
 64
     7
176
     1
 65
   257
176
     1
 75
     1
176
     1
175
     1
176
     1
 42
1.0
176
     1
 92
        8
176
     1
 66
     8
424
  8421504
176
     1
 43
1.0
176
     1
 76
     1
176
     1
 77
     6
176
     1
 78
     2
176
     1
 67
     7
176
     1
 79
     5
176
     1
170
     0
176
     1
171
     0
176
     1
290
     0
176
     1
 93
        1
176
     1
 44
0.0
176
     1
173
     0
176
     1
1001
ACAD
1000
AcDbSavedByObjectVersion
1070
     0
  0
VISUALSTYLE
  5
6F89
102
{ACAD_XDICTIONARY
360
86907
102
}
102
{ACAD_REACTORS
330
6F80
102
}
330
6F80
100
AcDbVisualStyle
  2
Conceptual
 70
     9
177
     2
291
     0
 71
     3
176
     1
 72
     2
176
     1
 73
     0
176
     1
 90
        0
176
     1
 40
0.6
176
     1
 41
30.0
176
     1
 63
     7
421
 16777215
176
     1
 74
     2
176
     1
 91
        2
176
     1
 64
     7
176
     1
 65
   257
176
     1
 75
     1
176
     1
175
     1
176
     1
 42
40.0
176
     1
 92
        8
176
     1
 66
     7
176
     1
 43
1.0
176
     1
 76
     1
176
     1
 77
     6
176
     1
 78
     2
176
     1
 67
     7
176
     1
 79
     3
176
     1
170
     0
176
     1
171
     0
176
     1
290
     0
176
     1
 93
        1
176
     1
 44
0.0
176
     1
173
     0
176
     1
1001
ACAD
1000
AcDbSavedByObjectVersion
1070
     0
  0
VISUALSTYLE
  5
6F8B
102
{ACAD_XDICTIONARY
360
8690B
102
}
102
{ACAD_REACTORS
330
6F80
102
}
330
6F80
100
AcDbVisualStyle
  2
Dim
 70
    11
177
     2
291
     1
 71
     2
176
     1
 72
     2
176
     1
 73
     0
176
     1
 90
        0
176
     1
 40
0.6
176
     1
 41
30.0
176
     1
 63
     7
421
 16777215
176
     1
 74
     1
176
     1
 91
        4
176
     1
 64
     7
176
     1
 65
   257
176
     1
 75
     1
176
     1
175
     1
176
     1
 42
1.0
176
     1
 92
        8
176
     1
 66
     7
176
     1
 43
1.0
176
     1
 76
     1
176
     1
 77
     6
176
     1
 78
     2
176
     1
 67
     7
176
     1
 79
     5
176
     1
170
     0
176
     1
171
     0
176
     1
290
     0
176
     1
 93
        1
176
     1
 44
-50.0
176
     1
173
     0
176
     1
1001
ACAD
1000
AcDbSavedByObjectVersion
1070
     0
  0
VISUALSTYLE
  5
4411D
102
{ACAD_XDICTIONARY
360
86929
102
}
102
{ACAD_REACTORS
330
6F80
102
}
330
6F80
100
AcDbVisualStyle
  2
EdgeColorOff
 70
    22
177
     2
291
     1
 71
     2
176
     0
 72
     2
176
     0
 73
     0
176
     0
 90
        0
176
     0
 40
0.6
176
     0
 41
30.0
176
     0
 63
     7
421
 16777215
176
     0
 74
     1
176
     0
 91
        4
176
     0
 64
     7
176
     0
 65
   257
176
     0
 75
     1
176
     0
175
     1
176
     0
 42
1.0
176
     0
 92
        8
176
     2
 66
     7
176
     0
 43
1.0
176
     0
 76
     1
176
     0
 77
     6
176
     0
 78
     2
176
     0
 67
     7
176
     0
 79
     5
176
     0
170
     0
176
     0
171
     0
176
     0
290
     0
176
     0
 93
        1
176
     0
 44
0.0
176
     0
173
     0
176
     0
1001
ACAD
1000
AcDbSavedByObjectVersion
1070
     0
  0
VISUALSTYLE
  5
6F8F
102
{ACAD_XDICTIONARY
360
86913
102
}
102
{ACAD_REACTORS
330
6F80
102
}
330
6F80
100
AcDbVisualStyle
  2
Facepattern
 70
    15
177
     2
291
     1
 71
     2
176
     1
 72
     2
176
     1
 73
     0
176
     1
 90
        0
176
     1
 40
0.6
176
     1
 41
30.0
176
     1
 63
     7
421
 16777215
176
     1
 74
     1
176
     1
 91
        4
176
     1
 64
     7
176
     1
 65
   257
176
     1
 75
     1
176
     1
175
     1
176
     1
 42
1.0
176
     1
 92
        8
176
     1
 66
     7
176
     1
 43
1.0
176
     1
 76
     1
176
     1
 77
     6
176
     1
 78
     2
176
     1
 67
     7
176
     1
 79
     5
176
     1
170
     0
176
     1
171
     0
176
     1
290
     0
176
     1
 93
        1
176
     1
 44
0.0
176
     1
173
     0
176
     1
1001
ACAD
1000
AcDbSavedByObjectVersion
1070
     0
  0
VISUALSTYLE
  5
6F81
102
{ACAD_XDICTIONARY
360
868F7
102
}
102
{ACAD_REACTORS
330
6F80
102
}
330
6F80
100
AcDbVisualStyle
  2
Flat
 70
     0
177
     2
291
     1
 71
     2
176
     1
 72
     1
176
     1
 73
     1
176
     1
 90
        2
176
     1
 40
0.6
176
     1
 41
30.0
176
     1
 63
     7
421
 16777215
176
     1
 74
     0
176
     1
 91
        4
176
     1
 64
     7
176
     1
 65
   257
176
     1
 75
     1
176
     1
175
     1
176
     1
 42
1.0
176
     1
 92
        8
176
     1
 66
     7
176
     1
 43
1.0
176
     1
 76
     1
176
     1
 77
     6
176
     1
 78
     2
176
     1
 67
     7
176
     1
 79
     5
176
     1
170
     0
176
     1
171
     0
176
     1
290
     0
176
     1
 93
       13
176
     1
 44
0.0
176
     1
173
     0
176
     1
1001
ACAD
1000
AcDbSavedByObjectVersion
1070
     0
  0
VISUALSTYLE
  5
6F82
102
{ACAD_XDICTIONARY
360
868F9
102
}
102
{ACAD_REACTORS
330
6F80
102
}
330
6F80
100
AcDbVisualStyle
  2
FlatWithEdges
 70
     1
177
     2
291
     1
 71
     2
176
     1
 72
     1
176
     1
 73
     1
176
     1
 90
        2
176
     1
 40
0.6
176
     1
 41
30.0
176
     1
 63
     7
421
 16777215
176
     1
 74
     1
176
     1
 91
        4
176
     1
 64
     7
176
     1
 65
   257
176
     1
 75
     1
176
     1
175
     1
176
     1
 42
1.0
176
     1
 92
        0
176
     1
 66
   257
176
     1
 43
1.0
176
     1
 76
     1
176
     1
 77
     6
176
     1
 78
     2
176
     1
 67
     7
176
     1
 79
     5
176
     1
170
     0
176
     1
171
     0
176
     1
290
     0
176
     1
 93
       13
176
     1
 44
0.0
176
     1
173
     0
176
     1
1001
ACAD
1000
AcDbSavedByObjectVersion
1070
     0
  0
VISUALSTYLE
  5
6F83
102
{ACAD_XDICTIONARY
360
868FB
102
}
102
{ACAD_REACTORS
330
6F80
102
}
330
6F80
100
AcDbVisualStyle
  2
Gouraud
 70
     2
177
     2
291
     1
 71
     2
176
     1
 72
     2
176
     1
 73
     1
176
     1
 90
        2
176
     1
 40
0.6
176
     1
 41
30.0
176
     1
 63
     7
421
 16777215
176
     1
 74
     0
176
     1
 91
        4
176
     1
 64
     7
176
     1
 65
   257
176
     1
 75
     1
176
     1
175
     1
176
     1
 42
1.0
176
     1
 92
        0
176
     1
 66
     7
176
     1
 43
1.0
176
     1
 76
     1
176
     1
 77
     6
176
     1
 78
     2
176
     1
 67
     7
176
     1
 79
     5
176
     1
170
     0
176
     1
171
     0
176
     1
290
     0
176
     1
 93
       13
176
     1
 44
0.0
176
     1
173
     0
176
     1
1001
ACAD
1000
AcDbSavedByObjectVersion
1070
     0
  0
VISUALSTYLE
  5
6F84
102
{ACAD_XDICTIONARY
360
868FD
102
}
102
{ACAD_REACTORS
330
6F80
102
}
330
6F80
100
AcDbVisualStyle
  2
GouraudWithEdges
 70
     3
177
     2
291
     1
 71
     2
176
     1
 72
     2
176
     1
 73
     1
176
     1
 90
        2
176
     1
 40
0.6
176
     1
 41
30.0
176
     1
 63
     7
421
 16777215
176
     1
 74
     1
176
     1
 91
        4
176
     1
 64
     7
176
     1
 65
   257
176
     1
 75
     1
176
     1
175
     1
176
     1
 42
1.0
176
     1
 92
        0
176
     1
 66
   257
176
     1
 43
1.0
176
     1
 76
     1
176
     1
 77
     6
176
     1
 78
     2
176
     1
 67
     7
176
     1
 79
     5
176
     1
170
     0
176
     1
171
     0
176
     1
290
     0
176
     1
 93
       13
176
     1
 44
0.0
176
     1
173
     0
176
     1
1001
ACAD
1000
AcDbSavedByObjectVersion
1070
     0
  0
VISUALSTYLE
  5
44115
102
{ACAD_XDICTIONARY
360
86919
102
}
102
{ACAD_REACTORS
330
6F80
102
}
330
6F80
100
AcDbVisualStyle
  2
Hidden
 70
     6
177
     2
291
     0
 71
     1
176
     1
 72
     2
176
     1
 73
     2
176
     1
 90
        0
176
     1
 40
0.6
176
     1
 41
30.0
176
     1
 63
     7
421
 16777215
176
     1
 74
     2
176
     1
 91
        2
176
     1
 64
     7
176
     1
 65
   257
176
     1
 75
     2
176
     1
175
     1
176
     1
 42
40.0
176
     1
 92
        0
176
     1
 66
   257
176
     1
 43
1.0
176
     1
 76
     1
176
     1
 77
     6
176
     1
 78
     2
176
     1
 67
     7
176
     1
 79
     3
176
     1
170
     0
176
     1
171
     0
176
     1
290
     0
176
     1
 93
        1
176
     1
 44
0.0
176
     1
173
     0
176
     1
1001
ACAD
1000
AcDbSavedByObjectVersion
1070
     0
  0
VISUALSTYLE
  5
4411B
102
{ACAD_XDICTIONARY
360
86925
102
}
102
{ACAD_REACTORS
330
6F80
102
}
330
6F80
100
AcDbVisualStyle
  2
JitterOff
 70
    20
177
     2
291
     1
 71
     2
176
     0
 72
     2
176
     0
 73
     0
176
     0
 90
        0
176
     0
 40
0.6
176
     0
 41
30.0
176
     0
 63
     7
421
 16777215
176
     0
 74
     1
176
     0
 91
        4
176
     0
 64
     7
176
     0
 65
   257
176
     0
 75
     1
176
     0
175
     1
176
     0
 42
1.0
176
     0
 92
       10
176
     2
 66
     7
176
     0
 43
1.0
176
     0
 76
     1
176
     0
 77
     6
176
     0
 78
     2
176
     0
 67
     7
176
     0
 79
     5
176
     0
170
     0
176
     0
171
     0
176
     0
290
     0
176
     0
 93
        1
176
     0
 44
0.0
176
     0
173
     0
176
     0
1001
ACAD
1000
AcDbSavedByObjectVersion
1070
     0
  0
VISUALSTYLE
  5
6F8E
102
{ACAD_XDICTIONARY
360
86911
102
}
102
{ACAD_REACTORS
330
6F80
102
}
330
6F80
100
AcDbVisualStyle
  2
Linepattern
 70
    14
177
     2
291
     1
 71
     2
176
     1
 72
     2
176
     1
 73
     0
176
     1
 90
        0
176
     1
 40
0.6
176
     1
 41
30.0
176
     1
 63
     7
421
 16777215
176
     1
 74
     1
176
     1
 91
        4
176
     1
 64
     7
176
     1
 65
   257
176
     1
 75
     7
176
     1
175
     7
176
     1
 42
1.0
176
     1
 92
        8
176
     1
 66
     7
176
     1
 43
1.0
176
     1
 76
     1
176
     1
 77
     6
176
     1
 78
     2
176
     1
 67
     7
176
     1
 79
     5
176
     1
170
     0
176
     1
171
     0
176
     1
290
     0
176
     1
 93
        1
176
     1
 44
0.0
176
     1
173
     0
176
     1
1001
ACAD
1000
AcDbSavedByObjectVersion
1070
     0
  0
VISUALSTYLE
  5
4411C
102
{ACAD_XDICTIONARY
360
86927
102
}
102
{ACAD_REACTORS
330
6F80
102
}
330
6F80
100
AcDbVisualStyle
  2
OverhangOff
 70
    21
177
     2
291
     1
 71
     2
176
     0
 72
     2
176
     0
 73
     0
176
     0
 90
        0
176
     0
 40
0.6
176
     0
 41
30.0
176
     0
 63
     7
421
 16777215
176
     0
 74
     1
176
     0
 91
        4
176
     0
 64
     7
176
     0
 65
   257
176
     0
 75
     1
176
     0
175
     1
176
     0
 42
1.0
176
     0
 92
        9
176
     2
 66
     7
176
     0
 43
1.0
176
     0
 76
     1
176
     0
 77
     6
176
     0
 78
     2
176
     0
 67
     7
176
     0
 79
     5
176
     0
170
     0
176
     0
171
     0
176
     0
290
     0
176
     0
 93
        1
176
     0
 44
0.0
176
     0
173
     0
176
     0
1001
ACAD
1000
AcDbSavedByObjectVersion
1070
     0
  0
VISUALSTYLE
  5
6F8A
102
{ACAD_XDICTIONARY
360
86909
102
}
102
{ACAD_REACTORS
330
6F80
102
}
330
6F80
100
AcDbVisualStyle
  2
Realistic
 70
     8
177
     2
291
     0
 71
     2
176
     1
 72
     2
176
     1
 73
     0
176
     1
 90
        0
176
     1
 40
0.6
176
     1
 41
30.0
176
     1
 63
     7
421
 16777215
176
     1
 74
     1
176
     1
 91
        0
176
     1
 64
     7
176
     1
 65
   257
176
     1
 75
     1
176
     1
175
     1
176
     1
 42
1.0
176
     1
 92
        8
176
     1
 66
     8
424
  7895160
176
     1
 43
1.0
176
     1
 76
     1
176
     1
 77
     6
176
     1
 78
     2
176
     1
 67
     7
176
     1
 79
     5
176
     1
170
     0
176
     1
171
     0
176
     1
290
     0
176
     1
 93
       13
176
     1
 44
0.0
176
     1
173
     0
176
     1
1001
ACAD
1000
AcDbSavedByObjectVersion
1070
     0
  0
VISUALSTYLE
  5
4411A
102
{ACAD_XDICTIONARY
360
86923
102
}
102
{ACAD_REACTORS
330
6F80
102
}
330
6F80
100
AcDbVisualStyle
  2
Shaded
 70
    27
177
     2
291
     0
 71
     2
176
     1
 72
     2
176
     1
 73
     1
176
     1
 90
        2
176
     1
 40
0.6
176
     1
 41
30.0
176
     1
 63
     7
421
 16777215
176
     1
 74
     0
176
     1
 91
        4
176
     1
 64
     7
176
     1
 65
   257
176
     1
 75
     1
176
     1
175
     1
176
     1
 42
1.0
176
     1
 92
        8
176
     1
 66
   257
176
     1
 43
1.0
176
     1
 76
     1
176
     1
 77
     6
176
     1
 78
     2
176
     1
 67
     8
425
  7895160
176
     1
 79
     3
176
     1
170
     0
176
     1
171
     0
176
     1
290
     0
176
     1
 93
        5
176
     1
 44
0.0
176
     1
173
     0
176
     1
1001
ACAD
1000
AcDbSavedByObjectVersion
1070
     0
  0
VISUALSTYLE
  5
44119
102
{ACAD_XDICTIONARY
360
86921
102
}
102
{ACAD_REACTORS
330
6F80
102
}
330
6F80
100
AcDbVisualStyle
  2
Shaded with edges
 70
    26
177
     2
291
     0
 71
     2
176
     1
 72
     2
176
     1
 73
     1
176
     1
 90
        2
176
     1
 40
0.6
176
     1
 41
30.0
176
     1
 63
     7
421
 16777215
176
     1
 74
     1
176
     1
 91
        2
176
     1
 64
     7
176
     1
 65
   257
176
     1
 75
     2
176
     1
175
     1
176
     1
 42
1.0
176
     1
 92
        8
176
     1
 66
   257
176
     1
 43
1.0
176
     1
 76
     1
176
     1
 77
     6
176
     1
 78
     2
176
     1
 67
     7
176
     1
 79
     3
176
     1
170
     0
176
     1
171
     0
176
     1
290
     0
176
     1
 93
        5
176
     1
 44
0.0
176
     1
173
     0
176
     1
1001
ACAD
1000
AcDbSavedByObjectVersion
1070
     0
  0
VISUALSTYLE
  5
44116
102
{ACAD_XDICTIONARY
360
8691B
102
}
102
{ACAD_REACTORS
330
6F80
102
}
330
6F80
100
AcDbVisualStyle
  2
Shades of Gray
 70
    23
177
     2
291
     0
 71
     2
176
     1
 72
     2
176
     1
 73
     3
176
     1
 90
        0
176
     1
 40
0.6
176
     1
 41
30.0
176
     1
 63
     7
421
 16777215
176
     1
 74
     2
176
     1
 91
        2
176
     1
 64
     7
176
     1
 65
     7
176
     1
 75
     1
176
     1
175
     1
176
     1
 42
40.0
176
     1
 92
        8
176
     1
 66
     7
176
     1
 43
1.0
176
     1
 76
     1
176
     1
 77
     6
176
     1
 78
     2
176
     1
 67
     7
176
     1
 79
     3
176
     1
170
     0
176
     1
171
     0
176
     1
290
     0
176
     1
 93
        1
176
     1
 44
0.0
176
     1
173
     0
176
     1
1001
ACAD
1000
AcDbSavedByObjectVersion
1070
     0
  0
VISUALSTYLE
  5
44117
102
{ACAD_XDICTIONARY
360
8691D
102
}
102
{ACAD_REACTORS
330
6F80
102
}
330
6F80
100
AcDbVisualStyle
  2
Sketchy
 70
    24
177
     2
291
     0
 71
     1
176
     1
 72
     2
176
     1
 73
     2
176
     1
 90
        0
176
     1
 40
0.6
176
     1
 41
30.0
176
     1
 63
     7
421
 16777215
176
     1
 74
     2
176
     1
 91
        2
176
     1
 64
     7
176
     1
 65
     7
176
     1
 75
     1
176
     1
175
     1
176
     1
 42
40.0
176
     1
 92
       11
176
     1
 66
     7
176
     1
 43
1.0
176
     1
 76
     1
176
     1
 77
     6
176
     1
 78
     2
176
     1
 67
     7
176
     1
 79
     6
176
     1
170
     0
176
     1
171
     0
176
     1
290
     0
176
     1
 93
        1
176
     1
 44
0.0
176
     1
173
     0
176
     1
1001
ACAD
1000
AcDbSavedByObjectVersion
1070
     0
  0
VISUALSTYLE
  5
6F8D
102
{ACAD_XDICTIONARY
360
8690F
102
}
102
{ACAD_REACTORS
330
6F80
102
}
330
6F80
100
AcDbVisualStyle
  2
Thicken
 70
    13
177
     2
291
     1
 71
     2
176
     1
 72
     2
176
     1
 73
     0
176
     1
 90
        0
176
     1
 40
0.6
176
     1
 41
30.0
176
     1
 63
     7
421
 16777215
176
     1
 74
     1
176
     1
 91
        4
176
     1
 64
     7
176
     1
 65
   257
176
     1
 75
     1
176
     1
175
     1
176
     1
 42
1.0
176
     1
 92
       12
176
     1
 66
     7
176
     1
 43
1.0
176
     1
 76
     1
176
     1
 77
     6
176
     1
 78
     2
176
     1
 67
     7
176
     1
 79
     5
176
     1
170
     0
176
     1
171
     0
176
     1
290
     0
176
     1
 93
        1
176
     1
 44
0.0
176
     1
173
     0
176
     1
1001
ACAD
1000
AcDbSavedByObjectVersion
1070
     0
  0
VISUALSTYLE
  5
44114
102
{ACAD_XDICTIONARY
360
86917
102
}
102
{ACAD_REACTORS
330
6F80
102
}
330
6F80
100
AcDbVisualStyle
  2
Wireframe
 70
     5
177
     2
291
     0
 71
     0
176
     1
 72
     2
176
     1
 73
     0
176
     1
 90
        0
176
     1
 40
0.6
176
     1
 41
30.0
176
     1
 63
     7
421
 16777215
176
     1
 74
     1
176
     1
 91
        4
176
     1
 64
     7
176
     1
 65
   257
176
     1
 75
     1
176
     1
175
     1
176
     1
 42
1.0
176
     1
 92
        0
176
     1
 66
   257
176
     1
 43
1.0
176
     1
 76
     1
176
     1
 77
     6
176
     1
 78
     2
176
     1
 67
     7
176
     1
 79
     3
176
     1
170
     0
176
     1
171
     0
176
     1
290
     0
176
     1
 93
        1
176
     1
 44
0.0
176
     1
173
     0
176
     1
1001
ACAD
1000
AcDbSavedByObjectVersion
1070
     0
  0
VISUALSTYLE
  5
44118
102
{ACAD_XDICTIONARY
360
8691F
102
}
102
{ACAD_REACTORS
330
6F80
102
}
330
6F80
100
AcDbVisualStyle
  2
X-Ray
 70
    25
177
     2
291
     0
 71
     2
176
     1
 72
     2
176
     1
 73
     1
176
     1
 90
        1
176
     1
 40
0.5
176
     1
 41
30.0
176
     1
 63
     7
421
 16777215
176
     1
 74
     1
176
     1
 91
        0
176
     1
 64
     7
176
     1
 65
   257
176
     1
 75
     1
176
     1
175
     1
176
     1
 42
1.0
176
     1
 92
        8
176
     1
 66
     7
176
     1
 43
1.0
176
     1
 76
     1
176
     1
 77
     6
176
     1
 78
     2
176
     1
 67
     7
176
     1
 79
     3
176
     1
170
     0
176
     1
171
     0
176
     1
290
     0
176
     1
 93
       13
176
     1
 44
0.0
176
     1
173
     0
176
     1
1001
ACAD
1000
AcDbSavedByObjectVersion
1070
     0
  0
DICTIONARYVAR
  5
70A4
102
{ACAD_REACTORS
330
C1F
102
}
330
C1F
100
DictionaryVariables
280
     0
  1
1:1
  0
DICTIONARYVAR
  5
70A3
102
{ACAD_REACTORS
330
C1F
102
}
330
C1F
100
DictionaryVariables
280
     0
  1
STANDARD
  0
DICTIONARYVAR
  5
C20
102
{ACAD_REACTORS
330
C1F
102
}
330
C1F
100
DictionaryVariables
280
     0
  1
STANDARD
  0
DICTIONARYVAR
  5
55984
102
{ACAD_REACTORS
330
C1F
102
}
330
C1F
100
DictionaryVariables
280
     0
  1
DIN 6
  0
DICTIONARYVAR
  5
55985
102
{ACAD_REACTORS
330
C1F
102
}
330
C1F
100
DictionaryVariables
280
     0
  1
DIN ISO 128-40_2002-05
  0
DICTIONARYVAR
  5
7B128
102
{ACAD_REACTORS
330
C1F
102
}
330
C1F
100
DictionaryVariables
280
     0
  1
BYLAYER
  0
DICTIONARYVAR
  5
7B127
102
{ACAD_REACTORS
330
C1F
102
}
330
C1F
100
DictionaryVariables
280
     0
  1
ByLayer
  0
DICTIONARYVAR
  5
7A4A
102
{ACAD_REACTORS
330
C1F
102
}
330
C1F
100
DictionaryVariables
280
     0
  1
1
  0
DICTIONARYVAR
  5
7A4B
102
{ACAD_REACTORS
330
C1F
102
}
330
C1F
100
DictionaryVariables
280
     0
  1
15
  0
DICTIONARYVAR
  5
7A49
102
{ACAD_REACTORS
330
C1F
102
}
330
C1F
100
DictionaryVariables
280
     0
  1
0
  0
DICTIONARYVAR
  5
7A48
102
{ACAD_REACTORS
330
C1F
102
}
330
C1F
100
DictionaryVariables
280
     0
  1
0
  0
DICTIONARY
  5
868F6
102
{ACAD_REACTORS
330
868F4
102
}
330
868F4
100
AcDbDictionary
281
     1
  0
DICTIONARY
  5
868F5
102
{ACAD_REACTORS
330
868F4
102
}
330
868F4
100
AcDbDictionary
281
     1
  3
2685176143728
350
868EF
  3
2685288953856
350
868F0
  3
2685288953872
350
868F1
  3
2685288953888
350
868F2
  3
2685288953904
350
868F3
  0
ACAD_PROXY_OBJECT
  5
5E2FD
102
{ACAD_REACTORS
330
55832
102
}
330
55832
100
AcDbProxyObject
 90
      499
 91
      571
 95
  8192031
 70
     0
162
                58
311
40CA8010400C400C
161
                92
310
4050100057356C1DCE412AAC
350
666BC
 94
        0
  0
DICTIONARY
  5
55839
102
{ACAD_REACTORS
330
55832
102
}
330
55832
100
AcDbDictionary
281
     1
  3
DIN
350
5E303
  0
ACAD_PROXY_OBJECT
  5
5E2E0
330
0
100
AcDbProxyObject
 90
      499
 91
      552
 95
  8192031
 70
     0
162
               234
311
43904010C01340114014C016401340108013C0130014C01240168011400C
161
                34
310
000101420C
330
5E2DD
 94
        0
  0
ACAD_PROXY_OBJECT
  5
5E2EC
330
0
100
AcDbProxyObject
 90
      499
 91
      563
 95
  8192031
 70
     0
162
               196
311
421040134010C01540148014C015001100103440049004E00C
161
                32
310
0001010100
330
5E2DD
 94
        0
  0
ACAD_PROXY_OBJECT
  5
5E2EF
330
0
100
AcDbProxyObject
 90
      499
 91
      563
 95
  8192031
 70
     0
162
               276
311
431040104010C013C0134014001100118013801040134011401044B004F004D005000C
161
                32
310
0001010100
330
5E2DD
 94
        0
  0
ACAD_PROXY_OBJECT
  5
5E2F0
330
0
100
AcDbProxyObject
 90
      499
 91
      563
 95
  8192031
 70
     0
162
               340
311
4390401040118013C013001100114014801100118013801040134011401064F00720064006E0065007200C
161
                32
310
0001010100
330
5E2DD
 94
        0
  0
ACAD_PROXY_OBJECT
  5
5E2F1
330
0
100
AcDbProxyObject
 90
      499
 91
      563
 95
  8192031
 70
     0
162
               260
311
431040104010401380138013C01100118013801040134011401035F0041005600C
161
                32
310
0001010100
330
5E2DD
 94
        0
  0
ACAD_PROXY_OBJECT
  5
5E2F2
330
0
100
AcDbProxyObject
 90
      499
 91
      563
 95
  8192031
 70
     0
162
               772
311
439040104010C013C01340140015801240114015C01300124014C015001214F00620065006E000A0056006F0072006E000A005200650063006800740073000A004C0069006E006B0073000A0055006E00740065006E000A004100750078003100C
161
                32
310
0001010100
330
5E2DD
 94
        0
  0
ACAD_PROXY_OBJECT
  5
5E2F3
330
0
100
AcDbProxyObject
 90
      499
 91
      552
 95
  8192031
 70
     0
162
               234
311
439040134014C014C0150014801040130015C01040164014C013C013800C
161
                26
310
0001018C
330
5E2DD
 94
        0
  0
ACAD_PROXY_OBJECT
  5
5E2F8
330
0
100
AcDbProxyObject
 90
      499
 91
      566
 95
  8192031
 70
     0
162
                 0
161
                32
310
0001000000
330
5E2DD
340
5E2F5
330
5E2F9
330
5E2F5
 94
        0
  0
ACAD_PROXY_OBJECT
  5
5E2F9
330
0
100
AcDbProxyObject
 90
      499
 91
      567
 95
  8192031
 70
     0
162
               234
311
4392C010800C800800148012000CC0080010801480370010C012C011400C
161
                80
310
0001014140155005540071
330
5E2DD
330
5E2F8
330
0
 94
        0
  0
ACAD_PROXY_OBJECT
  5
5E2FA
330
0
100
AcDbProxyObject
 90
      499
 91
      568
 95
  8192031
 70
     0
162
                 0
161
               178
310
000100AAAAAA833654A496489E9068D50633760DF72C0C
330
5E2DD
330
5E2F9
 94
        0
  0
ACAD_PROXY_OBJECT
  5
5E2FB
330
0
100
AcDbProxyObject
 90
      499
 91
      569
 95
  8192031
 70
     0
162
                 0
161
               108
310
000190140A000000000000AAAAAC
330
5E2DD
330
5E2FC
330
5E2FC
330
5E2FC
330
5E2FC
330
5E2FC
330
0
 94
        0
  0
ACAD_PROXY_OBJECT
  5
5E2FC
330
0
100
AcDbProxyObject
 90
      499
 91
      570
 95
  8192031
 70
     0
162
                 0
161
                51
310
00010000AAAA8C
330
5E2DD
330
5E2FB
330
5E2F9
 94
        0
  0
ACAD_PROXY_OBJECT
  5
63DFD
330
0
100
AcDbProxyObject
 90
      499
 91
      552
 95
  8192031
 70
     0
162
               234
311
4394001B001BC01D0014C018C018401B00194013001BC018C018401B000C
161
                26
310
0001018C
330
5E2DD
 94
        0
  0
DICTIONARY
  5
5E2D9
102
{ACAD_REACTORS
330
55807
102
}
330
55807
100
AcDbDictionary
281
     1
  3
DWGSETTINGS
350
5E2DA
  3
Shaft
350
64DF6
  3
TRANSSETTINGS
350
5E2DB
  0
ACAD_PROXY_OBJECT
  5
5E315
102
{ACAD_REACTORS
330
55807
102
}
330
55807
100
AcDbProxyObject
 90
      499
 91
      593
 95
  8192031
 70
     0
162
             15940
311
404C0010441004D005F0030009013100411040134017C00C402404C8010441004D005F0032009013300411040134017C00CC02404D0010441004D005F0034009013500411040134017C00D402404D8010441004D005F0036009013700411040134017C00DC02404E0010441004D005F0038009013900411040134017C00E40
311
2408C80104010541004D005F003100300090234004100415040134017C00C400C402409240140010541004D005F003100320090230004E00415040134017C00C0013802408C40138010541004D005F0031004E0090232004E00415040134017C00C8013802408CC0138010541004D005F0033004E0090234004E0041504013
311
4017C00D0013802408D40138010541004D005F0035004E0090236004E00415040134017C00D8013802408DC0138010541004D005F0037004E0090238004E00415040134017C00E0013802408E40138010541004D005F0039004E00903320041004E00419040134017C00C400C001380240CD001040138010641004D005F003
311
10031004E00903490050004E00419040134017C00C400C80138024112C013001240138010541004D005F0043004C0090449004E0046004F00421040134017C01400104014801140118024154801040120013400D4010641004D005F0042004F0052009045600490045005700421040134017C015801240114015C014C02419
311
0801140120012401380110010641004D005F0049004E00560090554005200410049004C00415040134017C015001480240D2001240110010641004D005F00480049004400903560049005300419040134017C01580124014C024194001040148011001240134010941004D005F00500041005200440049004D009065200450
311
04600440049004D00425040134017C01480114011801100124013402411080120013801580101390041508012001380158014C010642004500480049004E00440041108013C014800C801055200410048004D00350041108013C014800CC01055200410048004D00350041108013C014800D401055200410048004D0035004
311
110C0104013000C8010134004110C0104013000CC010134004110C0104013000D4010134004110C0104013000DC010134004110C011401380138010137004110C01140138015C010137004110C01300124013801044B004C0049004E004110C013C013800C4010130004110C013C013800C8010131004110C013C013800CC0
311
10132004110C013C013800D00101320041110011401500104010134004111001240104011C010135004111001240130012401013500411100124013401400106500041005200440049004D00411100124013401480106520045004600440049004D00411180114013401380101380041518011401340140013801013800415
311
1801140134014C01400102340041004151801140134014C015001023400410041518011401340158013801013200415180114013401580150010132004112001040150010C0101380041120012401100138010133004112001240110015C01013300411200130012401380101340041120013C010C01380101370041120013
311
C010C015C010137004112401380118013C010449004E0046004F00411300114010401100101350041938017C0108012001380158010239004E0041938017C010C013C013800C4010230004E0041938017C010C013C013800C8010231004E0041938017C010C013C013800CC010232004E0041938017C010C013C013800D001
311
0232004E0041938017C010C011401380138010237004E0041938017C010C01140138015C010237004E0041938017C0110012401300124010235004E0041938017C012001040150010C010238004E0041938017C0120012401100138010233004E0041938017C012001240110015C010233004E0041938017C0130011401040
311
110010235004E0041938017C0138011C012401400103490050004E0041938017C01400120010401380103340041004E0041938017C0150010C013C0138010230004E0041938017C0150012001300124010234004E0041938017C0150013001140138010230004E0041938017C01580140013001240103320041004E0041138
311
011C01240140010249005000411400104013000C801055200410048004D003500411400104013000CC01055200410048004D003500411400104013000D401055200410048004D0035004114001200104013801023400410041140013C014C01380101350041148010C011C01380101370041148010C011C015C01013700411
311
4C01080148012C010134004114C0114010C0150010134004114C0164010800CC0101350041134014C016401340101350041150010C013C0138010130004115001200130012401013400411500124015000C801055200410048004D003500411500124015000CC01055200410048004D003500411500124015000D401055200
311
410048004D0035004115001300114013801013000415500148010401240130010554005200410049004C004115001480130012401013400411500160015000C401013600411500160015000C801013600411500160015000CC01013600411500160015000D401013600411500160015000DC010136004115801240114015C0
311
10456004900450057004115801140110012001034800490044004115801140110015801035600490053004115801400130012401023200410041168012401680104010134004114C014001300124010232004100404FC02C
161
              8972
310
4250449201C00030C013244203800030C013244201400030C013244201800030C0119A00C00030C0119A00C00030C0119A00800030C0123A01000030C0119A00400030C0119A3F400030C0241201C00030C0132A00C00030C0119A01C00030C013240A01C00030C0132A03800030C0132A01400030C0132A01800030C0119A
310
00C00030C0119A00C00030C0119A00800030C0123A01000030C0119A00400030C0119A3F400030C0241201C00030C0132A00C00030C0119A01C00030C013240A00400030C011942601000030C011942E01C00030C013242600400030C011942E3F400030C0243600C00030C011942601C00030C011942601C00030C0132426
310
00C00030C011942601000030C0119425548000000C0003FFFFFFFE8000000C0003FFFFFFFE8010000C3004668020000C30048E8000000C0003FFFFFFFE8000000C0003FFFFFFFE8020000C30048E8070000C3004CA81E0000C30051A8000000C0003FFFFFFFE8000000C0003FFFFFFFE8000000C0003FFFFFFFE8000000C00
310
03FFFFFFFD038000000C0003FFFFFFFD038000000C0003FFFFFFFD038000000C0003FFFFFFFD038030000C3004668000000C0003FFFFFFFE8000000C0003FFFFFFFE8000000C0003FFFFFFFE8000000C0003FFFFFFFE8000000C0003FFFFFFFE8030000C3003FFFFFFFE8000000C0003FFFFFFFE8030000C3004668000000C
310
0003FFFFFFFE8030000C3004668000000C0003FFFFFFFD018000000C0003FFFFFFFD038000000C0003FFFFFFFD038000000C0003FFFFFFFD018000000C0003FFFFFFFE8000000C0003FFFFFFFE8000000C0003FFFFFFFE8000000C0003FFFFFFFE8000000C0003FFFFFFFE8000000C0003FFFFFFFD038000000C0003FFFFFF
310
FD038000000C0003FFFFFFFD038000000C0003FFFFFFFD038000000C0003FFFFFFFE8000000C0003FFFFFFFE8000000C0003FFFFFFFE8000000C0003FFFFFFFD018000000C0003FFFFFFFD038000000C0003FFFFFFFD038000000C0003FFFFFFFE8000000C0003FFFFFFFE8000000C0003FFFFFFFE8000000C0003FFFFFFFD
310
038000000C0003FFFFFFFD018000000C0003FFFFFFFD038000000C0003FFFFFFFE8000000C0003FFFFFFFE8010000C3003FFFFFFFE8020000C3003FFFFFFFE8070000C3003FFFFFFFE8000000C0003FFFFFFFE8000000C0003FFFFFFFE8000000C0003FFFFFFFE8000000C0003FFFFFFFE8000000C0003FFFFFFFD01800000
310
0C0003FFFFFFFD018020000C30048E8020000C3003FFFFFFFE8000000C0003FFFFFFFD038000000C0003FFFFFFFD018010000C3004668020000C30048E8000000C0003FFFFFFFE8000000C0003FFFFFFFD038000000C0003FFFFFFFE8000000C0003FFFFFFFD018030000C3004668030000C3004668000000C0003FFFFFFFE
310
8070000C3004CA81E0000C30051A8000000C0003FFFFFFFE8000000C0003FFFFFFFD028000000C0003FFFFFFFD028070000C3004CA8000000C0003FFFFFFFD018010000C3004CAAAA3F400030C010A4393241532409234794641D3241119405197F64191940D1980200C
340
16
340
16
340
16
340
5B620
340
16
340
16
340
16
340
5B621
340
16
340
16
340
5B621
340
5B622
340
16
340
16
340
16
340
16
340
5B620
340
16
340
16
340
16
340
5B621
340
16
340
16
340
5B621
340
5B622
340
16
340
5B61E
340
16
340
16
340
16
340
16
340
16
340
5B620
340
16
340
16
340
16
340
15
340
15
340
15
340
15
340
15
340
15
340
15
340
15
340
15
340
5B623
340
15
340
15
340
15
340
15
340
15
340
15
340
16
340
15
340
15
340
15
340
15
340
15
340
15
340
16
340
15
340
15
340
15
340
15
340
5B624
340
15
340
15
340
5B623
340
15
340
15
340
15
340
15
340
15
340
15
340
15
340
15
340
5B623
340
15
340
15
340
15
340
5B624
340
15
340
15
340
15
340
15
340
15
340
15
340
15
340
15
340
15
340
16
340
16
340
16
340
15
340
15
340
5B623
340
15
340
15
340
15
340
15
340
15
340
15
340
15
340
15
340
15
340
15
340
15
340
15
340
15
340
15
340
15
340
15
340
15
340
15
340
15
340
15
340
15
340
5B621
340
5B61F
340
5B621
 94
        0
  0
XRECORD
  5
30431
102
{ACAD_REACTORS
330
30430
102
}
330
30430
100
AcDbXrecord
280
     1
330
0
330
0
330
0
330
0
330
0
330
0
330
0
330
0
330
0
330
0
330
0
330
0
330
0
330
0
330
0
330
0
330
0
330
0
330
0
330
0
  0
DICTIONARY
  5
6DD4F
330
6DD4E
100
AcDbDictionary
280
     1
281
     1
  3
ACAD_FIELD
360
6DD50
  3
ACAD_XREC_ROUNDTRIP
360
86935
  0
DICTIONARY
  5
6B73E
330
6B73D
100
AcDbDictionary
280
     1
281
     1
  3
ACAD_FIELD
360
6B73F
  3
ACAD_XREC_ROUNDTRIP
360
86931
  0
DICTIONARY
  5
5FEE9
330
5FEE8
100
AcDbDictionary
280
     1
281
     1
  3
ACAD_FIELD
360
5FEEA
  3
ACAD_XREC_ROUNDTRIP
360
8692D
  0
DICTIONARY
  5
68B0F
330
60060
100
AcDbDictionary
280
     1
281
     1
  3
ACAD_XREC_ROUNDTRIP
360
86930
  0
DICTIONARY
  5
6DD56
330
6DD55
100
AcDbDictionary
280
     1
281
     1
  3
ACAD_XREC_ROUNDTRIP
360
86936
  0
DICTIONARY
  5
68B09
330
557EF
100
AcDbDictionary
280
     1
281
     1
  3
ACAD_XREC_ROUNDTRIP
360
8692C
  0
DICTIONARY
  5
45094
330
22
100
AcDbDictionary
280
     1
281
     1
  0
DICTIONARY
  5
6F71
330
6F70
100
AcDbDictionary
280
     1
281
     1
  3
BUMPTILE
360
6F73
  3
DIFFUSETILE
360
6F72
  3
OPACITYTILE
360
6F76
  3
REFLECTIONTILE
360
6F75
  3
REFRACTIONTILE
360
6F77
  3
SPECULARTILE
360
6F74
  0
DICTIONARY
  5
6F69
330
6F68
100
AcDbDictionary
280
     1
281
     1
  3
BUMPTILE
360
6F6B
  3
DIFFUSETILE
360
6F6A
  3
OPACITYTILE
360
6F6E
  3
REFLECTIONTILE
360
6F6D
  3
REFRACTIONTILE
360
6F6F
  3
SPECULARTILE
360
6F6C
  0
DICTIONARY
  5
6F79
330
6F78
100
AcDbDictionary
280
     1
281
     1
  3
BUMPTILE
360
6F7B
  3
DIFFUSETILE
360
6F7A
  3
FBXASSET
360
50AEC
  3
OPACITYTILE
360
6F7E
  3
REFLECTIONTILE
360
6F7D
  3
REFRACTIONTILE
360
6F7F
  3
SPECULARTILE
360
6F7C
  0
DICTIONARY
  5
6DD42
330
6DD41
100
AcDbDictionary
280
     1
281
     1
  3
ACAD_FIELD
360
6DD43
  3
ACAD_XREC_ROUNDTRIP
360
86933
  0
DICTIONARY
  5
6B744
330
6B743
100
AcDbDictionary
280
     1
281
     1
  3
ACAD_FIELD
360
6B745
  3
ACAD_XREC_ROUNDTRIP
360
86932
  0
DICTIONARY
  5
5FEEF
330
5FEEE
100
AcDbDictionary
280
     1
281
     1
  3
ACAD_FIELD
360
5FEF0
  3
ACAD_XREC_ROUNDTRIP
360
8692E
  0
DICTIONARY
  5
68B0D
330
6005E
100
AcDbDictionary
280
     1
281
     1
  3
ACAD_XREC_ROUNDTRIP
360
8692F
  0
DICTIONARY
  5
6DD49
330
6DD48
100
AcDbDictionary
280
     1
281
     1
  3
ACAD_FIELD
360
6DD4A
  3
ACAD_XREC_ROUNDTRIP
360
86934
  0
DICTIONARY
  5
68B07
330
557ED
100
AcDbDictionary
280
     1
281
     1
  3
ACAD_XREC_ROUNDTRIP
360
8692B
  0
DICTIONARY
  5
7032
330
8E9
100
AcDbDictionary
280
     1
281
     1
  3
ACAD_ROUNDTRIP_2008_TABLESTYLE_CELLSTYLEMAP
360
868ED
  0
DICTIONARY
  5
86901
330
6F86
100
AcDbDictionary
280
     1
281
     1
  3
ACAD_XREC_ROUNDTRIP
360
86902
  0
DICTIONARY
  5
86905
330
6F88
100
AcDbDictionary
280
     1
281
     1
  3
ACAD_XREC_ROUNDTRIP
360
86906
  0
DICTIONARY
  5
86903
330
6F87
100
AcDbDictionary
280
     1
281
     1
  3
ACAD_XREC_ROUNDTRIP
360
86904
  0
DICTIONARY
  5
868FF
330
6F85
100
AcDbDictionary
280
     1
281
     1
  3
ACAD_XREC_ROUNDTRIP
360
86900
  0
DICTIONARY
  5
8690D
330
6F8C
100
AcDbDictionary
280
     1
281
     1
  3
ACAD_XREC_ROUNDTRIP
360
8690E
  0
DICTIONARY
  5
86915
330
6F90
100
AcDbDictionary
280
     1
281
     1
  3
ACAD_XREC_ROUNDTRIP
360
86916
  0
DICTIONARY
  5
86907
330
6F89
100
AcDbDictionary
280
     1
281
     1
  3
ACAD_XREC_ROUNDTRIP
360
86908
  0
DICTIONARY
  5
8690B
330
6F8B
100
AcDbDictionary
280
     1
281
     1
  3
ACAD_XREC_ROUNDTRIP
360
8690C
  0
DICTIONARY
  5
86929
330
4411D
100
AcDbDictionary
280
     1
281
     1
  3
ACAD_XREC_ROUNDTRIP
360
8692A
  0
DICTIONARY
  5
86913
330
6F8F
100
AcDbDictionary
280
     1
281
     1
  3
ACAD_XREC_ROUNDTRIP
360
86914
  0
DICTIONARY
  5
868F7
330
6F81
100
AcDbDictionary
280
     1
281
     1
  3
ACAD_XREC_ROUNDTRIP
360
868F8
  0
DICTIONARY
  5
868F9
330
6F82
100
AcDbDictionary
280
     1
281
     1
  3
ACAD_XREC_ROUNDTRIP
360
868FA
  0
DICTIONARY
  5
868FB
330
6F83
100
AcDbDictionary
280
     1
281
     1
  3
ACAD_XREC_ROUNDTRIP
360
868FC
  0
DICTIONARY
  5
868FD
330
6F84
100
AcDbDictionary
280
     1
281
     1
  3
ACAD_XREC_ROUNDTRIP
360
868FE
  0
DICTIONARY
  5
86919
330
44115
100
AcDbDictionary
280
     1
281
     1
  3
ACAD_XREC_ROUNDTRIP
360
8691A
  0
DICTIONARY
  5
86925
330
4411B
100
AcDbDictionary
280
     1
281
     1
  3
ACAD_XREC_ROUNDTRIP
360
86926
  0
DICTIONARY
  5
86911
330
6F8E
100
AcDbDictionary
280
     1
281
     1
  3
ACAD_XREC_ROUNDTRIP
360
86912
  0
DICTIONARY
  5
86927
330
4411C
100
AcDbDictionary
280
     1
281
     1
  3
ACAD_XREC_ROUNDTRIP
360
86928
  0
DICTIONARY
  5
86909
330
6F8A
100
AcDbDictionary
280
     1
281
     1
  3
ACAD_XREC_ROUNDTRIP
360
8690A
  0
DICTIONARY
  5
86923
330
4411A
100
AcDbDictionary
280
     1
281
     1
  3
ACAD_XREC_ROUNDTRIP
360
86924
  0
DICTIONARY
  5
86921
330
44119
100
AcDbDictionary
280
     1
281
     1
  3
ACAD_XREC_ROUNDTRIP
360
86922
  0
DICTIONARY
  5
8691B
330
44116
100
AcDbDictionary
280
     1
281
     1
  3
ACAD_XREC_ROUNDTRIP
360
8691C
  0
DICTIONARY
  5
8691D
330
44117
100
AcDbDictionary
280
     1
281
     1
  3
ACAD_XREC_ROUNDTRIP
360
8691E
  0
DICTIONARY
  5
8690F
330
6F8D
100
AcDbDictionary
280
     1
281
     1
  3
ACAD_XREC_ROUNDTRIP
360
86910
  0
DICTIONARY
  5
86917
330
44114
100
AcDbDictionary
280
     1
281
     1
  3
ACAD_XREC_ROUNDTRIP
360
86918
  0
DICTIONARY
  5
8691F
330
44118
100
AcDbDictionary
280
     1
281
     1
  3
ACAD_XREC_ROUNDTRIP
360
86920
  0
XRECORD
  5
868EF
102
{ACAD_REACTORS
330
868F5
102
}
330
868F5
100
AcDbXrecord
280
     1
  1
AcDb_Thumbnail_Schema
102
{ATTRRECORD
341
868F0
  2
AcDbDs::TreatedAsObjectData
280
     1
291
     1
102
ATTRRECORD}
102
{ATTRRECORD
341
868F1
  2
AcDbDs::Legacy
280
     1
291
     1
102
ATTRRECORD}
  2
AcDbDs::ID
280
    10
 91
        8
102
{ATTRRECORD
341
868F2
  2
AcDs:Indexable
280
     1
291
     1
102
ATTRRECORD}
102
{ATTRRECORD
341
868F3
  2
AcDbDs::HandleAttribute
280
     7
282
     1
102
ATTRRECORD}
  2
Thumbnail_Data
280
    15
 91
        0
  0
XRECORD
  5
868F0
102
{ACAD_REACTORS
330
868F5
102
}
330
868F5
100
AcDbXrecord
280
     1
  1
AcDbDs::TreatedAsObjectDataSchema
  2
AcDbDs::TreatedAsObjectData
280
     1
 91
        0
  0
XRECORD
  5
868F1
102
{ACAD_REACTORS
330
868F5
102
}
330
868F5
100
AcDbXrecord
280
     1
  1
AcDbDs::LegacySchema
  2
AcDbDs::Legacy
280
     1
 91
        0
  0
XRECORD
  5
868F2
102
{ACAD_REACTORS
330
868F5
102
}
330
868F5
100
AcDbXrecord
280
     1
  1
AcDbDs::IndexedPropertySchema
  2
AcDs:Indexable
280
     1
 91
        0
  0
XRECORD
  5
868F3
102
{ACAD_REACTORS
330
868F5
102
}
330
868F5
100
AcDbXrecord
280
     1
  1
AcDbDs::HandleAttributeSchema
  2
AcDbDs::HandleAttribute
280
     7
 91
        1
284
     1
  0
ACAD_PROXY_OBJECT
  5
666BC
102
{ACAD_REACTORS
330
5E2FD
102
}
330
5E2FD
100
AcDbProxyObject
 90
      499
 91
      617
 95
  8192031
 70
     0
162
               200
311
42508013C0134017C0154013801240150014C010265006100A00
161
               187
310
057356C1DCE409014050140501AAA3FFFFFFFC273A00404C
330
0
330
0
330
0
 94
        0
  0
ACAD_PROXY_OBJECT
  5
5E303
102
{ACAD_REACTORS
330
55839
102
}
330
55839
100
AcDbProxyObject
 90
      499
 91
      576
 95
  8192031
 70
     0
162
              3904
311
40D10012401380242D0401B4019001D001140190019C0194014C01D00190010E410063006D005300750072006600540065007800740053007400640042504018C01B40118010C0118014C01D00190010D410063006D00570065006C00640069006E00670053007400640042504018C01B40108013C0134014C01D001900110
311
41006D0064007400440065007400610069006C00530079006D005300740064004450401B4019001D0014C0194018C01D001A401BC01B8014C01E401B4014C01D00190011141006D0064007400430065006E007400650072004C0069006E0065005300740064004450401B4019001D0015001A001C8019401840190013001A4
311
01B80194014C01D00190010B41006D00640074004E006F007400650053007400640042D04018C01B40150018401C0019401C8014C01D00190010D41006D006400740041006E00560069006500770053007400640042D04018C010401B4019C0130018401E4014C01D00190010B4100630041006D006700440069006D005300
311
7400640044504018C010401B4019C012001BC01B00194010C01A0018401C801D0014C01D00190010D4100630041006D0067005400690074006C00650053007400640042104018C01B401240190014C01D00190010B410063006D0044006100740075006D00530074006400BE
161
               737
310
7380000000000000C408000000C00040540600800030C02000000300000000000000000C40C9522481202812028120281202812028120C8120C8120281202812028120281202812028120281202812028120281203204809FFFE7FFFCC
340
11
360
5E304
360
5E305
360
5E306
360
5E307
360
5E30A
360
5E30B
360
6B73A
360
6B73B
360
6B73C
360
6DD62
360
6DD63
360
5E30C
360
6B737
360
6B738
360
6B739
360
6DD64
360
6DD65
360
5E30D
360
5E30E
360
5E30F
360
5E310
360
5E311
360
5E312
360
5E313
360
5E314
360
5E31B
360
6B735
360
6B736
340
5584B
340
0
340
15
340
15
 94
        0
  0
ACAD_PROXY_OBJECT
  5
5E2DA
102
{ACAD_REACTORS
330
5E2D9
102
}
330
5E2D9
100
AcDbProxyObject
 90
      499
 91
      548
 95
  8192031
 70
     0
162
              3996
311
42D10015C011C014C01140150015001240138011C014C0109430041004E00470041005200520041005900420CC00C001F000D000D401F000D800C00106430045004E0041004E004700424D000D401F000E400C001F000C400CC00D40106430045004E0044004900410041D0C01140138011001240104014C0108310030007C
311
00320030007C003300300041D0C0114013801100124014C01500106430045004E004C0045004E004190C01140138013C01180118010E4300480041004D00460045005200440049004D004D004F00440045004550C0120010401340118011401480110012401340134013C01100114011001140118010401540130015001094
311
3004C0049004E0041005200520041005900420C400C001F000C800C001F000CC00C0010843004C0049004E004500540059005000415600130012401380114010944005700470055005300430041004C00450041D300104014C0150013C0108012801013000421340104012C0114015801240114015C0106500053004300410
311
04C00450041948011401580124014C0124010130004154C010C010401300114010331003A00310042550012401340114014C01500104013401400107560045005200530049004F004E00414C400D400B800C000C001107B00440057004700530045005400540049004E004700530045004E0044007D00C
161
               572
310
40682A0A940000000000000488082A5000000000000004202500000000000001220250000000000000122027F27F20A82A50A0A9FA040C00800010541528085660185A8F1CD0505C
 94
        0
  0
ACAD_PROXY_OBJECT
  5
64DF6
102
{ACAD_REACTORS
330
5E2D9
102
}
330
5E2D9
100
AcDbProxyObject
 90
      499
 91
      548
 95
  8192031
 70
     0
162
               356
311
4154C01A00184019801D001107B00440057004700530045005400540049004E004700530045004E0044007D00C
161
                11
310
404C
 94
        0
  0
ACAD_PROXY_OBJECT
  5
5E2DB
102
{ACAD_REACTORS
330
5E2D9
102
}
330
5E2D9
100
AcDbProxyObject
 90
      499
 91
      548
 95
  8192031
 70
     0
162
              1382
311
43550014801040138014C014C01140150015001240138011C014C0112440052004100570049004E0047005400520041004E0053004C004100540049004F004E004353C01480124011C012401380104013001300164017C013C0138010A53004F0055005200430045004C0041004E00470040D1001140154010955005000520
311
0450053004500520056004500441EC0110015C011C014C01140150015001240138011C014C01140138011001F400
161
               126
310
4060C00800041801000020A0C0080000
 94
        0
  0
DICTIONARY
  5
6DD50
102
{ACAD_REACTORS
330
6DD4F
102
}
330
6DD4F
100
AcDbDictionary
280
     1
281
     1
  3
TEXT
360
6DD51
  0
XRECORD
  5
86935
102
{ACAD_REACTORS
330
6DD4F
102
}
330
6DD4F
100
AcDbXrecord
280
     1
102
DISPLAYNAME
  1
ASME Y14.35 - 1987(1)
102
FLAGS
 90
        0
  0
DICTIONARY
  5
6B73F
102
{ACAD_REACTORS
330
6B73E
102
}
330
6B73E
100
AcDbDictionary
280
     1
281
     1
  3
TEXT
360
6B740
  0
XRECORD
  5
86931
102
{ACAD_REACTORS
330
6B73E
102
}
330
6B73E
100
AcDbXrecord
280
     1
102
DISPLAYNAME
  1
DIN 6
102
FLAGS
 90
        1
  0
DICTIONARY
  5
5FEEA
102
{ACAD_REACTORS
330
5FEE9
102
}
330
5FEE9
100
AcDbDictionary
280
     1
281
     1
  3
TEXT
360
5FEEB
  0
XRECORD
  5
8692D
102
{ACAD_REACTORS
330
5FEE9
102
}
330
5FEE9
100
AcDbXrecord
280
     1
102
DISPLAYNAME
  1
DIN 6(1)
102
FLAGS
 90
        0
  0
XRECORD
  5
86930
102
{ACAD_REACTORS
330
68B0F
102
}
330
68B0F
100
AcDbXrecord
280
     1
102
DISPLAYNAME
  1
Imperial24
102
FLAGS
 90
        0
  0
XRECORD
  5
86936
102
{ACAD_REACTORS
330
6DD56
102
}
330
6DD56
100
AcDbXrecord
280
     1
102
DISPLAYNAME
  1
ISO 128-34:2001(1)
102
FLAGS
 90
        0
  0
XRECORD
  5
8692C
102
{ACAD_REACTORS
330
68B09
102
}
330
68B09
100
AcDbXrecord
280
     1
102
DISPLAYNAME
  1
Metric50
102
FLAGS
 90
        0
  0
XRECORD
  5
6F73
102
{ACAD_REACTORS
330
6F71
102
}
330
6F71
100
AcDbXrecord
280
     1
270
     1
271
     1
  0
XRECORD
  5
6F72
102
{ACAD_REACTORS
330
6F71
102
}
330
6F71
100
AcDbXrecord
280
     1
270
     1
271
     1
  0
XRECORD
  5
6F76
102
{ACAD_REACTORS
330
6F71
102
}
330
6F71
100
AcDbXrecord
280
     1
270
     1
271
     1
  0
XRECORD
  5
6F75
102
{ACAD_REACTORS
330
6F71
102
}
330
6F71
100
AcDbXrecord
280
     1
270
     1
271
     1
  0
XRECORD
  5
6F77
102
{ACAD_REACTORS
330
6F71
102
}
330
6F71
100
AcDbXrecord
280
     1
270
     1
271
     1
  0
XRECORD
  5
6F74
102
{ACAD_REACTORS
330
6F71
102
}
330
6F71
100
AcDbXrecord
280
     1
270
     1
271
     1
  0
XRECORD
  5
6F6B
102
{ACAD_REACTORS
330
6F69
102
}
330
6F69
100
AcDbXrecord
280
     1
270
     1
271
     1
  0
XRECORD
  5
6F6A
102
{ACAD_REACTORS
330
6F69
102
}
330
6F69
100
AcDbXrecord
280
     1
270
     1
271
     1
  0
XRECORD
  5
6F6E
102
{ACAD_REACTORS
330
6F69
102
}
330
6F69
100
AcDbXrecord
280
     1
270
     1
271
     1
  0
XRECORD
  5
6F6D
102
{ACAD_REACTORS
330
6F69
102
}
330
6F69
100
AcDbXrecord
280
     1
270
     1
271
     1
  0
XRECORD
  5
6F6F
102
{ACAD_REACTORS
330
6F69
102
}
330
6F69
100
AcDbXrecord
280
     1
270
     1
271
     1
  0
XRECORD
  5
6F6C
102
{ACAD_REACTORS
330
6F69
102
}
330
6F69
100
AcDbXrecord
280
     1
270
     1
271
     1
  0
XRECORD
  5
6F7B
102
{ACAD_REACTORS
330
6F79
102
}
330
6F79
100
AcDbXrecord
280
     1
270
     1
271
     1
  0
XRECORD
  5
6F7A
102
{ACAD_REACTORS
330
6F79
102
}
330
6F79
100
AcDbXrecord
280
     1
270
     1
271
     1
  0
XRECORD
  5
50AEC
102
{ACAD_REACTORS
330
6F79
102
}
330
6F79
100
AcDbXrecord
280
     1
 70
     0
 90
-1506045146
 71
     1
  1
BDC1083D-0FCD-49F4-B24D-9D8109D7C9A2
310
504B03040A0000080000F650D9423DEE336E79000000790000001B0000006175746F6465736B2D64657369676E2D7061636B6167652E786D6C3C3F786D6C2076657273696F6E3D22312E302220656E636F64696E673D227574662D3822203F3E3C666F726D6174733E3C666F726D61743E687474703A2F2F736368656D612E
310
6175746F6465736B2E636F6D2F64657369676E2D7061636B6167652F323030393C2F666F726D61743E3C2F666F726D6174733E504B0304140006080800F650D94265017641AD00000026010000130000005B436F6E74656E745F54797065735D2E786D6C6D8E4D0E82301085AFD2CC1E8A2E8C31800BF5065CA0D6011AE9B4
310
690783B7B70D1B4358CE9BF7F3D5D7C54EE283211A470D1CCA0A0492762F43430333F7C519C4B5ADBBAFC7289297620323B3BF4819F58856C5D279A4F4E95DB08AD31906E9957EAB01E5B1AA4E523B62242E3877405BDFB157F3C4E2B12479DD7D1A02715B7D5DB235A0BC9F8C569CB0A4D38C5C440EA82CC8DD024FC3A6C0
310
D80C90F5FD4422DE24FE27F337E5648689ED0F504B0304140006080800F650D94291528556EB0000007C01000008000000636F72652E786D6C8D90516EC3201044AF82F8ADB0C1388D6D61A2A4754ED00B20D8B828315806AA1EBF3871A4F6AF5FBB1AE6B1A31187EFE986BE6009D6BB1EB38262044E7B63DDD8E3142FA4C1
310
E820C5E27DFC65C3C8A9097ABCCA588A71F169DE24ED5D0417B3EABC814D542140C448DFF2D2E3A03F6152854A313BC2B59895BEAA110AF6DC329C9235E871C49AFC9FBD5858B064031FCEBCE164DF3615A9D9B126A78A0D84D5BC65C7B63EBD9DDF45B9C252443B3DEFEB0554048365451927F49554BB0F463BBAEFEADD0B
310
651DA5A25CED7FA0349B7F42C9BAC8AB2DEE030B396B0E727F90A25CBBC8E35E549E6B6FF207504B0304140006080800F650D94255019EA25F0000007C00000007000000636E782E786D6C4DCB3B0E80201045D1AD90E915ED2CF8AC45050C11660C8261F98AB1B07AC9C97D42D718D865D3E909258CFD00CCE24AC6E326A1
310
64D74DC0B4128928FF326038472BA13128B1252AC747C6BAB984FC68F0B87FE8960A5C09FE86CFB69FBA01504B0304140006080800F650D942AE326B2E71010000D40300000C0000006662782F636F72652E786D6CC5535B6E833010BC8AE5DF0A6C03691E328E923639412FE0804351C046C646397E974794A64AA3F4AB7C
310
8035B3EB9D1963BE3ED715EA946D4BA353CC428A91D299C94B5DA4D8BB63B0C0682DB835C67D2BC348CB5AA5B887B1E08535BE99A0CC68A7B403549B5C4DA06C5BE530CA2A58A4B8CD3E552D43E91D54B4A7B091D949162A6421D0502778EB2C0840E390FE8DC5F170E664C405F7BECC27B6CC615A792C95C582EDE2DD3E5E
310
C4C17CB98882846D92601BB15DC09278C936CB64FBB67FE7A46F16DC95F5455D6695742AC722A22C0EE86B10CD3E185DD1F92A99BD50B6A29493BEFCA6C937F9934DBED42E8E26B9635B0B5A41C840FC700B1139D4CA0EF410C1491F227C86846F8386402064270FD5C5C709A04E65CED80498DCF82BD5C9CA2B984A433A3C
310
E8F7052763274C1D3607D77767444FCF78BC231CB5D40598900E9607EF7A9D7CD43085D6281B74EE8CB4B1B5AC9EB3F1C0E19FA8ABF8BB92325319FB5F8AC8744064FA3D487F1FC517504B0304140006080800F650D94263A77A437E0000009D0000000B0000006662782F636E782E786D6C4DCCDF0A83201C86E15B91DFB9
310
A54CFB036A30ABFB886521331D4E6397BF1A1DECE883878F57749FCDA1DDC4B70D5E022D0820E31F61B67E9590D3821B409D123184F47703E4A7CD483819945863C8AF8B66B34CD9A5439DF5CF0B49D5B7BAA635262D1F30637AC0F74AF798B391375A8F374A18944A94BFD2B167587D01504B0304140006080800F650D942
310
4587BEB32A01000012020000310000006662782F30364439433731372D303935452D343443452D423643442D3534463538434346333130342F636F72652E786D6C8D515B6EC32010BC0AE22B55850D0EB6930813A94E72825EC00192A2C460F1A872FC42ED48ED5F7E00CDCECCCEB26CFF18EFE05B39AFADE920293004CA08
310
2BB5B97630860BDA40B0E7CC591BFED02030C3A83A9861C8D9D5D9382D90B0262813126AAC540B3878AF0204E29E1E1DF4E24B8D4331C49018FE564C83B80D5755902295138F331F5C0A00E626F9841C37876DDF9216E16D7D4494F647F4D1F40754D353BDE9FBD39A60CACA59C8598C5A2E722D531C7DD1CABD6A92C59C05
310
3D3EE30BA786A024E415266B841B54D59F04EF70BBA3F53B263B8C5999E9FF4471922F8AA236615D2D716799879CB0722E70266D3CDF9F61D463B22E80DC6FE595784B531518B7B46A583913D3F8C9B1A18BA30FD6A5EF5DDDCE894BEAD9B6A19C957943E9FA5D5FBAF336F90F504B0304140006080800F650D942E8E2E11A
310
4E01000033030000300000006662782F30364439433731372D303935452D343443452D423643442D3534463538434346333130342F636E782E786D6CD593CD6E022114855F85B06DE64F47DB1806932EFA045D74CBC055A90C4CF869EADBF7A268DDB8E8B21B3239F770CECD17866DBF2743BEC007EDEC40BBBAA504AC744A
310
DBFD4053DC552F946C39F3CEC53B1B25564C30D02C53CEF6DEA5B9480A76229988AAD1F658440FC1252F21A09C6F12E3A4301800B64A28C2348252A0C8CD885F3BF0B80A8AE389C40390B7D70FE2C64F9031B026A770D6E40ECEF2599AEE4C944823421868900798442D52740AC2B156228ABAABAF5D0F76FA4D22F9C2B532
310
794D72F940F34979D9A8468EACC12167217AA4574CF13403E5629E8D962222E4E66CBC78384BDAC6755FBC1AC17B7477EB65DF63D879C659D4131487F4202228CA176DB7ACDA75B558BD77EDA67DDEF4ABA7B6DBB42D6BB29DB3D139532E610C783713E96C041B29EF5893C78FF0151F51DA236BE74F7F0089004AEB85CE2D
310
E33FF369CEEF1B7179FC0BF80F504B0304140006080800F650D942DB2674D4C20500000B110000340000006662782F30364439433731372D303935452D343443452D423643442D3534463538434346333130342F6F626A656374732E786D6CB5585B6F9B4814FE2B887DD97DC0804D12BBC254B11D575695B6AAD56A1F2C59
310
6318089BE1A219489CFDF5FB0D0C187C69BDB73C98613873AEDFB94CDCF7FB84692F948B384BA7BA3DB0748DA67E16C46934D5CB2234C6BAF6DE737996151D325D4B4942A7BADCD63D37E25999ABAD8086A464C5D1EE72F6BB267C9A525DF3191162AA0BFF89266440CA220BA8781E04A4208328DC0FEC414DD8671B71923F
310
1D31CD09A769014DB19F828B562B65F75F2DDDF45C537EF75CF9ABA84697A9CCCA9EBEFC38150549FD1361476C46B6B37818DE4C8C1BC71919CEEDD03666CBD9C2B0EF46D6FC763E9FDC3F4C2058141C9C94269C86BAF701BEE1B1EF9AF5A75663A5F83995FC2C4DA95FD90F0B2B9D15C780E6340D10C7980A48EB586DF55F
310
6DE99BCEE7917C5722BBDBD759D53DD161D4E8DE3CBB9A66BB3F6082B806155C5089AADA3FCAD01A7FD6C16BBB2C63EA5B2CB4841494C784692CDE71C2DF740FA492C4737B6C243AB944B8B440F7EC03BFAEAE488D9F63F79C9661C99884A6EE55C8DE02FFB4109566F19F949F97069D10AB324E8BB132A878CBA9EE4D5CB3
310
DAF45CF9180DD5C7DA915AC8488490C3CCFAEB91A173997BAB85EE7D5CEEF66B998FE785E73CCB292F247C00AD2670CD537A4989B5AF8A9C3C00637A3E3F38E52B3CFF09E97B500571E3F1DED93B4A4AC1492AC28C2788CDC0AAFE34AB5918EDEA74817A76447D4AD3EEFC2362D76C95ED178C4BF103B86468C6FF3E7E7D9F
310
7591DA099FE7BE20C1323E52AE5CFB84A1F43CC629022241A9B10C5BA8E5E16EAF7B2B544A54769C22CC6B1D72B270CD177CC76FCD1BD5AA12DF79A608E851BDBDA2F2C397555A40B70B6039A993956065DC259FDFFC273973BF587F5C973C243E7D54856541C3388D0BF4CE0378BB0AF502D1B3E899BEBD663C80A1A74158
310
778390285102DE963E978E8F9A66215F0E927B027C9C8B3259F3DC9F488011B26377F83FC6C2A78C9194666523B76D4C12BD6DD9519303F2B276F16878846B4E5F62395BF4287A8AA2FBFB3CCEA513DB36D856EEC105EBBEAD3E01A6A067D98EB003D1EE50FFFD8C657CBB7BDBD6A551071A71A40FF7EF7DBC2B1798920B52
310
A00277538394CFB7411C86A540213EE3D6EFAB7937746D65395D3419D548AC93D441B9463212AEF0DCC8C484C0093A7D966E63F475E4E959E15DD9C70244C5F7925182B2701B335626DB3066689ADB84E4173CF6FF98B82B937C4B92AC4C8B0B727BD6351E6DFCD798D74396782585FFA47BEBEA69CCD045021A1CC0D22396
310
5DF18C577B00992DE6B6351E2D0C6B395F18CE64E918B3A1B330268BB16D4D167718EF86AD46D588E7B94DD3EC9605C4134DDA2D79AC02FD6D8524549544F71E4921361FEA1CDF44F5F3DB6A8049DD35710619D61E5C2539A3094D0B22F3E7512ED8578241A7C7A3DE5F2524A25770F9FC617DA40376AE38F745E63A7D3D3A
310
AB76E7321BCF32299ECA64979298E91E09F277EFABE9686AA21D99D6ED6232BFB3EF0C6B72F36038CEFCC198DDC2F337CEF2663C9F2F47B6E5989C8AACE43E15E6C8B4B6CA5DDB3C8D94B39A00B4CFBA3535AFF24D450103B5C8581CA072065A44B38416A89F57B42D9E50019C75AF1781BA065D71FAA51E6C0BB263B4D1E4
310
8960B66702A90090967ED1DFD77EC12C2AC7C1A90E370D9EF1A30A88AE0120531D65B988E192C10E7D5E4E7015730007E3645BBB015092460C5784FA50FBDE9E92BE41D9442B57F25B926BC63E6557AF5FA0ACE4183F7ADDA0D24D09F0FF96E18D3A1A29B0DC95456BCB61A335A612837CAC8D52971CCC42CF4AF41E59F963
310
B3EC4145D3F3C85517BE1F82A0E66A148447D50547EAA754BA5F7C3131D368ABCF5ACECA08B1BC9E9321F38295B22C00454085E2999302509DBFDB7CE1192ED589B68C0101EDD7FDF8F6B7CD3C4B922CADB736F7EA6AAEAD9F70D10E36282954DEA6C4D0B2ED4D95A6EA5EB5DD1141072410CFD868D24EDA718438C0F26416
310
50813065248EC8570B4DB53B074C2BE89ECCD8F57F1534A490BC08CB84E916DAFC87F718B3220524386E20DE5F504B0304140006080000F650D942000000000000000000000000350000006662782F30364439433731372D303935452D343443452D423643442D3534463538434346333130342F76657274696365732E6269
310
6E504B0304140006080800F650D942F270F1330600000004000000360000006662782F30364439433731372D303935452D343443452D423643442D3534463538434346333130342F747269616E676C65732E62696E636660600000504B0304140006080000F650D942000000000000000000000000370000006662782F3036
310
4439433731372D303935452D343443452D423643442D3534463538434346333130342F617474726962757465732E62696E504B0304140006080800F650D94208DA0BD19000000041010000360000006662782F30364439433731372D303935452D343443452D423643442D3534463538434346333130342F6469726563746F
310
72792E786D6C858F410AC3201045AF22B36F53E9A60B35CBEEBAE80D244E44489C6234F4F835464A48035D0DF398FF9F8AF63D0E6CC63039F212F8F9020C7D47C6792B21C5FE7403D62A1188E2E60C98D7234A5830286103A55745067B9D86B8A3CF9C7F90C11DE607FB144396D7B6A82D282E9A152AD114D5EF2CB866EEE8
310
31B8EEA07A7BB5A8D7D61A2BAAEB7FD5F70921FF497D00504B0304140006080800F650D942DB93C617FD000000A00100003B0000006662782F30364439433731372D303935452D343443452D423643442D3534463538434346333130342F7265736F75726365732F636F72652E786D6C8D504B6EC32014BC0A625B6183ED34
310
B1858992D639412F80F08B831283C5A7EAF10BB12BB5BB6E78683E9AD1F0E3D7FC409FE0BCB6A6C7ACA018815176D466EA710C5772C0E828B8B336FC926164E40C3DCE30167C72362E1BA4AC096042428D1D6103A5F71030528FF4E9B1573798652163480A7F2F16A9EE72828215894E3AC17D70A9005A43F28B85036FA353
310
E079B9B282C7A8C74DA3C794A9AF1A1C166CA8874B7D6064DF1E2AD2B05343CE151B086BEA969DDAE6FC7679E765360B1EF4FCD351399001462C2ACA6A425F49B5FB60B4A3FBAED9BD50D651CACB2CFF638ACBF84F53D426D4D55677B5F994958A3C09C1CBBC573ACF31D3CDDB8A6F504B0304140006080800F650D9422DEF
310
20765E0000007A0000003A0000006662782F30364439433731372D303935452D343443452D423643442D3534463538434346333130342F7265736F75726365732F636E782E786D6C4DCB390E80201085E1AB90E9158D8D05CB59882C21C28C41301EDF2516562FF9F23FA1CF9CD8E1CA1E09258CFD00CCE142366290D0AAEF
310
66605A8942547F193034D9497818940885DAF69175DEB4546F4D11D70F27E04AF037BBF779A90B504B0304140006080800F650D942C7244558F8000000980100003D0000006662782F30364439433731372D303935452D343443452D423643442D3534463538434346333130342F7265736F75726365732F332F636F72652E
310
786D6C8D504B6EC32010BD0A625B6183719AD8C24449EB9CA01740401C94182C3E558F5F885DA9DD7533337A1FBDA761C7AFF9013EB50FC6D901920A43A0AD74CAD86980295ED101822367DEB9F84B068115B31E60812167937769D920E96CD43666D43AA5375084A02304F2918F010679D3B3A8448A5911EED522E45D4CBA
310
2255A6B38EB3107D2E00D6903221A7AC5E51CE52326AE38CCA59E66AB4879C8C74BCD04383F65D1E2D39B5E8DC9011919676E4D4B5E7B7CB3BAB8B99B368E69F6ED26B11B582BCC18422FC8A9ADD07C13DDEF7EDEE05931E635617F91F535AD43F4DC9D8489BADEE6A0B392B1779129CD5E54F793D9F9877F929FF06504B03
310
04140006080800F650D94205C7735D2A010000C20100003C0000006662782F30364439433731372D303935452D343443452D423643442D3534463538434346333130342F7265736F75726365732F332F636E782E786D6C5551CB6EC32010FC15C4B5C24062E7616122D549BEA0F788E08D8B628305B84AFFBE90BA557B6157
310
33B33BA3451C1EE3803EC007E36C8379C13002AB5D676CDFE039DEC80EA38314DEB9F847869155233438C3588ADEBB795AA00E6E6A1E62420763EF0BC82E3D58F0465F26DB63A407154283837E8751156A8EAE83702F3A1555C10B0FC1CD5E435A915DD0E0B41A92195832072C5537D587340FB1A1B7EB83B2CD71DF6EF996
310
B07D752265D99EC8EBA63D92AA3C57BBB63DAF392BE9CFCE40D7F45F1841B38714B33728770DCE2F96BFA222251634D15284E8D3591659FC9C524233AA1EE853F2CD4A11CD088B467B50113A2C578CAF09DB9055F5C659CDB67559BD305E332668964B71756E58868C8DE0DD84B44B8D8D298AA0999682E68BA6F23C77AA3E
310
7D8AFC02504B03040A0000080000F650D94288E575979041000090410000420000006662782F30364439433731372D303935452D343443452D423643442D3534463538434346333130342F7265736F75726365732F332F305F67656E657269632E706E6789504E470D0A1A0A0000000D494844520000008000000080080600
310
0000C33E61CB0000415749444154789CD490310A00200C0373F4E7EABFE3A05D0405373D28293794125A2DD61596473C0FA08858ACE5F9BB73595C0E20607BDFF2173D9CE8000000FFFFD4924B0AC0400C429F9AFB1F39338B32FDD0AEBA6A0381208806AD372401437CEAF9245485CD1DC0C00E962E3657B8E7FB69BBFBC6
310
59B86D9220B4CB1D65FAD74C000000FFFFCC93310EC03008035D1BFEFF63E84012554D86284BCB80301E7D3E00E06A3B0B02E0131024C1DD8736B3A9ED154AB5FB1DFAF35EFD48CE5EF33B1C1181CC842450FC552176E7060000FFFFCC95310E80300C03CFD4FCFFC1555486A445A21B03C24BA478F4257EF501522A14BE03
310
C1F60ADD36A75D3C0AC6ACA69A8CDCE7BF42D2E34AA79FDAFD7B2F29C38E002022E8BD2F008ED6B00D05C35E3BFFD5050000FFFFCC96390EC030080467252CFFFFBD5E8714B19DA34D8A4C872890D8E578618089CE36EAFBFFE02A7A29E536F58B4C52625E25C1535FC83CCD32435DD339E2B1E104DB76886D9BD61AB6B14D
310
EF7D89BF18F523825A2B928888C3183F66070000FFFFCC96B10AC03008444FAB19F2FFBFDA2107C10ED592215B3BD4F14038BCA7F8B13B5966FC0E063343738765E8DB67ACB6BDC2CFC7AD80C01250A08CC57A341E152209C52DCE19208931064882E40D41859F00C4D2AF221051A89ED043E1EE68EEE8BDEFC1FD415D0000
310
00FFFFCC96C10A02310C445F1B2BACFDFF5FDD1893B61E765DADDE04C15B42602EF366C80FF1FC0E86524E94723ED23ED93E2596CDF8A3F25F6ED3323EE677181EB06C553F88689819AACAD58C9B19EE8E7B102D6811F4DEE9E3A9945222E58CEC0FA288602248CEACAA5C96855AEBDF35C21D0000FFFFCC974B0A80300C44
310
5F3F2BEDFD2F5AD1D01AEB425B15C5A5B8497621216F06E6A36DCE30C01310F5E15535BCC4AF47928E1C77E9F7FA32B514541511619C26A4019048697382591555A52CA55ED11CC01883B516BF03E09CC77B47CE191121C681BEEF0821FCC61156000000FFFFC457C10A8030087DB3CDCB2EFBFFEF1C6B95A30EAE261D3A44
310
90200A0A82F8F4F9D3388EFDAB880F0881C1CC36C30CC16E807CF39FECC5EC4D69C3F63573486B03F97329A8B5AAF62D202206F5F6053C6B6A6C830391EBAFA9D733E63D6412ACEB829C33628C482981885EF4EF3B39000000FFFFC498BD0E80200C84BFC190E0C4FB3F2852FEEA2020123707593A909096EB71E57E690055
310
1DC39D316630FE093AD08C9659C96FEF66025B5F62DBD717C0757D2DB8BE749DA921486B84803F3C22422D7591A09ED82441FD58945A21E74C8CB1D5DA656DA394424C892082738EDDDA2FD7F9699D000000FFFFC458310AC020108BA04E75B1FFFF658B978AD2C1A227A5D0CDE96E396E4808499610C02963647E010F05F8
310
0CE044822FD0F57CDD0EE9279BE9230911414A0914B6DC6FF45F743298B1F672AC99C3D11F945A71E50CF72404EF3DAC7538CB018A600B017B8C4BD4E0060000FFFFBC58BB0E8030083C1734E962FFFF273B4AD1E260C1565D8C895D48089094D75DF8B501EC784374AEFB9628A28A1EAB9FD7FFB509FA62DFED5CDFF898DE
310
A65F243BE35F98C19951B416BF62BEE37D0301F6053F8E0EC0A007C5B4F8AA8AB215C8BA6214C1384D2022A8022925F0C288714608E14B8A5FBF1D0000FFFFAC98B10EC2300C445F225361B2D3FFFF482A70E2A6434800896CF562C91ECE8375A73B69F6EA8F569E0D2482AAB22C1742F87CFADC1DD49F7B66B9FDE81336E8
310
FB192B40A3FF520A963339E766FF9E2FDC1D2A23F90BB1671E5DFCBFAF7D638F49FB820044629385BAE3E67871CC0CD51BAA5744846D7B6066ACEB9D94D234983ABB0E000000FFFFB458390E80300C7353D4A1CADAFF7FAF5FA89A0806E805A22021866C1EA2C472EC2CB559DC19EFCE2C7DC8F4AFB3F039D64DA4FF49EA67
310
84E871E5D9532A4B6ECB3F148088AABCB7418CF77FBD326240196300DA0995924254212AF0DEC33907918C182398192104586B7F27C1060000FFFFB4993B1280200C44570BB1A0C6FBDF100BA9B2C102017FA88D076018864742DE7E68013BE69B93D9FD9C9F4DD8703678C5CAD535EDB28FF6E5BD54834740B67D34034082
310
2210499A9764114B7D9772018D7AF308EAD9733A784D09D3A7E10002000A1196000A61AD85190D5415DECFD018313957B4F25F20AC000000FFFFB4593112C02008E3EC828B83FF7FA55DA4A7E8608BA2ED756907CE955CC024FA9107D039FF72F98838BCE275E7F4789BA8EDBF978085C4A275FD8DF4F964E65667BE4F3975
310
F24DCBF685F5EFE0D0A18029D30028C328A8D60DCA9C21529401B368C16C06F610E02002EF3D38E77E93840A0000FFFFAC99310AC0200C45DF5007EF7F490FD0C141D30E31515BA1945610044194FF135FF47708BC89EF132819192A2D239FD904ABF14336786B008334EBB514A47DFA58CA57F187BDD375BD46BD55009311
310
FCAC8D25C6120238449F9DD941AA106324848D9C332925003781ADF4E54A1EDB090000FFFFAC99DD0A803008853FA331E8FD9F76C3D955732E8A8ABCD00B11040FC7BF5F01D08B9FF3E9E46951454F60CC97C3DF6C3F30C10800035AB3BEF679CF770AF7B4EF8B7EE587784812114C8D5A0BB21CDFCB8D35259A6A00011E3D
310
CCA273CB792E3B000000FFFFA26A0280CD84B1B0228C85647CD43A1FD3AD68753E321F4F23106F1790848480C00C28753DB4370FCDF7A8453ADC6C7844A35503B812054C9C8181818181918191119118FEFF812C62F9CDC4CCF0E3C70F064E46460616165686BF7FFF303CC748040880DE2525254100000000FFFF949AD10A
310
C0200845AF4DA4FEFF2BFB832D64EB61E1DAA8986FBE28C2BD4744E4F9CB53C7E48F62218476E060BC373C1A80FFA5BEB53D22DF6D80F52498E65A0FD763027443DFF45FD0ED8D719A78847BD72854ECC184F60329113666A82A72CE1011C418975A780C51010000FFFFC25302202F96C0AE021678B0C11DF848D6FFFFF0E9
310
55BC4911A5D187CAC756F463B403A85802C0BC88DA66418E7CA4D63EA1DC4DAC388C0DB59891919181E13703C34FC61F0CCCCCCC0C7F98FE30FCF8F9938193919181958585E1F7EF3F0C4F9E3C6590969662E02461F8183541A0B61F00000000FFFFA499D10E80200845AF39163FC1FF7F185F21D5D68359B261B3E5138FBA
310
7BC103FCFE028808CCEC28D597FD07FA422B0CA0AF27DE5116BFF6FF930670E7DAE8391320C8FA48C419A1EFB8DDCF4362E38EB427142BC839E358EA889A790511C13683AA42443E99A07BA4E387130000FFFF9C9A4B0AC0200C446761EF7FCF7A827E32D385DAF8815A14B2314188090C7964193E0BC21642C6993E26D54D
310
5034D573ACF556EF870D7713E30FDF574C6F65EDCBB7804B33B705C5ECAD3A17F67E8CF174B949A328617786525702529260341CE7098A191819F618574BD79C070000FFFF9C9A4B0AC0200C44C7B1981B78FFF379001786942E54A462BF6E26590812CD53067F13C0D323888024CCAC39651DFD1FB08FF57DBFA2C1BD8E22
310
BF9F33D4B51F3D2441F617BF9B3ABB1FE673BC24C0030D660AF4BC2E06502A36AD469A27B19B414B4110814840CE192925C4185FEDD7D538000000FFFFA45AC90DC03008332474FF41B34129F491435173A86AFD361FB02C0B7912027BEB5D0F4A8C606698597BF478DFB35AC207CA54001D6F77F0BF87AFA8650E626EA167
310
6FF31F05F0B0FE4110EE80021AB20B6854040E10615C66D0532147EE17A49440444504E35EDFE0060000FFFF9C9B490AC0200C45BF26C5A5F73FA3276831A40B67895DD4951814CC8B3FE26028C0F7E64F55C144B89AF48BC093874E1F05B6535E6B90C566435901777BEDFB07F89C9E30B5BBBEF2CB732E26C6837BC8B609
310
6C07DAE6B5D6CFD03152CA160422D2E167C920A11A9CAEA86DF6602E37AB292584101063FCF2F8B1BC000000FFFFAC9A4B0E80200C44874A2CF73F25DEA1A52E8A0405A326B2817445FA795DCC7C5E01448495B929682E58785A9BD9B26579FEA553A127A8EFDF7FDC6F287034C1426EE64408B0A223F2AFC5BC69907B72CC
310
A7BE8F9919A255F550041A2394B4AA9101A20222771D6B29C879033323A53490EDE9EC000000FFFFBC9A410E80201003BB35F20FF9FFB3F00D18B2091E90450D62BCC8853BD30E977E0E40DDBBA594DADF6FAF08B455C4731E7BA0EF0AFB03FCF9AEA34EB2B48B426856036610DF02D03542A7F9C310140B0030ED538A0126
310
123913AA0A11819B1DE21611C20AEF978347BE94707476000000FFFF626124A6DA86024646C8A0042CE090A72B21E620AA017C7512A1461FB21A7A2400B8DF9056F432313331FCFF859E9351EB7D8A4A010289E0D7EF5F0C9CFF3819FEFFFF0FC9F17F2089F32F333303D37FE822963F7F20DD70767686EFDFBF33BC7CF98A
310
415252828194A16200000000FFFFAC9ABD0E80200C840F69256190F77F489D19F871A104047411269276A0F705480F9276E47A48B150EF48F1CD0580E683759F3923E0E3C87FAEFF16FE0D02D91F33C31803EF7DF107D6828F6F037462CE81E8639E79A9C0A6CACC2923C6801037E8028222AA2EA62602EF8CF33AE1DC016B
310
6D57CBA111D494FA060000FFFFAC9ADD0A80200C854FCEDA93F8FE4FE5431879EA42B34CE907BA1BC260EE636783EDF53D00C022F74BBE8B2FF2DFB26F92DB7B7BB2BFCE04BFCD0122D069AADBC08DF4F780F6FB3E4EF27FF5D9E364029ED7C4AA0A0C0073D54712122356636044120712A3B5984380F71ECEB916C6F1CBAA
310
E037000000FFFF9C9AB112C02008435339FBFFBF6A27F5AA74804CD6EAD5998917950BD99A01AC491673E6D68CCEDFECF6CFBE803F021860F92BB2250AD6AF6A400188C7B923E219516AD902FE067480FD3503402D77A01DDDF307B5548345834AE1E6113B75A0ABE26E0D12044104295DC8392FF7053C0F000000FFFFB49B
310
C10A80300886BF5A0BEA15EAFD9FAEAEC56A731D9615416397BC08A2277F7F51B41800C6A451449F22F57B361793B3FD45FFAACB7C006EDF6B1C34066B1BFAAE675D5676BF1782E0CD0E14808054F53122921840CE0DA1B6206B5B6A3D4E49D027461009408584C0261B3E789C734CF3CC380C9FB979CA010000FFFFB45B41
310
0EC0200803DDFFDF6B88851D70844CB69DE6C998E841A425D21E4963B0E570B862CD428C709923E3016CC95F677EBEFCB779DEFF5FE0EB3535378836666ABD477753441E8AB76FF82FB9FF4601BA605F2F0A58E7022035F3CE60420140C948BC4260F6AFE23142C78039EB0014E3040000FFFF9C9BC10A84301043DF42A98C
310
82FEFF97AED68E7A98B66BC5AD60612EED2510921C9A7125E3EB1F44C000A86A5146AE4FAB2ACEB97BFB3F596A754EF7FF14DF22AEF5F626FFCB246C39DA62AE83A5ED1EEF3DDF7966D35893FD60FF46FC25126E22E0AA7AC39814BEEF2C4BB096303F07086B8090FA8C51E103433F304E239DEF1011EB1388345D1AE00000
310
00FFFFBC5B310E80200CBCB092880E8CFCFF6DBC417A71806231DA51920B0B53EF5A52B8BA57004988C8F4F5E9E3CF246404CF30F4D56DFC5AFE7577893710E30954E8074D085D08ED7CC97057040F212C2218B059CFF58C2E91763B92D109D7517592485B422905C7B1F76A30C6DB6AADC83923C6E88AE0020000FFFF9C5C
310
4B16C0100C9CDA70045D70FF83398428795DF83CB4F5DA5A059BE44D6662331E1BA0677F95FFF9DB946E8331ED697D647F1FFF033E67B3023E3FB4526BF29812B858BF13338E10E03D0100945420A241F6AF0C7F798E1BF0EB7D37FEAA1A1385520367D772C84E65B109E85DC31A032965B3AFD77A638C70CEC15ABB548213
310
0000FFFF8C9C4D0A802010851F7908570976FF7BD501C44C1A6B618E3F88E94A0617CA7BDF208C4ED700C949445475BB28EF0325617F6386FE91F8BD58256E9C4C11CF8F3F4BE25306483F84BCC7E91CE8A62F032CB9BCDB23BE8A8F8CD08AFFE47571C749013EF7E55CA49D02F72A104240A915524A500830C6B0A981879B
310
53586BB11F0736AD73C1AE91EC050000FFFF945BBB0EC33008BCE02195423EA1F9FFCF4B17ECC8C1EE40C8B3A9DAC18B174BDC1D1CC85C3683DC14BAF2F7C1F4E011859F09F0AFE2BF81FD09DCCB1D4EC0D4FDA74FEBAF759EA15A508A42B5AC8B21D3940C785550D3A0EB18140829463357AA3698B953FC0D11B673ACF5AE
310
FA43EA3C19B19C33524C28D508D0738F617882992122AB21F72ECD93348580B67DE0358E10916538B4CD00EAF2EE1B0000FFFFA49CB112C2200C867F5A1CEA90B34365AABCFF33D93760A6C16BF41C2C0888E720036C0C7CC9FDDC7F499A9D41D1E9AB35EB3D16A55D275FAF7FE0D7607F9D2DF8F7ACDAB7D4F8470A844D04
310
B710525B58A73A9CA709C61810114404CC0C22C27559C01C76DBFB13F2D7408819BF0F9528E0E7EF9FED49320178EFA10F1AE369C47C99711C06AC2B436403A0A0F5CB9657AA43DFC7BB55FABB39E760AD2D584477F0090000FFFF8C5CBB12C3200C135CB3F101558EFFFFADE40B98D225CDD91DCC23A4A457260616232C73
310
B24FC312503C718CFE5B6FBC8940BF35802B90DFC0B610EFCEFD4DFFD78FD580E67BCA971C9FD5F8FD6DB5737A4C88316226AB945A6D618E032104F0492CEBD24D3FDD67FBF90148157846E03B18F51A6C5AEFDC7B6F828E03661224A1AAD8B6576E16691E232FE614B6171138B429ED94124876FE0B657D000000FFFFA45C
310
410E84200C9C8D7AD15492A58986FF7F8E8B5ECDDA5DF7504090ECC5E5099DE9740AB43F3D401DE852CAFE23C09DEC07827055F5FE04E053993AC9325F44B0BF7407407CCD34C6C0DA27981944A4B3FB09F83744F674F7414460CBF0DE976A73ADF18988B9EC5F9D7E8CF581239200E79EA2A66931F4BA4D6434239C731011
310
6C9B4E2C3F024E45C508BF9AF2D375DAC62ECB8A799E2A9CBE000000FFFF749CB11283200C863F4DBB58ED641DEDFBBF5DE59005950E1A140F06EE200753FEFCF70D218900AA0ABC5F129ABC8A41ABABE400D7CA4EE3A5249FF773FB701E8AB60F64C14EFFFAED23DD8E8A3F206A5D57DE5DC7387E19860F2235DE2F38E762
310
B2EF0B40A4A6EF7B8C31586B63FBDBDDFE95EEB72D6FFB21B256D2BB0D9502DC93AE6D695E0DF3EC908744000CFA38E9633CF2C7EE1A0AF1E8A43211A6E99715C01F0000FFFF8C5C410AC420108BA5E8CADAEE45F0E6FF9FE7452C156A0FEA682DC21E4590C168662662060660F43DBABEF48DD43A63801923CC007FCFFD71
310
FB7BF081BCB9A56DAB603F818F38CF88700412B07EFB0E6B2DB4D6A4F285103BE0AF92365AFAC80A5BEE0684E030C6D09A35BE57A157812737B1A1026F4C4FC38531702EB06D0A524A78EFE19C83525FB2A7A982507324EBED6CDBA1B852C29212D6352B9ABE58DE48F979C471030000FFFF8C9C310F83201085DF9D1A3BA9
310
832676D1FFFFBFEC62272BD646817610E8699BA603616039F2F11E5C7287C802287C8B768420D5668CBCFFF6407FC1FF07B884FD11835B94F66AADE8EA15B35E359675C1639EB138F0E7BA4659963BF04AA9AF6A0F6D62DEC6DD8B792B1889501439AA7B85AEBB047C47CB7F8B45664B07EA6EBF84278819697A429E658893
310
18C370C334291011F4AA61AC0DF0FD60DE8A58FC0120DF5B0042C4CE8998112709CC38A2EFAF68DB66C7EC050000FFFF8C5C3D1383200C7D89B2D881C1DE51FFFFAFAB7775E38E2A4807084687B67B8690072F9FE49405C87A14638CA2D7DC72E0A2F08E94BE67019ABA7F82AC64FFA17C01FEFAA53BA688B86D65F74EF5F1
310
7B4A784C13EEE308E71C88E804BC8E13A40E901570D297177D0900778C0E3D9C730821607ECED515E897BFABBAC171D6AB8DA8D23931E3360CB0D68298B0BC16BCD7B551BBF8FC227B4C2F13736382C6022D0E60E4DAB5EDEB8C83F7BE5D1481E3030000FFFF745CBB12C420085C9B34B1D5CBF8FF7F48521CEA7905C4574C
310
EB30A3B2B8B28A4E39C0A8FDB57B9990B6F5A7827345F10AF807F893CD9AFAC5B2A7FE5F2983944B5A3F9FB348B9FBE4EECBF2A1D3717CE0BD8773AE02CFCC48290F14DFAFF806784B2CFBAD07909C5DA87A4308014404A213C6E0B1F25103E0E5759511F966F71DD65A7064101122C7C1B739ABAFCD02FC1A044D44DE7737
310
4519406E37375CD7096656352023FB030000FFFF845C4112C2200CDC302D07DAAA4FA8FF7F91FA0B6670606AC10304288CF508A7B09B6C42603254B6FCECF0D56351F951A897F74CEFE9FEFFBC9F404F0BAE3D8E11CF933C12F1CEC1598BDD7BDCAEB1375E477C21FED35D0FB3D4B7A485D0D9C4401109080A504AE1BEAE78
310
3C5F781B9395A0384FC1B641054402E33860592E98A709C61868ADE3C91B6FD9B6D80E169CF313E95CF01505A003F979B279FAE7B87B0F6B2DA494B933F8050000FFFF7C5CC10DC3200C3C68455E49783000ECBF4F3A46A350A941A1A58F603028EA0B2130823B6C2C63B8D304BF2935DE3F9D56DCF93B57239AC1FF925F1B
310
2F08AF320568021EC826B4F3EC33E964EA4308D8DF3B8E78609E663867618C2949ABE563C77C71C2E3FDFD19DD6A3C95171B20250632A0B586B316CB63418C1F665E8BEE573044969712C330601A4728A5B0F90DDEBF08DEA63B554447BE60E49323C8A3B8000A3FF276268B00C0735D9B67E63F000000FFFF7C5C310EC320
310
0CBC04589852A9594995FFBF28F943BA51429BA403364620850D18B07446B60F739A4FFDC608EFBD8480C2829C09B3B3D02DBA53AD68C12F002FF66A47282B8EACDDC37DF2BF047CDC23FC2749AB1863F09A2638E760ADCDFA7EC7C1C2CE44F9121B780F7C5D7AD2BA182DE0501276A1C7383E31EF339665C5794A7B7CCDEA
310
E11272E7310C505A61DBDE082134E1B4AB26FC2691416FC0AFBFB74948EFBB2473A3954EE56B31FE000000FFFF745C3B0EC3200C7D7C26A2F4027573FF53A517606824A620950ED8160E0D1262C083C1D8F83D3EFA32A853BFDDEA8257450D2532B85F8E85EFFEB59BC2FEB418EE8D3FC23A13EA199E4A821763C4B6BD4044
310
58960E934A290AE78400528F6FCD24785A59916B7BD5DB0CA97D15877BE7001F404F42AD15FBFEE6999B037F080129253CD6157040CE19E7595572A482C7A2CEC757C3FF1BDF6E035DDE2206EF1D8ECF31E401C00F0000FFFF8C9CB10EC3200C445F02D9C2C20F344BF3FFDF46CA5029810E60E19028EAC88284CFB68EF3C9
310
56821F42E03812C60E54638902ACF900C51790522AA61095B97F91C09B764F3ECBB7A2C069E0BF42F0EA0C7C5DDF78EFD9F722E0C83F5F0B41A93A6AE8417F00FEAEDA2FE7FA8E1A6E86110C23CB6B01284990F32936D36499E719E71C3146B6ED5356D1E8CABF605F1442D93BDC00EFC05744B02581BA4508A431D0CD717E
310
000000FFFF945C4B0AC320107D634648415C790069EE7FA4E6168D2D14A70BC789B449A12B3782CA1B9DCF7B23DB043D9E74F495F000114881698C13594368AD82DE13FA4F0CB00759DDB834A7EF9DB1AF46CC3CB52EF1506A36848065B922A504E79C017F54BDB3A7DED63AF3F33A0E7B3D03FDDB3064176C1261E2093967
310
1008B775357FEFBD478C119779C676DF5AB027C32DFB00DE52BEA60003330FB2B05FE03BFDD84A8DE7203BA82228A59868F40D0000FFFF749CB112832010441F03A1B1C1DA31FAFF3F674C23642624C58122624107C5CDDEB27B706080CA1445F60C4841C634276B90D626B5297F41E91BD69F93E20ABE0CD9EE731D9F74FE
310
23066FF39B3C867C188669E0398E745D470861BF0A3D819F74BEA9ED0D9D2F81BE677E1547B526335DCEE5A5737A9E27949224B0D6E29CC318CDF25AF09B6F805E7D40A90E10E127A46B30FDF004A529BC96F26512C41859D7377DDF03F0070000FFFFAC5C311284200CDC20D65E49A3FCFF75145E213A842B90104E6F6CAE
310
64683281EC6E7632B144106EFDB5989015029CF1150325678C0F5EC01DA73691C722D68EA3AFFA3DEE606638E7302F335ED3243C5FE1BE28FC84C4099CB86BC18A7BF71FB8EF0F570AA3B3D289089401630678EF61ADC5FA5E0110420832DDD332A6A05ACF61D43B54C16994F0FB7E7C23EBEC9A3E501F40B5F695B662DC24
310
820F000000FFFF6C5B490EC4200C735B893E62729BFEFF417C63AA42A5D2CC81601671E300521483E32CF06750A6E35EB533255125AD162355952DE33CACD83BAFE25E059F5A886125EFA9E0DF16E7430C785382733B8EE30B11018086EE733EDFB67759A81A299FEB6CC79CF627804F5E7EBFB53FFB025852223D17D52EF2
310
C1EF3CE1BDC775853A5D353482087801BFBD14BA60770EDBB6D2F723F8ABC5FD510714C7B39066223E5AB91F00FE000000FFFF7C9C4B12832010441F909529532E63990378FFD3E835CC2A9AA2B3403E129315AC80A96EE8F95073899609654D27E4A7A5608C81542489801B63113E49C3BFC450C9C0085C8AE7D78DD7BAC7
310
F3DB8610F7BEE7310C745D572472DED58DCFDEFD6FC075384B3DD6A07E817D32392381D25E42B2A92E8F815BDB328E23F334B33C977D2D7B003EFA1165F898755C34D706EB1C2A64B8949D408C4CA22CE5A4D7563E7420110A3F8CBCC739C7070000FFFF7C9D3B12C3200C441728A1A7766AE7FEF771B80433C0A6508CAC38
310
E404307AFA212198750011E0C0A0976F58DCA7474D401C479FD78FBC972A96246EEDFE26E00FF8E65C7F5A7D95D0536B45EB0D31463CB60D3967905C2679675D4285AEC0FFBB7BDEF7B7266E9561A13436DC48CD41A68BFC849152C2FEDC711C2F9452404A4B1DC6622FF0CDEA4E8DEE1BBE53F00074788457E5E7F4947D74
310
C322848037000000FFFF949D410E02210C459FC68C6CD01BB051EF7FA499530806A42EA450758C71416045483EF0DBDF5276C0C87805BA0F683900A1D6CD780FD016904B0179D6B6538BD5F2BDC8E7959F55C54B37528AE45CD08C971002DEFB1EFB1EA7BE18E0ADD4FA47FF6503FCC07E15743B8752E768B5894FDBEEBA49
310
ADECA789CBF9C4F1E099E7856B8C6FEA9D01DF8C0570CEF50F30D7051FB5135ECBD32BF81A3391962974AF83CE1F000000FFFF8C9CC10EC2200C867F1CB799C9C1655EDDFB3FD5BCB9701747A9870E6C06313E4043D29F86F6CB4F2D33C37B0F8A11C65A00099C0F6FF4019900024057C64192D52A2AC13A1944B198324278
310
E315A4EA2912FA738FF93E631CAF60E602738AF80AE65433FC9FA2B7DFEE5AF11FFA1F621B8D262BA76F926AEB28C15AF96BC8BBAED374C3305CB03C16ACCF55809AB2DEE170114EC6C039D7843B2AA0AA7EC6770DFEB60953C9C616CD273E000000FFFF8C9D310EC2300C455F05586D97CC50F672FF030117A02BA402C210
310
3B75A98AD833F95BFEF6B71DE732508DF9D62CD15380E50130ED0AD804AA881063CC7BEA4A03CB90FF72A5DD83BB6AF700FB43E6FA104251F88A92E7BA76FF0B38BF405F0BF9ABD07FBD9D73BE39E052569E9C20772FF56ED076A3FAC993BAA939F53DC7AEE37CB9320C375232EDDE3B02C84E689B7606BE5779AA8AF2B185
310
B77F52F0C751AF9DD94C819B1F00F8000000FFFF8C9D3B1283300C449FC74EE014843EB9FF9D481137A40124A5F00F68C2013CE3B1646957B2BCC1950333C5D451134B71598C220DAAB41270058266ACE5070BD74047ADE6AD4928A968F188083E781EC3C0388EA82AF3FCCDD4AE093396DEFCB9277F95D6FD037A17EC7F5A
310
7F8C3C691F39D7EE6FFF1E945AAE7388B089E796E56DCD401D091BBC9EC44F647A4FC418914D487A1A29A2F67D4FD7DD3950C66A9BE4143E1BBF3D62D1CAAC963C48B2AC0BA6860F1E53AB135E3F000000FFFF7C9DBD1683200C85BFA01DDA73EA8275F7FD5FCB8E76B4A76AB043403C5ABBC2C04FC2252137A134A858560A
310
515C232276FA45F246A80A224A51840839F6BE6D503D23B19C99056FF25D9FE85341035575A76D5BBCF72B0369FB23E77F23EF4C0976FDDBB683904F8CBC53F9EFC63D40FF0F1460AB083033471ABA525E72E9B7699A70CE51D79EA679300C6FBA6747DFBF18C70F0B0BD7DB351A8169525911523EC05EF896E36021F2E445
310
A95A312F278E10BD37802F000000FFFFA45D310EC3200CBC380CEE96EE644DFFFF3336E25440070C06B56A87AE4858883387B1CFC2B50442C919594FF1A8543527A89B901AD88BD3AC60FDA15BE48273AB49B2AE7AD78FCD0B7EF7D8BD073323C6F846F9B5554BD9E89F20EFAB03FC847DB231D1FD27E031838F61DCE64355
310
42D68FB0AA5893A8D6E989087C633C8E032925C4F3440801F76D53A66DB598799D1618A3BFCA9EFA2399887416404177A4A5989117000000FFFF945D410AC4200C9CD51E5A5AB62FA8FF7FA025A06DDCC388C46E29F424286820D14C46920C1FB0F013E37943033704D8E380520FA11BA02B483923C688711A99AB9E1244D8
310
734F0B3F8DC21610C2C6277FDF71B45EBC96BBBFF0F7AF466B08BD929FC1DDFD8235B027C577F37FC66264AA7B965391B5A273EF6BD12D72FD7A2A9C67E3C9659EB17E5738E72022EDF69263B8486CDC6E3E98DA66C935C6FC83E16B4AC3113F000000FFFFA45CD10A80200CBC4DFD00FB03FBFF1F0CB47AD09D664144820F
310
22226EC39BE7360F58944F2582440169F3B4011E063820C8523D57D78A2A861078CD8B081D3A7B03A735618991346FCE99DFBDB7E08CBFCA1FC65F5A5F3B61FDACFC17C53F43D1BCD741D8DD4B816A95A7770E5A6A7D60830793B3B2BB8B1190E51BA8714B7CD95A5CA4B6C25774EDA4E70F9C000000FFFF8C5D490E80200C
310
1CC02392F002F9FFBFF013027A183623014F1C48E884764A535AC806A02A03910341BAFEC67ED1810F0190F202F28B619B52D8B586F727CF244121D65A3877C018F372F905684A715C8AF547D953D7BF3200F1999FBBFC11EB178C1FE2E8F75254053249C31A08FE3FCC57CAA46CACAF8177192BE6D6761663E2A55A69ED4B
310
6C302989244ABD81BC1E003C000000FFFF845D41128020085C663A684FF0E0FFBF58197450508BEAAC33228BC0B0232CA04A37EAD7A5EE01C48C0042C335042718DB2E167B8E5210E38A102BDD1962404A0939671060048EB97CD609DC4EA2F702FAA4E087A2BF62BD87BFDCF6CD207A40FF016F120CE8EB1113D3E719425B
310
6211A0D53D50C87A03AA21507B58BD38D365B366D35CE71A13D54F21569154819AF168F278010000FFFF7C5DBB0AC0200CBC8A5BDDDDECFFFFA120C60E466B126D16110E0C5C7C9DC178A0039B5E01C42170A1BF71FE7B2928AC008E2C9E7007E49C1163C493126AED8598D7926C5B35EF40BA20FB877CC1BB0E00BB657E18
310
3DFE61D6DB3E4C2B82F0649776671F08C38808A0863A711623FC065F0B597370CE2D0FCD6DFEE1E959C70180170000FFFF845CD10AC020087490CFEBFFBF74B1E0F6A033B5DA9E8A0AD22E8D4E4B3382F4FBB1EC013C19A42A42932BFBDD355F5D846A97C4E89999EA59A72B5E5FB8FC81C1B77BCFA51B6A686E171FFEF88A
310
ED79630D4BDF59FD0FF0D1E45D75063A82B9EAA740C59BAA409AE620E18FE21B0109083A41F0B2BBA052D8E2370F000000FFFF845D410AC0200C8B32F1B0FDFFAB3B8C991D566B0A6EDE2B2D2426058BDD00F84EBFC686AC0A408248269963C7DEE513B9276E1B0D2389520AF6E31D71CEF6B171F77C97FC7EA31484192040
310
889B7BEC027C44B78F40FDCBB9122134785ACF5772620D6E0071159BC79B819E122275C22484C0417E49546BF59EE0010000FFFF945A490E80200C9C122F5CE501EAFF9FC51B68E20278B02A5242622FD0362184E9F4307400006B2DEE593FD45A00C9E3A402FC6D0507C67EECA20318CCCB84D139A418E1BD476086217A46
310
C7DE1FAAFFE0AB5C11AF31501DB25A358B5B0CEFB0BE3E4C193576E235C1250D64A72374F39FC2286F910B3F8BB278D9090000FFFF845CC10EC0100C7D46626147FBFF5F7473916C87671BD686534BE5251E954ACB01682F53FC021616D8D04701F4BA249F4518A53055CB3A8B2332CC3B53E29D5F2B4288C83963DF3D80A7
310
5882E07FF21B89D20953E7E8045C8A3C63EA6E7DB411F185662665452E8671C87D12B98B8DF259F68A1916C37BFFCA37000000FFFF8C5D410A0021089CA1FA45FF7F652B7B48C36C5BF424358760C41141AB80FEEAAD5B314940B4D2B4625944E65CBD76F6C678D622C5DEFB5A57623DE852E6383309D4D6BE09F77E222032
310
E41FA70E1BB3C99574C5FD6ABC59643D5E5EB47E7A27B9DC20B72C9024DF3D873825C0EC050000FFFF949C410A80201045BF59D4C07485BCFFF144A916922DA6B232A3562E443FE393F98CA8758C119552E8DA16D6DA53B921A12F4BDC3C7FC6384D0821A0A91B504730660033C33B87FD3A949C122A10119C77E8998F5734
310
AFE9BFB4F01FE097A09F863F6894AB8FF7547F077DE52B8DBA3348DE9CF59737CA1F0B48F2B9B6CC2E5169AD2FDFC8AE000000FFFF945CC10A80200C7D927550EFF5FF3F5747838284CA0E9B62D88A3CEE5D84E736C7B69747799C7318C70967C36BC891E7FE766EE8F0AA75D79286EE30F430C66259A993A7A0A035D596C7
310
71C25A033F7B6C21D0A74320A32206A8F37FBAA490F745ECF3713D616F811E28255C4AABE8D915AF32F9AF9E8FBFE4DF000A013166D998742E000000FFFF8C9DBB0E80200C456F141C1426FCFF5FC445127904070882560253C3C821B7B4346D290913423CCD1173E2C087507EF3ACB36950D4C2B12B0529258C3971590BEF
310
1C62041867E0392298E6F43ED0874E7DF819A3E1D787DEF3B99DCBD0587FB29FED0F6852618845307F6FB7C5DDA3A0C7E0D7FA3F049FE41FB1AE5B33C9FD060000FFFF8297007C7C7C0CECECEC900DA2D0A1E19FD079FC5F3F7F414FC7606710161161101515854EF522067960C7993330406E1483CC037033BC7DFB96E1DB
310
B7EF90858D68AB8789AD16B05501D86B031C098694848506E0018A25E3E3CAE594453E666982CCC65ECC13906380965CFFFF33F0F2F2A2F801000000FFFF9C9DC10E84200C449FD9C22A12FCFF7F5CAF8B078D1E0A898BA8593937044A679A36CD20D9D01843D7B6C46F0421A9684D2A97DE807D5B9C730C21A80843D479BE
310
7999D34CFE9A5A9080B534C04B843004C6CF88A43F06B3D7AF727EBDECAAA1B4920E0EE83ED9A7B03FAC13C4DFA1F4DF877ECA0625CD6BDC150CB43FF7AA2D65EFFB9F6B6D000000FFFFC45D310E80200CBC0E84057580FFFF4F1619988450874605C438DA85A4C776B9B469E02A8ECF90D9B1750EABF760E6CB50A9145956
310
A8B5867316442416EA2921E7D48C750B17600788E43F3A98B1CC33C21610638499CCFD82B8277A707E9780510C7A8AEAFE48EBBD5ADE516AF37F935F734C6D9B5963A74C94528F6D2207000000FFFF429C16CEC0C0202424C4F0FFFF7FC42A923F9055C06CAC6C0CFC7C7C0C6C6CECD0593D48E4FFFD87BE218381E1CFFF3F
310
D09D2A6C0C90830B5918848404199E3D7FCEC0C40C390A05A5574052024030F055D7C42716A8345A66410423720E23AEB826560F35229F608900F70764A289938B0B63093F000000FFFF9C5D310E80200C3C8C180914FFFF455C3B8889C1A146053418994A189AF6B88381D26C36790F72843007F9861C72B1336684B50E31
310
2E887115F0CF52AC2C95D8904405A0A0750FA53A1079103398F9E8383A9C2F583F2BC0E5228FEC7E366784AFD97FCFD1653EB0FE15C83FE07E586F015B4A7B7323D471A524452AE5D8010000FFFF9C5DC10A80200C7D36A8BCAE63FEFF9FD51F34EA9075D0594689E44914863E9FF29863CB084044706EC434CF3000281627
310
ECAD85F73BD6754BC19BF7EC598AB27653E975137440630C0666C822101100477010C59595FED39F14C836A8534A822F417807EF45CC65764B37BB6A2C19A93CFC3AF7EE9F57E082E240DBB560E614E8A3ED040000FFFFA45D4D0BC020087D31B0B10EF9FF7F64D7AD067307B7A8F6C9D65110D1A7601AAF035328332B2846
310
5F0A59225822C49890E6A45BC04C1973D38489368404005D07220BCF1E21048C93412FCAB8B5EB5CCFDB8B634AB1D40E37F6CFF4F21D3E27C15BA03E56EE5FF073E59789F66CAF8DCA220237B8EDA3EF3A342B000000FFFFC29A00040405183EBCFFC0C0C2CCC2C0CACAC6F09F01B27BE8F76FC8993BFFFFE1AA541109E2DF
310
BF7F502E23031B1BE49C1A010101862F9F2127553132422E3D842C5640443AAE0E19235AEE856E5C8368C2C8FD487A600E624491404B36E4443E23A65E3897889281889C8F29865F3DA6BF100076A104FA1E4E00000000FFFFA45C410A0021081C0B7C4AFF7F9F1DDC8366A12D2CAC3027E9A2624933961D2FCC8C3186395B
310
0308F12814992630083D7E86CBA29C9AB498C12226E7EECDF6E910082233E8CA7B9DBB7F1967A8624BBFBD53383923AE8E136EB598CE08E504BFFBAE81473D4BA9607E259F6EFEAFC9A780C246FC3CFF2F7B000000FFFFC27A58B4BC9C2CC3B56BD7E099EB27743CE0EF9FBF0CFF19FEA3050C4AF0A204F9BFFFFFE0ED0106
310
460606061656064E4E4E063E7E48D7F03723242261EB0831CD43CFB6FF2143D4D0154A8CD0F58AC8118DD61942682598BB91F4E3CBC568C532692D7822D4923CDE8F99309199FFFFFD870FF2C18491E308000000FFFFC29A003838381974B4B519AE5EBBC6F09F81013E26F0FF3F6AE43362B110622B8CFA8F541530303070
310
40B63A09F00B307CFBFA8DE1E7AF9FF04522C8CB9730E31D12E9C8342CE21991FA709869085F4EC6174138221F4E123603591D5673488C7C94648D2FF291A8FF0C90BD85C2C222A811830400000000FFFFC2796790AAAA2AC3E7CF9F191E3F79023DBAE50FD600424B0628009633FFFD829604D0128595959541584498E1F9
310
F3E7901BB2A19B16991899E02E6764C08C746C890015600B70DC62F8229F702EC627874B2F213309A845F1223E3968F8FFFBC7C0C7CFCFC0CBCB831427A800000000FFFFC27B6B98969616C3EBD76F18DE7E7D8B3350F125008485FF18FEFD82F61C20491D5215F0F1317CFCF89101B6349A8119621A72E4E3351CE104342E
310
72AE421743753B6604A0CBE15647D7C867C466278A0791DCCFC8C0C00039B6460C7A542E3C1418FFA3F40400000000FFFFC29B003838381838383820AB7F98995172206C912103C37F94C50658C17FC8A6F3FFFFA167E43032327032723208F0F3232D2D832C496366C2DE1E803A1F6B2EC42E871C5C98114C7A4EC616218C
310
E84C5431343623AA42A2F561442ECE848160FD830EC3234E0545F239522200000000FFFF9C9D4B0AC0200C445FEC0DAAF6FEC794426D17FE6BA0D22C47FC9038300A8EBAD36317D6EE20FD47494D9517DF1955B94F2AFE265E91333B9286103066C3390B50557ECC2BABC59D583BC71ABB45C77E165FDB68DF0C6E58EABF70
310
0934CC21E520D08D39B617CC88E0FD313C057F650C80070000FFFF229800A4A4A420B9FF1F62A006BEA61FBE6C1A09638348EAFEFE855C6CF8F5DB57861F3F7E40CEC8E7E747CC28229F4C0E85D8230D3B8D2D41604B4CD8731F151304C9F244B03112375A02848AFDFFFF9F8197978F818F0F7BD70F590B000000FFFF2298
310
0084848418E464651002F0BE36EEC84660681A61406A7CFC87AC18829DF5F7EBD74F063E5E483705B25D0C3A1E006B31121BF9707F1193309042808848450F74846E7C89894479A2D8B8F988C88724143131511CB91F25A41800000000FFFF2298001818208D418C3304D19B935807F0B08CCE3042C4610B4EBE7EFDC6F0F7
310
EF1F0661116106760E76E82EA3BFF0EE23D1918F1E894834DCBB387325FE1C4BB0FEC7484C686C528B7A52239F01598C8141187A011641C0C8C000000000FFFF222A01080B0B33E8EBEB614AA0C72F96F8C66E2FC4B9FFFEFD63F8F5FB17C3D76FDF18FEFFFFCFC0C7CB075F4D041B69441E7822AE6867440438C6A00D0303
310
034EB3B0C9218BA1B1714412563DD803812691CFCACACAC0C2CCCCF0EAD52B86E7CF9F33BC79F3067E130C6C2C07B147839101000000FFFFAC5D310AC0200C3C53AB20F80DFFFF24FB013BA52E857648A916541C9A3164C91D8124E4C8700AA82D84801837A43D41F592EA9AAA40AB4006DEABE39C33ACB570CE810F9675F2
310
758ACC492B10A84D3EDABE02E328BEC67182C8898A9FADEC3FC8FFB2208DBAD64BF92E0659E231B3DC691261350678545CDE7BDC000000FFFF22AA04606080A42C434303062646269C1336B800239C80B91DEA01D836E7FF9044F0EBE74F060E0E76060E0E0E06462646F83E83BF7FFFE29F2422902070CBA14704448CB888
310
24560C3B1B256CA810F90C0CFFA18751C1D6F932A2842F030303FCC6901F3F7F327CFEF285E1C58B170C00000000FFFF223A013030407A049A9A1AA4684173263C161890BB650C0C90C6CBEF3F7F187EFDFE0D5F85043B350376E50B6C568FE4F1001C72488E41514F7E8B9EB8C8C79D10D0D9442406A4C8E7E4E0C458F183
310
1AFEA8F8FFFFFF0C00000000FFFF22290130303030686A6A32888A8A92500AA0E72844C4C3F6BB33229206C33FE8B574AC6CAC0C6C6C904400B9CDF327D2A516E891C080268616D038E4085705A4473429918F9910B0254C3C7C28F8CFC0003F8A0E7D62941006000000FFFF22390170727232989A98401A6B44240246341A
310
1EF148109E2419600B43FE33303142CED9676767871C60F117D26BF8F3FB0F6A6F04236209E458AC7224D4C984AA08AC1148091B071F0EFE33B030B33030B3B0A08CCDE0C60C288D7400000000FFFF2239013030407A0506860650EB892C0990221D290B42130452626080B911B2650D960858595919FEFF832E58FDFD8BE1
310
EFBFBF28E622D34812980902450EC3817822039150F05611A8B66092548E7C6616C89A4D48D14F4C5C405300344100000000FFFF223101FC872F28D3D2D460303234841B8902B045024C1C4B0980D19D8359C500491CACACAC0CEC1CEC0CAC6CAC0CFF19FEC30F9F80CD22A2E863404B100C58DC82357289890C7CF2986CCC
310
F020511FA1C8676661E0E0E080ACA7405FEB452400000000FFFF223201C08672A1E9076A999A9A1A83B4943403AE94879A0E9073396A09802C8F1C21B0C40A3BEF869D9D1DD22E606262F8F3FB0FC3F7EF3F50DA059891892E863BF21950C4F0B1C9CDCDA806E093C79DF810F1C1CCC2C2C0C1C18EE58E67CCD21EC7822906
310
0606060600000000FFFF22900050231E45E63F03032B0B0B8385853983A8882803FC883706745B50733F8289A504C0E906887A582240B40BA06710FDFE8DB808095FEEC68868CCBC454A0E253B21A03A0305E00C062499FFFF19A0174961CBF948518DA31D809C5000000000FFFFC2910070473CBA559C9C9C0C9696160CC2
310
22C2180B0E11CE460B3574CC802D9722620DBEF68F01E27136363606760E4869F0FFDF7F86EFD0DDCB7F615D455C399E014D0CA9304211243A3793570A608409466EC7C28787F97F78E44322114BCEC752026002880C000000FFFF62421640310CAB26747510CCC7C7C7606D65C52020C00F9FCE457637B61C8F33F7A3862D
310
6A40407DC3C4C4C4C0C6CA063D48999D81919181E1D7EFDF0C5FBF7E856F6743050412045AA2203E12D1CD279F8DDD2C8C9067606662869480CCCCF06C016B34FF4789726CB91EB3AA00000000FFFF624216C00D508B0E0C596822B0B4B0C04C04687EC3C00C68B91EAE101B0D730B03A45DC0CAC2C0CEC1CEC0C9C1C9C006
310
6D20FEF8013D9FF8CF1F0606947904061C1180268E214F049BEC9C8F1A34B8C17F68E43331B0B343EE0FFA8F35CB136E0BA08423C37F0600000000FFFFC2D30620A64440B2F4DF3F06616161063B5B5B06116161C86D97FF1950C214AB9719B188A2E456549A81014B95C0CEC6C0C9C1093FFDEAF7EFDF0C5FBF7D832C4787
310
7517498A5C0612D4E28F3AAC00470EC725011BC767636387DC1D8467CA1D11D1C494040C0C00000000FFFF6242B20543123B406B482044112581A50583A8A808C35FD88A60244FA1F6051851C4E1B18F192C986103B190013E68C40639B686939393818D9D8DE1FF7F4469F0E7F76F94E5E90351C4132EEE31FDFDFF3FE418
310
5F56563606365644CE47CDCDD81B7CC4F40A1818FE3300000000FFFF42540118D6A38636C1D2002AFFEFDF3F789B404C54147E4C1C5E40A014C0CCBD888084253C0606C85E46767636064E4E4E064E0E4E4877F1CF1F866FDFBE337CFBFA0D328A08730BB909018D4D8C3EF4A8C5270703FFFF43B6CEB1B2B232B0B1B1622D
310
F629290960FA01000000FFFF22BA0AC0268FE20814C7FF67E0E6E666B0B1B166D0D5D3656060408CF11304384A013C8AE17632FCFF0F1F38E2E0E060E0E4E284CC2C323232FCFE0369247EFDFA157E90328659C42404343641F7E1548CA31E80966C90862E2BFC8877A2231A6B22C1DD3B00000000FFFFAC5DC10E8020087D
310
1496FF62FFFF27F6279DC4EA40A9B9691DF2E81E834D40D08DC7B5F6F762B0D72164CC7E28DDC9E21C0C33BC5F2151405C7EFDFCBB6EDB0957A7304CE0912146397382040409889BCE3DB0B3D5B9BAF4E53DACE5081D074195DE9B773F908E31453E834A3E46CA38CAF04AFAA92BEF34C138010000FFFFA49D490AC0200C45
310
BF53ADBD88F7BF4A4E934D4917D53A83D0BD311FBE2438E0B3D828FF3BA6AF76074A29C41811C205220233FF5A047D7BE84FFEA4129B8926C66838EB70DCEE239267848D361AA7F7E95BF5977FD0649B9AB6D23EC66655D3184179529F8CB7151BA0DC7CA231A0317B689FD20F4235CB20F3010000FFFF9C5D410E80200CEB
310
60CA1FF4FFEF7327BD007A980A2804632F1C6842C6BA844058B995D8DAA5CE83D01145E26897F080799EB08840441011B52721A8B93F39FA72A908E19A2182B5EAAFC3ACCFCCDE9F4E5A3E600D1B40FA31D68DEE76E748EB7E3DD4FDC0AEC11B6B303017EE5F37258FB118DE95D94EF65EEAF1C4010000FFFF945D310E8020
310
0C3CD4960FE0FFDFC7466483983A600902893AB134A4706D2909DC3547C05BF9C707D0277388C07B8F2346103376E760D922848094531542A86FFF048019AE0ECDF863C76516086B21BED80827176EFE7C339DA9A045F9BA4E20A28754AEFAD077ED7F624057A6FC09450164A9F2F063E29911C421C9FBB23F075B26B61700
310
0000FFFFA49DB10E80200C44AF22984822FFFF9752571487161263D5C191C0D6F6DA81DE1B7F57FACB3D118199915998B9F51026514A0B629CC1BC61CDAB40161B33CFCA01954AB292E3261F866C57E836931C084AE1701EF01E5EBFA277CA66D9C5FFB094DE12A610E0D453B911D32E99F9A10A15555CD40040D7EE8741CC
310
B44881CD97503C54B915446B2EB0DFDD5BC4090000FFFF9C9DBB0EC0200845B1AF38D6FFFFC3BAD9A94AB5C3151B13FB7496C59B1B09014EBB7FE88FD3AB70FCFDCC4C8BB5C421E4844662B148D29899B4D6E4565780C6654A58E1D19EE703BFF90FEC83938E0AEE1E783D6918294ED8511093801FC1DDDDBCA79EF7922788
310
D82A0B89B9C7B3B45DA35EBAD2F320C28302A2881AAEBF74F91BC16FC4AEEEE573000000FFFF8C9D3112C0200804CFA4C00FE4FF7F8C85A385A6C00BA3A3891D0515B31E5708ECB7801F28664A9252468C115C4CD365948AEA00EF052217724EB84350106AC181390826022B25F832149D4930C3F8AEC65718DCE958111B6D
310
6B31CFBF11668EC7294CC3CFE5D63A78E489726F27DF8159D197AF7C4709566671CC6BD1030000FFFFC25F059011E9C800725FDD7F9CE6200F2AB1B1B131080B0931FCFAF59BE1F397CF0C3F7EFC80F77D19991011C708AD0B20175A30206D58454A1338D300360958A9809418602B9418191998981991723CC2146400A90D
310
18916846B83BFE334076E9324157E9C21203D6BA1E89222E97635383A70188C52C00000000FFFFA45D410E803008EB343E60FEFF8D9CF4A4010F3840B82CF134766BD26E6D960CAA05FCF0FC788B30338848874D2FDE0C2A15B673216CD87BD761D3F785F3781F6E4487597810F433A0E48FCE210D1E2943780822315789B5
310
E16F8668882C929A492E3A13D19FD02C66034AFC8A617F30E49823FCB3E44C301B006B1E00040F000000FFFFA45D410AC0200CCB70FEFFC36ED9A18DD43A85B19BD00AC5A451A810393EFF007DAD047D2CEBF1216B41065957D67AF6FF80F2236A579B55810EB848804082634706BD02BC061124AE697B41BAD2CC5D18BBFF
310
A64DEC4A3117B66EEDCA744601E95759DFDCE39F5420819DF300E0010000FFFF8C9DB10E80200C445F5D0447F9FFBF94C8A0E050080434C8D4846E57EE8EA5F72901337A9FFE1E28ECDFD9F9A1621886D4548B08D61A8C593510F1BA08A7CAC31D6FF505991C6899A0BC64919734F476D30824D15E05B8DCD71AE8C0AFAB69
310
62D210AD1002FEF020E076C7B6593596C56BE43307EB43EBFBA1F8C3021D446F83F1000000FFFF945DD10A80200C3C05B537F3FF7F33A145B91E863A92A4DED4C373703A41DCF6EB297826FA136396DA345B56964CAE80B1F3DC0C68912F4B08AD80159722398CE868D130D6D68C80DD233416A3C5544B9937B0F208CC5C50
310
4E0956A183403BC92FE5AB97B9CF39C33B8F9412E21AE19D93F9D5A374627C39C1FF0537BA89615471DD000000FFFF9C5D4D0B80200C7DAE79F16048FDFFFF57878475923EE8102E8BA8E82E53F6B6E7988FC96FA0FFA57F224208013146AD922F7BDF06C4D760206340D622A5041181C888AA2230339C7387D49CF6C7A1B2
310
756CE8A2062CE93DB39681CE2CC823EFD665D58FB3F6EB08AA70CE1DBC7CD0699ED1F51D8638A06D1A785F832DE3E46CC5E319D02F197E5EF3520714B636000000FFFFA49DCD0AC32010843FB591F42434EFFF7CE90F340924E0216A0F1AAB4528B4274157901D991945DC5313BF3FDCFF311642406B4DDF9FD9B6357174BD
310
A25F37C37163B6CC0BE3758C95CB95C2FB088EB5364F9342C6C443D6FC4E7709B0A4DDDE572AB5BB3DB58EF2C30A10EF27EDA238CA65635A1009019038E7B9DD1F3CA789E132608C412AF991C3961F6800FA8D258A989681AC7A53DC0B0000FFFF949D4F0B80200CC57F238F1D8AFAFE1FD0535114696087B26642D86EE243
310
646F3CE61FB6E27B803FF21FCD1843DF772CEB92638A084FE704389B536F586B19C6E17EFE8534D388448410F0CEA301CE3B058A268A4775A493A77A99644E7F3B587F6ABB02A23A77B45F8A30CD136DD352C7CA5D2AB842B2D6B70AE48497247E4232040E000000FFFFC23B0E40EE1801B23E1E1E1E064E682900194F27A3
310
04F80F8978064606868F1F3F313C7BFE8CE1F7AFDF0CCC2C2CA8C7A64049A40C89993B519563461E163EE69A4506AC09024D058AAB60B9FEDBB7EF0C3FBEFF6010F821C020C02F0059CB081D68C29ACB29A81630DB02FF51B530303000000000FFFF0300E3B6A64C96CFDE170000000049454E44AE426082504B010214000A
310
0000080000F650D9423DEE336E79000000790000001B00000000000000000000000000000000006175746F6465736B2D64657369676E2D7061636B6167652E786D6C504B01021400140006080800F650D94265017641AD000000260100001300000000000000000000000000B20000005B436F6E74656E745F54797065735D
310
2E786D6C504B01021400140006080800F650D94291528556EB0000007C010000080000000000000000000000000090010000636F72652E786D6C504B01021400140006080800F650D94255019EA25F0000007C0000000700000000000000000000000000A1020000636E782E786D6C504B01021400140006080800F650D942
310
AE326B2E71010000D40300000C00000000000000000000000000250300006662782F636F72652E786D6C504B01021400140006080800F650D94263A77A437E0000009D0000000B00000000000000000000000000C00400006662782F636E782E786D6C504B01021400140006080800F650D9424587BEB32A01000012020000
310
3100000000000000000000000000670500006662782F30364439433731372D303935452D343443452D423643442D3534463538434346333130342F636F72652E786D6C504B01021400140006080800F650D942E8E2E11A4E010000330300003000000000000000000000000000E00600006662782F30364439433731372D30
310
3935452D343443452D423643442D3534463538434346333130342F636E782E786D6C504B01021400140006080800F650D942DB2674D4C20500000B11000034000000000000000000000000007C0800006662782F30364439433731372D303935452D343443452D423643442D3534463538434346333130342F6F626A656374
310
732E786D6C504B01021400140006080000F650D9420000000000000000000000003500000000000000000000000000900E00006662782F30364439433731372D303935452D343443452D423643442D3534463538434346333130342F76657274696365732E62696E504B01021400140006080800F650D942F270F133060000
310
00040000003600000000000000000000000000E30E00006662782F30364439433731372D303935452D343443452D423643442D3534463538434346333130342F747269616E676C65732E62696E504B01021400140006080000F650D94200000000000000000000000037000000000000000000000000003D0F00006662782F
310
30364439433731372D303935452D343443452D423643442D3534463538434346333130342F617474726962757465732E62696E504B01021400140006080800F650D94208DA0BD190000000410100003600000000000000000000000000920F00006662782F30364439433731372D303935452D343443452D423643442D3534
310
463538434346333130342F6469726563746F72792E786D6C504B01021400140006080800F650D942DB93C617FD000000A00100003B00000000000000000000000000761000006662782F30364439433731372D303935452D343443452D423643442D3534463538434346333130342F7265736F75726365732F636F72652E78
310
6D6C504B01021400140006080800F650D9422DEF20765E0000007A0000003A00000000000000000000000000CC1100006662782F30364439433731372D303935452D343443452D423643442D3534463538434346333130342F7265736F75726365732F636E782E786D6C504B01021400140006080800F650D942C7244558F8
310
000000980100003D00000000000000000000000000821200006662782F30364439433731372D303935452D343443452D423643442D3534463538434346333130342F7265736F75726365732F332F636F72652E786D6C504B01021400140006080800F650D94205C7735D2A010000C20100003C000000000000000000000000
310
00D51300006662782F30364439433731372D303935452D343443452D423643442D3534463538434346333130342F7265736F75726365732F332F636E782E786D6C504B010214000A0000080000F650D94288E5759790410000904100004200000000000000000000000000591500006662782F30364439433731372D303935
310
452D343443452D423643442D3534463538434346333130342F7265736F75726365732F332F305F67656E657269632E706E67504B050600000000120012002D060000495700000000
  0
XRECORD
  5
6F7E
102
{ACAD_REACTORS
330
6F79
102
}
330
6F79
100
AcDbXrecord
280
     1
270
     1
271
     1
  0
XRECORD
  5
6F7D
102
{ACAD_REACTORS
330
6F79
102
}
330
6F79
100
AcDbXrecord
280
     1
270
     1
271
     1
  0
XRECORD
  5
6F7F
102
{ACAD_REACTORS
330
6F79
102
}
330
6F79
100
AcDbXrecord
280
     1
270
     1
271
     1
  0
XRECORD
  5
6F7C
102
{ACAD_REACTORS
330
6F79
102
}
330
6F79
100
AcDbXrecord
280
     1
270
     1
271
     1
  0
DICTIONARY
  5
6DD43
102
{ACAD_REACTORS
330
6DD42
102
}
330
6DD42
100
AcDbDictionary
280
     1
281
     1
  3
TEXT
360
6DD44
  0
XRECORD
  5
86933
102
{ACAD_REACTORS
330
6DD42
102
}
330
6DD42
100
AcDbXrecord
280
     1
102
DISPLAYNAME
  1
ASME Y14.3 - 2003(1)
102
FLAGS
 90
        0
  0
DICTIONARY
  5
6B745
102
{ACAD_REACTORS
330
6B744
102
}
330
6B744
100
AcDbDictionary
280
     1
281
     1
  3
TEXT
360
6B746
  0
XRECORD
  5
86932
102
{ACAD_REACTORS
330
6B744
102
}
330
6B744
100
AcDbXrecord
280
     1
102
DISPLAYNAME
  1
DIN ISO 128-40:2002-05
102
FLAGS
 90
        1
  0
DICTIONARY
  5
5FEF0
102
{ACAD_REACTORS
330
5FEEF
102
}
330
5FEEF
100
AcDbDictionary
280
     1
281
     1
  3
TEXT
360
5FEF1
  0
XRECORD
  5
8692E
102
{ACAD_REACTORS
330
5FEEF
102
}
330
5FEEF
100
AcDbXrecord
280
     1
102
DISPLAYNAME
  1
DIN ISO 128-40:2002-05(1)
102
FLAGS
 90
        0
  0
XRECORD
  5
8692F
102
{ACAD_REACTORS
330
68B0D
102
}
330
68B0D
100
AcDbXrecord
280
     1
102
DISPLAYNAME
  1
Imperial24
102
FLAGS
 90
        0
  0
DICTIONARY
  5
6DD4A
102
{ACAD_REACTORS
330
6DD49
102
}
330
6DD49
100
AcDbDictionary
280
     1
281
     1
  3
TEXT
360
6DD4B
  0
XRECORD
  5
86934
102
{ACAD_REACTORS
330
6DD49
102
}
330
6DD49
100
AcDbXrecord
280
     1
102
DISPLAYNAME
  1
ISO 128-40:2001(E)(1)
102
FLAGS
 90
        0
  0
XRECORD
  5
8692B
102
{ACAD_REACTORS
330
68B07
102
}
330
68B07
100
AcDbXrecord
280
     1
102
DISPLAYNAME
  1
Metric50
102
FLAGS
 90
        0
  0
CELLSTYLEMAP
  5
868ED
102
{ACAD_REACTORS
330
7032
102
}
330
7032
100
AcDbCellStyleMap
 90
        3
300
CELLSTYLE
  1
TABLEFORMAT_BEGIN
 90
        5
170
     1
 91
        0
 92
    32768
 62
   257
 93
        1
300
CONTENTFORMAT
  1
CONTENTFORMAT_BEGIN
 90
        0
 91
        0
 92
        4
 93
        0
300

 40
0.0
140
1.0
 94
        5
 62
     0
340
11
144
6.0
309
CONTENTFORMAT_END
171
     1
301
MARGIN
  1
CELLMARGIN_BEGIN
 40
1.5
 40
1.5
 40
1.5
 40
1.5
 40
0.18
 40
0.18
309
CELLMARGIN_END
 94
        6
 95
        1
302
GRIDFORMAT
  1
GRIDFORMAT_BEGIN
 90
        0
 91
        1
 62
     0
 92
       -2
340
0
 93
        0
 40
0.045
309
GRIDFORMAT_END
 95
        2
302
GRIDFORMAT
  1
GRIDFORMAT_BEGIN
 90
        0
 91
        1
 62
     0
 92
       -2
340
0
 93
        0
 40
0.045
309
GRIDFORMAT_END
 95
        4
302
GRIDFORMAT
  1
GRIDFORMAT_BEGIN
 90
        0
 91
        1
 62
     0
 92
       -2
340
0
 93
        0
 40
0.045
309
GRIDFORMAT_END
 95
        8
302
GRIDFORMAT
  1
GRIDFORMAT_BEGIN
 90
        0
 91
        1
 62
     0
 92
       -2
340
0
 93
        0
 40
0.045
309
GRIDFORMAT_END
 95
       16
302
GRIDFORMAT
  1
GRIDFORMAT_BEGIN
 90
        0
 91
        1
 62
     0
 92
       -2
340
0
 93
        0
 40
0.045
309
GRIDFORMAT_END
 95
       32
302
GRIDFORMAT
  1
GRIDFORMAT_BEGIN
 90
        0
 91
        1
 62
     0
 92
       -2
340
0
 93
        0
 40
0.045
309
GRIDFORMAT_END
309
TABLEFORMAT_END
  1
CELLSTYLE_BEGIN
 90
        1
 91
        1
300
_TITLE
309
CELLSTYLE_END
300
CELLSTYLE
  1
TABLEFORMAT_BEGIN
 90
        5
170
     1
 91
        0
 92
        0
 62
   257
 93
        1
300
CONTENTFORMAT
  1
CONTENTFORMAT_BEGIN
 90
        0
 91
        0
 92
        4
 93
        0
300

 40
0.0
140
1.0
 94
        5
 62
     0
340
11
144
4.5
309
CONTENTFORMAT_END
171
     1
301
MARGIN
  1
CELLMARGIN_BEGIN
 40
1.5
 40
1.5
 40
1.5
 40
1.5
 40
0.18
 40
0.18
309
CELLMARGIN_END
 94
        6
 95
        1
302
GRIDFORMAT
  1
GRIDFORMAT_BEGIN
 90
        0
 91
        1
 62
     0
 92
       -2
340
0
 93
        0
 40
0.045
309
GRIDFORMAT_END
 95
        2
302
GRIDFORMAT
  1
GRIDFORMAT_BEGIN
 90
        0
 91
        1
 62
     0
 92
       -2
340
0
 93
        0
 40
0.045
309
GRIDFORMAT_END
 95
        4
302
GRIDFORMAT
  1
GRIDFORMAT_BEGIN
 90
        0
 91
        1
 62
     0
 92
       -2
340
0
 93
        0
 40
0.045
309
GRIDFORMAT_END
 95
        8
302
GRIDFORMAT
  1
GRIDFORMAT_BEGIN
 90
        0
 91
        1
 62
     0
 92
       -2
340
0
 93
        0
 40
0.045
309
GRIDFORMAT_END
 95
       16
302
GRIDFORMAT
  1
GRIDFORMAT_BEGIN
 90
        0
 91
        1
 62
     0
 92
       -2
340
0
 93
        0
 40
0.045
309
GRIDFORMAT_END
 95
       32
302
GRIDFORMAT
  1
GRIDFORMAT_BEGIN
 90
        0
 91
        1
 62
     0
 92
       -2
340
0
 93
        0
 40
0.045
309
GRIDFORMAT_END
309
TABLEFORMAT_END
  1
CELLSTYLE_BEGIN
 90
        2
 91
        1
300
_HEADER
309
CELLSTYLE_END
300
CELLSTYLE
  1
TABLEFORMAT_BEGIN
 90
        5
170
     1
 91
        0
 92
        0
 62
   257
 93
        1
300
CONTENTFORMAT
  1
CONTENTFORMAT_BEGIN
 90
        0
 91
        0
 92
        4
 93
        0
300

 40
0.0
140
1.0
 94
        2
 62
     0
340
11
144
4.5
309
CONTENTFORMAT_END
171
     1
301
MARGIN
  1
CELLMARGIN_BEGIN
 40
1.5
 40
1.5
 40
1.5
 40
1.5
 40
0.18
 40
0.18
309
CELLMARGIN_END
 94
        6
 95
        1
302
GRIDFORMAT
  1
GRIDFORMAT_BEGIN
 90
        0
 91
        1
 62
     0
 92
       -2
340
0
 93
        0
 40
0.045
309
GRIDFORMAT_END
 95
        2
302
GRIDFORMAT
  1
GRIDFORMAT_BEGIN
 90
        0
 91
        1
 62
     0
 92
       -2
340
0
 93
        0
 40
0.045
309
GRIDFORMAT_END
 95
        4
302
GRIDFORMAT
  1
GRIDFORMAT_BEGIN
 90
        0
 91
        1
 62
     0
 92
       -2
340
0
 93
        0
 40
0.045
309
GRIDFORMAT_END
 95
        8
302
GRIDFORMAT
  1
GRIDFORMAT_BEGIN
 90
        0
 91
        1
 62
     0
 92
       -2
340
0
 93
        0
 40
0.045
309
GRIDFORMAT_END
 95
       16
302
GRIDFORMAT
  1
GRIDFORMAT_BEGIN
 90
        0
 91
        1
 62
     0
 92
       -2
340
0
 93
        0
 40
0.045
309
GRIDFORMAT_END
 95
       32
302
GRIDFORMAT
  1
GRIDFORMAT_BEGIN
 90
        0
 91
        1
 62
     0
 92
       -2
340
0
 93
        0
 40
0.045
309
GRIDFORMAT_END
309
TABLEFORMAT_END
  1
CELLSTYLE_BEGIN
 90
        3
 91
        2
300
_DATA
309
CELLSTYLE_END
  0
XRECORD
  5
86902
102
{ACAD_REACTORS
330
86901
102
}
330
86901
100
AcDbXrecord
280
     1
102
RTVSPost2010Prop28
280
     1
102
RTVSPost2010PropOp28
 70
     1
102
RTVSPost2010Prop29
280
     1
102
RTVSPost2010PropOp29
 70
     1
102
RTVSPost2010Prop30
280
     0
102
RTVSPost2010PropOp30
 70
     1
102
RTVSPost2010Prop31
280
     0
102
RTVSPost2010PropOp31
 70
     1
102
RTVSPost2010Prop32
280
     0
102
RTVSPost2010PropOp32
 70
     1
102
RTVSPost2010Prop33
280
     0
102
RTVSPost2010PropOp33
 70
     1
102
RTVSPost2010Prop34
280
     0
102
RTVSPost2010PropOp34
 70
     1
102
RTVSPost2010Prop35
280
     0
102
RTVSPost2010PropOp35
 70
     1
102
RTVSPost2010Prop36
280
     0
102
RTVSPost2010PropOp36
 70
     1
102
RTVSPost2010Prop37
 90
       50
102
RTVSPost2010PropOp37
 70
     1
102
RTVSPost2010Prop38
140
0.0
102
RTVSPost2010PropOp38
 70
     1
102
RTVSPost2010Prop39
140
1.0
102
RTVSPost2010PropOp39
 70
     1
102
RTVSPost2010Prop40
 90
        0
102
RTVSPost2010PropOp40
 70
     1
102
RTVSPost2010Prop41ColorIndex
 90
       18
102
RTVSPost2010Prop41ColorRGB
 90
        0
102
RTVSPost2010PropOp41
 70
     1
102
RTVSPost2010Prop42
 90
       50
102
RTVSPost2010PropOp42
 70
     1
102
RTVSPost2010Prop43
 90
        3
102
RTVSPost2010PropOp43
 70
     1
102
RTVSPost2010Prop44ColorIndex
 90
        5
102
RTVSPost2010Prop44ColorRGB
 90
      255
102
RTVSPost2010PropOp44
 70
     1
102
RTVSPost2010Prop45
280
     0
102
RTVSPost2010PropOp45
 70
     1
102
RTVSPost2010Prop46
 90
       50
102
RTVSPost2010PropOp46
 70
     1
102
RTVSPost2010Prop47
 90
       50
102
RTVSPost2010PropOp47
 70
     1
102
RTVSPost2010Prop48
 90
       50
102
RTVSPost2010PropOp48
 70
     1
102
RTVSPost2010Prop49
280
     0
102
RTVSPost2010PropOp49
 70
     1
102
RTVSPost2010Prop50
 90
       50
102
RTVSPost2010PropOp50
 70
     1
102
RTVSPost2010Prop51ColorIndex
 90
      256
102
RTVSPost2010Prop51ColorRGB
 90
-16777216
102
RTVSPost2010PropOp51
 70
     0
102
RTVSPost2010Prop52
140
1.0
102
RTVSPost2010PropOp52
 70
     0
102
RTVSPost2010Prop53
 90
        2
102
RTVSPost2010PropOp53
 70
     1
102
RTVSPost2010Prop54
  1
strokes_ogs.tif
102
RTVSPost2010PropOp54
 70
     1
102
RTVSPost2010Prop55
280
     0
102
RTVSPost2010PropOp55
 70
     1
102
RTVSPost2010Prop56
140
1.0
102
RTVSPost2010PropOp56
 70
     1
102
RTVSPost2010Prop57
140
1.0
102
RTVSPost2010PropOp57
 70
     1
  0
XRECORD
  5
86906
102
{ACAD_REACTORS
330
86905
102
}
330
86905
100
AcDbXrecord
280
     1
102
RTVSPost2010Prop28
280
     0
102
RTVSPost2010PropOp28
 70
     1
102
RTVSPost2010Prop29
280
     1
102
RTVSPost2010PropOp29
 70
     1
102
RTVSPost2010Prop30
280
     1
102
RTVSPost2010PropOp30
 70
     1
102
RTVSPost2010Prop31
280
     0
102
RTVSPost2010PropOp31
 70
     1
102
RTVSPost2010Prop32
280
     0
102
RTVSPost2010PropOp32
 70
     1
102
RTVSPost2010Prop33
280
     0
102
RTVSPost2010PropOp33
 70
     1
102
RTVSPost2010Prop34
280
     0
102
RTVSPost2010PropOp34
 70
     1
102
RTVSPost2010Prop35
280
     0
102
RTVSPost2010PropOp35
 70
     1
102
RTVSPost2010Prop36
280
     0
102
RTVSPost2010PropOp36
 70
     1
102
RTVSPost2010Prop37
 90
       50
102
RTVSPost2010PropOp37
 70
     1
102
RTVSPost2010Prop38
140
0.0
102
RTVSPost2010PropOp38
 70
     1
102
RTVSPost2010Prop39
140
1.0
102
RTVSPost2010PropOp39
 70
     1
102
RTVSPost2010Prop40
 90
        0
102
RTVSPost2010PropOp40
 70
     1
102
RTVSPost2010Prop41ColorIndex
 90
       18
102
RTVSPost2010Prop41ColorRGB
 90
        0
102
RTVSPost2010PropOp41
 70
     1
102
RTVSPost2010Prop42
 90
       50
102
RTVSPost2010PropOp42
 70
     1
102
RTVSPost2010Prop43
 90
        3
102
RTVSPost2010PropOp43
 70
     1
102
RTVSPost2010Prop44ColorIndex
 90
        5
102
RTVSPost2010Prop44ColorRGB
 90
      255
102
RTVSPost2010PropOp44
 70
     1
102
RTVSPost2010Prop45
280
     0
102
RTVSPost2010PropOp45
 70
     1
102
RTVSPost2010Prop46
 90
       50
102
RTVSPost2010PropOp46
 70
     1
102
RTVSPost2010Prop47
 90
       50
102
RTVSPost2010PropOp47
 70
     1
102
RTVSPost2010Prop48
 90
       50
102
RTVSPost2010PropOp48
 70
     1
102
RTVSPost2010Prop49
280
     0
102
RTVSPost2010PropOp49
 70
     1
102
RTVSPost2010Prop50
 90
       50
102
RTVSPost2010PropOp50
 70
     1
102
RTVSPost2010Prop51ColorIndex
 90
      256
102
RTVSPost2010Prop51ColorRGB
 90
-16777216
102
RTVSPost2010PropOp51
 70
     0
102
RTVSPost2010Prop52
140
1.0
102
RTVSPost2010PropOp52
 70
     0
102
RTVSPost2010Prop53
 90
        2
102
RTVSPost2010PropOp53
 70
     1
102
RTVSPost2010Prop54
  1
strokes_ogs.tif
102
RTVSPost2010PropOp54
 70
     1
102
RTVSPost2010Prop55
280
     0
102
RTVSPost2010PropOp55
 70
     1
102
RTVSPost2010Prop56
140
1.0
102
RTVSPost2010PropOp56
 70
     1
102
RTVSPost2010Prop57
140
1.0
102
RTVSPost2010PropOp57
 70
     1
  0
XRECORD
  5
86904
102
{ACAD_REACTORS
330
86903
102
}
330
86903
100
AcDbXrecord
280
     1
102
RTVSPost2010Prop28
280
     0
102
RTVSPost2010PropOp28
 70
     1
102
RTVSPost2010Prop29
280
     1
102
RTVSPost2010PropOp29
 70
     1
102
RTVSPost2010Prop30
280
     1
102
RTVSPost2010PropOp30
 70
     1
102
RTVSPost2010Prop31
280
     0
102
RTVSPost2010PropOp31
 70
     1
102
RTVSPost2010Prop32
280
     0
102
RTVSPost2010PropOp32
 70
     1
102
RTVSPost2010Prop33
280
     0
102
RTVSPost2010PropOp33
 70
     1
102
RTVSPost2010Prop34
280
     0
102
RTVSPost2010PropOp34
 70
     1
102
RTVSPost2010Prop35
280
     0
102
RTVSPost2010PropOp35
 70
     1
102
RTVSPost2010Prop36
280
     0
102
RTVSPost2010PropOp36
 70
     1
102
RTVSPost2010Prop37
 90
       50
102
RTVSPost2010PropOp37
 70
     1
102
RTVSPost2010Prop38
140
0.0
102
RTVSPost2010PropOp38
 70
     1
102
RTVSPost2010Prop39
140
1.0
102
RTVSPost2010PropOp39
 70
     1
102
RTVSPost2010Prop40
 90
        0
102
RTVSPost2010PropOp40
 70
     1
102
RTVSPost2010Prop41ColorIndex
 90
       18
102
RTVSPost2010Prop41ColorRGB
 90
        0
102
RTVSPost2010PropOp41
 70
     1
102
RTVSPost2010Prop42
 90
       50
102
RTVSPost2010PropOp42
 70
     1
102
RTVSPost2010Prop43
 90
        3
102
RTVSPost2010PropOp43
 70
     1
102
RTVSPost2010Prop44ColorIndex
 90
        5
102
RTVSPost2010Prop44ColorRGB
 90
      255
102
RTVSPost2010PropOp44
 70
     1
102
RTVSPost2010Prop45
280
     0
102
RTVSPost2010PropOp45
 70
     1
102
RTVSPost2010Prop46
 90
       50
102
RTVSPost2010PropOp46
 70
     1
102
RTVSPost2010Prop47
 90
       50
102
RTVSPost2010PropOp47
 70
     1
102
RTVSPost2010Prop48
 90
       50
102
RTVSPost2010PropOp48
 70
     1
102
RTVSPost2010Prop49
280
     0
102
RTVSPost2010PropOp49
 70
     1
102
RTVSPost2010Prop50
 90
       50
102
RTVSPost2010PropOp50
 70
     1
102
RTVSPost2010Prop51ColorIndex
 90
      256
102
RTVSPost2010Prop51ColorRGB
 90
-16777216
102
RTVSPost2010PropOp51
 70
     0
102
RTVSPost2010Prop52
140
1.0
102
RTVSPost2010PropOp52
 70
     0
102
RTVSPost2010Prop53
 90
        2
102
RTVSPost2010PropOp53
 70
     1
102
RTVSPost2010Prop54
  1
strokes_ogs.tif
102
RTVSPost2010PropOp54
 70
     1
102
RTVSPost2010Prop55
280
     0
102
RTVSPost2010PropOp55
 70
     1
102
RTVSPost2010Prop56
140
1.0
102
RTVSPost2010PropOp56
 70
     1
102
RTVSPost2010Prop57
140
1.0
102
RTVSPost2010PropOp57
 70
     1
  0
XRECORD
  5
86900
102
{ACAD_REACTORS
330
868FF
102
}
330
868FF
100
AcDbXrecord
280
     1
102
RTVSPost2010Prop28
280
     0
102
RTVSPost2010PropOp28
 70
     1
102
RTVSPost2010Prop29
280
     1
102
RTVSPost2010PropOp29
 70
     1
102
RTVSPost2010Prop30
280
     1
102
RTVSPost2010PropOp30
 70
     1
102
RTVSPost2010Prop31
280
     0
102
RTVSPost2010PropOp31
 70
     1
102
RTVSPost2010Prop32
280
     0
102
RTVSPost2010PropOp32
 70
     1
102
RTVSPost2010Prop33
280
     0
102
RTVSPost2010PropOp33
 70
     1
102
RTVSPost2010Prop34
280
     0
102
RTVSPost2010PropOp34
 70
     1
102
RTVSPost2010Prop35
280
     0
102
RTVSPost2010PropOp35
 70
     1
102
RTVSPost2010Prop36
280
     0
102
RTVSPost2010PropOp36
 70
     1
102
RTVSPost2010Prop37
 90
       50
102
RTVSPost2010PropOp37
 70
     1
102
RTVSPost2010Prop38
140
0.0
102
RTVSPost2010PropOp38
 70
     1
102
RTVSPost2010Prop39
140
1.0
102
RTVSPost2010PropOp39
 70
     1
102
RTVSPost2010Prop40
 90
        0
102
RTVSPost2010PropOp40
 70
     1
102
RTVSPost2010Prop41ColorIndex
 90
       18
102
RTVSPost2010Prop41ColorRGB
 90
        0
102
RTVSPost2010PropOp41
 70
     1
102
RTVSPost2010Prop42
 90
       50
102
RTVSPost2010PropOp42
 70
     1
102
RTVSPost2010Prop43
 90
        3
102
RTVSPost2010PropOp43
 70
     1
102
RTVSPost2010Prop44ColorIndex
 90
        5
102
RTVSPost2010Prop44ColorRGB
 90
      255
102
RTVSPost2010PropOp44
 70
     1
102
RTVSPost2010Prop45
280
     0
102
RTVSPost2010PropOp45
 70
     1
102
RTVSPost2010Prop46
 90
       50
102
RTVSPost2010PropOp46
 70
     1
102
RTVSPost2010Prop47
 90
       50
102
RTVSPost2010PropOp47
 70
     1
102
RTVSPost2010Prop48
 90
       50
102
RTVSPost2010PropOp48
 70
     1
102
RTVSPost2010Prop49
280
     0
102
RTVSPost2010PropOp49
 70
     1
102
RTVSPost2010Prop50
 90
       50
102
RTVSPost2010PropOp50
 70
     1
102
RTVSPost2010Prop51ColorIndex
 90
      256
102
RTVSPost2010Prop51ColorRGB
 90
-16777216
102
RTVSPost2010PropOp51
 70
     0
102
RTVSPost2010Prop52
140
1.0
102
RTVSPost2010PropOp52
 70
     0
102
RTVSPost2010Prop53
 90
        2
102
RTVSPost2010PropOp53
 70
     1
102
RTVSPost2010Prop54
  1
strokes_ogs.tif
102
RTVSPost2010PropOp54
 70
     1
102
RTVSPost2010Prop55
280
     0
102
RTVSPost2010PropOp55
 70
     1
102
RTVSPost2010Prop56
140
1.0
102
RTVSPost2010PropOp56
 70
     1
102
RTVSPost2010Prop57
140
1.0
102
RTVSPost2010PropOp57
 70
     1
  0
XRECORD
  5
8690E
102
{ACAD_REACTORS
330
8690D
102
}
330
8690D
100
AcDbXrecord
280
     1
102
RTVSPost2010Prop28
280
     0
102
RTVSPost2010PropOp28
 70
     1
102
RTVSPost2010Prop29
280
     1
102
RTVSPost2010PropOp29
 70
     1
102
RTVSPost2010Prop30
280
     1
102
RTVSPost2010PropOp30
 70
     1
102
RTVSPost2010Prop31
280
     0
102
RTVSPost2010PropOp31
 70
     1
102
RTVSPost2010Prop32
280
     0
102
RTVSPost2010PropOp32
 70
     1
102
RTVSPost2010Prop33
280
     0
102
RTVSPost2010PropOp33
 70
     1
102
RTVSPost2010Prop34
280
     0
102
RTVSPost2010PropOp34
 70
     1
102
RTVSPost2010Prop35
280
     0
102
RTVSPost2010PropOp35
 70
     1
102
RTVSPost2010Prop36
280
     0
102
RTVSPost2010PropOp36
 70
     1
102
RTVSPost2010Prop37
 90
       50
102
RTVSPost2010PropOp37
 70
     1
102
RTVSPost2010Prop38
140
0.0
102
RTVSPost2010PropOp38
 70
     1
102
RTVSPost2010Prop39
140
1.0
102
RTVSPost2010PropOp39
 70
     1
102
RTVSPost2010Prop40
 90
        0
102
RTVSPost2010PropOp40
 70
     1
102
RTVSPost2010Prop41ColorIndex
 90
       18
102
RTVSPost2010Prop41ColorRGB
 90
        0
102
RTVSPost2010PropOp41
 70
     1
102
RTVSPost2010Prop42
 90
       50
102
RTVSPost2010PropOp42
 70
     1
102
RTVSPost2010Prop43
 90
        3
102
RTVSPost2010PropOp43
 70
     1
102
RTVSPost2010Prop44ColorIndex
 90
        5
102
RTVSPost2010Prop44ColorRGB
 90
      255
102
RTVSPost2010PropOp44
 70
     1
102
RTVSPost2010Prop45
280
     0
102
RTVSPost2010PropOp45
 70
     1
102
RTVSPost2010Prop46
 90
       50
102
RTVSPost2010PropOp46
 70
     1
102
RTVSPost2010Prop47
 90
       50
102
RTVSPost2010PropOp47
 70
     1
102
RTVSPost2010Prop48
 90
       50
102
RTVSPost2010PropOp48
 70
     1
102
RTVSPost2010Prop49
280
     0
102
RTVSPost2010PropOp49
 70
     1
102
RTVSPost2010Prop50
 90
       50
102
RTVSPost2010PropOp50
 70
     1
102
RTVSPost2010Prop51ColorIndex
 90
      256
102
RTVSPost2010Prop51ColorRGB
 90
-16777216
102
RTVSPost2010PropOp51
 70
     0
102
RTVSPost2010Prop52
140
1.0
102
RTVSPost2010PropOp52
 70
     0
102
RTVSPost2010Prop53
 90
        2
102
RTVSPost2010PropOp53
 70
     1
102
RTVSPost2010Prop54
  1
strokes_ogs.tif
102
RTVSPost2010PropOp54
 70
     1
102
RTVSPost2010Prop55
280
     0
102
RTVSPost2010PropOp55
 70
     1
102
RTVSPost2010Prop56
140
1.0
102
RTVSPost2010PropOp56
 70
     1
102
RTVSPost2010Prop57
140
1.0
102
RTVSPost2010PropOp57
 70
     1
  0
XRECORD
  5
86916
102
{ACAD_REACTORS
330
86915
102
}
330
86915
100
AcDbXrecord
280
     1
102
RTVSPost2010Prop28
280
     0
102
RTVSPost2010PropOp28
 70
     1
102
RTVSPost2010Prop29
280
     1
102
RTVSPost2010PropOp29
 70
     1
102
RTVSPost2010Prop30
280
     1
102
RTVSPost2010PropOp30
 70
     1
102
RTVSPost2010Prop31
280
     0
102
RTVSPost2010PropOp31
 70
     1
102
RTVSPost2010Prop32
280
     0
102
RTVSPost2010PropOp32
 70
     1
102
RTVSPost2010Prop33
280
     0
102
RTVSPost2010PropOp33
 70
     1
102
RTVSPost2010Prop34
280
     0
102
RTVSPost2010PropOp34
 70
     1
102
RTVSPost2010Prop35
280
     0
102
RTVSPost2010PropOp35
 70
     1
102
RTVSPost2010Prop36
280
     0
102
RTVSPost2010PropOp36
 70
     1
102
RTVSPost2010Prop37
 90
       50
102
RTVSPost2010PropOp37
 70
     1
102
RTVSPost2010Prop38
140
0.0
102
RTVSPost2010PropOp38
 70
     1
102
RTVSPost2010Prop39
140
1.0
102
RTVSPost2010PropOp39
 70
     1
102
RTVSPost2010Prop40
 90
        0
102
RTVSPost2010PropOp40
 70
     1
102
RTVSPost2010Prop41ColorIndex
 90
       18
102
RTVSPost2010Prop41ColorRGB
 90
        0
102
RTVSPost2010PropOp41
 70
     1
102
RTVSPost2010Prop42
 90
       50
102
RTVSPost2010PropOp42
 70
     1
102
RTVSPost2010Prop43
 90
        3
102
RTVSPost2010PropOp43
 70
     1
102
RTVSPost2010Prop44ColorIndex
 90
        5
102
RTVSPost2010Prop44ColorRGB
 90
      255
102
RTVSPost2010PropOp44
 70
     1
102
RTVSPost2010Prop45
280
     0
102
RTVSPost2010PropOp45
 70
     1
102
RTVSPost2010Prop46
 90
       50
102
RTVSPost2010PropOp46
 70
     1
102
RTVSPost2010Prop47
 90
       50
102
RTVSPost2010PropOp47
 70
     1
102
RTVSPost2010Prop48
 90
       50
102
RTVSPost2010PropOp48
 70
     1
102
RTVSPost2010Prop49
280
     0
102
RTVSPost2010PropOp49
 70
     1
102
RTVSPost2010Prop50
 90
       50
102
RTVSPost2010PropOp50
 70
     1
102
RTVSPost2010Prop51ColorIndex
 90
      256
102
RTVSPost2010Prop51ColorRGB
 90
-16777216
102
RTVSPost2010PropOp51
 70
     0
102
RTVSPost2010Prop52
140
1.0
102
RTVSPost2010PropOp52
 70
     0
102
RTVSPost2010Prop53
 90
        2
102
RTVSPost2010PropOp53
 70
     1
102
RTVSPost2010Prop54
  1
strokes_ogs.tif
102
RTVSPost2010PropOp54
 70
     1
102
RTVSPost2010Prop55
280
     0
102
RTVSPost2010PropOp55
 70
     1
102
RTVSPost2010Prop56
140
1.0
102
RTVSPost2010PropOp56
 70
     1
102
RTVSPost2010Prop57
140
1.0
102
RTVSPost2010PropOp57
 70
     1
  0
XRECORD
  5
86908
102
{ACAD_REACTORS
330
86907
102
}
330
86907
100
AcDbXrecord
280
     1
102
RTVSPost2010Prop28
280
     0
102
RTVSPost2010PropOp28
 70
     1
102
RTVSPost2010Prop29
280
     1
102
RTVSPost2010PropOp29
 70
     1
102
RTVSPost2010Prop30
280
     1
102
RTVSPost2010PropOp30
 70
     1
102
RTVSPost2010Prop31
280
     0
102
RTVSPost2010PropOp31
 70
     1
102
RTVSPost2010Prop32
280
     0
102
RTVSPost2010PropOp32
 70
     1
102
RTVSPost2010Prop33
280
     0
102
RTVSPost2010PropOp33
 70
     1
102
RTVSPost2010Prop34
280
     0
102
RTVSPost2010PropOp34
 70
     1
102
RTVSPost2010Prop35
280
     0
102
RTVSPost2010PropOp35
 70
     1
102
RTVSPost2010Prop36
280
     0
102
RTVSPost2010PropOp36
 70
     1
102
RTVSPost2010Prop37
 90
       50
102
RTVSPost2010PropOp37
 70
     1
102
RTVSPost2010Prop38
140
0.0
102
RTVSPost2010PropOp38
 70
     1
102
RTVSPost2010Prop39
140
1.0
102
RTVSPost2010PropOp39
 70
     1
102
RTVSPost2010Prop40
 90
        0
102
RTVSPost2010PropOp40
 70
     1
102
RTVSPost2010Prop41ColorIndex
 90
       18
102
RTVSPost2010Prop41ColorRGB
 90
        0
102
RTVSPost2010PropOp41
 70
     1
102
RTVSPost2010Prop42
 90
       50
102
RTVSPost2010PropOp42
 70
     1
102
RTVSPost2010Prop43
 90
        3
102
RTVSPost2010PropOp43
 70
     1
102
RTVSPost2010Prop44ColorIndex
 90
        5
102
RTVSPost2010Prop44ColorRGB
 90
      255
102
RTVSPost2010PropOp44
 70
     1
102
RTVSPost2010Prop45
280
     0
102
RTVSPost2010PropOp45
 70
     1
102
RTVSPost2010Prop46
 90
       50
102
RTVSPost2010PropOp46
 70
     1
102
RTVSPost2010Prop47
 90
       50
102
RTVSPost2010PropOp47
 70
     1
102
RTVSPost2010Prop48
 90
       50
102
RTVSPost2010PropOp48
 70
     1
102
RTVSPost2010Prop49
280
     0
102
RTVSPost2010PropOp49
 70
     1
102
RTVSPost2010Prop50
 90
       50
102
RTVSPost2010PropOp50
 70
     1
102
RTVSPost2010Prop51ColorIndex
 90
      256
102
RTVSPost2010Prop51ColorRGB
 90
-16777216
102
RTVSPost2010PropOp51
 70
     0
102
RTVSPost2010Prop52
140
1.0
102
RTVSPost2010PropOp52
 70
     0
102
RTVSPost2010Prop53
 90
        2
102
RTVSPost2010PropOp53
 70
     1
102
RTVSPost2010Prop54
  1
strokes_ogs.tif
102
RTVSPost2010PropOp54
 70
     1
102
RTVSPost2010Prop55
280
     0
102
RTVSPost2010PropOp55
 70
     1
102
RTVSPost2010Prop56
140
1.0
102
RTVSPost2010PropOp56
 70
     1
102
RTVSPost2010Prop57
140
1.0
102
RTVSPost2010PropOp57
 70
     1
  0
XRECORD
  5
8690C
102
{ACAD_REACTORS
330
8690B
102
}
330
8690B
100
AcDbXrecord
280
     1
102
RTVSPost2010Prop28
280
     0
102
RTVSPost2010PropOp28
 70
     1
102
RTVSPost2010Prop29
280
     1
102
RTVSPost2010PropOp29
 70
     1
102
RTVSPost2010Prop30
280
     1
102
RTVSPost2010PropOp30
 70
     1
102
RTVSPost2010Prop31
280
     0
102
RTVSPost2010PropOp31
 70
     1
102
RTVSPost2010Prop32
280
     0
102
RTVSPost2010PropOp32
 70
     1
102
RTVSPost2010Prop33
280
     0
102
RTVSPost2010PropOp33
 70
     1
102
RTVSPost2010Prop34
280
     0
102
RTVSPost2010PropOp34
 70
     1
102
RTVSPost2010Prop35
280
     0
102
RTVSPost2010PropOp35
 70
     1
102
RTVSPost2010Prop36
280
     0
102
RTVSPost2010PropOp36
 70
     1
102
RTVSPost2010Prop37
 90
       50
102
RTVSPost2010PropOp37
 70
     1
102
RTVSPost2010Prop38
140
0.0
102
RTVSPost2010PropOp38
 70
     1
102
RTVSPost2010Prop39
140
1.0
102
RTVSPost2010PropOp39
 70
     1
102
RTVSPost2010Prop40
 90
        0
102
RTVSPost2010PropOp40
 70
     1
102
RTVSPost2010Prop41ColorIndex
 90
       18
102
RTVSPost2010Prop41ColorRGB
 90
        0
102
RTVSPost2010PropOp41
 70
     1
102
RTVSPost2010Prop42
 90
       50
102
RTVSPost2010PropOp42
 70
     1
102
RTVSPost2010Prop43
 90
        3
102
RTVSPost2010PropOp43
 70
     1
102
RTVSPost2010Prop44ColorIndex
 90
        5
102
RTVSPost2010Prop44ColorRGB
 90
      255
102
RTVSPost2010PropOp44
 70
     1
102
RTVSPost2010Prop45
280
     0
102
RTVSPost2010PropOp45
 70
     1
102
RTVSPost2010Prop46
 90
       50
102
RTVSPost2010PropOp46
 70
     1
102
RTVSPost2010Prop47
 90
       50
102
RTVSPost2010PropOp47
 70
     1
102
RTVSPost2010Prop48
 90
       50
102
RTVSPost2010PropOp48
 70
     1
102
RTVSPost2010Prop49
280
     0
102
RTVSPost2010PropOp49
 70
     1
102
RTVSPost2010Prop50
 90
       50
102
RTVSPost2010PropOp50
 70
     1
102
RTVSPost2010Prop51ColorIndex
 90
      256
102
RTVSPost2010Prop51ColorRGB
 90
-16777216
102
RTVSPost2010PropOp51
 70
     0
102
RTVSPost2010Prop52
140
1.0
102
RTVSPost2010PropOp52
 70
     0
102
RTVSPost2010Prop53
 90
        2
102
RTVSPost2010PropOp53
 70
     1
102
RTVSPost2010Prop54
  1
strokes_ogs.tif
102
RTVSPost2010PropOp54
 70
     1
102
RTVSPost2010Prop55
280
     0
102
RTVSPost2010PropOp55
 70
     1
102
RTVSPost2010Prop56
140
1.0
102
RTVSPost2010PropOp56
 70
     1
102
RTVSPost2010Prop57
140
1.0
102
RTVSPost2010PropOp57
 70
     1
  0
XRECORD
  5
8692A
102
{ACAD_REACTORS
330
86929
102
}
330
86929
100
AcDbXrecord
280
     1
102
RTVSPost2010Prop28
280
     0
102
RTVSPost2010PropOp28
 70
     1
102
RTVSPost2010Prop29
280
     1
102
RTVSPost2010PropOp29
 70
     1
102
RTVSPost2010Prop30
280
     1
102
RTVSPost2010PropOp30
 70
     1
102
RTVSPost2010Prop31
280
     0
102
RTVSPost2010PropOp31
 70
     1
102
RTVSPost2010Prop32
280
     0
102
RTVSPost2010PropOp32
 70
     1
102
RTVSPost2010Prop33
280
     0
102
RTVSPost2010PropOp33
 70
     1
102
RTVSPost2010Prop34
280
     0
102
RTVSPost2010PropOp34
 70
     1
102
RTVSPost2010Prop35
280
     0
102
RTVSPost2010PropOp35
 70
     1
102
RTVSPost2010Prop36
280
     0
102
RTVSPost2010PropOp36
 70
     1
102
RTVSPost2010Prop37
 90
       50
102
RTVSPost2010PropOp37
 70
     1
102
RTVSPost2010Prop38
140
0.0
102
RTVSPost2010PropOp38
 70
     1
102
RTVSPost2010Prop39
140
1.0
102
RTVSPost2010PropOp39
 70
     1
102
RTVSPost2010Prop40
 90
        0
102
RTVSPost2010PropOp40
 70
     1
102
RTVSPost2010Prop41ColorIndex
 90
       18
102
RTVSPost2010Prop41ColorRGB
 90
        0
102
RTVSPost2010PropOp41
 70
     1
102
RTVSPost2010Prop42
 90
       50
102
RTVSPost2010PropOp42
 70
     1
102
RTVSPost2010Prop43
 90
        3
102
RTVSPost2010PropOp43
 70
     1
102
RTVSPost2010Prop44ColorIndex
 90
        5
102
RTVSPost2010Prop44ColorRGB
 90
      255
102
RTVSPost2010PropOp44
 70
     1
102
RTVSPost2010Prop45
280
     0
102
RTVSPost2010PropOp45
 70
     1
102
RTVSPost2010Prop46
 90
       50
102
RTVSPost2010PropOp46
 70
     1
102
RTVSPost2010Prop47
 90
       50
102
RTVSPost2010PropOp47
 70
     1
102
RTVSPost2010Prop48
 90
       50
102
RTVSPost2010PropOp48
 70
     1
102
RTVSPost2010Prop49
280
     0
102
RTVSPost2010PropOp49
 70
     1
102
RTVSPost2010Prop50
 90
       50
102
RTVSPost2010PropOp50
 70
     1
102
RTVSPost2010Prop51ColorIndex
 90
      256
102
RTVSPost2010Prop51ColorRGB
 90
-16777216
102
RTVSPost2010PropOp51
 70
     0
102
RTVSPost2010Prop52
140
1.0
102
RTVSPost2010PropOp52
 70
     0
102
RTVSPost2010Prop53
 90
        2
102
RTVSPost2010PropOp53
 70
     1
102
RTVSPost2010Prop54
  1
strokes_ogs.tif
102
RTVSPost2010PropOp54
 70
     1
102
RTVSPost2010Prop55
280
     0
102
RTVSPost2010PropOp55
 70
     1
102
RTVSPost2010Prop56
140
1.0
102
RTVSPost2010PropOp56
 70
     1
102
RTVSPost2010Prop57
140
1.0
102
RTVSPost2010PropOp57
 70
     1
  0
XRECORD
  5
86914
102
{ACAD_REACTORS
330
86913
102
}
330
86913
100
AcDbXrecord
280
     1
102
RTVSPost2010Prop28
280
     0
102
RTVSPost2010PropOp28
 70
     1
102
RTVSPost2010Prop29
280
     1
102
RTVSPost2010PropOp29
 70
     1
102
RTVSPost2010Prop30
280
     1
102
RTVSPost2010PropOp30
 70
     1
102
RTVSPost2010Prop31
280
     0
102
RTVSPost2010PropOp31
 70
     1
102
RTVSPost2010Prop32
280
     0
102
RTVSPost2010PropOp32
 70
     1
102
RTVSPost2010Prop33
280
     0
102
RTVSPost2010PropOp33
 70
     1
102
RTVSPost2010Prop34
280
     0
102
RTVSPost2010PropOp34
 70
     1
102
RTVSPost2010Prop35
280
     0
102
RTVSPost2010PropOp35
 70
     1
102
RTVSPost2010Prop36
280
     0
102
RTVSPost2010PropOp36
 70
     1
102
RTVSPost2010Prop37
 90
       50
102
RTVSPost2010PropOp37
 70
     1
102
RTVSPost2010Prop38
140
0.0
102
RTVSPost2010PropOp38
 70
     1
102
RTVSPost2010Prop39
140
1.0
102
RTVSPost2010PropOp39
 70
     1
102
RTVSPost2010Prop40
 90
        0
102
RTVSPost2010PropOp40
 70
     1
102
RTVSPost2010Prop41ColorIndex
 90
       18
102
RTVSPost2010Prop41ColorRGB
 90
        0
102
RTVSPost2010PropOp41
 70
     1
102
RTVSPost2010Prop42
 90
       50
102
RTVSPost2010PropOp42
 70
     1
102
RTVSPost2010Prop43
 90
        3
102
RTVSPost2010PropOp43
 70
     1
102
RTVSPost2010Prop44ColorIndex
 90
        5
102
RTVSPost2010Prop44ColorRGB
 90
      255
102
RTVSPost2010PropOp44
 70
     1
102
RTVSPost2010Prop45
280
     0
102
RTVSPost2010PropOp45
 70
     1
102
RTVSPost2010Prop46
 90
       50
102
RTVSPost2010PropOp46
 70
     1
102
RTVSPost2010Prop47
 90
       50
102
RTVSPost2010PropOp47
 70
     1
102
RTVSPost2010Prop48
 90
       50
102
RTVSPost2010PropOp48
 70
     1
102
RTVSPost2010Prop49
280
     0
102
RTVSPost2010PropOp49
 70
     1
102
RTVSPost2010Prop50
 90
       50
102
RTVSPost2010PropOp50
 70
     1
102
RTVSPost2010Prop51ColorIndex
 90
      256
102
RTVSPost2010Prop51ColorRGB
 90
-16777216
102
RTVSPost2010PropOp51
 70
     0
102
RTVSPost2010Prop52
140
1.0
102
RTVSPost2010PropOp52
 70
     0
102
RTVSPost2010Prop53
 90
        2
102
RTVSPost2010PropOp53
 70
     1
102
RTVSPost2010Prop54
  1
strokes_ogs.tif
102
RTVSPost2010PropOp54
 70
     1
102
RTVSPost2010Prop55
280
     0
102
RTVSPost2010PropOp55
 70
     1
102
RTVSPost2010Prop56
140
1.0
102
RTVSPost2010PropOp56
 70
     1
102
RTVSPost2010Prop57
140
1.0
102
RTVSPost2010PropOp57
 70
     1
  0
XRECORD
  5
868F8
102
{ACAD_REACTORS
330
868F7
102
}
330
868F7
100
AcDbXrecord
280
     1
102
RTVSPost2010Prop28
280
     0
102
RTVSPost2010PropOp28
 70
     1
102
RTVSPost2010Prop29
280
     1
102
RTVSPost2010PropOp29
 70
     1
102
RTVSPost2010Prop30
280
     1
102
RTVSPost2010PropOp30
 70
     1
102
RTVSPost2010Prop31
280
     0
102
RTVSPost2010PropOp31
 70
     1
102
RTVSPost2010Prop32
280
     0
102
RTVSPost2010PropOp32
 70
     1
102
RTVSPost2010Prop33
280
     0
102
RTVSPost2010PropOp33
 70
     1
102
RTVSPost2010Prop34
280
     0
102
RTVSPost2010PropOp34
 70
     1
102
RTVSPost2010Prop35
280
     0
102
RTVSPost2010PropOp35
 70
     1
102
RTVSPost2010Prop36
280
     0
102
RTVSPost2010PropOp36
 70
     1
102
RTVSPost2010Prop37
 90
       50
102
RTVSPost2010PropOp37
 70
     1
102
RTVSPost2010Prop38
140
0.0
102
RTVSPost2010PropOp38
 70
     1
102
RTVSPost2010Prop39
140
1.0
102
RTVSPost2010PropOp39
 70
     1
102
RTVSPost2010Prop40
 90
        0
102
RTVSPost2010PropOp40
 70
     1
102
RTVSPost2010Prop41ColorIndex
 90
       18
102
RTVSPost2010Prop41ColorRGB
 90
        0
102
RTVSPost2010PropOp41
 70
     1
102
RTVSPost2010Prop42
 90
       50
102
RTVSPost2010PropOp42
 70
     1
102
RTVSPost2010Prop43
 90
        3
102
RTVSPost2010PropOp43
 70
     1
102
RTVSPost2010Prop44ColorIndex
 90
        5
102
RTVSPost2010Prop44ColorRGB
 90
      255
102
RTVSPost2010PropOp44
 70
     1
102
RTVSPost2010Prop45
280
     0
102
RTVSPost2010PropOp45
 70
     1
102
RTVSPost2010Prop46
 90
       50
102
RTVSPost2010PropOp46
 70
     1
102
RTVSPost2010Prop47
 90
       50
102
RTVSPost2010PropOp47
 70
     1
102
RTVSPost2010Prop48
 90
       50
102
RTVSPost2010PropOp48
 70
     1
102
RTVSPost2010Prop49
280
     0
102
RTVSPost2010PropOp49
 70
     1
102
RTVSPost2010Prop50
 90
       50
102
RTVSPost2010PropOp50
 70
     1
102
RTVSPost2010Prop51ColorIndex
 90
      256
102
RTVSPost2010Prop51ColorRGB
 90
-16777216
102
RTVSPost2010PropOp51
 70
     0
102
RTVSPost2010Prop52
140
1.0
102
RTVSPost2010PropOp52
 70
     0
102
RTVSPost2010Prop53
 90
        2
102
RTVSPost2010PropOp53
 70
     1
102
RTVSPost2010Prop54
  1
strokes_ogs.tif
102
RTVSPost2010PropOp54
 70
     1
102
RTVSPost2010Prop55
280
     0
102
RTVSPost2010PropOp55
 70
     1
102
RTVSPost2010Prop56
140
1.0
102
RTVSPost2010PropOp56
 70
     1
102
RTVSPost2010Prop57
140
1.0
102
RTVSPost2010PropOp57
 70
     1
  0
XRECORD
  5
868FA
102
{ACAD_REACTORS
330
868F9
102
}
330
868F9
100
AcDbXrecord
280
     1
102
RTVSPost2010Prop28
280
     0
102
RTVSPost2010PropOp28
 70
     1
102
RTVSPost2010Prop29
280
     1
102
RTVSPost2010PropOp29
 70
     1
102
RTVSPost2010Prop30
280
     1
102
RTVSPost2010PropOp30
 70
     1
102
RTVSPost2010Prop31
280
     0
102
RTVSPost2010PropOp31
 70
     1
102
RTVSPost2010Prop32
280
     0
102
RTVSPost2010PropOp32
 70
     1
102
RTVSPost2010Prop33
280
     0
102
RTVSPost2010PropOp33
 70
     1
102
RTVSPost2010Prop34
280
     0
102
RTVSPost2010PropOp34
 70
     1
102
RTVSPost2010Prop35
280
     0
102
RTVSPost2010PropOp35
 70
     1
102
RTVSPost2010Prop36
280
     0
102
RTVSPost2010PropOp36
 70
     1
102
RTVSPost2010Prop37
 90
       50
102
RTVSPost2010PropOp37
 70
     1
102
RTVSPost2010Prop38
140
0.0
102
RTVSPost2010PropOp38
 70
     1
102
RTVSPost2010Prop39
140
1.0
102
RTVSPost2010PropOp39
 70
     1
102
RTVSPost2010Prop40
 90
        0
102
RTVSPost2010PropOp40
 70
     1
102
RTVSPost2010Prop41ColorIndex
 90
       18
102
RTVSPost2010Prop41ColorRGB
 90
        0
102
RTVSPost2010PropOp41
 70
     1
102
RTVSPost2010Prop42
 90
       50
102
RTVSPost2010PropOp42
 70
     1
102
RTVSPost2010Prop43
 90
        3
102
RTVSPost2010PropOp43
 70
     1
102
RTVSPost2010Prop44ColorIndex
 90
        5
102
RTVSPost2010Prop44ColorRGB
 90
      255
102
RTVSPost2010PropOp44
 70
     1
102
RTVSPost2010Prop45
280
     0
102
RTVSPost2010PropOp45
 70
     1
102
RTVSPost2010Prop46
 90
       50
102
RTVSPost2010PropOp46
 70
     1
102
RTVSPost2010Prop47
 90
       50
102
RTVSPost2010PropOp47
 70
     1
102
RTVSPost2010Prop48
 90
       50
102
RTVSPost2010PropOp48
 70
     1
102
RTVSPost2010Prop49
280
     0
102
RTVSPost2010PropOp49
 70
     1
102
RTVSPost2010Prop50
 90
       50
102
RTVSPost2010PropOp50
 70
     1
102
RTVSPost2010Prop51ColorIndex
 90
      256
102
RTVSPost2010Prop51ColorRGB
 90
-16777216
102
RTVSPost2010PropOp51
 70
     0
102
RTVSPost2010Prop52
140
1.0
102
RTVSPost2010PropOp52
 70
     0
102
RTVSPost2010Prop53
 90
        2
102
RTVSPost2010PropOp53
 70
     1
102
RTVSPost2010Prop54
  1
strokes_ogs.tif
102
RTVSPost2010PropOp54
 70
     1
102
RTVSPost2010Prop55
280
     0
102
RTVSPost2010PropOp55
 70
     1
102
RTVSPost2010Prop56
140
1.0
102
RTVSPost2010PropOp56
 70
     1
102
RTVSPost2010Prop57
140
1.0
102
RTVSPost2010PropOp57
 70
     1
  0
XRECORD
  5
868FC
102
{ACAD_REACTORS
330
868FB
102
}
330
868FB
100
AcDbXrecord
280
     1
102
RTVSPost2010Prop28
280
     0
102
RTVSPost2010PropOp28
 70
     1
102
RTVSPost2010Prop29
280
     1
102
RTVSPost2010PropOp29
 70
     1
102
RTVSPost2010Prop30
280
     1
102
RTVSPost2010PropOp30
 70
     1
102
RTVSPost2010Prop31
280
     0
102
RTVSPost2010PropOp31
 70
     1
102
RTVSPost2010Prop32
280
     0
102
RTVSPost2010PropOp32
 70
     1
102
RTVSPost2010Prop33
280
     0
102
RTVSPost2010PropOp33
 70
     1
102
RTVSPost2010Prop34
280
     0
102
RTVSPost2010PropOp34
 70
     1
102
RTVSPost2010Prop35
280
     0
102
RTVSPost2010PropOp35
 70
     1
102
RTVSPost2010Prop36
280
     0
102
RTVSPost2010PropOp36
 70
     1
102
RTVSPost2010Prop37
 90
       50
102
RTVSPost2010PropOp37
 70
     1
102
RTVSPost2010Prop38
140
0.0
102
RTVSPost2010PropOp38
 70
     1
102
RTVSPost2010Prop39
140
1.0
102
RTVSPost2010PropOp39
 70
     1
102
RTVSPost2010Prop40
 90
        0
102
RTVSPost2010PropOp40
 70
     1
102
RTVSPost2010Prop41ColorIndex
 90
       18
102
RTVSPost2010Prop41ColorRGB
 90
        0
102
RTVSPost2010PropOp41
 70
     1
102
RTVSPost2010Prop42
 90
       50
102
RTVSPost2010PropOp42
 70
     1
102
RTVSPost2010Prop43
 90
        3
102
RTVSPost2010PropOp43
 70
     1
102
RTVSPost2010Prop44ColorIndex
 90
        5
102
RTVSPost2010Prop44ColorRGB
 90
      255
102
RTVSPost2010PropOp44
 70
     1
102
RTVSPost2010Prop45
280
     0
102
RTVSPost2010PropOp45
 70
     1
102
RTVSPost2010Prop46
 90
       50
102
RTVSPost2010PropOp46
 70
     1
102
RTVSPost2010Prop47
 90
       50
102
RTVSPost2010PropOp47
 70
     1
102
RTVSPost2010Prop48
 90
       50
102
RTVSPost2010PropOp48
 70
     1
102
RTVSPost2010Prop49
280
     0
102
RTVSPost2010PropOp49
 70
     1
102
RTVSPost2010Prop50
 90
       50
102
RTVSPost2010PropOp50
 70
     1
102
RTVSPost2010Prop51ColorIndex
 90
      256
102
RTVSPost2010Prop51ColorRGB
 90
-16777216
102
RTVSPost2010PropOp51
 70
     0
102
RTVSPost2010Prop52
140
1.0
102
RTVSPost2010PropOp52
 70
     0
102
RTVSPost2010Prop53
 90
        2
102
RTVSPost2010PropOp53
 70
     1
102
RTVSPost2010Prop54
  1
strokes_ogs.tif
102
RTVSPost2010PropOp54
 70
     1
102
RTVSPost2010Prop55
280
     0
102
RTVSPost2010PropOp55
 70
     1
102
RTVSPost2010Prop56
140
1.0
102
RTVSPost2010PropOp56
 70
     1
102
RTVSPost2010Prop57
140
1.0
102
RTVSPost2010PropOp57
 70
     1
  0
XRECORD
  5
868FE
102
{ACAD_REACTORS
330
868FD
102
}
330
868FD
100
AcDbXrecord
280
     1
102
RTVSPost2010Prop28
280
     0
102
RTVSPost2010PropOp28
 70
     1
102
RTVSPost2010Prop29
280
     1
102
RTVSPost2010PropOp29
 70
     1
102
RTVSPost2010Prop30
280
     1
102
RTVSPost2010PropOp30
 70
     1
102
RTVSPost2010Prop31
280
     0
102
RTVSPost2010PropOp31
 70
     1
102
RTVSPost2010Prop32
280
     0
102
RTVSPost2010PropOp32
 70
     1
102
RTVSPost2010Prop33
280
     0
102
RTVSPost2010PropOp33
 70
     1
102
RTVSPost2010Prop34
280
     0
102
RTVSPost2010PropOp34
 70
     1
102
RTVSPost2010Prop35
280
     0
102
RTVSPost2010PropOp35
 70
     1
102
RTVSPost2010Prop36
280
     0
102
RTVSPost2010PropOp36
 70
     1
102
RTVSPost2010Prop37
 90
       50
102
RTVSPost2010PropOp37
 70
     1
102
RTVSPost2010Prop38
140
0.0
102
RTVSPost2010PropOp38
 70
     1
102
RTVSPost2010Prop39
140
1.0
102
RTVSPost2010PropOp39
 70
     1
102
RTVSPost2010Prop40
 90
        0
102
RTVSPost2010PropOp40
 70
     1
102
RTVSPost2010Prop41ColorIndex
 90
       18
102
RTVSPost2010Prop41ColorRGB
 90
        0
102
RTVSPost2010PropOp41
 70
     1
102
RTVSPost2010Prop42
 90
       50
102
RTVSPost2010PropOp42
 70
     1
102
RTVSPost2010Prop43
 90
        3
102
RTVSPost2010PropOp43
 70
     1
102
RTVSPost2010Prop44ColorIndex
 90
        5
102
RTVSPost2010Prop44ColorRGB
 90
      255
102
RTVSPost2010PropOp44
 70
     1
102
RTVSPost2010Prop45
280
     0
102
RTVSPost2010PropOp45
 70
     1
102
RTVSPost2010Prop46
 90
       50
102
RTVSPost2010PropOp46
 70
     1
102
RTVSPost2010Prop47
 90
       50
102
RTVSPost2010PropOp47
 70
     1
102
RTVSPost2010Prop48
 90
       50
102
RTVSPost2010PropOp48
 70
     1
102
RTVSPost2010Prop49
280
     0
102
RTVSPost2010PropOp49
 70
     1
102
RTVSPost2010Prop50
 90
       50
102
RTVSPost2010PropOp50
 70
     1
102
RTVSPost2010Prop51ColorIndex
 90
      256
102
RTVSPost2010Prop51ColorRGB
 90
-16777216
102
RTVSPost2010PropOp51
 70
     0
102
RTVSPost2010Prop52
140
1.0
102
RTVSPost2010PropOp52
 70
     0
102
RTVSPost2010Prop53
 90
        2
102
RTVSPost2010PropOp53
 70
     1
102
RTVSPost2010Prop54
  1
strokes_ogs.tif
102
RTVSPost2010PropOp54
 70
     1
102
RTVSPost2010Prop55
280
     0
102
RTVSPost2010PropOp55
 70
     1
102
RTVSPost2010Prop56
140
1.0
102
RTVSPost2010PropOp56
 70
     1
102
RTVSPost2010Prop57
140
1.0
102
RTVSPost2010PropOp57
 70
     1
  0
XRECORD
  5
8691A
102
{ACAD_REACTORS
330
86919
102
}
330
86919
100
AcDbXrecord
280
     1
102
RTVSPost2010Prop28
280
     0
102
RTVSPost2010PropOp28
 70
     1
102
RTVSPost2010Prop29
280
     1
102
RTVSPost2010PropOp29
 70
     1
102
RTVSPost2010Prop30
280
     1
102
RTVSPost2010PropOp30
 70
     1
102
RTVSPost2010Prop31
280
     0
102
RTVSPost2010PropOp31
 70
     1
102
RTVSPost2010Prop32
280
     0
102
RTVSPost2010PropOp32
 70
     1
102
RTVSPost2010Prop33
280
     0
102
RTVSPost2010PropOp33
 70
     1
102
RTVSPost2010Prop34
280
     0
102
RTVSPost2010PropOp34
 70
     1
102
RTVSPost2010Prop35
280
     0
102
RTVSPost2010PropOp35
 70
     1
102
RTVSPost2010Prop36
280
     0
102
RTVSPost2010PropOp36
 70
     1
102
RTVSPost2010Prop37
 90
       50
102
RTVSPost2010PropOp37
 70
     1
102
RTVSPost2010Prop38
140
0.0
102
RTVSPost2010PropOp38
 70
     1
102
RTVSPost2010Prop39
140
1.0
102
RTVSPost2010PropOp39
 70
     1
102
RTVSPost2010Prop40
 90
        0
102
RTVSPost2010PropOp40
 70
     1
102
RTVSPost2010Prop41ColorIndex
 90
       18
102
RTVSPost2010Prop41ColorRGB
 90
        0
102
RTVSPost2010PropOp41
 70
     1
102
RTVSPost2010Prop42
 90
       50
102
RTVSPost2010PropOp42
 70
     1
102
RTVSPost2010Prop43
 90
        3
102
RTVSPost2010PropOp43
 70
     1
102
RTVSPost2010Prop44ColorIndex
 90
        5
102
RTVSPost2010Prop44ColorRGB
 90
      255
102
RTVSPost2010PropOp44
 70
     1
102
RTVSPost2010Prop45
280
     0
102
RTVSPost2010PropOp45
 70
     1
102
RTVSPost2010Prop46
 90
       50
102
RTVSPost2010PropOp46
 70
     1
102
RTVSPost2010Prop47
 90
       50
102
RTVSPost2010PropOp47
 70
     1
102
RTVSPost2010Prop48
 90
       50
102
RTVSPost2010PropOp48
 70
     1
102
RTVSPost2010Prop49
280
     0
102
RTVSPost2010PropOp49
 70
     1
102
RTVSPost2010Prop50
 90
       50
102
RTVSPost2010PropOp50
 70
     1
102
RTVSPost2010Prop51ColorIndex
 90
      256
102
RTVSPost2010Prop51ColorRGB
 90
-16777216
102
RTVSPost2010PropOp51
 70
     0
102
RTVSPost2010Prop52
140
1.0
102
RTVSPost2010PropOp52
 70
     0
102
RTVSPost2010Prop53
 90
        2
102
RTVSPost2010PropOp53
 70
     1
102
RTVSPost2010Prop54
  1
strokes_ogs.tif
102
RTVSPost2010PropOp54
 70
     1
102
RTVSPost2010Prop55
280
     0
102
RTVSPost2010PropOp55
 70
     1
102
RTVSPost2010Prop56
140
1.0
102
RTVSPost2010PropOp56
 70
     1
102
RTVSPost2010Prop57
140
1.0
102
RTVSPost2010PropOp57
 70
     1
  0
XRECORD
  5
86926
102
{ACAD_REACTORS
330
86925
102
}
330
86925
100
AcDbXrecord
280
     1
102
RTVSPost2010Prop28
280
     0
102
RTVSPost2010PropOp28
 70
     1
102
RTVSPost2010Prop29
280
     1
102
RTVSPost2010PropOp29
 70
     1
102
RTVSPost2010Prop30
280
     1
102
RTVSPost2010PropOp30
 70
     1
102
RTVSPost2010Prop31
280
     0
102
RTVSPost2010PropOp31
 70
     1
102
RTVSPost2010Prop32
280
     0
102
RTVSPost2010PropOp32
 70
     1
102
RTVSPost2010Prop33
280
     0
102
RTVSPost2010PropOp33
 70
     1
102
RTVSPost2010Prop34
280
     0
102
RTVSPost2010PropOp34
 70
     1
102
RTVSPost2010Prop35
280
     0
102
RTVSPost2010PropOp35
 70
     1
102
RTVSPost2010Prop36
280
     0
102
RTVSPost2010PropOp36
 70
     1
102
RTVSPost2010Prop37
 90
       50
102
RTVSPost2010PropOp37
 70
     1
102
RTVSPost2010Prop38
140
0.0
102
RTVSPost2010PropOp38
 70
     1
102
RTVSPost2010Prop39
140
1.0
102
RTVSPost2010PropOp39
 70
     1
102
RTVSPost2010Prop40
 90
        0
102
RTVSPost2010PropOp40
 70
     1
102
RTVSPost2010Prop41ColorIndex
 90
       18
102
RTVSPost2010Prop41ColorRGB
 90
        0
102
RTVSPost2010PropOp41
 70
     1
102
RTVSPost2010Prop42
 90
       50
102
RTVSPost2010PropOp42
 70
     1
102
RTVSPost2010Prop43
 90
        3
102
RTVSPost2010PropOp43
 70
     1
102
RTVSPost2010Prop44ColorIndex
 90
        5
102
RTVSPost2010Prop44ColorRGB
 90
      255
102
RTVSPost2010PropOp44
 70
     1
102
RTVSPost2010Prop45
280
     0
102
RTVSPost2010PropOp45
 70
     1
102
RTVSPost2010Prop46
 90
       50
102
RTVSPost2010PropOp46
 70
     1
102
RTVSPost2010Prop47
 90
       50
102
RTVSPost2010PropOp47
 70
     1
102
RTVSPost2010Prop48
 90
       50
102
RTVSPost2010PropOp48
 70
     1
102
RTVSPost2010Prop49
280
     0
102
RTVSPost2010PropOp49
 70
     1
102
RTVSPost2010Prop50
 90
       50
102
RTVSPost2010PropOp50
 70
     1
102
RTVSPost2010Prop51ColorIndex
 90
      256
102
RTVSPost2010Prop51ColorRGB
 90
-16777216
102
RTVSPost2010PropOp51
 70
     0
102
RTVSPost2010Prop52
140
1.0
102
RTVSPost2010PropOp52
 70
     0
102
RTVSPost2010Prop53
 90
        2
102
RTVSPost2010PropOp53
 70
     1
102
RTVSPost2010Prop54
  1
strokes_ogs.tif
102
RTVSPost2010PropOp54
 70
     1
102
RTVSPost2010Prop55
280
     0
102
RTVSPost2010PropOp55
 70
     1
102
RTVSPost2010Prop56
140
1.0
102
RTVSPost2010PropOp56
 70
     1
102
RTVSPost2010Prop57
140
1.0
102
RTVSPost2010PropOp57
 70
     1
  0
XRECORD
  5
86912
102
{ACAD_REACTORS
330
86911
102
}
330
86911
100
AcDbXrecord
280
     1
102
RTVSPost2010Prop28
280
     0
102
RTVSPost2010PropOp28
 70
     1
102
RTVSPost2010Prop29
280
     1
102
RTVSPost2010PropOp29
 70
     1
102
RTVSPost2010Prop30
280
     1
102
RTVSPost2010PropOp30
 70
     1
102
RTVSPost2010Prop31
280
     0
102
RTVSPost2010PropOp31
 70
     1
102
RTVSPost2010Prop32
280
     0
102
RTVSPost2010PropOp32
 70
     1
102
RTVSPost2010Prop33
280
     0
102
RTVSPost2010PropOp33
 70
     1
102
RTVSPost2010Prop34
280
     0
102
RTVSPost2010PropOp34
 70
     1
102
RTVSPost2010Prop35
280
     0
102
RTVSPost2010PropOp35
 70
     1
102
RTVSPost2010Prop36
280
     0
102
RTVSPost2010PropOp36
 70
     1
102
RTVSPost2010Prop37
 90
       50
102
RTVSPost2010PropOp37
 70
     1
102
RTVSPost2010Prop38
140
0.0
102
RTVSPost2010PropOp38
 70
     1
102
RTVSPost2010Prop39
140
1.0
102
RTVSPost2010PropOp39
 70
     1
102
RTVSPost2010Prop40
 90
        0
102
RTVSPost2010PropOp40
 70
     1
102
RTVSPost2010Prop41ColorIndex
 90
       18
102
RTVSPost2010Prop41ColorRGB
 90
        0
102
RTVSPost2010PropOp41
 70
     1
102
RTVSPost2010Prop42
 90
       50
102
RTVSPost2010PropOp42
 70
     1
102
RTVSPost2010Prop43
 90
        3
102
RTVSPost2010PropOp43
 70
     1
102
RTVSPost2010Prop44ColorIndex
 90
        5
102
RTVSPost2010Prop44ColorRGB
 90
      255
102
RTVSPost2010PropOp44
 70
     1
102
RTVSPost2010Prop45
280
     0
102
RTVSPost2010PropOp45
 70
     1
102
RTVSPost2010Prop46
 90
       50
102
RTVSPost2010PropOp46
 70
     1
102
RTVSPost2010Prop47
 90
       50
102
RTVSPost2010PropOp47
 70
     1
102
RTVSPost2010Prop48
 90
       50
102
RTVSPost2010PropOp48
 70
     1
102
RTVSPost2010Prop49
280
     0
102
RTVSPost2010PropOp49
 70
     1
102
RTVSPost2010Prop50
 90
       50
102
RTVSPost2010PropOp50
 70
     1
102
RTVSPost2010Prop51ColorIndex
 90
      256
102
RTVSPost2010Prop51ColorRGB
 90
-16777216
102
RTVSPost2010PropOp51
 70
     0
102
RTVSPost2010Prop52
140
1.0
102
RTVSPost2010PropOp52
 70
     0
102
RTVSPost2010Prop53
 90
        2
102
RTVSPost2010PropOp53
 70
     1
102
RTVSPost2010Prop54
  1
strokes_ogs.tif
102
RTVSPost2010PropOp54
 70
     1
102
RTVSPost2010Prop55
280
     0
102
RTVSPost2010PropOp55
 70
     1
102
RTVSPost2010Prop56
140
1.0
102
RTVSPost2010PropOp56
 70
     1
102
RTVSPost2010Prop57
140
1.0
102
RTVSPost2010PropOp57
 70
     1
  0
XRECORD
  5
86928
102
{ACAD_REACTORS
330
86927
102
}
330
86927
100
AcDbXrecord
280
     1
102
RTVSPost2010Prop28
280
     0
102
RTVSPost2010PropOp28
 70
     1
102
RTVSPost2010Prop29
280
     1
102
RTVSPost2010PropOp29
 70
     1
102
RTVSPost2010Prop30
280
     1
102
RTVSPost2010PropOp30
 70
     1
102
RTVSPost2010Prop31
280
     0
102
RTVSPost2010PropOp31
 70
     1
102
RTVSPost2010Prop32
280
     0
102
RTVSPost2010PropOp32
 70
     1
102
RTVSPost2010Prop33
280
     0
102
RTVSPost2010PropOp33
 70
     1
102
RTVSPost2010Prop34
280
     0
102
RTVSPost2010PropOp34
 70
     1
102
RTVSPost2010Prop35
280
     0
102
RTVSPost2010PropOp35
 70
     1
102
RTVSPost2010Prop36
280
     0
102
RTVSPost2010PropOp36
 70
     1
102
RTVSPost2010Prop37
 90
       50
102
RTVSPost2010PropOp37
 70
     1
102
RTVSPost2010Prop38
140
0.0
102
RTVSPost2010PropOp38
 70
     1
102
RTVSPost2010Prop39
140
1.0
102
RTVSPost2010PropOp39
 70
     1
102
RTVSPost2010Prop40
 90
        0
102
RTVSPost2010PropOp40
 70
     1
102
RTVSPost2010Prop41ColorIndex
 90
       18
102
RTVSPost2010Prop41ColorRGB
 90
        0
102
RTVSPost2010PropOp41
 70
     1
102
RTVSPost2010Prop42
 90
       50
102
RTVSPost2010PropOp42
 70
     1
102
RTVSPost2010Prop43
 90
        3
102
RTVSPost2010PropOp43
 70
     1
102
RTVSPost2010Prop44ColorIndex
 90
        5
102
RTVSPost2010Prop44ColorRGB
 90
      255
102
RTVSPost2010PropOp44
 70
     1
102
RTVSPost2010Prop45
280
     0
102
RTVSPost2010PropOp45
 70
     1
102
RTVSPost2010Prop46
 90
       50
102
RTVSPost2010PropOp46
 70
     1
102
RTVSPost2010Prop47
 90
       50
102
RTVSPost2010PropOp47
 70
     1
102
RTVSPost2010Prop48
 90
       50
102
RTVSPost2010PropOp48
 70
     1
102
RTVSPost2010Prop49
280
     0
102
RTVSPost2010PropOp49
 70
     1
102
RTVSPost2010Prop50
 90
       50
102
RTVSPost2010PropOp50
 70
     1
102
RTVSPost2010Prop51ColorIndex
 90
      256
102
RTVSPost2010Prop51ColorRGB
 90
-16777216
102
RTVSPost2010PropOp51
 70
     0
102
RTVSPost2010Prop52
140
1.0
102
RTVSPost2010PropOp52
 70
     0
102
RTVSPost2010Prop53
 90
        2
102
RTVSPost2010PropOp53
 70
     1
102
RTVSPost2010Prop54
  1
strokes_ogs.tif
102
RTVSPost2010PropOp54
 70
     1
102
RTVSPost2010Prop55
280
     0
102
RTVSPost2010PropOp55
 70
     1
102
RTVSPost2010Prop56
140
1.0
102
RTVSPost2010PropOp56
 70
     1
102
RTVSPost2010Prop57
140
1.0
102
RTVSPost2010PropOp57
 70
     1
  0
XRECORD
  5
8690A
102
{ACAD_REACTORS
330
86909
102
}
330
86909
100
AcDbXrecord
280
     1
102
RTVSPost2010Prop28
280
     0
102
RTVSPost2010PropOp28
 70
     1
102
RTVSPost2010Prop29
280
     1
102
RTVSPost2010PropOp29
 70
     1
102
RTVSPost2010Prop30
280
     1
102
RTVSPost2010PropOp30
 70
     1
102
RTVSPost2010Prop31
280
     0
102
RTVSPost2010PropOp31
 70
     1
102
RTVSPost2010Prop32
280
     0
102
RTVSPost2010PropOp32
 70
     1
102
RTVSPost2010Prop33
280
     0
102
RTVSPost2010PropOp33
 70
     1
102
RTVSPost2010Prop34
280
     0
102
RTVSPost2010PropOp34
 70
     1
102
RTVSPost2010Prop35
280
     0
102
RTVSPost2010PropOp35
 70
     1
102
RTVSPost2010Prop36
280
     0
102
RTVSPost2010PropOp36
 70
     1
102
RTVSPost2010Prop37
 90
       50
102
RTVSPost2010PropOp37
 70
     1
102
RTVSPost2010Prop38
140
0.0
102
RTVSPost2010PropOp38
 70
     1
102
RTVSPost2010Prop39
140
1.0
102
RTVSPost2010PropOp39
 70
     1
102
RTVSPost2010Prop40
 90
        0
102
RTVSPost2010PropOp40
 70
     1
102
RTVSPost2010Prop41ColorIndex
 90
       18
102
RTVSPost2010Prop41ColorRGB
 90
        0
102
RTVSPost2010PropOp41
 70
     1
102
RTVSPost2010Prop42
 90
       50
102
RTVSPost2010PropOp42
 70
     1
102
RTVSPost2010Prop43
 90
        3
102
RTVSPost2010PropOp43
 70
     1
102
RTVSPost2010Prop44ColorIndex
 90
        5
102
RTVSPost2010Prop44ColorRGB
 90
      255
102
RTVSPost2010PropOp44
 70
     1
102
RTVSPost2010Prop45
280
     0
102
RTVSPost2010PropOp45
 70
     1
102
RTVSPost2010Prop46
 90
       50
102
RTVSPost2010PropOp46
 70
     1
102
RTVSPost2010Prop47
 90
       50
102
RTVSPost2010PropOp47
 70
     1
102
RTVSPost2010Prop48
 90
       50
102
RTVSPost2010PropOp48
 70
     1
102
RTVSPost2010Prop49
280
     0
102
RTVSPost2010PropOp49
 70
     1
102
RTVSPost2010Prop50
 90
       50
102
RTVSPost2010PropOp50
 70
     1
102
RTVSPost2010Prop51ColorIndex
 90
      256
102
RTVSPost2010Prop51ColorRGB
 90
-16777216
102
RTVSPost2010PropOp51
 70
     0
102
RTVSPost2010Prop52
140
1.0
102
RTVSPost2010PropOp52
 70
     0
102
RTVSPost2010Prop53
 90
        2
102
RTVSPost2010PropOp53
 70
     1
102
RTVSPost2010Prop54
  1
strokes_ogs.tif
102
RTVSPost2010PropOp54
 70
     1
102
RTVSPost2010Prop55
280
     0
102
RTVSPost2010PropOp55
 70
     1
102
RTVSPost2010Prop56
140
1.0
102
RTVSPost2010PropOp56
 70
     1
102
RTVSPost2010Prop57
140
1.0
102
RTVSPost2010PropOp57
 70
     1
  0
XRECORD
  5
86924
102
{ACAD_REACTORS
330
86923
102
}
330
86923
100
AcDbXrecord
280
     1
102
RTVSPost2010Prop28
280
     0
102
RTVSPost2010PropOp28
 70
     1
102
RTVSPost2010Prop29
280
     1
102
RTVSPost2010PropOp29
 70
     1
102
RTVSPost2010Prop30
280
     1
102
RTVSPost2010PropOp30
 70
     1
102
RTVSPost2010Prop31
280
     0
102
RTVSPost2010PropOp31
 70
     1
102
RTVSPost2010Prop32
280
     0
102
RTVSPost2010PropOp32
 70
     1
102
RTVSPost2010Prop33
280
     0
102
RTVSPost2010PropOp33
 70
     1
102
RTVSPost2010Prop34
280
     0
102
RTVSPost2010PropOp34
 70
     1
102
RTVSPost2010Prop35
280
     0
102
RTVSPost2010PropOp35
 70
     1
102
RTVSPost2010Prop36
280
     0
102
RTVSPost2010PropOp36
 70
     1
102
RTVSPost2010Prop37
 90
       50
102
RTVSPost2010PropOp37
 70
     1
102
RTVSPost2010Prop38
140
0.0
102
RTVSPost2010PropOp38
 70
     1
102
RTVSPost2010Prop39
140
1.0
102
RTVSPost2010PropOp39
 70
     1
102
RTVSPost2010Prop40
 90
        0
102
RTVSPost2010PropOp40
 70
     1
102
RTVSPost2010Prop41ColorIndex
 90
       18
102
RTVSPost2010Prop41ColorRGB
 90
        0
102
RTVSPost2010PropOp41
 70
     1
102
RTVSPost2010Prop42
 90
       50
102
RTVSPost2010PropOp42
 70
     1
102
RTVSPost2010Prop43
 90
        3
102
RTVSPost2010PropOp43
 70
     1
102
RTVSPost2010Prop44ColorIndex
 90
        5
102
RTVSPost2010Prop44ColorRGB
 90
      255
102
RTVSPost2010PropOp44
 70
     1
102
RTVSPost2010Prop45
280
     0
102
RTVSPost2010PropOp45
 70
     1
102
RTVSPost2010Prop46
 90
       50
102
RTVSPost2010PropOp46
 70
     1
102
RTVSPost2010Prop47
 90
       50
102
RTVSPost2010PropOp47
 70
     1
102
RTVSPost2010Prop48
 90
       50
102
RTVSPost2010PropOp48
 70
     1
102
RTVSPost2010Prop49
280
     0
102
RTVSPost2010PropOp49
 70
     1
102
RTVSPost2010Prop50
 90
       50
102
RTVSPost2010PropOp50
 70
     1
102
RTVSPost2010Prop51ColorIndex
 90
      256
102
RTVSPost2010Prop51ColorRGB
 90
-16777216
102
RTVSPost2010PropOp51
 70
     0
102
RTVSPost2010Prop52
140
1.0
102
RTVSPost2010PropOp52
 70
     0
102
RTVSPost2010Prop53
 90
        2
102
RTVSPost2010PropOp53
 70
     1
102
RTVSPost2010Prop54
  1
strokes_ogs.tif
102
RTVSPost2010PropOp54
 70
     1
102
RTVSPost2010Prop55
280
     0
102
RTVSPost2010PropOp55
 70
     1
102
RTVSPost2010Prop56
140
1.0
102
RTVSPost2010PropOp56
 70
     1
102
RTVSPost2010Prop57
140
1.0
102
RTVSPost2010PropOp57
 70
     1
  0
XRECORD
  5
86922
102
{ACAD_REACTORS
330
86921
102
}
330
86921
100
AcDbXrecord
280
     1
102
RTVSPost2010Prop28
280
     0
102
RTVSPost2010PropOp28
 70
     1
102
RTVSPost2010Prop29
280
     1
102
RTVSPost2010PropOp29
 70
     1
102
RTVSPost2010Prop30
280
     1
102
RTVSPost2010PropOp30
 70
     1
102
RTVSPost2010Prop31
280
     0
102
RTVSPost2010PropOp31
 70
     1
102
RTVSPost2010Prop32
280
     0
102
RTVSPost2010PropOp32
 70
     1
102
RTVSPost2010Prop33
280
     0
102
RTVSPost2010PropOp33
 70
     1
102
RTVSPost2010Prop34
280
     0
102
RTVSPost2010PropOp34
 70
     1
102
RTVSPost2010Prop35
280
     0
102
RTVSPost2010PropOp35
 70
     1
102
RTVSPost2010Prop36
280
     0
102
RTVSPost2010PropOp36
 70
     1
102
RTVSPost2010Prop37
 90
       50
102
RTVSPost2010PropOp37
 70
     1
102
RTVSPost2010Prop38
140
0.0
102
RTVSPost2010PropOp38
 70
     1
102
RTVSPost2010Prop39
140
1.0
102
RTVSPost2010PropOp39
 70
     1
102
RTVSPost2010Prop40
 90
        0
102
RTVSPost2010PropOp40
 70
     1
102
RTVSPost2010Prop41ColorIndex
 90
       18
102
RTVSPost2010Prop41ColorRGB
 90
        0
102
RTVSPost2010PropOp41
 70
     1
102
RTVSPost2010Prop42
 90
       50
102
RTVSPost2010PropOp42
 70
     1
102
RTVSPost2010Prop43
 90
        3
102
RTVSPost2010PropOp43
 70
     1
102
RTVSPost2010Prop44ColorIndex
 90
        5
102
RTVSPost2010Prop44ColorRGB
 90
      255
102
RTVSPost2010PropOp44
 70
     1
102
RTVSPost2010Prop45
280
     0
102
RTVSPost2010PropOp45
 70
     1
102
RTVSPost2010Prop46
 90
       50
102
RTVSPost2010PropOp46
 70
     1
102
RTVSPost2010Prop47
 90
       50
102
RTVSPost2010PropOp47
 70
     1
102
RTVSPost2010Prop48
 90
       50
102
RTVSPost2010PropOp48
 70
     1
102
RTVSPost2010Prop49
280
     0
102
RTVSPost2010PropOp49
 70
     1
102
RTVSPost2010Prop50
 90
       50
102
RTVSPost2010PropOp50
 70
     1
102
RTVSPost2010Prop51ColorIndex
 90
      256
102
RTVSPost2010Prop51ColorRGB
 90
-16777216
102
RTVSPost2010PropOp51
 70
     0
102
RTVSPost2010Prop52
140
1.0
102
RTVSPost2010PropOp52
 70
     0
102
RTVSPost2010Prop53
 90
        2
102
RTVSPost2010PropOp53
 70
     1
102
RTVSPost2010Prop54
  1
strokes_ogs.tif
102
RTVSPost2010PropOp54
 70
     1
102
RTVSPost2010Prop55
280
     0
102
RTVSPost2010PropOp55
 70
     1
102
RTVSPost2010Prop56
140
1.0
102
RTVSPost2010PropOp56
 70
     1
102
RTVSPost2010Prop57
140
1.0
102
RTVSPost2010PropOp57
 70
     1
  0
XRECORD
  5
8691C
102
{ACAD_REACTORS
330
8691B
102
}
330
8691B
100
AcDbXrecord
280
     1
102
RTVSPost2010Prop28
280
     0
102
RTVSPost2010PropOp28
 70
     1
102
RTVSPost2010Prop29
280
     1
102
RTVSPost2010PropOp29
 70
     1
102
RTVSPost2010Prop30
280
     1
102
RTVSPost2010PropOp30
 70
     1
102
RTVSPost2010Prop31
280
     0
102
RTVSPost2010PropOp31
 70
     1
102
RTVSPost2010Prop32
280
     0
102
RTVSPost2010PropOp32
 70
     1
102
RTVSPost2010Prop33
280
     0
102
RTVSPost2010PropOp33
 70
     1
102
RTVSPost2010Prop34
280
     0
102
RTVSPost2010PropOp34
 70
     1
102
RTVSPost2010Prop35
280
     0
102
RTVSPost2010PropOp35
 70
     1
102
RTVSPost2010Prop36
280
     0
102
RTVSPost2010PropOp36
 70
     1
102
RTVSPost2010Prop37
 90
       50
102
RTVSPost2010PropOp37
 70
     1
102
RTVSPost2010Prop38
140
0.0
102
RTVSPost2010PropOp38
 70
     1
102
RTVSPost2010Prop39
140
1.0
102
RTVSPost2010PropOp39
 70
     1
102
RTVSPost2010Prop40
 90
        0
102
RTVSPost2010PropOp40
 70
     1
102
RTVSPost2010Prop41ColorIndex
 90
       18
102
RTVSPost2010Prop41ColorRGB
 90
        0
102
RTVSPost2010PropOp41
 70
     1
102
RTVSPost2010Prop42
 90
       50
102
RTVSPost2010PropOp42
 70
     1
102
RTVSPost2010Prop43
 90
        3
102
RTVSPost2010PropOp43
 70
     1
102
RTVSPost2010Prop44ColorIndex
 90
        5
102
RTVSPost2010Prop44ColorRGB
 90
      255
102
RTVSPost2010PropOp44
 70
     1
102
RTVSPost2010Prop45
280
     0
102
RTVSPost2010PropOp45
 70
     1
102
RTVSPost2010Prop46
 90
       50
102
RTVSPost2010PropOp46
 70
     1
102
RTVSPost2010Prop47
 90
       50
102
RTVSPost2010PropOp47
 70
     1
102
RTVSPost2010Prop48
 90
       50
102
RTVSPost2010PropOp48
 70
     1
102
RTVSPost2010Prop49
280
     0
102
RTVSPost2010PropOp49
 70
     1
102
RTVSPost2010Prop50
 90
       50
102
RTVSPost2010PropOp50
 70
     1
102
RTVSPost2010Prop51ColorIndex
 90
      256
102
RTVSPost2010Prop51ColorRGB
 90
-16777216
102
RTVSPost2010PropOp51
 70
     0
102
RTVSPost2010Prop52
140
1.0
102
RTVSPost2010PropOp52
 70
     0
102
RTVSPost2010Prop53
 90
        2
102
RTVSPost2010PropOp53
 70
     1
102
RTVSPost2010Prop54
  1
strokes_ogs.tif
102
RTVSPost2010PropOp54
 70
     1
102
RTVSPost2010Prop55
280
     0
102
RTVSPost2010PropOp55
 70
     1
102
RTVSPost2010Prop56
140
1.0
102
RTVSPost2010PropOp56
 70
     1
102
RTVSPost2010Prop57
140
1.0
102
RTVSPost2010PropOp57
 70
     1
  0
XRECORD
  5
8691E
102
{ACAD_REACTORS
330
8691D
102
}
330
8691D
100
AcDbXrecord
280
     1
102
RTVSPost2010Prop28
280
     0
102
RTVSPost2010PropOp28
 70
     1
102
RTVSPost2010Prop29
280
     1
102
RTVSPost2010PropOp29
 70
     1
102
RTVSPost2010Prop30
280
     1
102
RTVSPost2010PropOp30
 70
     1
102
RTVSPost2010Prop31
280
     0
102
RTVSPost2010PropOp31
 70
     1
102
RTVSPost2010Prop32
280
     0
102
RTVSPost2010PropOp32
 70
     1
102
RTVSPost2010Prop33
280
     0
102
RTVSPost2010PropOp33
 70
     1
102
RTVSPost2010Prop34
280
     0
102
RTVSPost2010PropOp34
 70
     1
102
RTVSPost2010Prop35
280
     0
102
RTVSPost2010PropOp35
 70
     1
102
RTVSPost2010Prop36
280
     0
102
RTVSPost2010PropOp36
 70
     1
102
RTVSPost2010Prop37
 90
       50
102
RTVSPost2010PropOp37
 70
     1
102
RTVSPost2010Prop38
140
0.0
102
RTVSPost2010PropOp38
 70
     1
102
RTVSPost2010Prop39
140
1.0
102
RTVSPost2010PropOp39
 70
     1
102
RTVSPost2010Prop40
 90
        0
102
RTVSPost2010PropOp40
 70
     1
102
RTVSPost2010Prop41ColorIndex
 90
       18
102
RTVSPost2010Prop41ColorRGB
 90
        0
102
RTVSPost2010PropOp41
 70
     1
102
RTVSPost2010Prop42
 90
       50
102
RTVSPost2010PropOp42
 70
     1
102
RTVSPost2010Prop43
 90
        3
102
RTVSPost2010PropOp43
 70
     1
102
RTVSPost2010Prop44ColorIndex
 90
        5
102
RTVSPost2010Prop44ColorRGB
 90
      255
102
RTVSPost2010PropOp44
 70
     1
102
RTVSPost2010Prop45
280
     0
102
RTVSPost2010PropOp45
 70
     1
102
RTVSPost2010Prop46
 90
       50
102
RTVSPost2010PropOp46
 70
     1
102
RTVSPost2010Prop47
 90
       50
102
RTVSPost2010PropOp47
 70
     1
102
RTVSPost2010Prop48
 90
       50
102
RTVSPost2010PropOp48
 70
     1
102
RTVSPost2010Prop49
280
     0
102
RTVSPost2010PropOp49
 70
     1
102
RTVSPost2010Prop50
 90
       50
102
RTVSPost2010PropOp50
 70
     1
102
RTVSPost2010Prop51ColorIndex
 90
      256
102
RTVSPost2010Prop51ColorRGB
 90
-16777216
102
RTVSPost2010PropOp51
 70
     0
102
RTVSPost2010Prop52
140
1.0
102
RTVSPost2010PropOp52
 70
     0
102
RTVSPost2010Prop53
 90
        2
102
RTVSPost2010PropOp53
 70
     1
102
RTVSPost2010Prop54
  1
strokes_ogs.tif
102
RTVSPost2010PropOp54
 70
     1
102
RTVSPost2010Prop55
280
     0
102
RTVSPost2010PropOp55
 70
     1
102
RTVSPost2010Prop56
140
1.0
102
RTVSPost2010PropOp56
 70
     1
102
RTVSPost2010Prop57
140
1.0
102
RTVSPost2010PropOp57
 70
     1
  0
XRECORD
  5
86910
102
{ACAD_REACTORS
330
8690F
102
}
330
8690F
100
AcDbXrecord
280
     1
102
RTVSPost2010Prop28
280
     0
102
RTVSPost2010PropOp28
 70
     1
102
RTVSPost2010Prop29
280
     1
102
RTVSPost2010PropOp29
 70
     1
102
RTVSPost2010Prop30
280
     1
102
RTVSPost2010PropOp30
 70
     1
102
RTVSPost2010Prop31
280
     0
102
RTVSPost2010PropOp31
 70
     1
102
RTVSPost2010Prop32
280
     0
102
RTVSPost2010PropOp32
 70
     1
102
RTVSPost2010Prop33
280
     0
102
RTVSPost2010PropOp33
 70
     1
102
RTVSPost2010Prop34
280
     0
102
RTVSPost2010PropOp34
 70
     1
102
RTVSPost2010Prop35
280
     0
102
RTVSPost2010PropOp35
 70
     1
102
RTVSPost2010Prop36
280
     0
102
RTVSPost2010PropOp36
 70
     1
102
RTVSPost2010Prop37
 90
       50
102
RTVSPost2010PropOp37
 70
     1
102
RTVSPost2010Prop38
140
0.0
102
RTVSPost2010PropOp38
 70
     1
102
RTVSPost2010Prop39
140
1.0
102
RTVSPost2010PropOp39
 70
     1
102
RTVSPost2010Prop40
 90
        0
102
RTVSPost2010PropOp40
 70
     1
102
RTVSPost2010Prop41ColorIndex
 90
       18
102
RTVSPost2010Prop41ColorRGB
 90
        0
102
RTVSPost2010PropOp41
 70
     1
102
RTVSPost2010Prop42
 90
       50
102
RTVSPost2010PropOp42
 70
     1
102
RTVSPost2010Prop43
 90
        3
102
RTVSPost2010PropOp43
 70
     1
102
RTVSPost2010Prop44ColorIndex
 90
        5
102
RTVSPost2010Prop44ColorRGB
 90
      255
102
RTVSPost2010PropOp44
 70
     1
102
RTVSPost2010Prop45
280
     0
102
RTVSPost2010PropOp45
 70
     1
102
RTVSPost2010Prop46
 90
       50
102
RTVSPost2010PropOp46
 70
     1
102
RTVSPost2010Prop47
 90
       50
102
RTVSPost2010PropOp47
 70
     1
102
RTVSPost2010Prop48
 90
       50
102
RTVSPost2010PropOp48
 70
     1
102
RTVSPost2010Prop49
280
     0
102
RTVSPost2010PropOp49
 70
     1
102
RTVSPost2010Prop50
 90
       50
102
RTVSPost2010PropOp50
 70
     1
102
RTVSPost2010Prop51ColorIndex
 90
      256
102
RTVSPost2010Prop51ColorRGB
 90
-16777216
102
RTVSPost2010PropOp51
 70
     0
102
RTVSPost2010Prop52
140
1.0
102
RTVSPost2010PropOp52
 70
     0
102
RTVSPost2010Prop53
 90
        2
102
RTVSPost2010PropOp53
 70
     1
102
RTVSPost2010Prop54
  1
strokes_ogs.tif
102
RTVSPost2010PropOp54
 70
     1
102
RTVSPost2010Prop55
280
     0
102
RTVSPost2010PropOp55
 70
     1
102
RTVSPost2010Prop56
140
1.0
102
RTVSPost2010PropOp56
 70
     1
102
RTVSPost2010Prop57
140
1.0
102
RTVSPost2010PropOp57
 70
     1
  0
XRECORD
  5
86918
102
{ACAD_REACTORS
330
86917
102
}
330
86917
100
AcDbXrecord
280
     1
102
RTVSPost2010Prop28
280
     0
102
RTVSPost2010PropOp28
 70
     1
102
RTVSPost2010Prop29
280
     1
102
RTVSPost2010PropOp29
 70
     1
102
RTVSPost2010Prop30
280
     1
102
RTVSPost2010PropOp30
 70
     1
102
RTVSPost2010Prop31
280
     0
102
RTVSPost2010PropOp31
 70
     1
102
RTVSPost2010Prop32
280
     0
102
RTVSPost2010PropOp32
 70
     1
102
RTVSPost2010Prop33
280
     0
102
RTVSPost2010PropOp33
 70
     1
102
RTVSPost2010Prop34
280
     0
102
RTVSPost2010PropOp34
 70
     1
102
RTVSPost2010Prop35
280
     0
102
RTVSPost2010PropOp35
 70
     1
102
RTVSPost2010Prop36
280
     0
102
RTVSPost2010PropOp36
 70
     1
102
RTVSPost2010Prop37
 90
       50
102
RTVSPost2010PropOp37
 70
     1
102
RTVSPost2010Prop38
140
0.0
102
RTVSPost2010PropOp38
 70
     1
102
RTVSPost2010Prop39
140
1.0
102
RTVSPost2010PropOp39
 70
     1
102
RTVSPost2010Prop40
 90
        0
102
RTVSPost2010PropOp40
 70
     1
102
RTVSPost2010Prop41ColorIndex
 90
       18
102
RTVSPost2010Prop41ColorRGB
 90
        0
102
RTVSPost2010PropOp41
 70
     1
102
RTVSPost2010Prop42
 90
       50
102
RTVSPost2010PropOp42
 70
     1
102
RTVSPost2010Prop43
 90
        3
102
RTVSPost2010PropOp43
 70
     1
102
RTVSPost2010Prop44ColorIndex
 90
        5
102
RTVSPost2010Prop44ColorRGB
 90
      255
102
RTVSPost2010PropOp44
 70
     1
102
RTVSPost2010Prop45
280
     0
102
RTVSPost2010PropOp45
 70
     1
102
RTVSPost2010Prop46
 90
       50
102
RTVSPost2010PropOp46
 70
     1
102
RTVSPost2010Prop47
 90
       50
102
RTVSPost2010PropOp47
 70
     1
102
RTVSPost2010Prop48
 90
       50
102
RTVSPost2010PropOp48
 70
     1
102
RTVSPost2010Prop49
280
     0
102
RTVSPost2010PropOp49
 70
     1
102
RTVSPost2010Prop50
 90
       50
102
RTVSPost2010PropOp50
 70
     1
102
RTVSPost2010Prop51ColorIndex
 90
      256
102
RTVSPost2010Prop51ColorRGB
 90
-16777216
102
RTVSPost2010PropOp51
 70
     0
102
RTVSPost2010Prop52
140
1.0
102
RTVSPost2010PropOp52
 70
     0
102
RTVSPost2010Prop53
 90
        2
102
RTVSPost2010PropOp53
 70
     1
102
RTVSPost2010Prop54
  1
strokes_ogs.tif
102
RTVSPost2010PropOp54
 70
     1
102
RTVSPost2010Prop55
280
     0
102
RTVSPost2010PropOp55
 70
     1
102
RTVSPost2010Prop56
140
1.0
102
RTVSPost2010PropOp56
 70
     1
102
RTVSPost2010Prop57
140
1.0
102
RTVSPost2010PropOp57
 70
     1
  0
XRECORD
  5
86920
102
{ACAD_REACTORS
330
8691F
102
}
330
8691F
100
AcDbXrecord
280
     1
102
RTVSPost2010Prop28
280
     0
102
RTVSPost2010PropOp28
 70
     1
102
RTVSPost2010Prop29
280
     1
102
RTVSPost2010PropOp29
 70
     1
102
RTVSPost2010Prop30
280
     1
102
RTVSPost2010PropOp30
 70
     1
102
RTVSPost2010Prop31
280
     0
102
RTVSPost2010PropOp31
 70
     1
102
RTVSPost2010Prop32
280
     0
102
RTVSPost2010PropOp32
 70
     1
102
RTVSPost2010Prop33
280
     0
102
RTVSPost2010PropOp33
 70
     1
102
RTVSPost2010Prop34
280
     0
102
RTVSPost2010PropOp34
 70
     1
102
RTVSPost2010Prop35
280
     0
102
RTVSPost2010PropOp35
 70
     1
102
RTVSPost2010Prop36
280
     0
102
RTVSPost2010PropOp36
 70
     1
102
RTVSPost2010Prop37
 90
       50
102
RTVSPost2010PropOp37
 70
     1
102
RTVSPost2010Prop38
140
0.0
102
RTVSPost2010PropOp38
 70
     1
102
RTVSPost2010Prop39
140
1.0
102
RTVSPost2010PropOp39
 70
     1
102
RTVSPost2010Prop40
 90
        0
102
RTVSPost2010PropOp40
 70
     1
102
RTVSPost2010Prop41ColorIndex
 90
       18
102
RTVSPost2010Prop41ColorRGB
 90
        0
102
RTVSPost2010PropOp41
 70
     1
102
RTVSPost2010Prop42
 90
       50
102
RTVSPost2010PropOp42
 70
     1
102
RTVSPost2010Prop43
 90
        3
102
RTVSPost2010PropOp43
 70
     1
102
RTVSPost2010Prop44ColorIndex
 90
        5
102
RTVSPost2010Prop44ColorRGB
 90
      255
102
RTVSPost2010PropOp44
 70
     1
102
RTVSPost2010Prop45
280
     0
102
RTVSPost2010PropOp45
 70
     1
102
RTVSPost2010Prop46
 90
       50
102
RTVSPost2010PropOp46
 70
     1
102
RTVSPost2010Prop47
 90
       50
102
RTVSPost2010PropOp47
 70
     1
102
RTVSPost2010Prop48
 90
       50
102
RTVSPost2010PropOp48
 70
     1
102
RTVSPost2010Prop49
280
     0
102
RTVSPost2010PropOp49
 70
     1
102
RTVSPost2010Prop50
 90
       50
102
RTVSPost2010PropOp50
 70
     1
102
RTVSPost2010Prop51ColorIndex
 90
      256
102
RTVSPost2010Prop51ColorRGB
 90
-16777216
102
RTVSPost2010PropOp51
 70
     0
102
RTVSPost2010Prop52
140
1.0
102
RTVSPost2010PropOp52
 70
     0
102
RTVSPost2010Prop53
 90
        2
102
RTVSPost2010PropOp53
 70
     1
102
RTVSPost2010Prop54
  1
strokes_ogs.tif
102
RTVSPost2010PropOp54
 70
     1
102
RTVSPost2010Prop55
280
     0
102
RTVSPost2010PropOp55
 70
     1
102
RTVSPost2010Prop56
140
1.0
102
RTVSPost2010PropOp56
 70
     1
102
RTVSPost2010Prop57
140
1.0
102
RTVSPost2010PropOp57
 70
     1
  0
ACAD_PROXY_OBJECT
  5
5E304
330
5E303
100
AcDbProxyObject
 90
      499
 91
      577
 95
  8192031
 70
     0
162
                 0
161
               249
310
7380000000000000C400000000000000310200800030C02000000300012AFBCC
 94
        0
  0
ACAD_PROXY_OBJECT
  5
5E305
330
5E303
100
AcDbProxyObject
 90
      499
 91
      578
 95
  8192031
 70
     0
162
              2608
311
415480184008000D400C001055200610020003200350041D480184008000C400C800B000D4010652006100200036002C003300419480184008000CC00B000C8010652006100200031002C003600419480184008000C000B000E0010652006100200030002C003400419480184008000C000B000C8010652006100200030002
311
C00310041D480184008000C000B000C000D4010852006100200030002C00300032003500415480184008000D400C001055200610020003200350041D480184008000C400C800B000D4010652006100200036002C003300419480184008000CC00B000C8010652006100200031002C003600419480184008000C000B000E001
311
0652006100200030002C003400419480184008000C000B000C8010652006100200030002C00310041D480184008000C000B000C000D4010852006100200030002C0030003200350036
161
               517
310
7380000000000000C400000000000000310200800030C02000000300012AFD41D01405014050140501E83C80A0481A0882A0C86219555400000000000006205214
 94
        0
  0
ACAD_PROXY_OBJECT
  5
5E306
330
5E303
100
AcDbProxyObject
 90
      499
 91
      579
 95
  8192031
 70
     0
162
                 0
161
               696
310
7380000000000000C400000000000000310200800030C02000000300012AFA1E80A0280A0280A0280A0280A0280A0280A0280A1A80A0280A0280A0280A0280A0280A02809600000000000000200000000000000188148500
340
5585B
 94
        0
  0
ACAD_PROXY_OBJECT
  5
5E307
330
5E303
100
AcDbProxyObject
 90
      499
 91
      580
 95
  8192031
 70
     0
162
                 0
161
               874
310
7380000000000000C400000000000000310200800030C02000000300012AFD0CCCCCCCCCCCF4CFC333333333333D33FA4680A0280A0280A0280A0280A0280A0280A0280A0280A0280A0280A0280A0280A0280A0280A0280A0280A02808666666666666F63F3373333333333C0FCC
340
5585C
 94
        0
  0
ACAD_PROXY_OBJECT
  5
5E30A
330
5E303
100
AcDbProxyObject
 90
      499
 91
      583
 95
  8192031
 70
     0
162
             24524
311
41124015001140134010450006F0073002E004CD1C01140138015001480104010C013C00B001100114015400B000C000B0014001BC01CC00B800B0011C011401380150014801040150016000B0009401CC00B000A0011C011401380134014C011C0080019C019401B8019001DC019C008000C800C800C800A4029035100540
311
0590040D0401B801E80132470045004E0054005200410043004F002C004400450055002C0030002C0041006E007A002C00470045004E00540052004100540058002C00250073002C002800470045004E004D00530047002000670065006E0064007700670020003200320033002900A4113801040134011401044E0061006D
311
0065004CD1C01140138015001480104010C013C00B001100114015400B000C000B00138018401B4019400B0011C011401380150014801040150016000B0009401CC00B000A0011C011401380134014C011C0080019C019401B8019001DC019C008000C800C800D800A4012C3D004900460028004900530042004C0041004E0
311
04B00280050004100520054003A004E0041004D00450029002C0042004C004F0043004B003A004E0041004D0045002C0050004100520054003A004E0041004D00450029009054400450053004300520043108019401CC018C01A001C8019401A4018801D401B8019C013B470045004E0054005200410043004F002C0044004
311
50055002C0030002C0042006500730063006800720065006900620075006E0067002C00470045004E00540052004100540058002C00250073002C002800470045004E004D00530047002000670065006E0064007700670020003200310037002900A4214C015001040138011001040148011001044E006F0072006D004CD1C
311
01140138015001480104010C013C00B001100114015400B000C000B0013801BC01C801B400B0011C011401380150014801040150016000B0009401CC00B000A0011C011401380134014C011C0080019C019401B8019001DC019C008000C800C400E000A4029084D004100540045005200490041004C004255C019401C801AC
311
01CC01D001BC019801980138470045004E0054005200410043004F002C004400450055002C0030002C005700650072006B00730074006F00660066002C00470045004E00540052004100540058002C00250073002C002800470045004E004D00530047002000670065006E0064007700670020003200320031002900A41138
311
013C015001140109420065006D00650072006B0075006E0067004E11C01140138015001480104010C013C00B001100114015400B000C000B00108019401B4019401C801AC01D401B8019C00B0011C011401380150014801040150016000B0009401CC00B000A0011C011401380134014C011C0080019C019401B8019001DC0
311
19C008000C800C800D400A402906560045004E0044004F0052004253001A401940198019401C8018401B801D00138470045004E0054005200410043004F002C004400450055002C0030002C004C006900650066006500720061006E0074002C00470045004E00540052004100540058002C00250073002C002800470045004
311
E004D00530047002000670065006E0064007700670020003200320034002900A419100114014C010C014800C8010E42006500730063006800720065006900620075006E006700200032004F11C01140138015001480104010C013C00B001100114015400B000C000B00108019401CC018C01A001C8019401A4018801D401B8
311
019C008000C800B0011C011401380150014801040150016000B0009401CC00B000A0011C011401380134014C011C0080019C019401B8019001DC019C008000CC00D800A4029095300540041004E00440041005200440032004193801BC01C801B4008000C80135470045004E0054005200410043004F002C00440045005500
311
2C0030002C004E006F0072006D00200032002C00470045004E00540052004100540058002C00250073002C002800470045004E004D00530047002000670065006E0064007700670020003200320030002900A42534010401500114014801240104013000C8010A4D006100740065007200690061006C00200032004E11C011
311
40138015001480104010C013C00B001100114015400B000C000B00134018401D0019401C801A4018401B0008000C800B0011C011401380150014801040150016000B0009401CC00B000A0011C011401380134014C011C0080019C019401B8019001DC019C008000D000C000A4029044D0041005300530041534018401CC01C
311
C01940133470045004E0054005200410043004F002C004400450055002C0030002C004D0061007300730065002C00470045004E00540052004100540058002C00250073002C002800470045004E004D00530047002000670065006E006400770067002000340032002900A4154001480124010C01140105500072006500690
311
073004CD1C01140138015001480104010C013C00B001100114015400B000C000B0014001C8019401A401CC00B0011C011401380150014801040150016000B0009401CC00B000A0011C011401380134014C011C0080019C019401B8019001DC019C008000D000CC00A402903440049004D0042D04018801B4019401CC01CC01
311
D401B8019C019401B80139470045004E0054005200410043004F002C004400450055002C0030002C00410062006D0065007300730075006E00670065006E002C00470045004E00540052004100540058002C00250073002C002800470045004E004D00530047002000670065006E006400770067002000340034002900A425
311
08013C0134017C0154013801240150014C0109450069006E00680065006900740065006E004E11C01140138015001480104010C013C00B001100114015400B000C000B0011401A401B801A0019401A401D0019401B800B0011C011401380150014801040150016000B0009401CC00B000A0011C011401380134014C011C008
311
0019C019401B8019001DC019C008000C800D000CC00A4029073D003C004900540045004D003E0041CF400F0012401500114013400F801073D003C004900540045004D003E0041CF400F0012401500114013400F801073D003C004900540045004D003E00418F400F001440150016400F801073D003C004900540045004D003
311
E0041CF400F0012401500114013400F8024294C01D003F0018C01AC01B001A401CC01D00194010541005200490041004C00415040148012401040130010541005200490041004C00A404C40242D9401840024019401840024012801940190019400280115730071006D000900730071006D000900510075006100640072006
311
10074006D0065007400650072000A00471CC01C4018C01B4002401CC01C4018C01B40024014401D40184019001C8018401D001E8019401B801D001A401B4019401D0019401C8002801157300710066007400090073007100660074000900510075006100640072006100740066007500DF000A00459CC01C401A401B800240
311
1CC01C401A401B80024014401D40184019001C8018401D001E801BC01B001B000280110670061006C000900670061006C000900470061006C006C006F006E0065000A00431C401D0002401C401D00024014401D4018401C801D0002801266C00710064005F006F007A0009006C00710064005F006F007A0009004F0075006E
311
00630065002000280046006C00FC0073007300690067006B0065006900740073006D006100DF0029000A00429B0002401B00024013001A401D0019401C8002801116D006C0009006D006C0009004D0069006C006C0069006C0069007400650072000A0042DE40190002401E4019000240164018401C801900028010A660074
311
00090066007400090046007500DF000A0042DA401B8002401A401B80024016801BC01B001B00028010A6D0009006D0009004D0065007400650072000A004458C01B40024018C01B400240168019401B801D001A401B4019401D0019401C8002801116D006D0009006D006D0009004D0069006C006C0069006D006500740065
311
0072000A00431B00188002401B0018800240140019801D401B801900028010C6F007A0009006F007A0009004F0075006E00630065000A004299C0024019C0024011C01C8018401B401B4002801116D00670009006D00670009004D0069006C006C0069006700720061006D006D000A004398801E00024018801E0002401440
311
1D40184019001C8018401D0002801012D00C
161
              6477
310
7380000000000000C400000000000000310200800030C02000000300012AFA1E80A0280A0280A0280D20200000000000012202032024050140501409014050140501901000000000000091010190120280A0280A3880C80C81500000000000009C8080C80901405014051D40640640E8000000000080514040640480A0280A
310
028EA03203209400000000000024A0203202405014050147501901905A1C4F42B5E8DC115010190120280A0280A3A80C80C83500000000000007C8080880901405014051D40640641E80000000000003E4040440480A0280A028EA03203211400000000004028A0202202405014050147501901909A0000000000001250101
310
10120280A0280A3A80C80C8550E27A15AF46E08A8080880901405014051D405024050242D034080000000000003E4040440480A0280A028EA028120281218812040000000000001F20202202405014050147501409014090D40D020000000000000F9010190120280A0280A3C80C80C87500000000000007C8080C80901405
310
0F4A9020000000000000510201C00030C00010180000000000003E400000000000000F901014060000000000000F9000000000000003E4040501800000000000034400000000000000D101014060000000000000D1000000000000003440405029010000000000000F9000000000000003E40405014060000000000000F900
310
0000000000003E4040501800000000000034400000000000000D10101404000000000000003E400000000000000F90290800000000000020810000001800169FFFE8220681A048120280A20852108820321480C8452028521485214814000000000000F0BF0000000000003C2FD018020000C3008070000C30026A66666666
310
67D4FC9A9999999999F53F26A6666666667D4FC333333333333F33F337333333333370FC333333333333F33F26A6666666667D4FC333333333333F33F337333333333370FC333333333333F33F0000000000000310080A028120B20281A0882A0340000000000000C408020000C3008020000C3008010000C300291440BF9F
310
FFE7FFF9FFFE4050140515405014050140501405014050140501405014050140501405014064068320481A0882A1A874
340
15
340
0
340
11
340
11
340
16
340
16
340
16
 94
        0
  0
ACAD_PROXY_OBJECT
  5
5E30B
330
5E303
100
AcDbProxyObject
 90
      499
 91
      584
 95
  8192031
 70
     0
162
                 0
161
               255
310
73800000000000014400000000000000510201C00030C0200C00030C012AEA3A
340
6B73D
 94
        0
  0
ACAD_PROXY_OBJECT
  5
6B73A
330
5E303
100
AcDbProxyObject
 90
      499
 91
      613
 95
  8192031
 70
     0
162
                 0
161
               247
310
73800000000000014400000000000000510201C00030C0200C00030C012A04
340
5FEE8
 94
        0
  0
ACAD_PROXY_OBJECT
  5
6B73B
330
5E303
100
AcDbProxyObject
 90
      499
 91
      613
 95
  8192031
 70
     0
162
                 0
161
               247
310
738B81E85EB51B8CE3F2E07A17AD46E338FE00000030002000000300012A04
340
60060
 94
        0
  0
ACAD_PROXY_OBJECT
  5
6B73C
330
5E303
100
AcDbProxyObject
 90
      499
 91
      613
 95
  8192031
 70
     0
162
                 0
161
               247
310
73800000000000014400000000000000510200000030002000000300012A04
340
557EF
 94
        0
  0
ACAD_PROXY_OBJECT
  5
6DD62
330
5E303
100
AcDbProxyObject
 90
      499
 91
      613
 95
  8192031
 70
     0
162
                 0
161
               247
310
738B81E85EB51B8CE3F2E07A17AD46E338FE07800030C0200C00030C012304
340
6DD4E
 94
        0
  0
ACAD_PROXY_OBJECT
  5
6DD63
330
5E303
100
AcDbProxyObject
 90
      499
 91
      613
 95
  8192031
 70
     0
162
                 0
161
               247
310
73800000000000014400000000000000510200800030C02000000300011104
340
6DD55
 94
        0
  0
ACAD_PROXY_OBJECT
  5
5E30C
330
5E303
100
AcDbProxyObject
 90
      499
 91
      585
 95
  8192031
 70
     0
162
                 0
161
               255
310
73800000000000014400000000000000510201C00030C0201C00030C0112C23E
340
6B743
 94
        0
  0
ACAD_PROXY_OBJECT
  5
6B737
330
5E303
100
AcDbProxyObject
 90
      499
 91
      612
 95
  8192031
 70
     0
162
                 0
161
               247
310
73800000000000014400000000000000510201C00030C0201C00030C011204
340
5FEEE
 94
        0
  0
ACAD_PROXY_OBJECT
  5
6B738
330
5E303
100
AcDbProxyObject
 90
      499
 91
      612
 95
  8192031
 70
     0
162
                 0
161
               247
310
738B81E85EB51B8CE3F2E07A17AD46E338FE00000030002000000300012A04
340
6005E
 94
        0
  0
ACAD_PROXY_OBJECT
  5
6B739
330
5E303
100
AcDbProxyObject
 90
      499
 91
      612
 95
  8192031
 70
     0
162
                 0
161
               247
310
73800000000000014400000000000000510200000030002000000300012A04
340
557ED
 94
        0
  0
ACAD_PROXY_OBJECT
  5
6DD64
330
5E303
100
AcDbProxyObject
 90
      499
 91
      612
 95
  8192031
 70
     0
162
                 0
161
               247
310
738B81E85EB51B8CE3F2E07A17AD46E338FE07800030C0201C00030C012A04
340
6DD41
 94
        0
  0
ACAD_PROXY_OBJECT
  5
6DD65
330
5E303
100
AcDbProxyObject
 90
      499
 91
      612
 95
  8192031
 70
     0
162
                 0
161
               247
310
73800000000000014400000000000000510200800030C0201C00030C011104
340
6DD48
 94
        0
  0
ACAD_PROXY_OBJECT
  5
5E30D
330
5E303
100
AcDbProxyObject
 90
      499
 91
      586
 95
  8192031
 70
     0
162
                 0
161
               388
310
7380000000000000C400000000000000310200800030C02000000300012AFD000000000000010814333333333333F33F2C
 94
        0
  0
ACAD_PROXY_OBJECT
  5
5E30E
330
5E303
100
AcDbProxyObject
 90
      499
 91
      587
 95
  8192031
 70
     0
162
                 0
161
               249
310
7380000000000000C400000000000000310200800030C02000000300012AFC4C
340
0
 94
        0
  0
ACAD_PROXY_OBJECT
  5
5E30F
330
5E303
100
AcDbProxyObject
 90
      499
 91
      588
 95
  8192031
 70
     0
162
             13944
311
4255801BC01C801B00184019C0194008000C4000A013D002500250063003C0048006F006C0065003A00630074006400690061003E002000780020003C0048006F006C0065003A0063007400640065007000740068003E00200055005C0050003C0069006600280065007100750061006C00280048006F006C0065003A00740
311
0610070007000650064002C0022003000220029002C0022002500250063002200200048006F006C0065003A006400690061002C0048006F006C0065003A006E006F006D0069006E0061006C0029003E003C0069006600280065007100750061006C00280048006F006C0065003A007400610070007000650064002C0022003
311
100220029002C0022002000780020002200200048006F006C0065003A00540061007000440065007000740068002C002200220029003E003C0069006600280065007100750061006C00280048006F006C0065003A007400650072006D0069006E006100740069006F006E002C0022003000220029002C00690066002800650
311
07100750061006C00280048006F006C0065003A007400610070007000650064002C0022003000220029002C00220020007800200022002C00220020002F002000220029002C002200220029003E003C0069006600280065007100750061006C00280048006F006C0065003A007400650072006D0069006E006100740069006
311
F006E002C0022003000220029002C0048006F006C0065003A00640065007000740068002C002200220029003E004255801BC01C801B00184019C0194008000C4000B013D002500250063003C0048006F006C0065003A00630074006400690061003E002000780020003C0048006F006C0065003A006300740061006E006700
311
6C0065003E002500250064005C0050003C0069006600280065007100750061006C00280048006F006C0065003A007400610070007000650064002C0022003000220029002C0022002500250063002200200048006F006C0065003A006400690061002C0048006F006C0065003A006E006F006D0069006E0061006C0029003E
311
003C0069006600280065007100750061006C00280048006F006C0065003A007400610070007000650064002C0022003100220029002C0022002000780020002200200048006F006C0065003A00540061007000440065007000740068002C002200220029003E003C0069006600280065007100750061006C00280048006F00
311
6C0065003A007400650072006D0069006E006100740069006F006E002C0022003000220029002C0069006600280065007100750061006C00280048006F006C0065003A007400610070007000650064002C0022003000220029002C00220020007800200022002C00220020002F002000220029002C002200220029003E003C
311
0069006600280065007100750061006C00280048006F006C0065003A007400650072006D0069006E006100740069006F006E002C0022003000220029002C0048006F006C0065003A00640065007000740068002C002200220029003E004255801BC01C801B00184019C0194008000C401E63D003C006900660028006500710
311
0750061006C00280048006F006C0065003A007400610070007000650064002C0022003000220029002C0022002500250063002200200048006F006C0065003A006400690061002C0048006F006C0065003A006E006F006D0069006E0061006C0029003E003C0069006600280065007100750061006C00280048006F006C006
311
5003A007400610070007000650064002C0022003100220029002C0022002000780020002200200048006F006C0065003A00540061007000440065007000740068002C002200220029003E003C0069006600280065007100750061006C00280048006F006C0065003A007400650072006D0069006E006100740069006F006E0
311
02C0022003000220029002C0069006600280065007100750061006C00280048006F006C0065003A007400610070007000650064002C0022003000220029002C00220020007800200022002C00220020002F002000220029002C002200220029003E003C0069006600280065007100750061006C00280048006F006C0065003
311
A007400650072006D0069006E006100740069006F006E002C0022003000220029002C0048006F006C0065003A00640065007000740068002C002200220029003E004255801BC01C801B00184019C0194008000C801173D003C0053005400440050003A0044004500530043003E0020003C0053005400440050003A00530054
311
0044003E004255801BC01C801B00184019C0194008000C4010C3D003C0053005400440050003A0044004500530043003E004255801BC01C801B00184019C0194008000CC010B3D003C0053005400440050003A005300540044003E0000
161
               667
310
7380000000000000C400000000000000310200800030C02000000300012AFA1080A17480A15480A0480A0280E9014050340501407480A0280A0280A03A405014790340501D20280A901405481A028AD55736A12C
360
5E333
330
5E333
360
5E334
330
5E334
360
5E332
330
5E332
360
5E330
360
5E32F
360
5E331
330
5E330
330
5E32F
330
5E331
 94
        0
  0
ACAD_PROXY_OBJECT
  5
5E310
330
5E303
100
AcDbProxyObject
 90
      499
 91
      589
 95
  8192031
 70
     0
162
                26
311
404E800C
161
               305
310
7380000000000000C400000000000000310200800030C02000000300012AFA175203480A03554C
 94
        0
  0
ACAD_PROXY_OBJECT
  5
5E311
330
5E303
100
AcDbProxyObject
 90
      499
 91
      590
 95
  8192031
 70
     0
162
              1066
311
508F400F0014C015001480154010C015000E8010C013C01340140017C013801040134011400F8008000F0014C015001480154010C015000E8015801240114015C017C013801040134011400F80080010401B801CC01A4018C01A001D0008000A000F0014C015001480154010C015000E8014C0158017C014C010C010401300
311
11400F800A400C
161
               332
310
73800000000000014400000000000000310201C00030C02000000300012AFA028100000000000006881C
340
11
 94
        0
  0
ACAD_PROXY_OBJECT
  5
5E312
330
5E303
100
AcDbProxyObject
 90
      499
 91
      591
 95
  8192031
 70
     0
162
                 0
161
               261
310
7380000000000000C400000000000000310200800030C02000000300012AFA0754
340
5E315
 94
        0
  0
ACAD_PROXY_OBJECT
  5
5E313
330
5E303
100
AcDbProxyObject
 90
      499
 91
      592
 95
  8192031
 70
     0
162
               126
311
408F000F801023C003E00409A000DC00
161
               408
310
7380000000000000C400000000000000310200800030C02000000300012AFA080000000000001420000000000000048807FFFCFF
340
5584B
340
0
340
0
340
5584E
340
5584F
340
55850
340
55851
340
55852
340
55857
340
0
340
5584F
340
0
 94
        0
  0
ACAD_PROXY_OBJECT
  5
5E314
330
5E303
100
AcDbProxyObject
 90
      499
 91
      594
 95
  8192031
 70
     0
162
             22180
311
4412C01BC01BC01C8019001A401B8018401D0019401B801B001A401CC01D00194013F470045004E0054005200410043004F002C004400450055002C0030002C004B006F006F007200640069006E006100740065006E006C0069007300740065002C00470045004E00540052004100540058002C00250073002C00280047004
311
5004E004D00530047002000670065006E00640069006D007A00200033003000290043CF400F0011001940198018401D401B001D0015001A401D001B0019400F8011242006F006800720075006E006700730064006500660069006E006900740069006F006E005051C01140138015001480104010C013C00B00110011401540
311
0B000C000B0010801BC01A001C801D401B8019C01CC01900194019801A401B801A401D001A401BC01B800B0011C011401380150014801040150016000B0009401CC00B000A0011C011401380134014C011C0080019C019401B8019001A401B401E8008000CC00C400A4010F3D003C00440065006600610075006C007400540
311
0690074006C0065003E004215401C801CC01C001C801D401B8019C0136470045004E0054005200410043004F002C004400450055002C0030002C005500720073007000720075006E0067002C00470045004E00540052004100540058002C00250073002C002800470045004E004D00530047002000670065006E0064006900
311
6D007A002000310029004114001BC01CC00B80132470045004E0054005200410043004F002C004400450055002C0030002C0050006F0073002E002C00470045004E00540052004100540058002C00250073002C002800470045004E004D00530047002000670065006E00640069006D007A002000320029004FCF400F0013C
311
01C801A4019C01A401B800F800F00124011800A0013C014800A00124014C0108013001040138012C00A0013C01C801A4019C01A401B800A400B00124014C0108013001040138012C00A0012401B80190019401E000A400A400B00088008800B0008800B8008800A400F800F0012401B80190019401E000F8010158004BD1C0
311
1140138015001480104010C013C00B001100114015400B000C000B0016000B0011C011401380150014801040150016000B0009401CC00B000A0011C011401380134014C011C0080019C019401B8019001A401B401E8008000CC00A4010159004BD1C01140138015001480104010C013C00B001100114015400B000C000B001
311
6400B0011C011401380150014801040150016000B0009401CC00B000A0011C011401380134014C011C0080019C019401B8019001A401B401E8008000D000A4010172004BD1C01140138015001480104010C013C00B001100114015400B000C000B001C800B0011C011401380150014801040150016000B0009401CC00B000A
311
0011C011401380134014C011C0080019C019401B8019001A401B401E8008000D800A401187B005C006600530079006D0062006F006C007C00620030007C00690030007C00630032007C00700030003B006A007D005191C01140138015001480104010C013C00B001100114015400B000C000B001EC01700198014C01E401B4
311
018801BC01B001F0018800C001F001A400C001F0018C00C801F001C000C000EC01A801F400B0011C011401380150014801040150016000B0009401CC00B000A0011C011401380134014C011C0080019C019401B8019001A401B401E8008000DC00A401032500250063004C51C01140138015001480104010C013C00B001100
311
114015400B000C000B000940094018C00B0011C011401380150014801040150016000B0009401CC00B000A0011C011401380134014C011C0080019C019401B8019001A401B401E8008000E000A4010C42006500730063006800720065006900620075006E0067004ED1C01140138015001480104010C013C00B00110011401
311
5400B000C000B00108019401CC018C01A001C8019401A4018801D401B8019C00B0011C011401380150014801040150016000B0009401CC00B000A0011C011401380134014C011C0080019C019401B8019001A401B401E8008000C800C000A401044E006F0072006D004CD1C01140138015001480104010C013C00B00110011
311
4015400B000C000B0013801BC01C801B400B0011C011401380150014801040150016000B0009401CC00B000A0011C011401380134014C011C0080019C019401B8019001A401B401E8008000C800C400A401085500720073007000720075006E0067004D91C01140138015001480104010C013C00B001100114015400B000C0
311
00B0015401C801CC01C001C801D401B8019C00B0011C011401380150014801040150016000B0009401CC00B000A0011C011401380134014C011C0080019C019401B8019001A401B401E8008000C400A4010131004114001BC01CC00B80133470045004E0054005200410043004F002C004400450055002C0030002C0050006
311
F0073002E002C00470045004E00540052004100540058002C00250073002C002800470045004E004D00530047002000670065006E00640069006D007A0020003100340029004152401B80190019401E00134470045004E0054005200410043004F002C004400450055002C0030002C0049006E006400650078002C00470045
311
004E00540052004100540058002C00250073002C002800470045004E004D00530047002000670065006E00640069006D007A0020003100350029004390801BC01A001C801D401B8019C01CC01B801D401B401B4019401C8013D470045004E0054005200410043004F002C004400450055002C0030002C0042006F006800720
311
075006E00670073006E0075006D006D00650072002C00470045004E00540052004100540058002C00250073002C002800470045004E004D00530047002000670065006E00640069006D007A00200031003700290043D08019401B801D401D001E8019401C8019401B0019401B4019401B801D0013E470045004E0054005200
311
410043004F002C004400450055002C0030002C00420065006E00750074007A006500720065006C0065006D0065006E0074002C00470045004E00540052004100540058002C00250073002C002800470045004E004D00530047002000670065006E00640069006D007A00200032003200290041D0801BC01A001C801D401B80
311
19C0136470045004E0054005200410043004F002C004400450055002C0030002C0042006F006800720075006E0067002C00470045004E00540052004100540058002C00250073002C002800470045004E004D00530047002000670065006E00640069006D007A00200031003600290040D0401B801E80132470045004E0054
311
005200410043004F002C004400450055002C0030002C0041006E007A002C00470045004E00540052004100540058002C00250073002C002800470045004E004D00530047002000670065006E00640069006D007A0020003100390029004FCF400F0013C01C801A4019C01A401B800F800F00124011800A0013C014800A0012
311
4014C0108013001040138012C00A0013C01C801A4019C01A401B800A400B00124014C0108013001040138012C00A0012401B80190019401E000A400A400B00088008800B0008800B8008800A400F800F0012401B80190019401E000F801453D003C004F0072006900670069006E003E003C004900460028004F00520028004
311
900530042004C0041004E004B0028004F0072006900670069006E0029002C004900530042004C0041004E004B00280055007300650072004900740065006D00290029002C00220022002C0022002E00220029003E003C0055007300650072004900740065006D003E00C
161
              7153
310
7380000000000000C400000000000000310200800030C02000000300012AFA46307FFFFFFFA0606000600000000000006204010000618068181800180000000000001881004000186018080F02018000000000000000000000000000000020000000000000620401000061802000000000000062040100006180403F8080F0
310
2018000000000000000000000000000000020000000000000620401000061802000000000000062040100006180403FA1C88222812068220A83A1886A1E80A1C89A2A81A2483A28880000808000808200110A00010101010104002234000202000202000040A8000404000404000081D0000808000808000104A0001010001
310
01030020B4000202000202020041E80004040004001000865000080800080020010DA000101010101040021F40002020002020A01406800040400040414028750000808000808280113A000101000101050022B4000202000202080044A800040400040418008A5220000000000000001CA04FFFFFFFF030000000000000D1
310
027FFFFFFF80800000000000068813FFFFFFFC0400000000000034409FFFFFFFE040000000000001A204FFFFFFFF020000000000000D1027FFFFFFF81800000000000072813FFFFFFFC0C00000000000049409FFFFFFFE0600000000004028A04FFFFFFFF000000000000000D1027FFFFFFF80000000000000048813FFFFFF
310
FC0000000000000034409FFFFFFFE000000000000001A204FFFFFFFF000000000000000D1027FFFFFFF80000000000000068813FFFFFFFC0C00000000000028409FFFFFFFE8800000000000000072813FFFFFFFC0C00000000000034409FFFFFFFE060000000000001A204FFFFFFFF030000000000000D1027FFFFFFF81800
310
000000000068813FFFFFFFC0C00000000000034409FFFFFFFE060000000000001CA04FFFFFFFF03000000000000125027FFFFFFF818000000000100A2813FFFFFFFC0000000000000034409FFFFFFFE0000000000000012204FFFFFFFF000000000000000D1027FFFFFFF80000000000000068813FFFFFFFC0000000000000
310
034409FFFFFFFE060000000000001A204FFFFFFFF030000000000000A1027FFFFFFFA0E8800000021E000000810000002060000008200000020A00000083800000202890000001FFFFFFFE81202000283A2000000087800000204000000818000002080000008280000020E000000810000A068800000021E0000008A80000
310
01FFFFFFFF4C
340
0
340
0
340
0
340
0
340
11
340
11
 94
        0
  0
ACAD_PROXY_OBJECT
  5
5E31B
330
5E303
100
AcDbProxyObject
 90
      499
 91
      595
 95
  8192031
 70
     0
162
              7496
311
40D10012401380106440049004E005F00410033004251001240138017C015001240150013001140113440049004E005F00420052005F005200650076006900730069006F006E006C006900730074004410400CC00C8008000A000C800E400DC01E000D400E400D0008001B401B400A40107440049004E005F0041003300320
311
04410400C0008000A000E000D000C401E000C400C400E000E4008001B401B400A40106440049004E005F00410030004450400CC00C0008000A000C800E400DC01E000C400C800CC00C0008001B401B400A40107440049004E005F004100330030004450400C800C0008000A000D000C800C001E000C400C400E000E4008001
311
B401B400A40107440049004E005F004100320030004410400C800C4008000A000D000C800C001E000E000D000C4008001B401B400A40107440049004E005F0041003200310043D0400CC008000A000C800E400DC01E000D000C800C0008001B401B400A40106440049004E005F00410033004410400CC00C4008000A000C80
311
0E400DC01E000E000D000C4008001B401B400A40107440049004E005F0041003300310043D0400C8008000A000D000C800C001E000D400E400D0008001B401B400A40106440049004E005F004100320043D0400C4008000A000D400E400D001E000E000D000C4008001B401B400A40106440049004E005F004100310043D04
311
00D0008000A000C800E400DC01E000C800C400C0008001B401B400A40106440049004E005F004100340045934019401D001C801A401CC018C01A0019401CC0080014C018C01A001C801A4019801D00198019401B001900109440049004E005F005400490054004C00450045148019401D801A401CC01A401BC01B801CC01D8
311
019401C801B4019401C801AC017C01500130017C0113440049004E005F0054004C005F005200650076006900730069006F006E006C0069007300740045148019401D801A401CC01A401BC01B801CC01D8019401C801B4019401C801AC017C01080130017C0113440049004E005F0042004C005F00520065007600690073006
311
9006F006E006C0069007300740045148019401D801A401CC01A401BC01B801CC01D8019401C801B4019401C801AC017C01500148017C0113440049004E005F00540052005F005200650076006900730069006F006E006C0069007300740045148019401D801A401CC01A401BC01B801CC01D8019401C801B4019401C801AC0
311
17C01080148017C0113440049004E005F00420052005F005200650076006900730069006F006E006C00690073007400A00
161
               498
310
7380000000000000C400000000000000310200800030C02000000300012AFB2E8520282205400000000002015900000000000000324000000000000007100C
 94
        0
  0
ACAD_PROXY_OBJECT
  5
6B735
330
5E303
100
AcDbProxyObject
 90
      499
 91
      610
 95
  8192031
 70
     0
162
                 0
161
               323
310
7380000000000000C400000000000000310200800030C02000000300012AFA4200000000000003102C
340
5585D
 94
        0
  0
ACAD_PROXY_OBJECT
  5
6B736
330
5E303
100
AcDbProxyObject
 90
      499
 91
      611
 95
  8192031
 70
     0
162
                 0
161
               493
310
7380000000000000C400000000000000310200800030C02000000300012AFC521D4454FB21E93F00000000000002102800000000000008408020000C300C
340
5585E
340
5585D
 94
        0
  0
FIELD
  5
6DD51
102
{ACAD_REACTORS
330
6DD50
102
}
330
6DD50
100
AcDbField
  1
_text
  2
%<\_FldIdx 0>% %<\_FldIdx 1>%\PMASSSTAB %<\_FldIdx 2>%
 90
        3
360
6DD52
360
6DD53
360
6DD54
 97
        0
 91
       63
 92
        0
 94
        9
 95
        2
 96
        0
300

 93
        0
  7
ACFD_FIELD_VALUE
 93
        3
 90
        0
 94
        0
300

302

304
ACVALUE_END
301

 98
        0
  0
FIELD
  5
6B740
102
{ACAD_REACTORS
330
6B73F
102
}
330
6B73F
100
AcDbField
  1
_text
  2
%<\_FldIdx 0>% %<\_FldIdx 1>%
 90
        2
360
6B741
360
6B742
 97
        0
 91
       63
 92
        0
 94
        9
 95
        2
 96
        0
300

 93
        0
  7
ACFD_FIELD_VALUE
 93
        3
 90
        0
 94
        0
300

302

304
ACVALUE_END
301

 98
        0
  0
FIELD
  5
5FEEB
102
{ACAD_REACTORS
330
5FEEA
102
}
330
5FEEA
100
AcDbField
  1
_text
  2
%<\_FldIdx 0>% %<\_FldIdx 1>%
 90
        2
360
5FEEC
360
5FEED
 97
        0
 91
       63
 92
        0
 94
        9
 95
        2
 96
        0
300

 93
        0
  7
ACFD_FIELD_VALUE
 93
        3
 90
        0
 94
        0
300

302

304
ACVALUE_END
301

 98
        0
  0
FIELD
  5
6DD44
102
{ACAD_REACTORS
330
6DD43
102
}
330
6DD43
100
AcDbField
  1
_text
  2
%<\_FldIdx 0>% %<\_FldIdx 1>%-%<\_FldIdx 2>%
 90
        3
360
6DD45
360
6DD46
360
6DD47
 97
        0
 91
       63
 92
        0
 94
        9
 95
        2
 96
        0
300

 93
        0
  7
ACFD_FIELD_VALUE
 93
        3
 90
        0
 94
        0
300

302

304
ACVALUE_END
301

 98
        0
  0
FIELD
  5
6B746
102
{ACAD_REACTORS
330
6B745
102
}
330
6B745
100
AcDbField
  1
_text
  2
%<\_FldIdx 0>%-%<\_FldIdx 1>%
 90
        2
360
6B747
360
6B748
 97
        0
 91
       63
 92
        0
 94
        9
 95
        2
 96
        0
300

 93
        0
  7
ACFD_FIELD_VALUE
 93
        3
 90
        0
 94
        0
300

302

304
ACVALUE_END
301

 98
        0
  0
FIELD
  5
5FEF1
102
{ACAD_REACTORS
330
5FEF0
102
}
330
5FEF0
100
AcDbField
  1
_text
  2
%<\_FldIdx 0>%-%<\_FldIdx 1>%
 90
        2
360
5FEF2
360
5FEF3
 97
        0
 91
       63
 92
        0
 94
        9
 95
        2
 96
        0
300

 93
        0
  7
ACFD_FIELD_VALUE
 93
        3
 90
        0
 94
        0
300

302

304
ACVALUE_END
301

 98
        0
  0
FIELD
  5
6DD4B
102
{ACAD_REACTORS
330
6DD4A
102
}
330
6DD4A
100
AcDbField
  1
_text
  2
%<\_FldIdx 0>%-%<\_FldIdx 1>%
 90
        2
360
6DD4C
360
6DD4D
 97
        0
 91
       63
 92
        0
 94
        9
 95
        2
 96
        0
300

 93
        0
  7
ACFD_FIELD_VALUE
 93
        3
 90
        0
 94
        0
300

302

304
ACVALUE_END
301

 98
        0
  0
ACAD_PROXY_OBJECT
  5
5E333
330
0
100
AcDbProxyObject
 90
      499
 91
      596
 95
  8192031
 70
     0
162
              4428
311
4255801BC01C801B00184019C0194008000C4000A013D002500250063003C0048006F006C0065003A00630074006400690061003E002000780020003C0048006F006C0065003A0063007400640065007000740068003E00200055005C0050003C0069006600280065007100750061006C00280048006F006C0065003A00740
311
0610070007000650064002C0022003000220029002C0022002500250063002200200048006F006C0065003A006400690061002C0048006F006C0065003A006E006F006D0069006E0061006C0029003E003C0069006600280065007100750061006C00280048006F006C0065003A007400610070007000650064002C0022003
311
100220029002C0022002000780020002200200048006F006C0065003A00540061007000440065007000740068002C002200220029003E003C0069006600280065007100750061006C00280048006F006C0065003A007400650072006D0069006E006100740069006F006E002C0022003000220029002C00690066002800650
311
07100750061006C00280048006F006C0065003A007400610070007000650064002C0022003000220029002C00220020007800200022002C00220020002F002000220029002C002200220029003E003C0069006600280065007100750061006C00280048006F006C0065003A007400650072006D0069006E006100740069006
311
F006E002C0022003000220029002C0048006F006C0065003A00640065007000740068002C002200220029003E00C
161
                29
310
73A0101C
 94
        0
  0
ACAD_PROXY_OBJECT
  5
5E334
330
0
100
AcDbProxyObject
 90
      499
 91
      596
 95
  8192031
 70
     0
162
              4444
311
4255801BC01C801B00184019C0194008000C4000B013D002500250063003C0048006F006C0065003A00630074006400690061003E002000780020003C0048006F006C0065003A006300740061006E0067006C0065003E002500250064005C0050003C0069006600280065007100750061006C00280048006F006C0065003A0
311
07400610070007000650064002C0022003000220029002C0022002500250063002200200048006F006C0065003A006400690061002C0048006F006C0065003A006E006F006D0069006E0061006C0029003E003C0069006600280065007100750061006C00280048006F006C0065003A007400610070007000650064002C002
311
2003100220029002C0022002000780020002200200048006F006C0065003A00540061007000440065007000740068002C002200220029003E003C0069006600280065007100750061006C00280048006F006C0065003A007400650072006D0069006E006100740069006F006E002C0022003000220029002C0069006600280
311
065007100750061006C00280048006F006C0065003A007400610070007000650064002C0022003000220029002C00220020007800200022002C00220020002F002000220029002C002200220029003E003C0069006600280065007100750061006C00280048006F006C0065003A007400650072006D0069006E00610074006
311
9006F006E002C0022003000220029002C0048006F006C0065003A00640065007000740068002C002200220029003E00C
161
                29
310
73A0101C
 94
        0
  0
ACAD_PROXY_OBJECT
  5
5E332
330
0
100
AcDbProxyObject
 90
      499
 91
      596
 95
  8192031
 70
     0
162
              3844
311
4255801BC01C801B00184019C0194008000C401E63D003C0069006600280065007100750061006C00280048006F006C0065003A007400610070007000650064002C0022003000220029002C0022002500250063002200200048006F006C0065003A006400690061002C0048006F006C0065003A006E006F006D0069006E006
311
1006C0029003E003C0069006600280065007100750061006C00280048006F006C0065003A007400610070007000650064002C0022003100220029002C0022002000780020002200200048006F006C0065003A00540061007000440065007000740068002C002200220029003E003C0069006600280065007100750061006C0
311
0280048006F006C0065003A007400650072006D0069006E006100740069006F006E002C0022003000220029002C0069006600280065007100750061006C00280048006F006C0065003A007400610070007000650064002C0022003000220029002C00220020007800200022002C00220020002F002000220029002C0022002
311
20029003E003C0069006600280065007100750061006C00280048006F006C0065003A007400650072006D0069006E006100740069006F006E002C0022003000220029002C0048006F006C0065003A00640065007000740068002C002200220029003E00C
161
                29
310
73A0101C
 94
        0
  0
ACAD_PROXY_OBJECT
  5
5E330
330
0
100
AcDbProxyObject
 90
      499
 91
      596
 95
  8192031
 70
     0
162
               532
311
4255801BC01C801B00184019C0194008000C801173D003C0053005400440050003A0044004500530043003E0020003C0053005400440050003A005300540044003E00C
161
                29
310
73A01014
 94
        0
  0
ACAD_PROXY_OBJECT
  5
5E32F
330
0
100
AcDbProxyObject
 90
      499
 91
      596
 95
  8192031
 70
     0
162
               356
311
4255801BC01C801B00184019C0194008000C4010C3D003C0053005400440050003A0044004500530043003E00C
161
                29
310
73A0101C
 94
        0
  0
ACAD_PROXY_OBJECT
  5
5E331
330
0
100
AcDbProxyObject
 90
      499
 91
      596
 95
  8192031
 70
     0
162
               340
311
4255801BC01C801B00184019C0194008000CC010B3D003C0053005400440050003A005300540044003E00C
161
                29
310
73A01014
 94
        0
  0
FIELD
  5
6DD52
330
6DD51
100
AcDbField
  1
AcVar
  2
\AcVar ViewType \f "%tc1"
 90
        0
 97
        0
 91
       63
 92
        0
 94
       43
 95
        2
 96
        0
300

 93
        1
  6
Variable
 93
        2
 90
        4
  1
ViewType
 94
        0
300

302

304
ACVALUE_END
  7
ACFD_FIELD_VALUE
 93
        1
 90
        0
 94
        0
300
%tc1
302

304
ACVALUE_END
301
----
 98
        4
  0
FIELD
  5
6DD53
330
6DD51
100
AcDbField
  1
AcVar
  2
\AcVar ViewDetailId
 90
        0
 97
        0
 91
       63
 92
        0
 94
       43
 95
        2
 96
        0
300

 93
        1
  6
Variable
 93
        2
 90
        4
  1
ViewDetailId
 94
        0
300

302

304
ACVALUE_END
  7
ACFD_FIELD_VALUE
 93
        1
 90
        0
 94
        0
300

302

304
ACVALUE_END
301
----
 98
        4
  0
FIELD
  5
6DD54
330
6DD51
100
AcDbField
  1
AcVar
  2
\AcVar ViewScale \f "%sn"
 90
        0
 97
        0
 91
       63
 92
        0
 94
       43
 95
        2
 96
        0
300

 93
        1
  6
Variable
 93
        2
 90
        4
  1
ViewScale
 94
        0
300

302

304
ACVALUE_END
  7
ACFD_FIELD_VALUE
 93
        1
 90
        0
 94
        0
300
%sn
302

304
ACVALUE_END
301
----
 98
        4
  0
FIELD
  5
6B741
330
6B740
100
AcDbField
  1
AcVar
  2
\AcVar ViewDetailId
 90
        0
 97
        0
 91
       63
 92
        0
 94
       43
 95
        2
 96
        0
300

 93
        1
  6
Variable
 93
        2
 90
        4
  1
ViewDetailId
 94
        0
300

302

304
ACVALUE_END
  7
ACFD_FIELD_VALUE
 93
        1
 90
        0
 94
        0
300

302

304
ACVALUE_END
301
----
 98
        4
  0
FIELD
  5
6B742
330
6B740
100
AcDbField
  1
AcVar
  2
\AcVar ViewScale \f "%sn"
 90
        0
 97
        0
 91
       63
 92
        0
 94
       43
 95
        2
 96
        0
300

 93
        1
  6
Variable
 93
        2
 90
        4
  1
ViewScale
 94
        0
300

302

304
ACVALUE_END
  7
ACFD_FIELD_VALUE
 93
        1
 90
        0
 94
        0
300
%sn
302

304
ACVALUE_END
301
----
 98
        4
  0
FIELD
  5
5FEEC
330
5FEEB
100
AcDbField
  1
AcVar
  2
\AcVar ViewDetailId
 90
        0
 97
        0
 91
       63
 92
        0
 94
       43
 95
        2
 96
        0
300

 93
        1
  6
Variable
 93
        2
 90
        4
  1
ViewDetailId
 94
        0
300

302

304
ACVALUE_END
  7
ACFD_FIELD_VALUE
 93
        1
 90
        0
 94
        0
300

302

304
ACVALUE_END
301
----
 98
        4
  0
FIELD
  5
5FEED
330
5FEEB
100
AcDbField
  1
AcVar
  2
\AcVar ViewScale \f "%sn"
 90
        0
 97
        0
 91
       63
 92
        0
 94
       43
 95
        2
 96
        0
300

 93
        1
  6
Variable
 93
        2
 90
        4
  1
ViewScale
 94
        0
300

302

304
ACVALUE_END
  7
ACFD_FIELD_VALUE
 93
        1
 90
        0
 94
        0
300
%sn
302

304
ACVALUE_END
301
----
 98
        4
  0
FIELD
  5
6DD45
330
6DD44
100
AcDbField
  1
AcVar
  2
\AcVar ViewType \f "%tc1"
 90
        0
 97
        0
 91
       63
 92
        0
 94
       43
 95
        2
 96
        0
300

 93
        1
  6
Variable
 93
        2
 90
        4
  1
ViewType
 94
        0
300

302

304
ACVALUE_END
  7
ACFD_FIELD_VALUE
 93
        1
 90
        0
 94
        0
300
%tc1
302

304
ACVALUE_END
301
----
 98
        4
  0
FIELD
  5
6DD46
330
6DD44
100
AcDbField
  1
AcVar
  2
\AcVar ViewSectionStartId
 90
        0
 97
        0
 91
       63
 92
        0
 94
       43
 95
        2
 96
        0
300

 93
        1
  6
Variable
 93
        2
 90
        4
  1
ViewSectionStartId
 94
        0
300

302

304
ACVALUE_END
  7
ACFD_FIELD_VALUE
 93
        1
 90
        0
 94
        0
300

302

304
ACVALUE_END
301
----
 98
        4
  0
FIELD
  5
6DD47
330
6DD44
100
AcDbField
  1
AcVar
  2
\AcVar ViewSectionEndId
 90
        0
 97
        0
 91
       63
 92
        0
 94
       43
 95
        2
 96
        0
300

 93
        1
  6
Variable
 93
        2
 90
        4
  1
ViewSectionEndId
 94
        0
300

302

304
ACVALUE_END
  7
ACFD_FIELD_VALUE
 93
        1
 90
        0
 94
        0
300

302

304
ACVALUE_END
301
----
 98
        4
  0
FIELD
  5
6B747
330
6B746
100
AcDbField
  1
AcVar
  2
\AcVar ViewSectionStartId
 90
        0
 97
        0
 91
       63
 92
        0
 94
       43
 95
        2
 96
        0
300

 93
        1
  6
Variable
 93
        2
 90
        4
  1
ViewSectionStartId
 94
        0
300

302

304
ACVALUE_END
  7
ACFD_FIELD_VALUE
 93
        1
 90
        0
 94
        0
300

302

304
ACVALUE_END
301
----
 98
        4
  0
FIELD
  5
6B748
330
6B746
100
AcDbField
  1
AcVar
  2
\AcVar ViewSectionEndId
 90
        0
 97
        0
 91
       63
 92
        0
 94
       43
 95
        2
 96
        0
300

 93
        1
  6
Variable
 93
        2
 90
        4
  1
ViewSectionEndId
 94
        0
300

302

304
ACVALUE_END
  7
ACFD_FIELD_VALUE
 93
        1
 90
        0
 94
        0
300

302

304
ACVALUE_END
301
----
 98
        4
  0
FIELD
  5
5FEF2
330
5FEF1
100
AcDbField
  1
AcVar
  2
\AcVar ViewSectionStartId
 90
        0
 97
        0
 91
       63
 92
        0
 94
       43
 95
        2
 96
        0
300

 93
        1
  6
Variable
 93
        2
 90
        4
  1
ViewSectionStartId
 94
        0
300

302

304
ACVALUE_END
  7
ACFD_FIELD_VALUE
 93
        1
 90
        0
 94
        0
300

302

304
ACVALUE_END
301
----
 98
        4
  0
FIELD
  5
5FEF3
330
5FEF1
100
AcDbField
  1
AcVar
  2
\AcVar ViewSectionEndId
 90
        0
 97
        0
 91
       63
 92
        0
 94
       43
 95
        2
 96
        0
300

 93
        1
  6
Variable
 93
        2
 90
        4
  1
ViewSectionEndId
 94
        0
300

302

304
ACVALUE_END
  7
ACFD_FIELD_VALUE
 93
        1
 90
        0
 94
        0
300

302

304
ACVALUE_END
301
----
 98
        4
  0
FIELD
  5
6DD4C
330
6DD4B
100
AcDbField
  1
AcVar
  2
\AcVar ViewSectionStartId
 90
        0
 97
        0
 91
       63
 92
        0
 94
       43
 95
        2
 96
        0
300

 93
        1
  6
Variable
 93
        2
 90
        4
  1
ViewSectionStartId
 94
        0
300

302

304
ACVALUE_END
  7
ACFD_FIELD_VALUE
 93
        1
 90
        0
 94
        0
300

302

304
ACVALUE_END
301
----
 98
        4
  0
FIELD
  5
6DD4D
330
6DD4B
100
AcDbField
  1
AcVar
  2
\AcVar ViewSectionEndId
 90
        0
 97
        0
 91
       63
 92
        0
 94
       43
 95
        2
 96
        0
300

 93
        1
  6
Variable
 93
        2
 90
        4
  1
ViewSectionEndId
 94
        0
300

302

304
ACVALUE_END
  7
ACFD_FIELD_VALUE
 93
        1
 90
        0
 94
        0
300

302

304
ACVALUE_END
301
----
 98
        4
  0
ENDSEC
  0
EOF
