  0
SECTION
  2
HEADER
  9
$ACADVER
  1
AC1032
  9
$ACADMAINTVER
 90
       73
  9
$DWGCODEPAGE
  3
ANSI_1252
  9
$LASTSAVEDBY
  1
U907777
  9
$REQUIREDVERSIONS
160
                 0
  9
$INSBASE
 10
0.0
 20
0.0
 30
0.0
  9
$EXTMIN
 10
-348.7642669166671
 20
-1488.519066619021
 30
-11.0
  9
$EXTMAX
 10
7256.770563441259
 20
3135.572788371876
 30
11.0
  9
$LIMMIN
 10
0.0
 20
0.0
  9
$LIMMAX
 10
420.0
 20
297.0
  9
$ORTHOMODE
 70
     0
  9
$REGENMODE
 70
     1
  9
$FILLMODE
 70
     1
  9
$QTEXTMODE
 70
     0
  9
$MIRRTEXT
 70
     0
  9
$LTSCALE
 40
1.0
  9
$ATTMODE
 70
     1
  9
$TEXTSIZE
 40
2.5
  9
$TRACEWID
 40
1.0
  9
$TEXTSTYLE
  7
Standard
  9
$CLAYER
  8
0
  9
$CELTYPE
  6
ByLayer
  9
$CECOLOR
 62
   256
  9
$CELTSCALE
 40
1.0
  9
$DISPSILH
 70
     0
  9
$DIMSCALE
 40
1.0
  9
$DIMASZ
 40
2.5
  9
$DIMEXO
 40
0.625
  9
$DIMDLI
 40
3.75
  9
$DIMRND
 40
0.0
  9
$DIMDLE
 40
0.0
  9
$DIMEXE
 40
1.25
  9
$DIMTP
 40
0.0
  9
$DIMTM
 40
0.0
  9
$DIMTXT
 40
2.5
  9
$DIMCEN
 40
2.5
  9
$DIMTSZ
 40
0.0
  9
$DIMTOL
 70
     0
  9
$DIMLIM
 70
     0
  9
$DIMTIH
 70
     0
  9
$DIMTOH
 70
     0
  9
$DIMSE1
 70
     0
  9
$DIMSE2
 70
     0
  9
$DIMTAD
 70
     1
  9
$DIMZIN
 70
     8
  9
$DIMBLK
  1

  9
$DIMASO
 70
     1
  9
$DIMSHO
 70
     1
  9
$DIMPOST
  1

  9
$DIMAPOST
  1

  9
$DIMALT
 70
     0
  9
$DIMALTD
 70
     3
  9
$DIMALTF
 40
0.03937007874016
  9
$DIMLFAC
 40
1.0
  9
$DIMTOFL
 70
     1
  9
$DIMTVP
 40
0.0
  9
$DIMTIX
 70
     0
  9
$DIMSOXD
 70
     0
  9
$DIMSAH
 70
     0
  9
$DIMBLK1
  1

  9
$DIMBLK2
  1

  9
$DIMSTYLE
  2
ISO-25
  9
$DIMCLRD
 70
     0
  9
$DIMCLRE
 70
     0
  9
$DIMCLRT
 70
     0
  9
$DIMTFAC
 40
1.0
  9
$DIMGAP
 40
0.625
  9
$DIMJUST
 70
     0
  9
$DIMSD1
 70
     0
  9
$DIMSD2
 70
     0
  9
$DIMTOLJ
 70
     0
  9
$DIMTZIN
 70
     8
  9
$DIMALTZ
 70
     0
  9
$DIMALTTZ
 70
     0
  9
$DIMUPT
 70
     0
  9
$DIMDEC
 70
     2
  9
$DIMTDEC
 70
     2
  9
$DIMALTU
 70
     2
  9
$DIMALTTD
 70
     3
  9
$DIMTXSTY
  7
Standard
  9
$DIMAUNIT
 70
     0
  9
$DIMADEC
 70
     0
  9
$DIMALTRND
 40
0.0
  9
$DIMAZIN
 70
     0
  9
$DIMDSEP
 70
    44
  9
$DIMATFIT
 70
     3
  9
$DIMFRAC
 70
     0
  9
$DIMLDRBLK
  1

  9
$DIMLUNIT
 70
     2
  9
$DIMLWD
 70
    -2
  9
$DIMLWE
 70
    -2
  9
$DIMTMOVE
 70
     0
  9
$DIMFXL
 40
1.0
  9
$DIMFXLON
 70
     0
  9
$DIMJOGANG
 40
1.570796326794896
  9
$DIMTFILL
 70
     0
  9
$DIMTFILLCLR
 70
     0
  9
$DIMARCSYM
 70
     0
  9
$DIMLTYPE
  6

  9
$DIMLTEX1
  6

  9
$DIMLTEX2
  6

  9
$DIMTXTDIRECTION
 70
     0
  9
$LUNITS
 70
     2
  9
$LUPREC
 70
     4
  9
$SKETCHINC
 40
1.0
  9
$FILLETRAD
 40
7.5
  9
$AUNITS
 70
     0
  9
$AUPREC
 70
     0
  9
$MENU
  1
.
  9
$ELEVATION
 40
0.0
  9
$PELEVATION
 40
0.0
  9
$THICKNESS
 40
0.0
  9
$LIMCHECK
 70
     0
  9
$CHAMFERA
 40
0.0
  9
$CHAMFERB
 40
0.0
  9
$CHAMFERC
 40
0.0
  9
$CHAMFERD
 40
0.0
  9
$SKPOLY
 70
     0
  9
$TDCREATE
 40
2459144.351550926
  9
$TDUCREATE
 40
2459144.268217593
  9
$TDUPDATE
 40
2459928.471458334
  9
$TDUUPDATE
 40
2459928.429791667
  9
$TDINDWG
 40
0.0793171296
  9
$TDUSRTIMER
 40
0.0793171296
  9
$USRTIMER
 70
     1
  9
$ANGBASE
 50
0.0
  9
$ANGDIR
 70
     0
  9
$PDMODE
 70
     0
  9
$PDSIZE
 40
0.0
  9
$PLINEWID
 40
0.0
  9
$SPLFRAME
 70
     0
  9
$SPLINETYPE
 70
     6
  9
$SPLINESEGS
 70
     8
  9
$HANDSEED
  5
F7F
  9
$SURFTAB1
 70
     6
  9
$SURFTAB2
 70
     6
  9
$SURFTYPE
 70
     6
  9
$SURFU
 70
     6
  9
$SURFV
 70
     6
  9
$UCSBASE
  2

  9
$UCSNAME
  2

  9
$UCSORG
 10
0.0
 20
0.0
 30
0.0
  9
$UCSXDIR
 10
1.0
 20
0.0
 30
0.0
  9
$UCSYDIR
 10
0.0
 20
1.0
 30
0.0
  9
$UCSORTHOREF
  2

  9
$UCSORTHOVIEW
 70
     0
  9
$UCSORGTOP
 10
0.0
 20
0.0
 30
0.0
  9
$UCSORGBOTTOM
 10
0.0
 20
0.0
 30
0.0
  9
$UCSORGLEFT
 10
0.0
 20
0.0
 30
0.0
  9
$UCSORGRIGHT
 10
0.0
 20
0.0
 30
0.0
  9
$UCSORGFRONT
 10
0.0
 20
0.0
 30
0.0
  9
$UCSORGBACK
 10
0.0
 20
0.0
 30
0.0
  9
$PUCSBASE
  2

  9
$PUCSNAME
  2

  9
$PUCSORG
 10
0.0
 20
0.0
 30
0.0
  9
$PUCSXDIR
 10
1.0
 20
0.0
 30
0.0
  9
$PUCSYDIR
 10
0.0
 20
1.0
 30
0.0
  9
$PUCSORTHOREF
  2

  9
$PUCSORTHOVIEW
 70
     0
  9
$PUCSORGTOP
 10
0.0
 20
0.0
 30
0.0
  9
$PUCSORGBOTTOM
 10
0.0
 20
0.0
 30
0.0
  9
$PUCSORGLEFT
 10
0.0
 20
0.0
 30
0.0
  9
$PUCSORGRIGHT
 10
0.0
 20
0.0
 30
0.0
  9
$PUCSORGFRONT
 10
0.0
 20
0.0
 30
0.0
  9
$PUCSORGBACK
 10
0.0
 20
0.0
 30
0.0
  9
$USERI1
 70
     0
  9
$USERI2
 70
     0
  9
$USERI3
 70
     0
  9
$USERI4
 70
     0
  9
$USERI5
 70
     0
  9
$USERR1
 40
0.0
  9
$USERR2
 40
0.0
  9
$USERR3
 40
0.0
  9
$USERR4
 40
0.0
  9
$USERR5
 40
0.0
  9
$WORLDVIEW
 70
     1
  9
$SHADEDGE
 70
     3
  9
$SHADEDIF
 70
    70
  9
$TILEMODE
 70
     1
  9
$MAXACTVP
 70
    64
  9
$PINSBASE
 10
0.0
 20
0.0
 30
0.0
  9
$PLIMCHECK
 70
     0
  9
$PEXTMIN
 10
29.06606628894805
 20
20.36233246326446
 30
0.0
  9
$PEXTMAX
 10
261.5945966005325
 20
183.2609921693802
 30
0.0
  9
$PLIMMIN
 10
-3.17498779296875
 20
-3.174999952316282
  9
$PLIMMAX
 10
293.8356628417969
 20
206.7983276844024
  9
$UNITMODE
 70
     0
  9
$VISRETAIN
 70
     1
  9
$PLINEGEN
 70
     0
  9
$PSLTSCALE
 70
     1
  9
$TREEDEPTH
 70
  3020
  9
$CMLSTYLE
  2
Standard
  9
$CMLJUST
 70
     0
  9
$CMLSCALE
 40
20.0
  9
$PROXYGRAPHICS
 70
     1
  9
$MEASUREMENT
 70
     1
  9
$CELWEIGHT
370
    -1
  9
$ENDCAPS
280
     0
  9
$JOINSTYLE
280
     0
  9
$LWDISPLAY
290
     0
  9
$INSUNITS
 70
     4
  9
$HYPERLINKBASE
  1

  9
$STYLESHEET
  1

  9
$XEDIT
290
     1
  9
$CEPSNTYPE
380
     0
  9
$PSTYLEMODE
290
     1
  9
$FINGERPRINTGUID
  2
{3C0D8332-BD54-5B46-AEE6-68BA82F99FA0}
  9
$VERSIONGUID
  2
{BB7A46A7-74CF-4F46-95FA-B2CB982E01EF}
  9
$EXTNAMES
290
     1
  9
$PSVPSCALE
 40
0.0
  9
$OLESTARTUP
290
     0
  9
$SORTENTS
280
   127
  9
$INDEXCTL
280
     0
  9
$HIDETEXT
280
     1
  9
$XCLIPFRAME
280
     2
  9
$HALOGAP
280
     0
  9
$OBSCOLOR
 70
   257
  9
$OBSLTYPE
280
     0
  9
$INTERSECTIONDISPLAY
280
     0
  9
$INTERSECTIONCOLOR
 70
   257
  9
$DIMASSOC
280
     2
  9
$PROJECTNAME
  1

  9
$CAMERADISPLAY
290
     0
  9
$LENSLENGTH
 40
50.0
  9
$CAMERAHEIGHT
 40
0.0
  9
$STEPSPERSEC
 40
2.0
  9
$STEPSIZE
 40
6.0
  9
$3DDWFPREC
 40
2.0
  9
$PSOLWIDTH
 40
5.0
  9
$PSOLHEIGHT
 40
80.0
  9
$LOFTANG1
 40
1.570795999999999
  9
$LOFTANG2
 40
1.570795999999999
  9
$LOFTMAG1
 40
0.0
  9
$LOFTMAG2
 40
0.0
  9
$LOFTPARAM
 70
     7
  9
$LOFTNORMALS
280
     1
  9
$LATITUDE
 40
37.795
  9
$LONGITUDE
 40
-122.394
  9
$NORTHDIRECTION
 40
0.0
  9
$TIMEZONE
 70
 -8000
  9
$LIGHTGLYPHDISPLAY
280
     1
  9
$TILEMODELIGHTSYNCH
280
     1
  9
$CMATERIAL
347
EC
  9
$SOLIDHIST
280
     0
  9
$SHOWHIST
280
     1
  9
$DWFFRAME
280
     2
  9
$DGNFRAME
280
     0
  9
$REALWORLDSCALE
290
     1
  9
$INTERFERECOLOR
 62
     1
  9
$INTERFEREOBJVS
345
F9
  9
$INTERFEREVPVS
346
F6
  9
$CSHADOW
280
     0
  9
$SHADOWPLANELOCATION
 40
0.0
  0
ENDSEC
  0
SECTION
  2
CLASSES
  0
CLASS
  1
ACDBDICTIONARYWDFLT
  2
AcDbDictionaryWithDefault
  3
ObjectDBX Classes
 90
        0
 91
        1
280
     0
281
     0
  0
CLASS
  1
DICTIONARYVAR
  2
AcDbDictionaryVar
  3
ObjectDBX Classes
 90
        0
 91
       21
280
     0
281
     0
  0
CLASS
  1
TABLESTYLE
  2
AcDbTableStyle
  3
ObjectDBX Classes
 90
     4095
 91
        1
280
     0
281
     0
  0
CLASS
  1
MATERIAL
  2
AcDbMaterial
  3
ObjectDBX Classes
 90
     1153
 91
        3
280
     0
281
     0
  0
CLASS
  1
VISUALSTYLE
  2
AcDbVisualStyle
  3
ObjectDBX Classes
 90
     4095
 91
       24
280
     0
281
     0
  0
CLASS
  1
SCALE
  2
AcDbScale
  3
ObjectDBX Classes
 90
     1153
 91
       17
280
     0
281
     0
  0
CLASS
  1
MLEADERSTYLE
  2
AcDbMLeaderStyle
  3
ACDB_MLEADERSTYLE_CLASS
 90
     4095
 91
        1
280
     0
281
     0
  0
CLASS
  1
CELLSTYLEMAP
  2
AcDbCellStyleMap
  3
ObjectDBX Classes
 90
     1152
 91
        4
280
     0
281
     0
  0
CLASS
  1
EXACXREFPANELOBJECT
  2
ExAcXREFPanelObject
  3
EXAC_ESW
 90
     1025
 91
        0
280
     0
281
     0
  0
CLASS
  1
NPOCOLLECTION
  2
AcDbImpNonPersistentObjectsCollection
  3
ObjectDBX Classes
 90
     1153
 91
        0
280
     0
281
     0
  0
CLASS
  1
LAYER_INDEX
  2
AcDbLayerIndex
  3
ObjectDBX Classes
 90
        0
 91
        0
280
     0
281
     0
  0
CLASS
  1
SPATIAL_INDEX
  2
AcDbSpatialIndex
  3
ObjectDBX Classes
 90
        0
 91
        0
280
     0
281
     0
  0
CLASS
  1
IDBUFFER
  2
AcDbIdBuffer
  3
ObjectDBX Classes
 90
        0
 91
        0
280
     0
281
     0
  0
CLASS
  1
ACDBSECTIONVIEWSTYLE
  2
AcDbSectionViewStyle
  3
ObjectDBX Classes
 90
     1025
 91
        2
280
     0
281
     0
  0
CLASS
  1
ACDBDETAILVIEWSTYLE
  2
AcDbDetailViewStyle
  3
ObjectDBX Classes
 90
     1025
 91
        2
280
     0
281
     0
  0
CLASS
  1
DIMASSOC
  2
AcDbDimAssoc
  3
"AcDbDimAssoc|Product Desc:     AcDim ARX App For Dimension|Company:          Autodesk, Inc.|WEB Address:      www.autodesk.com"
 90
        0
 91
        4
280
     0
281
     0
  0
CLASS
  1
SORTENTSTABLE
  2
AcDbSortentsTable
  3
ObjectDBX Classes
 90
        0
 91
        3
280
     0
281
     0
  0
ENDSEC
  0
SECTION
  2
TABLES
  0
TABLE
  2
VPORT
  5
8
330
0
100
AcDbSymbolTable
 70
     1
1001
ACAD
1000
DbSaveVer
1071
       11
  0
VPORT
  5
EA
330
8
100
AcDbSymbolTableRecord
100
AcDbViewportTableRecord
  2
*Active
 70
     0
 10
0.0
 20
0.0
 11
1.0
 21
1.0
 12
4613.930242905492
 22
901.5688180186939
 13
0.0
 23
0.0
 14
10.0
 24
10.0
 15
10.0
 25
10.0
 16
0.0
 26
0.0
 36
1.0
 17
0.0
 27
0.0
 37
0.0
 40
5137.93065508235
 41
2.623268698060941
 42
50.0
 43
0.0
 44
0.0
 50
0.0
 51
0.0
 71
     0
 72
  1000
 73
     1
 74
     3
 75
     0
 76
     0
 77
     0
 78
     0
281
     0
 65
     1
110
0.0
120
0.0
130
0.0
111
1.0
121
0.0
131
0.0
112
0.0
122
1.0
132
0.0
 79
     0
146
0.0
348
F5
 60
     3
 61
     5
292
     1
282
     1
141
0.0
142
0.0
 63
   250
421
  3355443
1001
ACAD_NAV_VCDISPLAY
1070
     3
  0
ENDTAB
  0
TABLE
  2
LTYPE
  5
5
330
0
100
AcDbSymbolTable
 70
     7
  0
LTYPE
  5
14
330
5
100
AcDbSymbolTableRecord
100
AcDbLinetypeTableRecord
  2
ByBlock
 70
     0
  3

 72
    65
 73
     0
 40
0.0
  0
LTYPE
  5
15
330
5
100
AcDbSymbolTableRecord
100
AcDbLinetypeTableRecord
  2
ByLayer
 70
     0
  3

 72
    65
 73
     0
 40
0.0
  0
LTYPE
  5
16
330
5
100
AcDbSymbolTableRecord
100
AcDbLinetypeTableRecord
  2
Continuous
 70
     0
  3
Solid line
 72
    65
 73
     0
 40
0.0
  0
LTYPE
  5
7BA
330
5
100
AcDbSymbolTableRecord
100
AcDbLinetypeTableRecord
  2
STRICHLINIE
 70
     0
  3
Strichlinie __ __ __ __ __ __ __ __ __ __ __ __
 72
    65
 73
     2
 40
19.05
 49
12.7
 74
     0
 49
-6.349999999999997
 74
     0
  0
ENDTAB
  0
TABLE
  2
LAYER
  5
2
102
{ACAD_XDICTIONARY
360
1FF
102
}
330
0
100
AcDbSymbolTable
 70
     7
  0
LAYER
  5
10
102
{ACAD_XDICTIONARY
360
13C
102
}
330
2
100
AcDbSymbolTableRecord
100
AcDbLayerTableRecord
  2
0
 70
     0
 62
     7
  6
Continuous
370
    -3
390
F
347
EE
348
0
  0
LAYER
  5
2B8
330
2
100
AcDbSymbolTableRecord
100
AcDbLayerTableRecord
  2
Defpoints
 70
     0
 62
     7
  6
Continuous
290
     0
370
    -3
390
F
347
EE
348
0
  0
ENDTAB
  0
TABLE
  2
STYLE
  5
3
330
0
100
AcDbSymbolTable
 70
     4
  0
STYLE
  5
11
330
3
100
AcDbSymbolTableRecord
100
AcDbTextStyleTableRecord
  2
Standard
 70
     0
 40
0.0
 41
1.0
 50
0.0
 71
     0
 42
2.5
  3
arial.ttf
  4

1001
ACAD
1000
Arial
1071
       34
  0
STYLE
  5
2C0
330
3
100
AcDbSymbolTableRecord
100
AcDbTextStyleTableRecord
  2
VOEST
 70
     0
 40
0.0
 41
1.0
 50
0.0
 71
     0
 42
3.5
  3
voestalpine-Light.ttf
  4

1001
ACAD
1000
voestalpine Light
1071
       34
  0
STYLE
  5
AB8
330
3
100
AcDbSymbolTableRecord
100
AcDbTextStyleTableRecord
  2
ARIALFETT
 70
     0
 40
0.0
 41
1.0
 50
0.0
 71
     0
 42
4.0
  3
ARIALN.TTF
  4

1001
ACAD
1000
Arial Narrow
1071
       34
  0
ENDTAB
  0
TABLE
  2
VIEW
  5
6
330
0
100
AcDbSymbolTable
 70
     4
  0
ENDTAB
  0
TABLE
  2
UCS
  5
7
330
0
100
AcDbSymbolTable
 70
     0
  0
ENDTAB
  0
TABLE
  2
APPID
  5
9
330
0
100
AcDbSymbolTable
 70
    16
  0
APPID
  5
12
330
9
100
AcDbSymbolTableRecord
100
AcDbRegAppTableRecord
  2
ACAD
 70
     0
  0
APPID
  5
9E
330
9
100
AcDbSymbolTableRecord
100
AcDbRegAppTableRecord
  2
ACAD_PSEXT
 70
     0
  0
APPID
  5
133
330
9
100
AcDbSymbolTableRecord
100
AcDbRegAppTableRecord
  2
AcadAnnoPO
 70
     0
  0
APPID
  5
134
330
9
100
AcDbSymbolTableRecord
100
AcDbRegAppTableRecord
  2
AcadAnnotative
 70
     0
  0
APPID
  5
135
330
9
100
AcDbSymbolTableRecord
100
AcDbRegAppTableRecord
  2
ACAD_DSTYLE_DIMJAG
 70
     0
  0
APPID
  5
136
330
9
100
AcDbSymbolTableRecord
100
AcDbRegAppTableRecord
  2
ACAD_DSTYLE_DIMTALN
 70
     0
  0
APPID
  5
165
330
9
100
AcDbSymbolTableRecord
100
AcDbRegAppTableRecord
  2
ACAD_MLEADERVER
 70
     0
  0
APPID
  5
217
330
9
100
AcDbSymbolTableRecord
100
AcDbRegAppTableRecord
  2
ACAD_NAV_VCDISPLAY
 70
     0
  0
APPID
  5
2C7
330
9
100
AcDbSymbolTableRecord
100
AcDbRegAppTableRecord
  2
AcAecLayerStandard
 70
     0
  0
APPID
  5
2C8
330
9
100
AcDbSymbolTableRecord
100
AcDbRegAppTableRecord
  2
AcCmTransparency
 70
     0
  0
APPID
  5
2C9
330
9
100
AcDbSymbolTableRecord
100
AcDbRegAppTableRecord
  2
ACAD_DSTYLE_DIMJOGGED_JOGANGLE_SYMBOL
 70
     0
  0
APPID
  5
2CA
330
9
100
AcDbSymbolTableRecord
100
AcDbRegAppTableRecord
  2
ACAD_DSTYLE_DIMBREAK
 70
     0
  0
APPID
  5
2CB
330
9
100
AcDbSymbolTableRecord
100
AcDbRegAppTableRecord
  2
GradientColor1ACI
 70
     0
  0
APPID
  5
2CC
330
9
100
AcDbSymbolTableRecord
100
AcDbRegAppTableRecord
  2
GradientColor2ACI
 70
     0
  0
APPID
  5
71B
330
9
100
AcDbSymbolTableRecord
100
AcDbRegAppTableRecord
  2
ACAD_EXEMPT_FROM_CAD_STANDARDS
 70
     0
  0
APPID
  5
EDE
330
9
100
AcDbSymbolTableRecord
100
AcDbRegAppTableRecord
  2
AcadAnnoMonitorAlertIconDisabled
 70
     0
  0
ENDTAB
  0
TABLE
  2
DIMSTYLE
  5
A
330
0
100
AcDbSymbolTable
 70
     8
100
AcDbDimStyleTable
 71
     1
340
27
  0
DIMSTYLE
105
27
330
A
100
AcDbSymbolTableRecord
100
AcDbDimStyleTableRecord
  2
ISO-25
 70
     0
 41
2.5
 42
0.625
 43
3.75
 44
1.25
 73
     0
 74
     0
 77
     1
 78
     8
140
2.5
141
2.5
143
0.03937007874016
147
0.625
171
     3
172
     1
271
     2
272
     2
274
     3
278
    44
283
     0
284
     8
340
11
  0
DIMSTYLE
105
2C2
330
A
100
AcDbSymbolTableRecord
100
AcDbDimStyleTableRecord
  2
STIL2
 70
     0
 40
1.5
 41
5.0
 42
1.0
 43
1.0
 44
1.0
 50
89.99999999999998
 73
     0
 74
     0
140
3.5
141
0.0
147
1.0
271
     0
272
     0
340
2C0
341
26F
1001
ACAD_DSTYLE_DIMJAG
1070
   388
1040
1.5
1001
ACAD_DSTYLE_DIMTALN
1070
   392
1070
     0
1001
ACAD_DSTYLE_DIMJOGGED_JOGANGLE_SYMBOL
1070
   384
1040
1.570796326794896
  0
DIMSTYLE
105
2C5
102
{ACAD_REACTORS
330
62B
330
60D
330
614
330
617
330
618
330
896
330
899
330
89A
330
CDF
330
CD8
330
CD9
330
CDC
330
CDD
102
}
330
A
100
AcDbSymbolTableRecord
100
AcDbDimStyleTableRecord
  2
STIL2$0
 70
     0
 40
1.5
 41
5.0
 42
1.0
 43
1.0
 44
1.0
 50
89.99999999999998
 73
     0
 74
     0
140
3.5
141
0.0
147
1.0
271
     0
272
     0
340
2C0
341
26F
1001
ACAD_DSTYLE_DIMBREAK
1070
   391
1040
3.75
1001
ACAD_DSTYLE_DIMJAG
1070
   388
1040
1.5
1001
ACAD_DSTYLE_DIMJOGGED_JOGANGLE_SYMBOL
1070
   384
1040
1.570796326794896
  0
ENDTAB
  0
TABLE
  2
BLOCK_RECORD
  5
1
330
0
100
AcDbSymbolTable
 70
    20
  0
BLOCK_RECORD
  5
1F
102
{ACAD_XDICTIONARY
360
1CE
102
}
330
1
100
AcDbSymbolTableRecord
100
AcDbBlockTableRecord
  2
*Model_Space
340
22
 70
     0
280
     1
281
     0
  0
BLOCK_RECORD
  5
D2
330
1
100
AcDbSymbolTableRecord
100
AcDbBlockTableRecord
  2
*Paper_Space
340
D3
 70
     0
280
     1
281
     0
  0
BLOCK_RECORD
  5
D6
330
1
100
AcDbSymbolTableRecord
100
AcDbBlockTableRecord
  2
*Paper_Space0
340
D7
 70
     0
280
     1
281
     0
  0
BLOCK_RECORD
  5
26F
330
1
100
AcDbSymbolTableRecord
100
AcDbBlockTableRecord
  2
_DotSmall
340
0
 70
     0
280
     1
281
     0
  0
BLOCK_RECORD
  5
6A4
330
1
100
AcDbSymbolTableRecord
100
AcDbBlockTableRecord
  2
*D2
340
0
 70
     0
280
     1
281
     0
  0
BLOCK_RECORD
  5
6B1
330
1
100
AcDbSymbolTableRecord
100
AcDbBlockTableRecord
  2
*D3
340
0
 70
     0
280
     1
281
     0
  0
BLOCK_RECORD
  5
6BE
330
1
100
AcDbSymbolTableRecord
100
AcDbBlockTableRecord
  2
*D4
340
0
 70
     0
280
     1
281
     0
  0
BLOCK_RECORD
  5
6CB
330
1
100
AcDbSymbolTableRecord
100
AcDbBlockTableRecord
  2
*D5
340
0
 70
     0
280
     1
281
     0
  0
BLOCK_RECORD
  5
6EC
330
1
100
AcDbSymbolTableRecord
100
AcDbBlockTableRecord
  2
*D6
340
0
 70
     0
280
     1
281
     0
  0
BLOCK_RECORD
  5
915
330
1
100
AcDbSymbolTableRecord
100
AcDbBlockTableRecord
  2
*D7
340
0
 70
     0
280
     1
281
     0
  0
BLOCK_RECORD
  5
93C
330
1
100
AcDbSymbolTableRecord
100
AcDbBlockTableRecord
  2
*D8
340
0
 70
     0
280
     1
281
     0
  0
BLOCK_RECORD
  5
949
330
1
100
AcDbSymbolTableRecord
100
AcDbBlockTableRecord
  2
*D9
340
0
 70
     0
280
     1
281
     0
  0
BLOCK_RECORD
  5
D4E
330
1
100
AcDbSymbolTableRecord
100
AcDbBlockTableRecord
  2
*D10
340
0
 70
     0
280
     1
281
     0
  0
BLOCK_RECORD
  5
D5B
330
1
100
AcDbSymbolTableRecord
100
AcDbBlockTableRecord
  2
*D11
340
0
 70
     0
280
     1
281
     0
  0
BLOCK_RECORD
  5
D68
330
1
100
AcDbSymbolTableRecord
100
AcDbBlockTableRecord
  2
*D12
340
0
 70
     0
280
     1
281
     0
  0
BLOCK_RECORD
  5
D75
330
1
100
AcDbSymbolTableRecord
100
AcDbBlockTableRecord
  2
*D13
340
0
 70
     0
280
     1
281
     0
  0
BLOCK_RECORD
  5
D8C
330
1
100
AcDbSymbolTableRecord
100
AcDbBlockTableRecord
  2
*D14
340
0
 70
     0
280
     1
281
     0
  0
ENDTAB
  0
ENDSEC
  0
SECTION
  2
BLOCKS
  0
BLOCK
  5
20
330
1F
100
AcDbEntity
  8
0
100
AcDbBlockBegin
  2
*Model_Space
 70
     0
 10
0.0
 20
0.0
 30
0.0
  3
*Model_Space
  1

  0
ENDBLK
  5
21
330
1F
100
AcDbEntity
  8
0
100
AcDbBlockEnd
  0
BLOCK
  5
D4
330
D2
100
AcDbEntity
 67
     1
  8
0
100
AcDbBlockBegin
  2
*Paper_Space
 70
     0
 10
0.0
 20
0.0
 30
0.0
  3
*Paper_Space
  1

  0
ENDBLK
  5
D5
330
D2
100
AcDbEntity
 67
     1
  8
0
100
AcDbBlockEnd
  0
BLOCK
  5
D8
330
D6
100
AcDbEntity
 67
     1
  8
0
100
AcDbBlockBegin
  2
*Paper_Space0
 70
     0
 10
0.0
 20
0.0
 30
0.0
  3
*Paper_Space0
  1

  0
VIEWPORT
  5
4CA
102
{ACAD_XDICTIONARY
360
4CB
102
}
330
D6
100
AcDbEntity
 67
     1
  8
0
100
AcDbViewport
 10
145.330337524414
 20
101.8116638660431
 30
0.0
 40
467.4797012442475
 41
222.1517806396485
 68
     0
 69
     0
 12
145.330337524414
 22
101.8116638660431
 13
0.0
 23
0.0
 14
10.0
 24
10.0
 15
10.0
 25
10.0
 16
0.0
 26
0.0
 36
1.0
 17
0.0
 27
0.0
 37
0.0
 42
50.0
 43
0.0
 44
0.0
 45
222.1517806396485
 50
0.0
 51
0.0
 72
  1000
 90
   819232
  1

281
     0
 71
     1
 74
     0
110
0.0
120
0.0
130
0.0
111
1.0
121
0.0
131
0.0
112
0.0
122
1.0
132
0.0
 79
     0
146
0.0
170
     0
 61
     5
348
F5
292
     1
282
     1
141
0.0
142
0.0
 63
   250
421
  3355443
  0
VIEWPORT
  5
4CE
102
{ACAD_XDICTIONARY
360
4CF
102
}
330
D6
100
AcDbEntity
 67
     1
  8
0
100
AcDbViewport
 10
145.3303314447403
 20
101.8116623163223
 30
0.0
 40
232.5285303115845
 41
162.8986597061157
 68
     0
 69
     0
 12
2123.804719419323
 22
1657.69125822082
 13
0.0
 23
0.0
 14
10.0
 24
10.0
 15
10.0
 25
10.0
 16
0.0
 26
0.0
 36
1.0
 17
0.0
 27
0.0
 37
0.0
 42
50.0
 43
0.0
 44
0.0
 45
1568.355772701452
 50
0.0
 51
0.0
 72
  1000
 90
   819296
  1

281
     0
 71
     1
 74
     0
110
0.0
120
0.0
130
0.0
111
1.0
121
0.0
131
0.0
112
0.0
122
1.0
132
0.0
 79
     0
146
0.0
170
     0
 61
     5
348
F5
292
     1
282
     1
141
0.0
142
0.0
 63
   250
421
  3355443
  0
ENDBLK
  5
D9
330
D6
100
AcDbEntity
 67
     1
  8
0
100
AcDbBlockEnd
  0
BLOCK
  5
270
330
26F
100
AcDbEntity
  8
0
100
AcDbBlockBegin
  2
_DotSmall
 70
     0
 10
0.0
 20
0.0
 30
0.0
  3
_DotSmall
  1

  0
LWPOLYLINE
  5
271
330
26F
100
AcDbEntity
  8
0
 62
     0
100
AcDbPolyline
 90
        2
 70
     1
 43
0.5
 10
-0.0625
 20
0.0
 42
1.0
 10
0.0625
 20
0.0
 42
1.0
  0
ENDBLK
  5
272
330
26F
100
AcDbEntity
  8
0
100
AcDbBlockEnd
  0
BLOCK
  5
6A5
330
6A4
100
AcDbEntity
  8
0
100
AcDbBlockBegin
  2
*D2
 70
     1
 10
0.0
 20
0.0
 30
0.0
  3
*D2
  1

  0
LINE
  5
C9D
330
6A4
100
AcDbEntity
  8
0
 62
     0
440
 16777216
370
    -2
100
AcDbLine
 10
3518.011585054129
 20
1114.585015731027
 30
0.0
 11
3345.442423577378
 21
1114.585015731027
 31
0.0
  0
LINE
  5
C9E
330
6A4
100
AcDbEntity
  8
0
 62
     0
440
 16777216
370
    -2
100
AcDbLine
 10
3498.011585054128
 20
1044.585015731027
 30
0.0
 11
3345.442423577378
 21
1044.585015731027
 31
0.0
  0
LINE
  5
C9F
330
6A4
100
AcDbEntity
  8
0
 62
     0
440
 16777216
370
    -2
100
AcDbLine
 10
3355.442423577378
 20
1164.585015731027
 30
0.0
 11
3355.442423577378
 21
1214.585015731027
 31
0.0
  0
LINE
  5
CA0
330
6A4
100
AcDbEntity
  8
0
 62
     0
440
 16777216
370
    -2
100
AcDbLine
 10
3355.442423577379
 20
994.5850157310276
 30
0.0
 11
3355.442423577379
 21
944.5850157310276
 31
0.0
  0
SOLID
  5
CA1
330
6A4
100
AcDbEntity
  8
0
 62
     0
440
 16777216
100
AcDbTrace
 10
3347.109090244045
 20
1164.585015731027
 30
0.0
 11
3363.775756910712
 21
1164.585015731027
 31
0.0
 12
3355.442423577378
 22
1114.585015731027
 32
0.0
 13
3355.442423577378
 23
1114.585015731027
 33
0.0
  0
SOLID
  5
CA2
330
6A4
100
AcDbEntity
  8
0
 62
     0
440
 16777216
100
AcDbTrace
 10
3347.109090244045
 20
994.5850157310276
 30
0.0
 11
3363.775756910712
 21
994.5850157310276
 31
0.0
 12
3355.442423577378
 22
1044.585015731027
 32
0.0
 13
3355.442423577378
 23
1044.585015731027
 33
0.0
  0
MTEXT
  5
CA3
330
6A4
100
AcDbEntity
  8
0
 62
     0
440
 16777216
100
AcDbMText
 10
3355.442423577378
 20
909.3830658703023
 30
0.0
 40
35.0
 41
0.0
 46
0.0
 71
     5
 72
     1
  1
\A1;70
  7
VOEST
 11
0.0000000000000001
 21
1.0
 31
0.0
 73
     1
 44
1.0
  0
POINT
  5
CA4
330
6A4
100
AcDbEntity
  8
Defpoints
 62
     0
440
 16777216
100
AcDbPoint
 10
3528.011585054129
 20
1114.585015731027
 30
0.0
  0
POINT
  5
CA5
330
6A4
100
AcDbEntity
  8
Defpoints
 62
     0
440
 16777216
100
AcDbPoint
 10
3508.011585054128
 20
1044.585015731027
 30
0.0
  0
POINT
  5
CA6
330
6A4
100
AcDbEntity
  8
Defpoints
 62
     0
440
 16777216
100
AcDbPoint
 10
3355.442423577378
 20
1044.585015731027
 30
0.0
  0
ENDBLK
  5
6A6
330
6A4
100
AcDbEntity
  8
0
100
AcDbBlockEnd
  0
BLOCK
  5
6B2
330
6B1
100
AcDbEntity
  8
0
100
AcDbBlockBegin
  2
*D3
 70
     1
 10
0.0
 20
0.0
 30
0.0
  3
*D3
  1

  0
LINE
  5
C75
330
6B1
100
AcDbEntity
  8
0
 62
     0
440
 16777216
370
    -2
100
AcDbLine
 10
3556.510740852399
 20
1814.985321594294
 30
0.0
 11
3345.442423577269
 21
1814.985321594294
 31
0.0
  0
LINE
  5
C76
330
6B1
100
AcDbEntity
  8
0
 62
     0
440
 16777216
370
    -2
100
AcDbLine
 10
3518.011585054129
 20
1114.585015731027
 30
0.0
 11
3345.442423577269
 21
1114.585015731027
 31
0.0
  0
LINE
  5
C77
330
6B1
100
AcDbEntity
  8
0
 62
     0
440
 16777216
370
    -2
100
AcDbLine
 10
3355.442423577269
 20
1764.985321594293
 30
0.0
 11
3355.442423577269
 21
1475.985321594261
 31
0.0
  0
LINE
  5
C78
330
6B1
100
AcDbEntity
  8
0
 62
     0
440
 16777216
370
    -2
100
AcDbLine
 10
3355.442423577269
 20
1164.585015731027
 30
0.0
 11
3355.442423577269
 21
1280.25323735787
 31
0.0
  0
SOLID
  5
C79
330
6B1
100
AcDbEntity
  8
0
 62
     0
440
 16777216
100
AcDbTrace
 10
3347.109090243935
 20
1764.985321594293
 30
0.0
 11
3363.775756910602
 21
1764.985321594293
 31
0.0
 12
3355.442423577269
 22
1814.985321594294
 32
0.0
 13
3355.442423577269
 23
1814.985321594294
 33
0.0
  0
SOLID
  5
C7A
330
6B1
100
AcDbEntity
  8
0
 62
     0
440
 16777216
100
AcDbTrace
 10
3347.109090243935
 20
1164.585015731027
 30
0.0
 11
3363.775756910602
 21
1164.585015731027
 31
0.0
 12
3355.442423577269
 22
1114.585015731027
 32
0.0
 13
3355.442423577269
 23
1114.585015731027
 33
0.0
  0
MTEXT
  5
C7B
330
6B1
100
AcDbEntity
  8
0
 62
     0
440
 16777216
100
AcDbMText
 10
3355.442423577268
 20
1378.119279476064
 30
0.0
 40
35.0
 41
0.0
 46
0.0
 71
     5
 72
     1
  1
\A1;{\fArial Narrow|b0|i0|c0|p34;\H1.08333x;≥\A0;\fvoestalpine Light|b0|i0|c0|p34;\H0.92308x;700{\H26.25;±40}}
  7
VOEST
 11
0.0000000000000001
 21
1.0
 31
0.0
 73
     1
 44
1.0
  0
POINT
  5
C7C
330
6B1
100
AcDbEntity
  8
Defpoints
 62
     0
440
 16777216
100
AcDbPoint
 10
3566.510740852398
 20
1814.985321594294
 30
0.0
  0
POINT
  5
C7D
330
6B1
100
AcDbEntity
  8
Defpoints
 62
     0
440
 16777216
100
AcDbPoint
 10
3528.011585054129
 20
1114.585015731027
 30
0.0
  0
POINT
  5
C7E
330
6B1
100
AcDbEntity
  8
Defpoints
 62
     0
440
 16777216
100
AcDbPoint
 10
3355.442423577269
 20
1114.585015731027
 30
0.0
  0
ENDBLK
  5
6B3
330
6B1
100
AcDbEntity
  8
0
100
AcDbBlockEnd
  0
BLOCK
  5
6BF
330
6BE
100
AcDbEntity
  8
0
100
AcDbBlockBegin
  2
*D4
 70
     1
 10
0.0
 20
0.0
 30
0.0
  3
*D4
  1

  0
LINE
  5
C89
330
6BE
100
AcDbEntity
  8
0
 62
     0
440
 16777216
370
    -2
100
AcDbLine
 10
4035.588876241564
 20
1164.904100983636
 30
0.0
 11
4035.588876241564
 21
2410.901724891053
 31
0.0
  0
LINE
  5
C8A
330
6BE
100
AcDbEntity
  8
0
 62
     0
440
 16777216
370
    -2
100
AcDbLine
 10
3493.011585054128
 20
1761.17249484122
 30
0.0
 11
3493.011585054128
 21
2410.901724891053
 31
0.0
  0
LINE
  5
C8B
330
6BE
100
AcDbEntity
  8
0
 62
     0
440
 16777216
370
    -2
100
AcDbLine
 10
3985.588876241564
 20
2400.901724891053
 30
0.0
 11
3846.652250146453
 21
2400.901724891053
 31
0.0
  0
LINE
  5
C8C
330
6BE
100
AcDbEntity
  8
0
 62
     0
440
 16777216
370
    -2
100
AcDbLine
 10
3543.011585054128
 20
2400.901724891053
 30
0.0
 11
3681.948211149239
 21
2400.901724891053
 31
0.0
  0
SOLID
  5
C8D
330
6BE
100
AcDbEntity
  8
0
 62
     0
440
 16777216
100
AcDbTrace
 10
3985.588876241564
 20
2409.235058224386
 30
0.0
 11
3985.588876241564
 21
2392.568391557719
 31
0.0
 12
4035.588876241564
 22
2400.901724891053
 32
0.0
 13
4035.588876241564
 23
2400.901724891053
 33
0.0
  0
SOLID
  5
C8E
330
6BE
100
AcDbEntity
  8
0
 62
     0
440
 16777216
100
AcDbTrace
 10
3543.011585054128
 20
2409.235058224386
 30
0.0
 11
3543.011585054128
 21
2392.568391557719
 31
0.0
 12
3493.011585054128
 22
2400.901724891053
 32
0.0
 13
3493.011585054128
 23
2400.901724891053
 33
0.0
  0
MTEXT
  5
C8F
330
6BE
100
AcDbEntity
  8
0
 62
     0
440
 16777216
100
AcDbMText
 10
3764.300230647846
 20
2400.901724891053
 30
0.0
 40
35.0
 41
0.0
 46
0.0
 71
     5
 72
     1
  1
\A1;543{\H26.25;±20}
  7
VOEST
 73
     1
 44
1.0
  0
POINT
  5
C90
330
6BE
100
AcDbEntity
  8
Defpoints
 62
     0
440
 16777216
100
AcDbPoint
 10
4035.588876241564
 20
1154.904100983636
 30
0.0
  0
POINT
  5
C91
330
6BE
100
AcDbEntity
  8
Defpoints
 62
     0
440
 16777216
100
AcDbPoint
 10
3493.011585054128
 20
1751.17249484122
 30
0.0
  0
POINT
  5
C92
330
6BE
100
AcDbEntity
  8
Defpoints
 62
     0
440
 16777216
100
AcDbPoint
 10
3493.011585054128
 20
2400.901724891053
 30
0.0
  0
ENDBLK
  5
6C0
330
6BE
100
AcDbEntity
  8
0
100
AcDbBlockEnd
  0
BLOCK
  5
6CC
330
6CB
100
AcDbEntity
  8
0
100
AcDbBlockBegin
  2
*D5
 70
     1
 10
0.0
 20
0.0
 30
0.0
  3
*D5
  1

  0
LINE
  5
C93
330
6CB
100
AcDbEntity
  8
0
 62
     0
440
 16777216
370
    -2
100
AcDbLine
 10
3970.652799543819
 20
2330.210517156179
 30
0.0
 11
4254.084447870337
 21
2330.210517156179
 31
0.0
  0
LINE
  5
C94
330
6CB
100
AcDbEntity
  8
0
 62
     0
440
 16777216
370
    -2
100
AcDbLine
 10
3920.65279954382
 20
1129.890664310609
 30
0.0
 11
4254.084447870337
 21
1129.890664310609
 31
0.0
  0
LINE
  5
C95
330
6CB
100
AcDbEntity
  8
0
 62
     0
440
 16777216
370
    -2
100
AcDbLine
 10
4244.084447870337
 20
2280.210517156179
 30
0.0
 11
4244.084447870338
 21
1824.882499925865
 31
0.0
  0
LINE
  5
C96
330
6CB
100
AcDbEntity
  8
0
 62
     0
440
 16777216
370
    -2
100
AcDbLine
 10
4244.084447870338
 20
1179.890664310609
 30
0.0
 11
4244.084447870338
 21
1599.481007586032
 31
0.0
  0
SOLID
  5
C97
330
6CB
100
AcDbEntity
  8
0
 62
     0
440
 16777216
100
AcDbTrace
 10
4235.751114537003
 20
2280.210517156179
 30
0.0
 11
4252.41778120367
 21
2280.210517156179
 31
0.0
 12
4244.084447870337
 22
2330.210517156179
 32
0.0
 13
4244.084447870337
 23
2330.210517156179
 33
0.0
  0
SOLID
  5
C98
330
6CB
100
AcDbEntity
  8
0
 62
     0
440
 16777216
100
AcDbTrace
 10
4235.751114537005
 20
1179.890664310609
 30
0.0
 11
4252.41778120367
 21
1179.890664310609
 31
0.0
 12
4244.084447870338
 22
1129.890664310609
 32
0.0
 13
4244.084447870338
 23
1129.890664310609
 33
0.0
  0
MTEXT
  5
C99
330
6CB
100
AcDbEntity
  8
0
 62
     0
440
 16777216
100
AcDbMText
 10
4244.084447870337
 20
1712.181753755947
 30
0.0
 40
35.0
 41
0.0
 46
0.0
 71
     5
 72
     1
  1
\A1;{\H1.08333x;≥}1200{\H26.25;±40}
  7
VOEST
 11
0.0000000000000001
 21
1.0
 31
0.0
 73
     1
 44
1.0
  0
POINT
  5
C9A
330
6CB
100
AcDbEntity
  8
Defpoints
 62
     0
440
 16777216
100
AcDbPoint
 10
3960.652799543819
 20
2330.210517156179
 30
0.0
  0
POINT
  5
C9B
330
6CB
100
AcDbEntity
  8
Defpoints
 62
     0
440
 16777216
100
AcDbPoint
 10
3910.652799543819
 20
1129.890664310609
 30
0.0
  0
POINT
  5
C9C
330
6CB
100
AcDbEntity
  8
Defpoints
 62
     0
440
 16777216
100
AcDbPoint
 10
4244.084447870338
 20
1129.890664310609
 30
0.0
  0
ENDBLK
  5
6CD
330
6CB
100
AcDbEntity
  8
0
100
AcDbBlockEnd
  0
BLOCK
  5
6ED
330
6EC
100
AcDbEntity
  8
0
100
AcDbBlockBegin
  2
*D6
 70
     1
 10
0.0
 20
0.0
 30
0.0
  3
*D6
  1

  0
LINE
  5
C7F
330
6EC
100
AcDbEntity
  8
0
 62
     0
440
 16777216
370
    -2
100
AcDbLine
 10
3493.012285740439
 20
1761.17249484122
 30
0.0
 11
3493.012285740439
 21
1925.433031337195
 31
0.0
  0
LINE
  5
C80
330
6EC
100
AcDbEntity
  8
0
 62
     0
440
 16777216
370
    -2
100
AcDbLine
 10
3865.652799543827
 20
1815.985321594304
 30
0.0
 11
3865.652799543827
 21
1925.433031337195
 31
0.0
  0
LINE
  5
C81
330
6EC
100
AcDbEntity
  8
0
 62
     0
440
 16777216
370
    -2
100
AcDbLine
 10
3543.012285740439
 20
1915.433031337195
 30
0.0
 11
3596.712417293943
 21
1915.433031337195
 31
0.0
  0
LINE
  5
C82
330
6EC
100
AcDbEntity
  8
0
 62
     0
440
 16777216
370
    -2
100
AcDbLine
 10
3815.652799543827
 20
1915.433031337195
 30
0.0
 11
3761.952667990323
 21
1915.433031337195
 31
0.0
  0
SOLID
  5
C83
330
6EC
100
AcDbEntity
  8
0
 62
     0
440
 16777216
100
AcDbTrace
 10
3543.012285740439
 20
1923.766364670528
 30
0.0
 11
3543.012285740439
 21
1907.099698003862
 31
0.0
 12
3493.012285740439
 22
1915.433031337195
 32
0.0
 13
3493.012285740439
 23
1915.433031337195
 33
0.0
  0
SOLID
  5
C84
330
6EC
100
AcDbEntity
  8
0
 62
     0
440
 16777216
100
AcDbTrace
 10
3815.652799543827
 20
1923.766364670528
 30
0.0
 11
3815.652799543827
 21
1907.099698003862
 31
0.0
 12
3865.652799543827
 22
1915.433031337195
 32
0.0
 13
3865.652799543827
 23
1915.433031337195
 33
0.0
  0
MTEXT
  5
C85
330
6EC
100
AcDbEntity
  8
0
 62
     0
440
 16777216
100
AcDbMText
 10
3679.332542642133
 20
1915.433031337195
 30
0.0
 40
35.0
 41
0.0
 46
0.0
 71
     5
 72
     1
  1
\A1;373{\H26.25;±20}
  7
VOEST
 73
     1
 44
1.0
  0
POINT
  5
C86
330
6EC
100
AcDbEntity
  8
Defpoints
 62
     0
440
 16777216
100
AcDbPoint
 10
3493.012285740439
 20
1751.17249484122
 30
0.0
  0
POINT
  5
C87
330
6EC
100
AcDbEntity
  8
Defpoints
 62
     0
440
 16777216
100
AcDbPoint
 10
3865.652799543827
 20
1805.985321594304
 30
0.0
  0
POINT
  5
C88
330
6EC
100
AcDbEntity
  8
Defpoints
 62
     0
440
 16777216
100
AcDbPoint
 10
3865.652799543827
 20
1915.433031337195
 30
0.0
  0
ENDBLK
  5
6EE
330
6EC
100
AcDbEntity
  8
0
100
AcDbBlockEnd
  0
BLOCK
  5
916
330
915
100
AcDbEntity
  8
0
100
AcDbBlockBegin
  2
*D7
 70
     1
 10
0.0
 20
0.0
 30
0.0
  3
*D7
  1

  0
LINE
  5
CA7
330
915
100
AcDbEntity
  8
0
 62
     0
440
 16777216
370
    -2
100
AcDbLine
 10
5287.235733083347
 20
-587.2958352844507
 30
0.0
 11
5287.235733083347
 21
-313.4676356812488
 31
0.0
  0
LINE
  5
CA8
330
915
100
AcDbEntity
  8
0
 62
     0
440
 16777216
370
    -2
100
AcDbLine
 10
1487.235733083347
 20
-587.2958352844507
 30
0.0
 11
1487.235733083347
 21
-313.4676356812488
 31
0.0
  0
LINE
  5
CA9
330
915
100
AcDbEntity
  8
0
 62
     0
440
 16777216
370
    -2
100
AcDbLine
 10
5187.235733083348
 20
-333.4676356812488
 30
0.0
 11
3559.446735868863
 21
-333.4676356812488
 31
0.0
  0
LINE
  5
CAA
330
915
100
AcDbEntity
  8
0
 62
     0
440
 16777216
370
    -2
100
AcDbLine
 10
1587.235733083347
 20
-333.4676356812488
 30
0.0
 11
3215.024730297832
 21
-333.4676356812488
 31
0.0
  0
SOLID
  5
CAB
330
915
100
AcDbEntity
  8
0
 62
     0
440
 16777216
100
AcDbTrace
 10
5187.235733083348
 20
-316.8009690145821
 30
0.0
 11
5187.235733083348
 21
-350.1343023479155
 31
0.0
 12
5287.235733083347
 22
-333.4676356812488
 32
0.0
 13
5287.235733083347
 23
-333.4676356812488
 33
0.0
  0
SOLID
  5
CAC
330
915
100
AcDbEntity
  8
0
 62
     0
440
 16777216
100
AcDbTrace
 10
1587.235733083347
 20
-316.8009690145821
 30
0.0
 11
1587.235733083347
 21
-350.1343023479155
 31
0.0
 12
1487.235733083347
 22
-333.4676356812488
 32
0.0
 13
1487.235733083347
 23
-333.4676356812488
 33
0.0
  0
MTEXT
  5
CAD
330
915
100
AcDbEntity
  8
0
 62
     0
440
 16777216
100
AcDbMText
 10
3387.235733083347
 20
-333.4676356812488
 30
0.0
 40
70.0
 41
0.0
 46
0.0
 71
     5
 72
     1
  1
\A1;3800{\H52.5;±9}
  7
VOEST
 73
     1
 44
1.0
  0
POINT
  5
CAE
330
915
100
AcDbEntity
  8
Defpoints
 62
     0
440
 16777216
100
AcDbPoint
 10
5287.235733083347
 20
-607.2958352844507
 30
0.0
  0
POINT
  5
CAF
330
915
100
AcDbEntity
  8
Defpoints
 62
     0
440
 16777216
100
AcDbPoint
 10
1487.235733083347
 20
-607.2958352844507
 30
0.0
  0
POINT
  5
CB0
330
915
100
AcDbEntity
  8
Defpoints
 62
     0
440
 16777216
100
AcDbPoint
 10
1487.235733083347
 20
-333.4676356812488
 30
0.0
  0
ENDBLK
  5
917
330
915
100
AcDbEntity
  8
0
100
AcDbBlockEnd
  0
BLOCK
  5
93D
330
93C
100
AcDbEntity
  8
0
100
AcDbBlockBegin
  2
*D8
 70
     1
 10
0.0
 20
0.0
 30
0.0
  3
*D8
  1

  0
LINE
  5
CB1
330
93C
100
AcDbEntity
  8
0
 62
     0
440
 16777216
370
    -2
100
AcDbLine
 10
5287.235733083347
 20
-587.2958352844507
 30
0.0
 11
5287.235733083347
 21
-483.9648953975919
 31
0.0
  0
LINE
  5
CB2
330
93C
100
AcDbEntity
  8
0
 62
     0
440
 16777216
370
    -2
100
AcDbLine
 10
3387.235733083347
 20
-587.2958352844507
 30
0.0
 11
3387.235733083347
 21
-483.9648953975919
 31
0.0
  0
LINE
  5
CB3
330
93C
100
AcDbEntity
  8
0
 62
     0
440
 16777216
370
    -2
100
AcDbLine
 10
5187.235733083348
 20
-503.964895397592
 30
0.0
 11
4529.603421105631
 21
-503.964895397592
 31
0.0
  0
LINE
  5
CB4
330
93C
100
AcDbEntity
  8
0
 62
     0
440
 16777216
370
    -2
100
AcDbLine
 10
3487.235733083347
 20
-503.964895397592
 30
0.0
 11
4144.868045061063
 21
-503.964895397592
 31
0.0
  0
SOLID
  5
CB5
330
93C
100
AcDbEntity
  8
0
 62
     0
440
 16777216
100
AcDbTrace
 10
5187.235733083348
 20
-487.2982287309253
 30
0.0
 11
5187.235733083348
 21
-520.6315620642587
 31
0.0
 12
5287.235733083347
 22
-503.964895397592
 32
0.0
 13
5287.235733083347
 23
-503.964895397592
 33
0.0
  0
SOLID
  5
CB6
330
93C
100
AcDbEntity
  8
0
 62
     0
440
 16777216
100
AcDbTrace
 10
3487.235733083347
 20
-487.2982287309253
 30
0.0
 11
3487.235733083347
 21
-520.6315620642587
 31
0.0
 12
3387.235733083347
 22
-503.964895397592
 32
0.0
 13
3387.235733083347
 23
-503.964895397592
 33
0.0
  0
MTEXT
  5
CB7
330
93C
100
AcDbEntity
  8
0
 62
     0
440
 16777216
100
AcDbMText
 10
4337.235733083347
 20
-503.964895397592
 30
0.0
 40
70.0
 41
0.0
 46
0.0
 71
     5
 72
     1
  1
\A1;1900{\H52.5;±15}
  7
VOEST
 73
     1
 44
1.0
  0
POINT
  5
CB8
330
93C
100
AcDbEntity
  8
Defpoints
 62
     0
440
 16777216
100
AcDbPoint
 10
5287.235733083347
 20
-607.2958352844507
 30
0.0
  0
POINT
  5
CB9
330
93C
100
AcDbEntity
  8
Defpoints
 62
     0
440
 16777216
100
AcDbPoint
 10
3387.235733083347
 20
-607.2958352844507
 30
0.0
  0
POINT
  5
CBA
330
93C
100
AcDbEntity
  8
Defpoints
 62
     0
440
 16777216
100
AcDbPoint
 10
3387.235733083347
 20
-503.964895397592
 30
0.0
  0
ENDBLK
  5
93E
330
93C
100
AcDbEntity
  8
0
100
AcDbBlockEnd
  0
BLOCK
  5
94A
330
949
100
AcDbEntity
  8
0
100
AcDbBlockBegin
  2
*D9
 70
     1
 10
0.0
 20
0.0
 30
0.0
  3
*D9
  1

  0
LINE
  5
CBB
330
949
100
AcDbEntity
  8
0
 62
     0
440
 16777216
370
    -2
100
AcDbLine
 10
3387.235733083347
 20
-587.2958352844507
 30
0.0
 11
3387.235733083347
 21
-483.9648953975919
 31
0.0
  0
LINE
  5
CBC
330
949
100
AcDbEntity
  8
0
 62
     0
440
 16777216
370
    -2
100
AcDbLine
 10
1487.235733083347
 20
-587.2958352844507
 30
0.0
 11
1487.235733083347
 21
-483.9648953975919
 31
0.0
  0
LINE
  5
CBD
330
949
100
AcDbEntity
  8
0
 62
     0
440
 16777216
370
    -2
100
AcDbLine
 10
3287.235733083348
 20
-503.964895397592
 30
0.0
 11
2629.603421105632
 21
-503.964895397592
 31
0.0
  0
LINE
  5
CBE
330
949
100
AcDbEntity
  8
0
 62
     0
440
 16777216
370
    -2
100
AcDbLine
 10
1587.235733083347
 20
-503.964895397592
 30
0.0
 11
2244.868045061063
 21
-503.964895397592
 31
0.0
  0
SOLID
  5
CBF
330
949
100
AcDbEntity
  8
0
 62
     0
440
 16777216
100
AcDbTrace
 10
3287.235733083348
 20
-487.2982287309253
 30
0.0
 11
3287.235733083348
 21
-520.6315620642587
 31
0.0
 12
3387.235733083347
 22
-503.964895397592
 32
0.0
 13
3387.235733083347
 23
-503.964895397592
 33
0.0
  0
SOLID
  5
CC0
330
949
100
AcDbEntity
  8
0
 62
     0
440
 16777216
100
AcDbTrace
 10
1587.235733083347
 20
-487.2982287309253
 30
0.0
 11
1587.235733083347
 21
-520.6315620642587
 31
0.0
 12
1487.235733083347
 22
-503.964895397592
 32
0.0
 13
1487.235733083347
 23
-503.964895397592
 33
0.0
  0
MTEXT
  5
CC1
330
949
100
AcDbEntity
  8
0
 62
     0
440
 16777216
100
AcDbMText
 10
2437.235733083347
 20
-503.964895397592
 30
0.0
 40
70.0
 41
0.0
 46
0.0
 71
     5
 72
     1
  1
\A1;1900{\H52.5;±15}
  7
VOEST
 73
     1
 44
1.0
  0
POINT
  5
CC2
330
949
100
AcDbEntity
  8
Defpoints
 62
     0
440
 16777216
100
AcDbPoint
 10
3387.235733083347
 20
-607.2958352844507
 30
0.0
  0
POINT
  5
CC3
330
949
100
AcDbEntity
  8
Defpoints
 62
     0
440
 16777216
100
AcDbPoint
 10
1487.235733083347
 20
-607.2958352844507
 30
0.0
  0
POINT
  5
CC4
330
949
100
AcDbEntity
  8
Defpoints
 62
     0
440
 16777216
100
AcDbPoint
 10
1487.235733083347
 20
-503.964895397592
 30
0.0
  0
ENDBLK
  5
94B
330
949
100
AcDbEntity
  8
0
100
AcDbBlockEnd
  0
BLOCK
  5
D4F
330
D4E
100
AcDbEntity
  8
0
100
AcDbBlockBegin
  2
*D10
 70
     1
 10
0.0
 20
0.0
 30
0.0
  3
*D10
  1

  0
LINE
  5
DAD
330
D4E
100
AcDbEntity
  8
0
 62
     0
440
 16777216
370
    -2
100
AcDbLine
 10
5744.067891270457
 20
1114.585015731027
 30
0.0
 11
5571.498729793709
 21
1114.585015731027
 31
0.0
  0
LINE
  5
DAE
330
D4E
100
AcDbEntity
  8
0
 62
     0
440
 16777216
370
    -2
100
AcDbLine
 10
5724.067891270455
 20
1044.585015731027
 30
0.0
 11
5571.498729793709
 21
1044.585015731027
 31
0.0
  0
LINE
  5
DAF
330
D4E
100
AcDbEntity
  8
0
 62
     0
440
 16777216
370
    -2
100
AcDbLine
 10
5581.498729793709
 20
1164.585015731027
 30
0.0
 11
5581.498729793709
 21
1214.585015731027
 31
0.0
  0
LINE
  5
DB0
330
D4E
100
AcDbEntity
  8
0
 62
     0
440
 16777216
370
    -2
100
AcDbLine
 10
5581.498729793709
 20
994.5850157310275
 30
0.0
 11
5581.498729793709
 21
944.5850157310275
 31
0.0
  0
SOLID
  5
DB1
330
D4E
100
AcDbEntity
  8
0
 62
     0
440
 16777216
100
AcDbTrace
 10
5573.165396460376
 20
1164.585015731027
 30
0.0
 11
5589.832063127043
 21
1164.585015731027
 31
0.0
 12
5581.498729793709
 22
1114.585015731027
 32
0.0
 13
5581.498729793709
 23
1114.585015731027
 33
0.0
  0
SOLID
  5
DB2
330
D4E
100
AcDbEntity
  8
0
 62
     0
440
 16777216
100
AcDbTrace
 10
5573.165396460376
 20
994.5850157310275
 30
0.0
 11
5589.832063127043
 21
994.5850157310275
 31
0.0
 12
5581.498729793709
 22
1044.585015731027
 32
0.0
 13
5581.498729793709
 23
1044.585015731027
 33
0.0
  0
MTEXT
  5
DB3
330
D4E
100
AcDbEntity
  8
0
 62
     0
440
 16777216
100
AcDbMText
 10
5581.498729793708
 20
909.3830658703014
 30
0.0
 40
35.0
 41
0.0
 46
0.0
 71
     5
 72
     1
  1
\A1;70
  7
VOEST
 11
0.0000000000000001
 21
1.0
 31
0.0
 73
     1
 44
1.0
  0
POINT
  5
DB4
330
D4E
100
AcDbEntity
  8
Defpoints
 62
     0
440
 16777216
100
AcDbPoint
 10
5754.067891270457
 20
1114.585015731027
 30
0.0
  0
POINT
  5
DB5
330
D4E
100
AcDbEntity
  8
Defpoints
 62
     0
440
 16777216
100
AcDbPoint
 10
5734.067891270456
 20
1044.585015731027
 30
0.0
  0
POINT
  5
DB6
330
D4E
100
AcDbEntity
  8
Defpoints
 62
     0
440
 16777216
100
AcDbPoint
 10
5581.498729793709
 20
1044.585015731027
 30
0.0
  0
ENDBLK
  5
D50
330
D4E
100
AcDbEntity
  8
0
100
AcDbBlockEnd
  0
BLOCK
  5
D5C
330
D5B
100
AcDbEntity
  8
0
100
AcDbBlockBegin
  2
*D11
 70
     1
 10
0.0
 20
0.0
 30
0.0
  3
*D11
  1

  0
LINE
  5
D82
330
D5B
100
AcDbEntity
  8
0
 62
     0
440
 16777216
370
    -2
100
AcDbLine
 10
5782.567047068726
 20
1814.985321594294
 30
0.0
 11
5571.498729793596
 21
1814.985321594294
 31
0.0
  0
LINE
  5
D83
330
D5B
100
AcDbEntity
  8
0
 62
     0
440
 16777216
370
    -2
100
AcDbLine
 10
5744.067891270457
 20
1114.585015731027
 30
0.0
 11
5571.498729793596
 21
1114.585015731027
 31
0.0
  0
LINE
  5
D84
330
D5B
100
AcDbEntity
  8
0
 62
     0
440
 16777216
370
    -2
100
AcDbLine
 10
5581.498729793596
 20
1764.985321594293
 30
0.0
 11
5581.498729793596
 21
1475.985321594261
 31
0.0
  0
LINE
  5
D85
330
D5B
100
AcDbEntity
  8
0
 62
     0
440
 16777216
370
    -2
100
AcDbLine
 10
5581.498729793596
 20
1164.585015731027
 30
0.0
 11
5581.498729793596
 21
1280.25323735787
 31
0.0
  0
SOLID
  5
D86
330
D5B
100
AcDbEntity
  8
0
 62
     0
440
 16777216
100
AcDbTrace
 10
5573.165396460263
 20
1764.985321594293
 30
0.0
 11
5589.832063126929
 21
1764.985321594293
 31
0.0
 12
5581.498729793596
 22
1814.985321594294
 32
0.0
 13
5581.498729793596
 23
1814.985321594294
 33
0.0
  0
SOLID
  5
D87
330
D5B
100
AcDbEntity
  8
0
 62
     0
440
 16777216
100
AcDbTrace
 10
5573.165396460263
 20
1164.585015731027
 30
0.0
 11
5589.832063126929
 21
1164.585015731027
 31
0.0
 12
5581.498729793596
 22
1114.585015731027
 32
0.0
 13
5581.498729793596
 23
1114.585015731027
 33
0.0
  0
MTEXT
  5
D88
330
D5B
100
AcDbEntity
  8
0
 62
     0
440
 16777216
100
AcDbMText
 10
5581.498729793595
 20
1378.119279476064
 30
0.0
 40
35.0
 41
0.0
 46
0.0
 71
     5
 72
     1
  1
\A1;{\fArial Narrow|b0|i0|c0|p34;\H1.08333x;≥\A0;\fvoestalpine Light|b0|i0|c0|p34;\H0.92308x;700{\H26.25;±40}}
  7
VOEST
 11
0.0000000000000001
 21
1.0
 31
0.0
 73
     1
 44
1.0
  0
POINT
  5
D89
330
D5B
100
AcDbEntity
  8
Defpoints
 62
     0
440
 16777216
100
AcDbPoint
 10
5792.567047068725
 20
1814.985321594294
 30
0.0
  0
POINT
  5
D8A
330
D5B
100
AcDbEntity
  8
Defpoints
 62
     0
440
 16777216
100
AcDbPoint
 10
5754.067891270457
 20
1114.585015731027
 30
0.0
  0
POINT
  5
D8B
330
D5B
100
AcDbEntity
  8
Defpoints
 62
     0
440
 16777216
100
AcDbPoint
 10
5581.498729793596
 20
1114.585015731027
 30
0.0
  0
ENDBLK
  5
D5D
330
D5B
100
AcDbEntity
  8
0
100
AcDbBlockEnd
  0
BLOCK
  5
D69
330
D68
100
AcDbEntity
  8
0
100
AcDbBlockBegin
  2
*D12
 70
     1
 10
0.0
 20
0.0
 30
0.0
  3
*D12
  1

  0
LINE
  5
EB6
330
D68
100
AcDbEntity
  8
0
 62
     0
440
 16777216
370
    -2
100
AcDbLine
 10
6261.645182457891
 20
1164.904100983636
 30
0.0
 11
6261.645182457891
 21
3086.202078780025
 31
0.0
  0
LINE
  5
EB7
330
D68
100
AcDbEntity
  8
0
 62
     0
440
 16777216
370
    -2
100
AcDbLine
 10
5719.067891270455
 20
1761.17249484122
 30
0.0
 11
5719.067891270455
 21
3086.202078780025
 31
0.0
  0
LINE
  5
EB8
330
D68
100
AcDbEntity
  8
0
 62
     0
440
 16777216
370
    -2
100
AcDbLine
 10
6211.645182457891
 20
3076.202078780025
 30
0.0
 11
6072.708556362781
 21
3076.202078780025
 31
0.0
  0
LINE
  5
EB9
330
D68
100
AcDbEntity
  8
0
 62
     0
440
 16777216
370
    -2
100
AcDbLine
 10
5769.067891270456
 20
3076.202078780025
 30
0.0
 11
5908.004517365565
 21
3076.202078780025
 31
0.0
  0
SOLID
  5
EBA
330
D68
100
AcDbEntity
  8
0
 62
     0
440
 16777216
100
AcDbTrace
 10
6211.645182457891
 20
3084.535412113358
 30
0.0
 11
6211.645182457891
 21
3067.868745446692
 31
0.0
 12
6261.645182457891
 22
3076.202078780025
 32
0.0
 13
6261.645182457891
 23
3076.202078780025
 33
0.0
  0
SOLID
  5
EBB
330
D68
100
AcDbEntity
  8
0
 62
     0
440
 16777216
100
AcDbTrace
 10
5769.067891270456
 20
3084.535412113358
 30
0.0
 11
5769.067891270456
 21
3067.868745446692
 31
0.0
 12
5719.067891270455
 22
3076.202078780025
 32
0.0
 13
5719.067891270455
 23
3076.202078780025
 33
0.0
  0
MTEXT
  5
EBC
330
D68
100
AcDbEntity
  8
0
 62
     0
440
 16777216
100
AcDbMText
 10
5990.356536864172
 20
3076.202078780025
 30
0.0
 40
35.0
 41
0.0
 46
0.0
 71
     5
 72
     1
  1
\A1;543{\H26.25;±20}
  7
VOEST
 73
     1
 44
1.0
  0
POINT
  5
EBD
330
D68
100
AcDbEntity
  8
Defpoints
 62
     0
440
 16777216
100
AcDbPoint
 10
6261.645182457891
 20
1154.904100983636
 30
0.0
  0
POINT
  5
EBE
330
D68
100
AcDbEntity
  8
Defpoints
 62
     0
440
 16777216
100
AcDbPoint
 10
5719.067891270455
 20
1751.17249484122
 30
0.0
  0
POINT
  5
EBF
330
D68
100
AcDbEntity
  8
Defpoints
 62
     0
440
 16777216
100
AcDbPoint
 10
5719.067891270455
 20
3076.202078780025
 30
0.0
  0
ENDBLK
  5
D6A
330
D68
100
AcDbEntity
  8
0
100
AcDbBlockEnd
  0
BLOCK
  5
D76
330
D75
100
AcDbEntity
  8
0
100
AcDbBlockBegin
  2
*D13
 70
     1
 10
0.0
 20
0.0
 30
0.0
  3
*D13
  1

  0
LINE
  5
F4A
330
D75
100
AcDbEntity
  8
0
 62
     0
440
 16777216
370
    -2
100
AcDbLine
 10
6193.709105758924
 20
2929.390664310601
 30
0.0
 11
6480.140754086665
 21
2929.390664310601
 31
0.0
  0
LINE
  5
F4B
330
D75
100
AcDbEntity
  8
0
 62
     0
440
 16777216
370
    -2
100
AcDbLine
 10
6146.709105760147
 20
1129.890664310609
 30
0.0
 11
6480.140754086666
 21
1129.890664310609
 31
0.0
  0
LINE
  5
F4C
330
D75
100
AcDbEntity
  8
0
 62
     0
440
 16777216
370
    -2
100
AcDbLine
 10
6470.140754086665
 20
2879.390664310601
 30
0.0
 11
6470.140754086665
 21
1824.882499925866
 31
0.0
  0
LINE
  5
F4D
330
D75
100
AcDbEntity
  8
0
 62
     0
440
 16777216
370
    -2
100
AcDbLine
 10
6470.140754086665
 20
1179.890664310609
 30
0.0
 11
6470.140754086665
 21
1599.481007586033
 31
0.0
  0
SOLID
  5
F4E
330
D75
100
AcDbEntity
  8
0
 62
     0
440
 16777216
100
AcDbTrace
 10
6461.807420753332
 20
2879.390664310601
 30
0.0
 11
6478.474087419998
 21
2879.390664310601
 31
0.0
 12
6470.140754086665
 22
2929.390664310601
 32
0.0
 13
6470.140754086665
 23
2929.390664310601
 33
0.0
  0
SOLID
  5
F4F
330
D75
100
AcDbEntity
  8
0
 62
     0
440
 16777216
100
AcDbTrace
 10
6461.807420753332
 20
1179.890664310609
 30
0.0
 11
6478.474087419998
 21
1179.890664310609
 31
0.0
 12
6470.140754086665
 22
1129.890664310609
 32
0.0
 13
6470.140754086665
 23
1129.890664310609
 33
0.0
  0
MTEXT
  5
F50
330
D75
100
AcDbEntity
  8
0
 62
     0
440
 16777216
100
AcDbMText
 10
6470.140754086664
 20
1712.181753755947
 30
0.0
 40
35.0
 41
0.0
 46
0.0
 71
     5
 72
     1
  1
\A1;{\H1.08333x;≥}1800{\H26.25;±40}
  7
VOEST
 11
0.0000000000000001
 21
1.0
 31
0.0
 73
     1
 44
1.0
  0
POINT
  5
F51
330
D75
100
AcDbEntity
  8
Defpoints
 62
     0
440
 16777216
100
AcDbPoint
 10
6183.709105758924
 20
2929.390664310601
 30
0.0
  0
POINT
  5
F52
330
D75
100
AcDbEntity
  8
Defpoints
 62
     0
440
 16777216
100
AcDbPoint
 10
6136.709105760147
 20
1129.890664310609
 30
0.0
  0
POINT
  5
F53
330
D75
100
AcDbEntity
  8
Defpoints
 62
     0
440
 16777216
100
AcDbPoint
 10
6470.140754086665
 20
1129.890664310609
 30
0.0
  0
ENDBLK
  5
D77
330
D75
100
AcDbEntity
  8
0
100
AcDbBlockEnd
  0
BLOCK
  5
D8D
330
D8C
100
AcDbEntity
  8
0
100
AcDbBlockBegin
  2
*D14
 70
     1
 10
0.0
 20
0.0
 30
0.0
  3
*D14
  1

  0
LINE
  5
D8F
330
D8C
100
AcDbEntity
  8
0
 62
     0
440
 16777216
370
    -2
100
AcDbLine
 10
5719.068591956766
 20
1761.17249484122
 30
0.0
 11
5719.068591956766
 21
1925.433031337195
 31
0.0
  0
LINE
  5
D90
330
D8C
100
AcDbEntity
  8
0
 62
     0
440
 16777216
370
    -2
100
AcDbLine
 10
6091.709105760154
 20
1815.985321594304
 30
0.0
 11
6091.709105760154
 21
1925.433031337195
 31
0.0
  0
LINE
  5
D91
330
D8C
100
AcDbEntity
  8
0
 62
     0
440
 16777216
370
    -2
100
AcDbLine
 10
5769.068591956767
 20
1915.433031337195
 30
0.0
 11
5822.768723510271
 21
1915.433031337195
 31
0.0
  0
LINE
  5
D92
330
D8C
100
AcDbEntity
  8
0
 62
     0
440
 16777216
370
    -2
100
AcDbLine
 10
6041.709105760154
 20
1915.433031337195
 30
0.0
 11
5988.00897420665
 21
1915.433031337195
 31
0.0
  0
SOLID
  5
D93
330
D8C
100
AcDbEntity
  8
0
 62
     0
440
 16777216
100
AcDbTrace
 10
5769.068591956767
 20
1923.766364670528
 30
0.0
 11
5769.068591956767
 21
1907.099698003862
 31
0.0
 12
5719.068591956766
 22
1915.433031337195
 32
0.0
 13
5719.068591956766
 23
1915.433031337195
 33
0.0
  0
SOLID
  5
D94
330
D8C
100
AcDbEntity
  8
0
 62
     0
440
 16777216
100
AcDbTrace
 10
6041.709105760154
 20
1923.766364670528
 30
0.0
 11
6041.709105760154
 21
1907.099698003862
 31
0.0
 12
6091.709105760154
 22
1915.433031337195
 32
0.0
 13
6091.709105760154
 23
1915.433031337195
 33
0.0
  0
MTEXT
  5
D95
330
D8C
100
AcDbEntity
  8
0
 62
     0
440
 16777216
100
AcDbMText
 10
5905.38884885846
 20
1915.433031337195
 30
0.0
 40
35.0
 41
0.0
 46
0.0
 71
     5
 72
     1
  1
\A1;373{\H26.25;±20}
  7
VOEST
 73
     1
 44
1.0
  0
POINT
  5
D96
330
D8C
100
AcDbEntity
  8
Defpoints
 62
     0
440
 16777216
100
AcDbPoint
 10
5719.068591956766
 20
1751.17249484122
 30
0.0
  0
POINT
  5
D97
330
D8C
100
AcDbEntity
  8
Defpoints
 62
     0
440
 16777216
100
AcDbPoint
 10
6091.709105760154
 20
1805.985321594304
 30
0.0
  0
POINT
  5
D98
330
D8C
100
AcDbEntity
  8
Defpoints
 62
     0
440
 16777216
100
AcDbPoint
 10
6091.709105760154
 20
1915.433031337195
 30
0.0
  0
ENDBLK
  5
D8E
330
D8C
100
AcDbEntity
  8
0
100
AcDbBlockEnd
  0
ENDSEC
  0
SECTION
  2
ENTITIES
  0
LINE
  5
5EC
330
1F
100
AcDbEntity
  8
0
100
AcDbLine
 10
3865.652799543815
 20
2275.210517156179
 30
0.0
 11
3865.652799543815
 21
1148.106657915724
 31
0.0
  0
LINE
  5
5EE
330
1F
100
AcDbEntity
  8
0
100
AcDbLine
 10
3955.652799543815
 20
2275.210517156179
 30
0.0
 11
3955.652799543815
 21
1151.706657915718
 31
0.0
  0
LINE
  5
5F5
330
1F
100
AcDbEntity
  8
0
100
AcDbLine
 10
3561.011585054171
 20
1805.985321594322
 30
0.0
 11
3865.652799543815
 21
1805.985321594307
 31
0.0
  0
LINE
  5
5F6
330
1F
100
AcDbEntity
  8
0
100
AcDbLine
 10
3561.011585054171
 20
1805.985321594293
 30
0.0
 11
3561.011585054171
 21
1555.985321594293
 31
0.0
  0
LINE
  5
5F7
330
1F
100
AcDbEntity
  8
0
100
AcDbLine
 10
3561.011585054171
 20
1555.985321594293
 30
0.0
 11
3865.652799543815
 21
1555.985321594293
 31
0.0
  0
LWPOLYLINE
  5
5FE
330
1F
100
AcDbEntity
  8
0
100
AcDbPolyline
 90
        5
 70
     1
 43
0.0
 10
3718.332192298993
 20
1680.985321594293
 10
3708.332192298993
 20
1690.985321594293
 10
3698.332192298993
 20
1680.985321594293
 10
3698.332192298993
 20
1670.985321594293
 10
3718.332192298993
 20
1670.985321594293
  0
LINE
  5
5FF
102
{ACAD_REACTORS
330
616
102
}
330
1F
100
AcDbEntity
  8
0
100
AcDbLine
 10
3865.652799543815
 20
1805.985321594307
 30
0.0
 11
3865.652799543815
 21
1555.985321594308
 31
0.0
  0
DIMENSION
  5
60D
330
1F
100
AcDbEntity
  8
0
100
AcDbDimension
280
     0
  2
*D3
 10
3355.442423577269
 20
1114.585015731027
 30
0.0
 11
3355.442423577268
 21
1378.119279476064
 31
0.0
 70
   160
  1
{\fArial Narrow|b0|i0|c0|p34;\H1.08333x;≥\A0;\fvoestalpine Light|b0|i0|c0|p34;\H0.92308x;<>}
 71
     5
 42
700.4003058632658
 73
     0
 74
     0
 75
     0
  3
STIL2$0
100
AcDbAlignedDimension
 13
3566.510740852397
 23
1814.985321594293
 33
0.0
 14
3528.011585054127
 24
1114.585015731027
 34
0.0
 50
90.0
100
AcDbRotatedDimension
1001
ACAD
1000
DSTYLE
1002
{
1070
    40
1040
10.0
1070
    47
1040
40.0
1070
    48
1040
40.0
1070
    71
1070
     1
1070
   146
1040
0.75
1002
}
  0
DIMENSION
  5
614
102
{ACAD_XDICTIONARY
360
615
102
}
102
{ACAD_REACTORS
330
616
102
}
330
1F
100
AcDbEntity
  8
0
100
AcDbDimension
280
     0
  2
*D6
 10
3865.652799543827
 20
1915.433031337195
 30
0.0
 11
3679.332542642133
 21
1915.433031337195
 31
0.0
 70
    32
 71
     5
 42
372.6405138033879
 73
     0
 74
     0
 75
     0
  3
STIL2$0
100
AcDbAlignedDimension
 13
3493.012285740439
 23
1751.17249484122
 33
0.0
 14
3865.652799543827
 24
1805.985321594304
 34
0.0
100
AcDbRotatedDimension
1001
ACAD
1000
DSTYLE
1002
{
1070
    40
1040
10.0
1070
    47
1040
20.0
1070
    48
1040
20.0
1070
    71
1070
     1
1070
   146
1040
0.75
1002
}
  0
DIMENSION
  5
617
330
1F
100
AcDbEntity
  8
0
100
AcDbDimension
280
     0
  2
*D4
 10
3493.011585054128
 20
2400.901724891053
 30
0.0
 11
3764.300230647846
 21
2400.901724891053
 31
0.0
 70
    32
 71
     5
 42
542.577291187436
 73
     0
 74
     0
 75
     0
  3
STIL2$0
100
AcDbAlignedDimension
 13
4035.588876241564
 23
1154.904100983636
 33
0.0
 14
3493.011585054128
 24
1751.17249484122
 34
0.0
100
AcDbRotatedDimension
1001
ACAD
1000
DSTYLE
1002
{
1070
    40
1040
10.0
1070
    47
1040
20.0
1070
    48
1040
20.0
1070
    71
1070
     1
1070
   146
1040
0.75
1002
}
  0
DIMENSION
  5
618
330
1F
100
AcDbEntity
  8
0
100
AcDbDimension
280
     0
  2
*D5
 10
4244.084447870338
 20
1129.890664310609
 30
0.0
 11
4244.084447870337
 21
1712.181753755947
 31
0.0
 70
   160
  1
{\H1.08333x;≥}<>
 71
     5
 42
1200.319852845569
 73
     0
 74
     0
 75
     0
  3
STIL2$0
100
AcDbAlignedDimension
 13
3960.652799543817
 23
2330.210517156178
 33
0.0
 14
3910.652799543817
 24
1129.890664310609
 34
0.0
 50
90.0
100
AcDbRotatedDimension
1001
ACAD
1000
DSTYLE
1002
{
1070
    40
1040
10.0
1070
    47
1040
40.0
1070
    48
1040
40.0
1070
    71
1070
     1
1070
   146
1040
0.75
1002
}
  0
LWPOLYLINE
  5
619
330
1F
100
AcDbEntity
  8
0
100
AcDbPolyline
 90
        4
 70
     1
 43
0.0
 10
3705.852559863365
 20
1141.71464832851
 10
3706.651920630342
 20
1121.730629154073
 10
4036.388237008541
 20
1134.920081809199
 10
4035.588876241564
 20
1154.904100983629
  0
DIMENSION
  5
62B
330
1F
100
AcDbEntity
  8
0
100
AcDbDimension
280
     0
  2
*D2
 10
3355.442423577378
 20
1044.585015731027
 30
0.0
 11
3355.442423577378
 21
909.3830658703023
 31
0.0
 70
    32
 71
     5
 42
70.0
 73
     0
 74
     0
 75
     0
  3
STIL2$0
100
AcDbAlignedDimension
 13
3528.011585054127
 23
1114.585015731027
 33
0.0
 14
3508.011585054126
 24
1044.585015731027
 34
0.0
 50
90.0
100
AcDbRotatedDimension
1001
ACAD
1000
DSTYLE
1002
{
1070
    40
1040
10.0
1002
}
  0
HATCH
  5
630
330
1F
100
AcDbEntity
  8
0
100
AcDbHatch
 10
0.0
 20
0.0
 30
0.0
210
0.0
220
0.0
230
1.0
  2
EARTH
 70
     0
 71
     0
 91
        2
 92
       16
 93
        2
 72
     1
 10
3302.492500553017
 20
983.7443441788854
 11
3340.521149939109
 21
983.7443441788854
 72
     1
 10
3340.521149939123
 20
983.7443441788854
 11
3302.492500553031
 21
983.7443441788854
 97
        0
 92
        1
 93
        4
 72
     1
 10
3224.645685654374
 20
983.4420153082247
 11
3228.385173423355
 21
1044.585015731041
 72
     1
 10
3228.385173423355
 20
1044.585015731041
 11
3508.011585054126
 21
1044.585015731027
 72
     1
 10
3508.011585054126
 20
1044.585015731027
 11
3508.011585054126
 21
983.4420153082247
 72
     1
 10
3508.011585054126
 20
983.4420153082247
 11
3224.645685654374
 21
983.4420153082247
 97
        0
 75
     0
 76
     1
 52
45.0
 41
7.5
 77
     0
 78
     6
 53
135.0
 43
17873.1152553537
 44
-910.4403513848447
 45
-0.0000000000000071
 46
67.35192090801866
 79
     2
 49
47.625
 49
-47.625
 53
135.0
 43
17885.74374052395
 44
-897.8118662145933
 45
-0.0000000000000071
 46
67.35192090801866
 79
     2
 49
47.625
 49
-47.625
 53
135.0
 43
17898.3722256942
 44
-885.1833810443421
 45
-0.0000000000000071
 46
67.35192090801866
 79
     2
 49
47.625
 49
-47.625
 53
45.0
 43
17898.3722256942
 44
-876.7643909308317
 45
67.35192090801866
 46
0.0000000000000071
 79
     2
 49
47.625
 49
-47.625
 53
45.0
 43
17885.74374052395
 44
-864.1359057605805
 45
67.35192090801866
 46
0.0000000000000071
 79
     2
 49
47.625
 49
-47.625
 53
45.0
 43
17873.1152553537
 44
-851.5074205903292
 45
67.35192090801866
 46
0.0000000000000071
 79
     2
 49
47.625
 49
-47.625
 98
        3
 10
2778.839628590294
 20
1012.458866466237
 10
3078.73440694101
 20
1010.040795536399
 10
3231.100327744636
 20
1017.294955901605
  0
LINE
  5
631
330
1F
100
AcDbEntity
  8
0
100
AcDbLine
 10
3228.385173423355
 20
1044.585015731027
 30
0.0
 11
3508.011585054126
 21
1044.585015731027
 31
0.0
  0
HATCH
  5
632
330
1F
100
AcDbEntity
  8
0
100
AcDbHatch
 10
0.0
 20
0.0
 30
0.0
210
0.0
220
0.0
230
1.0
  2
ANSI33
 70
     0
 71
     0
 91
        1
 92
        7
 72
     0
 73
     1
 93
       25
 10
3978.684381642343
 20
1132.611927594545
 10
3764.355775996526
 20
1124.03878336872
 10
3766.753802313695
 20
1064.088125439892
 10
3766.404081978144
 20
1064.07413662647
 10
3769.401684854305
 20
989.1340647223405
 10
3768.264282203244
 20
984.0845702150106
 10
3756.150593699764
 20
983.6000226748728
 10
3754.613510665171
 20
988.5425377547653
 10
3751.615907789056
 20
1063.482609658902
 10
3751.241873626765
 20
1064.076466513543
 10
3748.868161136336
 20
1123.419278774308
 10
3528.011585054127
 20
1114.585015731027
 10
3508.011585054126
 20
1044.585015731027
 10
3508.011585054126
 20
964.5850157310267
 10
4100.652799543917
 20
964.5850157310267
 10
4101.220530917934
 20
1137.513373565569
 10
3994.171996502533
 20
1133.231432188957
 10
3996.570022819702
 20
1073.280774260122
 10
3996.220302484152
 20
1073.2667854467
 10
3999.21790536031
 20
998.3267135425704
 10
3998.08050270925
 20
993.2772190352407
 10
3985.966814205771
 20
992.7926714951027
 10
3984.429731171178
 20
997.7351865749952
 10
3981.432128295062
 20
1072.675258479132
 10
3981.058094132772
 20
1073.269115333773
 97
        0
 75
     0
 76
     1
 52
0.0
 41
10.0
 77
     0
 78
     2
 53
45.0
 43
-108838.9048171408
 44
44513.97183573665
 45
-44.90128060534575
 46
44.90128060534575
 79
     0
 53
45.0
 43
-108794.0035171408
 44
44513.97183573665
 45
-44.90128060534575
 46
44.90128060534575
 79
     2
 49
31.75
 49
-15.875
 47
1.307937854694239
 98
        1
 10
3827.82366709799
 20
1082.62816146297
1001
GradientColor1ACI
1070
     5
1001
GradientColor2ACI
1070
     2
1001
ACAD
1010
0.0
1020
0.0
1030
0.0
  0
LINE
  5
633
330
1F
100
AcDbEntity
  8
0
100
AcDbLine
 10
3508.011585054126
 20
1044.585015731027
 30
0.0
 11
3528.011585054127
 21
1114.585015731027
 31
0.0
  0
LINE
  5
634
330
1F
100
AcDbEntity
  8
0
100
AcDbLine
 10
3528.011585054127
 20
1114.585015731027
 30
0.0
 11
4100.652799543917
 21
1137.490664310607
 31
0.0
  0
LINE
  5
635
330
1F
100
AcDbEntity
  8
0
100
AcDbLine
 10
3508.011585054126
 20
1044.585015731027
 30
0.0
 11
3508.011585054126
 21
964.5850157310267
 31
0.0
  0
LINE
  5
636
330
1F
100
AcDbEntity
  8
0
100
AcDbLine
 10
4101.220530917934
 20
1137.513373565569
 30
0.0
 11
4100.652799543917
 21
964.5850157310267
 31
0.0
  0
ELLIPSE
  5
63A
330
1F
100
AcDbEntity
  8
0
100
AcDbEllipse
 10
3976.32195042431
 20
1157.557932782445
 30
0.0
 11
2.892516514872066
 21
0.1157006605960879
 31
0.0
210
0.0
220
0.0
230
0.9999999999999998
 40
0.3525230087513151
 41
3.141592653588848
 42
4.712388980384107
  0
ELLIPSE
  5
63B
330
1F
100
AcDbEntity
  8
0
100
AcDbEllipse
 10
3975.864625813185
 20
1168.991048060918
 30
0.0
 11
2.892516514872145
 21
0.115700660594122
 31
0.0
210
0.0
220
0.0
230
-1.0
 40
0.3525230087513151
 41
3.141592653588808
 42
4.712388980385032
  0
ELLIPSE
  5
63C
330
1F
100
AcDbEntity
  8
0
100
AcDbEllipse
 10
3994.534387589876
 20
1158.286430269072
 30
0.0
 11
2.892516514872145
 21
0.115700660594122
 31
0.0
210
0.0
220
0.0
230
-1.0
 40
0.3525230087513151
 41
-0.0000000000009839
 42
1.570796326795239
  0
ELLIPSE
  5
63D
330
1F
100
AcDbEntity
  8
0
100
AcDbEllipse
 10
3994.077062978723
 20
1169.719545547537
 30
0.0
 11
2.892516514872066
 21
0.1157006605960879
 31
0.0
210
0.0
220
0.0
230
0.9999999999999998
 40
0.3525230087513151
 41
-0.000000000000945
 42
1.570796326794314
  0
ELLIPSE
  5
63E
330
1F
100
AcDbEntity
  8
0
100
AcDbEllipse
 10
3982.535652492217
 20
1157.806480865169
 30
0.0
 11
2.892516514872145
 21
0.115700660594122
 31
0.0
210
0.0
220
0.0
230
-1.0
 40
0.3525230087513151
 41
-0.0000000000009839
 42
1.570796326795239
  0
ELLIPSE
  5
63F
330
1F
100
AcDbEntity
  8
0
100
AcDbEllipse
 10
3988.320685521969
 20
1158.037882186349
 30
0.0
 11
2.892516514872066
 21
0.1157006605960879
 31
0.0
210
0.0
220
0.0
230
0.9999999999999998
 40
0.3525230087513151
 41
3.141592653588848
 42
4.712388980384107
  0
ELLIPSE
  5
640
330
1F
100
AcDbEntity
  8
0
100
AcDbEllipse
 10
3982.535652492217
 20
1157.806480865169
 30
0.0
 11
2.892516514872145
 21
0.115700660594122
 31
0.0
210
0.0
220
0.0
230
-1.0
 40
0.3525230087513151
 41
-0.0000000000009839
 42
1.570796326795239
  0
ELLIPSE
  5
641
330
1F
100
AcDbEntity
  8
0
100
AcDbEllipse
 10
3988.320685521969
 20
1158.037882186349
 30
0.0
 11
2.892516514872066
 21
0.1157006605960879
 31
0.0
210
0.0
220
0.0
230
0.9999999999999998
 40
0.3525230087513151
 41
3.141592653588848
 42
4.712388980384107
  0
ELLIPSE
  5
642
330
1F
100
AcDbEntity
  8
0
100
AcDbEllipse
 10
3987.863360910829
 20
1169.470997464821
 30
0.0
 11
2.892516514872145
 21
0.115700660594122
 31
0.0
210
0.0
220
0.0
230
-1.0
 40
0.3525230087513151
 41
3.141592653588808
 42
4.712388980385032
  0
ELLIPSE
  5
643
330
1F
100
AcDbEntity
  8
0
100
AcDbEllipse
 10
3982.078327881092
 20
1169.239596143634
 30
0.0
 11
2.892516514872066
 21
0.1157006605960879
 31
0.0
210
0.0
220
0.0
230
0.9999999999999998
 40
0.3525230087513151
 41
-0.000000000000945
 42
1.570796326794314
  0
LINE
  5
644
330
1F
100
AcDbEntity
  8
0
100
AcDbLine
 10
3984.970844395947
 20
1169.355296804228
 30
0.0
 11
3985.4281690071
 21
1157.922181525762
 31
0.0
  0
LINE
  5
645
330
1F
100
AcDbEntity
  8
0
100
AcDbLine
 10
3972.931322153316
 20
1169.895026025013
 30
-0.0000000000000013
 11
3996.928792348604
 21
1170.854924832813
 31
0.0
  0
LINE
  5
646
330
1F
100
AcDbEntity
  8
0
100
AcDbLine
 10
3996.928792348604
 20
1170.854924832813
 30
0.0
 11
3997.467691249716
 21
1157.382452304977
 31
0.0
  0
LINE
  5
647
330
1F
100
AcDbEntity
  8
0
100
AcDbLine
 10
3972.931322153316
 20
1169.895026025013
 30
-0.0000000000000013
 11
3973.470221054429
 21
1156.422553497163
 31
0.0
  0
LINE
  5
648
330
1F
100
AcDbEntity
  8
0
 48
10.0
100
AcDbLine
 10
3965.644809131037
 20
1152.106338299207
 30
0.0
 11
4005.612847479926
 21
1153.705059833161
 31
0.0
  0
CIRCLE
  5
649
330
1F
100
AcDbEntity
  8
0
100
AcDbCircle
 10
-4028.523525545259
 20
0.0
 30
996.6867139683619
 40
11.0
210
-0.0399680383489357
220
0.9992009587217868
230
0.0
  0
CIRCLE
  5
64A
330
1F
100
AcDbEntity
  8
0
100
AcDbCircle
 10
4028.523525545259
 20
0.0
 30
-996.6867139683619
 40
11.0
210
0.0399680383489357
220
-0.9992009587217868
230
0.0
  0
CIRCLE
  5
64B
330
1F
100
AcDbEntity
  8
0
100
AcDbCircle
 10
4028.523525545259
 20
0.0
 30
-996.6867139683619
 40
8.299999999999981
210
0.0399680383489357
220
-0.9992009587217868
230
0.0
  0
CIRCLE
  5
64C
330
1F
100
AcDbEntity
  8
0
100
AcDbCircle
 10
-4028.523525545259
 20
0.0
 30
996.6867139683619
 40
8.299999999999981
210
-0.0399680383489357
220
0.9992009587217868
230
0.0
  0
LINE
  5
64D
330
1F
100
AcDbEntity
  8
0
100
AcDbLine
 10
3996.460166698038
 20
1157.342151322911
 30
0.0
 11
3974.477745606135
 21
1156.462854479228
 31
0.0
  0
CIRCLE
  5
64E
330
1F
100
AcDbEntity
  8
0
100
AcDbCircle
 10
4028.523525545259
 20
0.0
 30
-996.6867139683619
 40
11.0
210
0.0399680383489357
220
-0.9992009587217868
230
0.0
  0
CIRCLE
  5
64F
330
1F
100
AcDbEntity
  8
0
100
AcDbCircle
 10
4028.523525545259
 20
0.0
 30
-996.6867139683619
 40
11.0
210
0.0399680383489357
220
-0.9992009587217868
230
0.0
  0
CIRCLE
  5
650
330
1F
100
AcDbEntity
  8
0
100
AcDbCircle
 10
4028.523525545259
 20
0.0
 30
-996.6867139683619
 40
8.299999999999981
210
0.0399680383489357
220
-0.9992009587217868
230
0.0
  0
CIRCLE
  5
651
330
1F
100
AcDbEntity
  8
0
100
AcDbCircle
 10
4028.523525545259
 20
0.0
 30
-996.6867139683619
 40
8.299999999999981
210
0.0399680383489357
220
-0.9992009587217868
230
0.0
  0
LINE
  5
653
330
1F
100
AcDbEntity
  8
0
100
AcDbLine
 10
3992.653211045304
 20
1171.201068620386
 30
0.0
 11
3977.165596185115
 21
1170.581564025975
 31
0.0
  0
LINE
  5
654
330
1F
100
AcDbEntity
  8
0
100
AcDbLine
 10
3978.283112665179
 20
1182.635860848241
 30
0.0
 11
3990.576461644836
 21
1183.127594807425
 31
0.0
  0
LINE
  5
655
330
1F
100
AcDbEntity
  8
0
100
AcDbLine
 10
3977.165596185115
 20
1170.581564025975
 30
0.0
 11
3992.653211045304
 21
1171.201068620386
 31
0.0
  0
LINE
  5
65C
330
1F
100
AcDbEntity
  8
0
100
AcDbLine
 10
3992.653211045304
 20
1171.201068620386
 30
0.0
 11
3992.674474094492
 21
1170.669492390545
 31
0.0
  0
LINE
  5
65D
330
1F
100
AcDbEntity
  8
0
100
AcDbLine
 10
3977.165596185115
 20
1170.581564025975
 30
0.0
 11
3977.186249820872
 21
1170.065223131707
 31
-0.0000000000000011
  0
LINE
  5
65E
330
1F
100
AcDbEntity
  8
0
100
AcDbLine
 10
3985.193023265376
 20
1170.385494069494
 30
0.0
 11
3987.049852348319
 21
1170.976934272498
 31
0.0
  0
LINE
  5
65F
330
1F
100
AcDbEntity
  8
0
100
AcDbLine
 10
3977.656784185885
 20
1170.084044506308
 30
0.0
 11
3979.513613268828
 21
1170.675484709318
 31
0.0
  0
LINE
  5
660
330
1F
100
AcDbEntity
  8
0
100
AcDbLine
 10
3988.961142805107
 20
1170.536218851077
 30
0.0
 11
3990.817971888049
 21
1171.127659054095
 31
0.0
  0
LINE
  5
661
330
1F
100
AcDbEntity
  8
0
100
AcDbLine
 10
3981.42490372563
 20
1170.234769287905
 30
0.0
 11
3983.281732808558
 21
1170.826209490915
 31
0.0
  0
LINE
  5
662
330
1F
100
AcDbEntity
  8
0
100
AcDbLine
 10
3977.463876116257
 20
1181.889559751973
 30
0.0
 11
3977.87601858451
 21
1171.585998046008
 31
0.0
  0
LINE
  5
663
330
1F
100
AcDbEntity
  8
0
100
AcDbLine
 10
3991.452689538368
 20
1182.449112288865
 30
0.0
 11
3991.864832006606
 21
1172.1455505829
 31
0.0
  0
LINE
  5
664
330
1F
100
AcDbEntity
  8
0
100
AcDbLine
 10
3977.165596185115
 20
1170.581564025975
 30
0.0
 11
3977.87601858451
 21
1171.585998046008
 31
0.0
  0
LINE
  5
665
330
1F
100
AcDbEntity
  8
0
100
AcDbLine
 10
3992.653211045304
 20
1171.201068620386
 30
0.0
 11
3991.864832006606
 21
1172.1455505829
 31
0.0
  0
LINE
  5
666
330
1F
100
AcDbEntity
  8
0
100
AcDbLine
 10
3977.87601858451
 20
1171.585998046008
 30
0.0
 11
3991.864832006606
 21
1172.1455505829
 31
0.0
  0
LINE
  5
667
330
1F
100
AcDbEntity
  8
0
100
AcDbLine
 10
3977.463876116257
 20
1181.889559751973
 30
0.0
 11
3978.283112665179
 21
1182.635860848241
 31
0.0
  0
LINE
  5
668
330
1F
100
AcDbEntity
  8
0
100
AcDbLine
 10
3991.452689538368
 20
1182.449112288865
 30
0.0
 11
3990.576461644836
 21
1183.127594807425
 31
0.0
  0
LINE
  5
66A
330
1F
100
AcDbEntity
  8
0
100
AcDbLine
 10
3980.680009028809
 20
1182.731736702786
 30
0.0
 11
3981.120647169337
 21
1171.715783189414
 31
0.0
  0
LINE
  5
66B
330
1F
100
AcDbEntity
  8
0
100
AcDbLine
 10
3988.179565281221
 20
1183.031718952887
 30
0.0
 11
3988.62020342175
 21
1172.015765439501
 31
0.0
  0
LINE
  5
66C
330
1F
100
AcDbEntity
  8
0
 48
10.0
100
AcDbLine
 10
4005.452975326528
 20
1157.701863668044
 30
0.0
 11
3965.484936977656
 21
1156.103142134088
 31
0.0
  0
LINE
  5
66D
330
1F
100
AcDbEntity
  8
0
 48
10.0
100
AcDbLine
 10
3965.484936977656
 20
1156.103142134088
 30
0.0
 11
3965.644809131052
 21
1152.106338299207
 31
0.0
  0
LINE
  5
66E
330
1F
100
AcDbEntity
  8
0
 48
10.0
100
AcDbLine
 10
4005.612847479926
 20
1153.705059833161
 30
0.0
 11
4005.452975326528
 21
1157.701863668044
 31
0.0
  0
ELLIPSE
  5
66F
330
1F
100
AcDbEntity
  8
0
100
AcDbEllipse
 10
3746.505729918303
 20
1148.365283962215
 30
0.0
 11
2.892516514872066
 21
0.1157006605960879
 31
0.0
210
0.0
220
0.0
230
0.9999999999999998
 40
0.3525230087513151
 41
3.141592653588848
 42
4.712388980384107
  0
ELLIPSE
  5
670
330
1F
100
AcDbEntity
  8
0
100
AcDbEllipse
 10
3746.048405307178
 20
1159.798399240688
 30
0.0
 11
2.892516514872145
 21
0.115700660594122
 31
0.0
210
0.0
220
0.0
230
-1.0
 40
0.3525230087513151
 41
3.141592653588808
 42
4.712388980385032
  0
ELLIPSE
  5
671
330
1F
100
AcDbEntity
  8
0
100
AcDbEllipse
 10
3764.718167083869
 20
1149.093781448842
 30
0.0
 11
2.892516514872145
 21
0.115700660594122
 31
0.0
210
0.0
220
0.0
230
-1.0
 40
0.3525230087513151
 41
-0.0000000000009839
 42
1.570796326795239
  0
ELLIPSE
  5
672
330
1F
100
AcDbEntity
  8
0
100
AcDbEllipse
 10
3764.260842472715
 20
1160.526896727308
 30
0.0
 11
2.892516514872066
 21
0.1157006605960879
 31
0.0
210
0.0
220
0.0
230
0.9999999999999998
 40
0.3525230087513151
 41
-0.000000000000945
 42
1.570796326794314
  0
ELLIPSE
  5
673
330
1F
100
AcDbEntity
  8
0
100
AcDbEllipse
 10
3752.719431986211
 20
1148.613832044939
 30
0.0
 11
2.892516514872145
 21
0.115700660594122
 31
0.0
210
0.0
220
0.0
230
-1.0
 40
0.3525230087513151
 41
-0.0000000000009839
 42
1.570796326795239
  0
ELLIPSE
  5
674
330
1F
100
AcDbEntity
  8
0
100
AcDbEllipse
 10
3758.504465015962
 20
1148.845233366119
 30
0.0
 11
2.892516514872066
 21
0.1157006605960879
 31
0.0
210
0.0
220
0.0
230
0.9999999999999998
 40
0.3525230087513151
 41
3.141592653588848
 42
4.712388980384107
  0
ELLIPSE
  5
675
330
1F
100
AcDbEntity
  8
0
100
AcDbEllipse
 10
3752.719431986211
 20
1148.613832044939
 30
0.0
 11
2.892516514872145
 21
0.115700660594122
 31
0.0
210
0.0
220
0.0
230
-1.0
 40
0.3525230087513151
 41
-0.0000000000009839
 42
1.570796326795239
  0
ELLIPSE
  5
676
330
1F
100
AcDbEntity
  8
0
100
AcDbEllipse
 10
3758.504465015962
 20
1148.845233366119
 30
0.0
 11
2.892516514872066
 21
0.1157006605960879
 31
0.0
210
0.0
220
0.0
230
0.9999999999999998
 40
0.3525230087513151
 41
3.141592653588848
 42
4.712388980384107
  0
ELLIPSE
  5
677
330
1F
100
AcDbEntity
  8
0
100
AcDbEllipse
 10
3758.047140404823
 20
1160.278348644591
 30
0.0
 11
2.892516514872145
 21
0.115700660594122
 31
0.0
210
0.0
220
0.0
230
-1.0
 40
0.3525230087513151
 41
3.141592653588808
 42
4.712388980385032
  0
ELLIPSE
  5
678
330
1F
100
AcDbEntity
  8
0
100
AcDbEllipse
 10
3752.262107375088
 20
1160.046947323404
 30
0.0
 11
2.892516514872066
 21
0.1157006605960879
 31
0.0
210
0.0
220
0.0
230
0.9999999999999998
 40
0.3525230087513151
 41
-0.000000000000945
 42
1.570796326794314
  0
LINE
  5
679
330
1F
100
AcDbEntity
  8
0
100
AcDbLine
 10
3755.154623889939
 20
1160.162647983998
 30
0.0
 11
3755.611948501093
 21
1148.729532705532
 31
0.0
  0
LINE
  5
67A
330
1F
100
AcDbEntity
  8
0
100
AcDbLine
 10
3743.11510164731
 20
1160.702377204783
 30
-0.0000000000000013
 11
3767.112571842599
 21
1161.662276012583
 31
0.0
  0
LINE
  5
67B
330
1F
100
AcDbEntity
  8
0
100
AcDbLine
 10
3767.112571842599
 20
1161.662276012583
 30
0.0
 11
3767.651470743711
 21
1148.189803484747
 31
0.0
  0
LINE
  5
67C
330
1F
100
AcDbEntity
  8
0
100
AcDbLine
 10
3743.11510164731
 20
1160.702377204783
 30
-0.0000000000000013
 11
3743.654000548421
 21
1147.229904676933
 31
0.0
  0
LINE
  5
67D
330
1F
100
AcDbEntity
  8
0
 48
10.0
100
AcDbLine
 10
3735.828588625031
 20
1142.913689478977
 30
0.0
 11
3775.796626973921
 21
1144.512411012932
 31
0.0
  0
CIRCLE
  5
67E
330
1F
100
AcDbEntity
  8
0
100
AcDbCircle
 10
-3798.523525545336
 20
0.0
 30
996.6867139683627
 40
11.0
210
-0.0399680383489357
220
0.999200958721787
230
0.0
  0
CIRCLE
  5
67F
330
1F
100
AcDbEntity
  8
0
100
AcDbCircle
 10
3798.523525545336
 20
0.0
 30
-996.6867139683627
 40
11.0
210
0.0399680383489357
220
-0.999200958721787
230
0.0
  0
CIRCLE
  5
680
330
1F
100
AcDbEntity
  8
0
100
AcDbCircle
 10
3798.523525545336
 20
0.0
 30
-996.6867139683627
 40
8.299999999999981
210
0.0399680383489357
220
-0.999200958721787
230
0.0
  0
CIRCLE
  5
681
330
1F
100
AcDbEntity
  8
0
100
AcDbCircle
 10
-3798.523525545336
 20
0.0
 30
996.6867139683627
 40
8.299999999999981
210
-0.0399680383489357
220
0.999200958721787
230
0.0
  0
LINE
  5
682
330
1F
100
AcDbEntity
  8
0
100
AcDbLine
 10
3766.643946192032
 20
1148.149502502681
 30
0.0
 11
3744.661525100128
 21
1147.270205658998
 31
0.0
  0
CIRCLE
  5
683
330
1F
100
AcDbEntity
  8
0
100
AcDbCircle
 10
3798.523525545336
 20
0.0
 30
-996.6867139683627
 40
11.0
210
0.0399680383489357
220
-0.999200958721787
230
0.0
  0
CIRCLE
  5
684
330
1F
100
AcDbEntity
  8
0
100
AcDbCircle
 10
3798.523525545336
 20
0.0
 30
-996.6867139683627
 40
11.0
210
0.0399680383489357
220
-0.999200958721787
230
0.0
  0
CIRCLE
  5
685
330
1F
100
AcDbEntity
  8
0
100
AcDbCircle
 10
3798.523525545336
 20
0.0
 30
-996.6867139683627
 40
8.299999999999981
210
0.0399680383489357
220
-0.999200958721787
230
0.0
  0
CIRCLE
  5
686
330
1F
100
AcDbEntity
  8
0
100
AcDbCircle
 10
3798.523525545336
 20
0.0
 30
-996.6867139683627
 40
8.299999999999981
210
0.0399680383489357
220
-0.999200958721787
230
0.0
  0
LINE
  5
688
330
1F
100
AcDbEntity
  8
0
100
AcDbLine
 10
3762.836990539297
 20
1162.008419800157
 30
0.0
 11
3747.349375679107
 21
1161.388915205745
 31
0.0
  0
LINE
  5
689
330
1F
100
AcDbEntity
  8
0
100
AcDbLine
 10
3748.466892159173
 20
1173.44321202801
 30
0.0
 11
3760.760241138829
 21
1173.934945987195
 31
0.0
  0
LINE
  5
68A
330
1F
100
AcDbEntity
  8
0
100
AcDbLine
 10
3747.349375679107
 20
1161.388915205745
 30
0.0
 11
3762.836990539297
 21
1162.008419800157
 31
0.0
  0
LINE
  5
691
330
1F
100
AcDbEntity
  8
0
100
AcDbLine
 10
3762.836990539297
 20
1162.008419800157
 30
0.0
 11
3762.858253588485
 21
1161.476843570315
 31
0.0
  0
LINE
  5
692
330
1F
100
AcDbEntity
  8
0
100
AcDbLine
 10
3747.349375679107
 20
1161.388915205745
 30
0.0
 11
3747.370029314865
 21
1160.872574311477
 31
-0.0000000000000011
  0
LINE
  5
693
330
1F
100
AcDbEntity
  8
0
100
AcDbLine
 10
3755.376802759369
 20
1161.192845249265
 30
0.0
 11
3757.233631842311
 21
1161.784285452267
 31
0.0
  0
LINE
  5
694
330
1F
100
AcDbEntity
  8
0
100
AcDbLine
 10
3747.840563679878
 20
1160.891395686078
 30
0.0
 11
3749.697392762821
 21
1161.482835889088
 31
0.0
  0
LINE
  5
695
330
1F
100
AcDbEntity
  8
0
100
AcDbLine
 10
3759.1449222991
 20
1161.343570030847
 30
0.0
 11
3761.001751382043
 21
1161.935010233865
 31
0.0
  0
LINE
  5
696
330
1F
100
AcDbEntity
  8
0
100
AcDbLine
 10
3751.608683219624
 20
1161.042120467675
 30
0.0
 11
3753.465512302552
 21
1161.633560670685
 31
0.0
  0
LINE
  5
697
330
1F
100
AcDbEntity
  8
0
100
AcDbLine
 10
3747.647655610251
 20
1172.696910931743
 30
0.0
 11
3748.059798078503
 21
1162.393349225778
 31
0.0
  0
LINE
  5
698
330
1F
100
AcDbEntity
  8
0
100
AcDbLine
 10
3761.636469032361
 20
1173.256463468635
 30
0.0
 11
3762.048611500599
 21
1162.95290176267
 31
0.0
  0
LINE
  5
699
330
1F
100
AcDbEntity
  8
0
100
AcDbLine
 10
3747.349375679107
 20
1161.388915205745
 30
0.0
 11
3748.059798078503
 21
1162.393349225778
 31
0.0
  0
LINE
  5
69A
330
1F
100
AcDbEntity
  8
0
100
AcDbLine
 10
3762.836990539297
 20
1162.008419800157
 30
0.0
 11
3762.048611500599
 21
1162.95290176267
 31
0.0
  0
LINE
  5
69B
330
1F
100
AcDbEntity
  8
0
100
AcDbLine
 10
3748.059798078503
 20
1162.393349225778
 30
0.0
 11
3762.048611500599
 21
1162.95290176267
 31
0.0
  0
LINE
  5
69C
330
1F
100
AcDbEntity
  8
0
100
AcDbLine
 10
3747.647655610251
 20
1172.696910931743
 30
0.0
 11
3748.466892159173
 21
1173.44321202801
 31
0.0
  0
LINE
  5
69D
330
1F
100
AcDbEntity
  8
0
100
AcDbLine
 10
3761.636469032361
 20
1173.256463468635
 30
0.0
 11
3760.760241138829
 21
1173.934945987195
 31
0.0
  0
LINE
  5
69F
330
1F
100
AcDbEntity
  8
0
100
AcDbLine
 10
3750.863788522803
 20
1173.539087882556
 30
0.0
 11
3751.30442666333
 21
1162.523134369185
 31
0.0
  0
LINE
  5
6A0
330
1F
100
AcDbEntity
  8
0
100
AcDbLine
 10
3758.363344775215
 20
1173.839070132657
 30
0.0
 11
3758.803982915742
 21
1162.823116619271
 31
0.0
  0
LINE
  5
6A1
330
1F
100
AcDbEntity
  8
0
 48
10.0
100
AcDbLine
 10
3775.636754820523
 20
1148.509214847814
 30
0.0
 11
3735.66871647165
 21
1146.910493313859
 31
0.0
  0
LINE
  5
6A2
330
1F
100
AcDbEntity
  8
0
 48
10.0
100
AcDbLine
 10
3735.66871647165
 20
1146.910493313859
 30
0.0
 11
3735.828588625045
 21
1142.913689478977
 31
0.0
  0
LINE
  5
6A3
330
1F
100
AcDbEntity
  8
0
 48
10.0
100
AcDbLine
 10
3775.796626973921
 20
1144.512411012932
 30
0.0
 11
3775.636754820523
 21
1148.509214847814
 31
0.0
  0
LINE
  5
754
330
1F
100
AcDbEntity
  8
0
100
AcDbLine
 10
3957.652799543815
 20
2265.710517156185
 30
0.0
 11
3957.652799543815
 21
2221.15779690478
 31
0.0
  0
LINE
  5
755
330
1F
100
AcDbEntity
  8
0
100
AcDbLine
 10
3963.736411689751
 20
2214.218039466588
 30
0.0
 11
3986.569187397899
 21
2211.202994845767
 31
0.0
  0
LINE
  5
756
330
1F
100
AcDbEntity
  8
0
100
AcDbLine
 10
3992.652799543816
 20
2204.263237407588
 30
0.0
 11
3992.652799543816
 21
2159.710517156185
 31
0.0
  0
ARC
  5
757
330
1F
100
AcDbEntity
  8
0
100
AcDbCircle
 10
3964.652799543816
 20
2221.15779690478
 30
0.0
 40
7.0
100
AcDbArc
 50
179.9999999999957
 51
262.4776717064731
  0
ARC
  5
758
330
1F
100
AcDbEntity
  8
0
100
AcDbCircle
 10
3985.652799543827
 20
2204.263237407588
 30
0.0
 40
6.999999999989086
100
AcDbArc
 50
359.9999999999819
 51
82.47767170640138
  0
LINE
  5
759
330
1F
100
AcDbEntity
  8
0
100
AcDbLine
 10
3957.652799543815
 20
1156.71051715617
 30
0.0
 11
3957.652799543815
 21
1201.263237407576
 31
0.0
  0
LINE
  5
75A
330
1F
100
AcDbEntity
  8
0
100
AcDbLine
 10
3963.736411689751
 20
1208.202994845767
 30
0.0
 11
3986.569187397899
 21
1211.218039466589
 31
0.0
  0
LINE
  5
75B
330
1F
100
AcDbEntity
  8
0
100
AcDbLine
 10
3992.652799543816
 20
1218.157796904767
 30
0.0
 11
3992.652799543816
 21
1262.71051715617
 31
0.0
  0
ARC
  5
75C
330
1F
100
AcDbEntity
  8
0
100
AcDbCircle
 10
3964.652799543816
 20
1201.263237407576
 30
0.0
 40
7.0
100
AcDbArc
 50
97.52232829352845
 51
180.0
  0
ARC
  5
75D
330
1F
100
AcDbEntity
  8
0
100
AcDbCircle
 10
3985.652799543827
 20
1218.157796904767
 30
0.0
 40
6.999999999989086
100
AcDbArc
 50
277.5223282935994
 51
0.0000000000260551
  0
LINE
  5
75E
330
1F
100
AcDbEntity
  8
0
100
AcDbLine
 10
3983.652799543786
 20
1217.710517156178
 30
0.0
 11
3983.652799543786
 21
2204.710517156178
 31
0.0
  0
LINE
  5
86B
330
1F
100
AcDbEntity
  8
0
100
AcDbLine
 10
7008.870450926552
 20
-1075.073799214478
 30
0.0
 11
-238.4220919960498
 21
-1075.073799214478
 31
0.0
  0
LINE
  5
86C
330
1F
100
AcDbEntity
  8
0
100
AcDbLine
 10
7008.870450926552
 20
-1150.073799214478
 30
0.0
 11
-238.4220919960498
 21
-1150.073799214478
 31
0.0
  0
LINE
  5
86D
330
1F
100
AcDbEntity
  8
0
  6
STRICHLINIE
100
AcDbLine
 10
5447.235734471281
 20
-1075.433285411142
 30
0.0
 11
5447.235734471266
 21
-1150.433285411142
 31
0.0
  0
LINE
  5
86E
330
1F
100
AcDbEntity
  8
0
100
AcDbLine
 10
5127.23573447128
 20
-1075.433285411142
 30
0.0
 11
5127.235734471265
 21
-1150.433285411142
 31
0.0
  0
LINE
  5
86F
330
1F
100
AcDbEntity
  8
0
100
AcDbLine
 10
5223.235733083362
 20
-792.4402313064854
 30
0.0
 11
3451.235733083333
 21
-792.4402313064854
 31
0.0
  0
LINE
  5
871
330
1F
100
AcDbEntity
  8
0
100
AcDbLine
 10
5223.235733083347
 20
-672.4402313064858
 30
0.0
 11
3451.235733083333
 21
-672.4402313064858
 31
0.0
  0
LINE
  5
873
330
1F
100
AcDbEntity
  8
0
100
AcDbLine
 10
5223.235733083362
 20
-672.4402313064858
 30
0.0
 11
5223.235733083362
 21
-792.4402313064854
 31
0.0
  0
LINE
  5
874
330
1F
100
AcDbEntity
  8
0
  6
STRICHLINIE
100
AcDbLine
 10
1647.235734471265
 20
-1075.253138256703
 30
0.0
 11
1647.235734471251
 21
-1150.253138256703
 31
0.0
  0
LINE
  5
875
330
1F
100
AcDbEntity
  8
0
100
AcDbLine
 10
1327.235734471265
 20
-1075.253138256703
 30
0.0
 11
1327.235734471251
 21
-1150.253138256703
 31
0.0
  0
LWPOLYLINE
  5
876
330
1F
100
AcDbEntity
  8
0
100
AcDbPolyline
 90
        4
 70
     0
 43
0.0
 10
5147.235733083348
 20
-672.4402313064858
 10
5147.235733083348
 20
-617.4402313064855
 10
5427.235733083347
 20
-617.4402313064855
 10
5427.235733083347
 20
-672.4402313064858
  0
LWPOLYLINE
  5
877
330
1F
100
AcDbEntity
  8
0
100
AcDbPolyline
 90
        4
 70
     0
 43
0.0
 10
5427.235733083347
 20
-792.4402313064854
 10
5427.235733083347
 20
-927.4402313064856
 10
5147.235733083348
 20
-927.4402313064856
 10
5147.235733083348
 20
-792.4402313064854
  0
LINE
  5
87D
330
1F
100
AcDbEntity
  8
0
100
AcDbLine
 10
5223.235733083362
 20
-680.4402313064855
 30
0.0
 11
5351.235733083333
 21
-680.4402313064855
 31
0.0
  0
LINE
  5
87E
330
1F
100
AcDbEntity
  8
0
100
AcDbLine
 10
5351.235733083333
 20
-784.4402313064854
 30
0.0
 11
5223.235733083362
 21
-784.4402313064854
 31
0.0
  0
CIRCLE
  5
881
330
1F
100
AcDbEntity
  8
0
100
AcDbCircle
 10
5377.235733083347
 20
-877.4402313064856
 30
0.0
 40
14.0
  0
CIRCLE
  5
884
330
1F
100
AcDbEntity
  8
0
100
AcDbCircle
 10
5197.235733083347
 20
-877.4402313064856
 30
0.0
 40
14.0
  0
LINE
  5
889
330
1F
100
AcDbEntity
  8
0
100
AcDbLine
 10
5351.235733083333
 20
-672.4402313064858
 30
0.0
 11
5351.235733083333
 21
-792.4402313064854
 31
0.0
  0
LINE
  5
88A
330
1F
100
AcDbEntity
  8
0
100
AcDbLine
 10
7008.870450926552
 20
-792.4402313064854
 30
0.0
 11
5351.235733083333
 21
-792.4402313064854
 31
0.0
  0
LINE
  5
88C
330
1F
100
AcDbEntity
  8
0
100
AcDbLine
 10
7008.870450926567
 20
-672.4402313064858
 30
0.0
 11
5351.235733083333
 21
-672.4402313064858
 31
0.0
  0
DIMENSION
  5
896
330
1F
100
AcDbEntity
  8
0
100
AcDbDimension
280
     0
  2
*D7
 10
1487.235733083347
 20
-333.4676356812488
 30
0.0
 11
3387.235733083347
 21
-333.4676356812488
 31
0.0
 70
    32
 71
     5
 42
3800.000000000001
 73
     0
 74
     0
 75
     0
  3
STIL2$0
100
AcDbAlignedDimension
 13
5287.235733083347
 23
-607.2958352844507
 33
0.0
 14
1487.235733083347
 24
-607.2958352844507
 34
0.0
 50
180.0
100
AcDbRotatedDimension
1001
ACAD
1000
DSTYLE
1002
{
1070
   146
1040
0.75
1070
    47
1040
9.0
1070
   147
1040
1.0
1070
    48
1040
9.0
1070
    72
1070
     0
1070
    71
1070
     1
1070
    40
1040
20.0
1002
}
  0
DIMENSION
  5
899
330
1F
100
AcDbEntity
  8
0
100
AcDbDimension
280
     0
  2
*D8
 10
3387.235733083347
 20
-503.964895397592
 30
0.0
 11
4337.235733083347
 21
-503.964895397592
 31
0.0
 70
    32
 71
     5
 42
1900.0
 73
     0
 74
     0
 75
     0
  3
STIL2$0
100
AcDbAlignedDimension
 13
5287.235733083347
 23
-607.2958352844507
 33
0.0
 14
3387.235733083347
 24
-607.2958352844507
 34
0.0
 50
180.0
100
AcDbRotatedDimension
1001
ACAD
1000
DSTYLE
1002
{
1070
    40
1040
20.0
1070
    47
1040
15.0
1070
    48
1040
15.0
1070
    71
1070
     1
1070
   146
1040
0.75
1002
}
  0
DIMENSION
  5
89A
330
1F
100
AcDbEntity
  8
0
100
AcDbDimension
280
     0
  2
*D9
 10
1487.235733083347
 20
-503.964895397592
 30
0.0
 11
2437.235733083347
 21
-503.964895397592
 31
0.0
 70
    32
 71
     5
 42
1900.0
 73
     0
 74
     0
 75
     0
  3
STIL2$0
100
AcDbAlignedDimension
 13
3387.235733083347
 23
-607.2958352844507
 33
0.0
 14
1487.235733083347
 24
-607.2958352844507
 34
0.0
 50
180.0
100
AcDbRotatedDimension
1001
ACAD
1000
DSTYLE
1002
{
1070
    40
1040
20.0
1070
    47
1040
15.0
1070
    48
1040
15.0
1070
    71
1070
     1
1070
   146
1040
0.75
1002
}
  0
LWPOLYLINE
  5
89C
330
1F
100
AcDbEntity
  8
0
100
AcDbPolyline
 90
        4
 70
     0
 43
0.0
 10
5341.235733083347
 20
-784.4402313064854
 42
-0.1622776601683793
 10
5342.235733083348
 20
-787.4402313064854
 10
5342.235733083348
 20
-1072.081445796131
 42
-0.1617875522443189
 10
5341.241456615957
 20
-1075.073799214478
 42
-0.1617875522443189
  0
LINE
  5
8A1
330
1F
100
AcDbEntity
  8
0
100
AcDbLine
 10
4096.419386664144
 20
-1075.073799214478
 30
0.0
 11
4921.344628757942
 21
-792.4402313064854
 31
0.0
  0
LINE
  5
8A6
330
1F
100
AcDbEntity
  8
0
100
AcDbLine
 10
6484.052084044612
 20
-1075.073799214486
 30
0.0
 11
5659.12684195081
 21
-792.4402313064782
 31
0.0
  0
ARC
  5
8AF
330
1F
100
AcDbEntity
  8
0
100
AcDbCircle
 10
5197.235733083347
 20
-667.4402313064928
 30
0.0
 40
14.00000000000209
100
AcDbArc
 50
339.0751675721798
 51
200.9248324278201
  0
ARC
  5
8B1
330
1F
100
AcDbEntity
  8
0
100
AcDbCircle
 10
5377.235733083347
 20
-667.4402313064928
 30
0.0
 40
14.00000000000209
100
AcDbArc
 50
339.0751675721798
 51
200.9248324278201
  0
LINE
  5
8B3
330
1F
100
AcDbEntity
  8
0
100
AcDbLine
 10
1423.235733083362
 20
-792.4402313064854
 30
0.0
 11
-348.7642669166671
 21
-792.4402313064854
 31
0.0
  0
LINE
  5
8B5
330
1F
100
AcDbEntity
  8
0
100
AcDbLine
 10
1423.235733083347
 20
-672.4402313064858
 30
0.0
 11
-348.7642669166671
 21
-672.4402313064858
 31
0.0
  0
LINE
  5
8B7
330
1F
100
AcDbEntity
  8
0
100
AcDbLine
 10
1423.235733083362
 20
-672.4402313064858
 30
0.0
 11
1423.235733083362
 21
-792.4402313064854
 31
0.0
  0
LWPOLYLINE
  5
8B8
330
1F
100
AcDbEntity
  8
0
100
AcDbPolyline
 90
        4
 70
     0
 43
0.0
 10
1347.235733083347
 20
-672.4402313064858
 10
1347.235733083347
 20
-617.4402313064855
 10
1627.235733083347
 20
-617.4402313064855
 10
1627.235733083347
 20
-672.4402313064858
  0
LWPOLYLINE
  5
8B9
330
1F
100
AcDbEntity
  8
0
100
AcDbPolyline
 90
        4
 70
     0
 43
0.0
 10
1627.235733083347
 20
-792.4402313064854
 10
1627.235733083347
 20
-927.4402313064856
 10
1347.235733083347
 20
-927.4402313064856
 10
1347.235733083347
 20
-792.4402313064854
  0
LINE
  5
8BF
330
1F
100
AcDbEntity
  8
0
100
AcDbLine
 10
1423.235733083362
 20
-680.4402313064855
 30
0.0
 11
1551.235733083333
 21
-680.4402313064855
 31
0.0
  0
LINE
  5
8C0
330
1F
100
AcDbEntity
  8
0
100
AcDbLine
 10
1551.235733083333
 20
-784.4402313064854
 30
0.0
 11
1423.235733083362
 21
-784.4402313064854
 31
0.0
  0
CIRCLE
  5
8C3
330
1F
100
AcDbEntity
  8
0
100
AcDbCircle
 10
1577.235733083347
 20
-877.4402313064856
 30
0.0
 40
14.0
  0
CIRCLE
  5
8C6
330
1F
100
AcDbEntity
  8
0
100
AcDbCircle
 10
1397.235733083347
 20
-877.4402313064856
 30
0.0
 40
14.0
  0
LINE
  5
8CB
330
1F
100
AcDbEntity
  8
0
100
AcDbLine
 10
1551.235733083333
 20
-672.4402313064858
 30
0.0
 11
1551.235733083333
 21
-792.4402313064854
 31
0.0
  0
LWPOLYLINE
  5
8D5
330
1F
100
AcDbEntity
  8
0
100
AcDbPolyline
 90
        4
 70
     0
 43
0.0
 10
1541.235733083347
 20
-784.4402313064854
 42
-0.1622776601683793
 10
1542.235733083346
 20
-787.4402313064854
 10
1542.235733083346
 20
-1072.081445796131
 42
-0.1617875522443189
 10
1541.241456615957
 20
-1075.073799214478
 42
-0.1617875522443189
  0
LINE
  5
8D8
330
1F
100
AcDbEntity
  8
0
100
AcDbLine
 10
1136.770957201006
 20
-792.4402313064854
 30
0.0
 11
311.8457151071198
 21
-1075.073799214478
 31
0.0
  0
LINE
  5
8DF
330
1F
100
AcDbEntity
  8
0
100
AcDbLine
 10
2684.052084044612
 20
-1075.073799214486
 30
0.0
 11
1859.126841950812
 21
-792.4402313064782
 31
0.0
  0
ARC
  5
8E8
330
1F
100
AcDbEntity
  8
0
100
AcDbCircle
 10
1397.235733083347
 20
-667.4402313064928
 30
0.0
 40
14.00000000000209
100
AcDbArc
 50
339.0751675721798
 51
200.9248324278201
  0
ARC
  5
8EA
330
1F
100
AcDbEntity
  8
0
100
AcDbCircle
 10
1577.235733083347
 20
-667.4402313064928
 30
0.0
 40
14.00000000000209
100
AcDbArc
 50
339.0751675721798
 51
200.9248324278201
  0
LINE
  5
8EC
330
1F
100
AcDbEntity
  8
0
100
AcDbLine
 10
3323.235733083362
 20
-792.4402313064854
 30
0.0
 11
1551.235733083333
 21
-792.4402313064854
 31
0.0
  0
LINE
  5
8EE
330
1F
100
AcDbEntity
  8
0
100
AcDbLine
 10
3323.235733083347
 20
-672.4402313064858
 30
0.0
 11
1551.235733083333
 21
-672.4402313064858
 31
0.0
  0
LINE
  5
8F0
330
1F
100
AcDbEntity
  8
0
100
AcDbLine
 10
3323.235733083362
 20
-672.4402313064858
 30
0.0
 11
3323.235733083362
 21
-792.4402313064854
 31
0.0
  0
LWPOLYLINE
  5
8F1
330
1F
100
AcDbEntity
  8
0
100
AcDbPolyline
 90
        4
 70
     0
 43
0.0
 10
3247.235733083349
 20
-672.4402313064858
 10
3247.235733083349
 20
-617.4402313064855
 10
3527.235733083347
 20
-617.4402313064855
 10
3527.235733083347
 20
-672.4402313064858
  0
LWPOLYLINE
  5
8F2
330
1F
100
AcDbEntity
  8
0
100
AcDbPolyline
 90
        4
 70
     0
 43
0.0
 10
3527.235733083347
 20
-792.4402313064854
 10
3527.235733083347
 20
-927.4402313064856
 10
3247.235733083349
 20
-927.4402313064856
 10
3247.235733083349
 20
-792.4402313064854
  0
LINE
  5
8F8
330
1F
100
AcDbEntity
  8
0
100
AcDbLine
 10
3323.235733083362
 20
-680.4402313064855
 30
0.0
 11
3451.235733083333
 21
-680.4402313064855
 31
0.0
  0
LINE
  5
8F9
330
1F
100
AcDbEntity
  8
0
100
AcDbLine
 10
3451.235733083333
 20
-784.4402313064854
 30
0.0
 11
3323.235733083362
 21
-784.4402313064854
 31
0.0
  0
CIRCLE
  5
8FC
330
1F
100
AcDbEntity
  8
0
100
AcDbCircle
 10
3477.235733083347
 20
-877.4402313064856
 30
0.0
 40
14.0
  0
CIRCLE
  5
8FF
330
1F
100
AcDbEntity
  8
0
100
AcDbCircle
 10
3297.235733083347
 20
-877.4402313064856
 30
0.0
 40
14.0
  0
LINE
  5
904
330
1F
100
AcDbEntity
  8
0
100
AcDbLine
 10
3451.235733083333
 20
-672.4402313064858
 30
0.0
 11
3451.235733083333
 21
-792.4402313064854
 31
0.0
  0
LWPOLYLINE
  5
90E
330
1F
100
AcDbEntity
  8
0
100
AcDbPolyline
 90
        4
 70
     0
 43
0.0
 10
3441.235733083348
 20
-784.4402313064854
 42
-0.1622776601683793
 10
3442.235733083348
 20
-787.4402313064854
 10
3442.235733083348
 20
-1072.081445796131
 42
-0.1617875522443189
 10
3441.241456615957
 20
-1075.073799214478
 42
-0.1617875522443189
  0
ARC
  5
911
330
1F
100
AcDbEntity
  8
0
100
AcDbCircle
 10
3297.235733083347
 20
-667.4402313064928
 30
0.0
 40
14.00000000000209
100
AcDbArc
 50
339.0751675721798
 51
200.9248324278201
  0
ARC
  5
913
330
1F
100
AcDbEntity
  8
0
100
AcDbCircle
 10
3477.235733083347
 20
-667.4402313064928
 30
0.0
 40
14.00000000000209
100
AcDbArc
 50
339.0751675721798
 51
200.9248324278201
  0
LWPOLYLINE
  5
AC6
330
1F
100
AcDbEntity
  8
0
100
AcDbPolyline
 90
        3
 70
     0
 10
3957.176192030658
 20
-1463.519066619021
 40
0.0
 41
0.0
 10
2987.461434396749
 20
-1463.519066619021
 40
50.0
 41
0.0
 10
2903.927955690351
 20
-1463.519066619021
 40
0.0
 41
0.0
  0
TEXT
  5
AC7
330
1F
100
AcDbEntity
  8
0
100
AcDbText
 10
3029.965340220022
 20
-1419.952672481362
 30
0.0
 40
125.0
  1
Fahrtrichtung
  7
ARIALFETT
100
AcDbText
  0
LINE
  5
AEE
330
1F
100
AcDbEntity
  8
0
100
AcDbLine
 10
-348.7642669166671
 20
-647.9402313064857
 30
0.0
 11
1472.235733083362
 21
-647.9402313064855
 31
0.0
  0
LINE
  5
AF6
330
1F
100
AcDbEntity
  8
0
100
AcDbLine
 10
1502.235733083362
 20
-647.9402313064855
 30
0.0
 11
1551.235733083362
 21
-647.9402313064855
 31
0.0
  0
LINE
  5
AF7
330
1F
100
AcDbEntity
  8
0
100
AcDbLine
 10
1551.235733083362
 20
-647.9402313064855
 30
0.0
 11
3372.235733083362
 21
-647.9402313064857
 31
0.0
  0
LINE
  5
AFF
330
1F
100
AcDbEntity
  8
0
100
AcDbLine
 10
3402.235733083362
 20
-647.9402313064855
 30
0.0
 11
5272.235733083363
 21
-647.9402313064857
 31
0.0
  0
LINE
  5
B00
330
1F
100
AcDbEntity
  8
0
100
AcDbLine
 10
5302.235733083362
 20
-647.9402313064857
 30
0.0
 11
7008.870450926567
 21
-647.9402313064857
 31
0.0
  0
LWPOLYLINE
  5
B3D
330
1F
100
AcDbEntity
  8
0
 48
0.2
100
AcDbPolyline
 90
        8
 70
     0
 43
0.0
 10
3566.510740852397
 20
1814.985321594293
 10
3502.278729124699
 20
1770.544198903
 42
0.519372790442991
 10
3502.015360618685
 20
1735.368081480825
 10
3547.042290745063
 20
1703.207149227593
 42
-0.5146286902193739
 10
3547.042290745061
 20
1662.519979607423
 10
3502.015360618672
 20
1630.359047354184
 42
0.5193727904429945
 10
3502.278729124728
 20
1595.182929932015
 10
3566.510740852397
 20
1550.741807240731
  0
LWPOLYLINE
  5
B5D
330
1F
100
AcDbEntity
  8
0
100
AcDbPolyline
 90
        8
 70
     1
 43
0.0
 10
3968.152799543815
 20
2282.710517156179
 10
3968.152799543818
 20
2322.710517156179
 42
0.4142135623731307
 10
3960.652799543817
 20
2330.210517156179
 10
3860.652799543816
 20
2330.210517156179
 42
0.4142135623730951
 10
3853.152799543816
 20
2322.710517156179
 10
3853.152799543816
 20
2282.710517156179
 42
0.414213562373184
 10
3860.652799543816
 20
2275.210517156179
 10
3960.652799543817
 20
2275.210517156179
 42
0.4142135623731486
  0
LWPOLYLINE
  5
B5E
330
1F
100
AcDbEntity
  8
0
100
AcDbPolyline
 90
       10
 70
     0
 43
0.0
 10
3938.736795829442
 20
2282.210517156179
 10
3953.736795829442
 20
2282.210517156179
 42
0.414213562373113
 10
3961.236795829441
 20
2289.710517156179
 10
3961.236795829441
 20
2315.710517156179
 42
0.4142135623731846
 10
3953.736795829441
 20
2323.210517156179
 10
3867.736795829443
 20
2323.210517156179
 42
0.4142135623731307
 10
3860.236795829442
 20
2315.71051715618
 10
3860.236795829442
 20
2289.710517156179
 42
0.4142135623731666
 10
3867.736795829443
 20
2282.210517156179
 10
3882.736795829443
 20
2282.210517156179
  0
LINE
  5
CD0
330
1F
100
AcDbEntity
  8
0
100
AcDbLine
 10
6091.709105760141
 20
2275.210517156179
 30
0.0
 11
6091.709105760141
 21
1148.106657915724
 31
0.0
  0
LINE
  5
CD1
330
1F
100
AcDbEntity
  8
0
100
AcDbLine
 10
6181.709105760142
 20
2275.210517156179
 30
0.0
 11
6181.709105760142
 21
1151.706657915718
 31
0.0
  0
LINE
  5
CD2
330
1F
100
AcDbEntity
  8
0
100
AcDbLine
 10
5787.067891270499
 20
1805.985321594322
 30
0.0
 11
6091.709105760141
 21
1805.985321594307
 31
0.0
  0
LINE
  5
CD3
330
1F
100
AcDbEntity
  8
0
100
AcDbLine
 10
5787.067891270499
 20
1805.985321594293
 30
0.0
 11
5787.067891270499
 21
1555.985321594293
 31
0.0
  0
LINE
  5
CD4
330
1F
100
AcDbEntity
  8
0
100
AcDbLine
 10
5787.067891270499
 20
1555.985321594293
 30
0.0
 11
6091.709105760141
 21
1555.985321594293
 31
0.0
  0
LWPOLYLINE
  5
CD5
330
1F
100
AcDbEntity
  8
0
100
AcDbPolyline
 90
        5
 70
     1
 43
0.0
 10
5944.38849851532
 20
1680.985321594293
 10
5934.38849851532
 20
1690.985321594293
 10
5924.38849851532
 20
1680.985321594293
 10
5924.38849851532
 20
1670.985321594293
 10
5944.38849851532
 20
1670.985321594293
  0
LINE
  5
CD6
102
{ACAD_REACTORS
330
CDB
102
}
330
1F
100
AcDbEntity
  8
0
100
AcDbLine
 10
6091.709105760141
 20
1805.985321594307
 30
0.0
 11
6091.709105760141
 21
1555.985321594308
 31
0.0
  0
LWPOLYLINE
  5
CD7
330
1F
100
AcDbEntity
  8
0
 48
0.2
100
AcDbPolyline
 90
        8
 70
     0
 43
0.0
 10
5792.567047068724
 20
1814.985321594293
 10
5728.335035341026
 20
1770.544198903
 42
0.519372790442991
 10
5728.071666835012
 20
1735.368081480825
 10
5773.09859696139
 20
1703.207149227593
 42
-0.5146286902193739
 10
5773.098596961388
 20
1662.519979607423
 10
5728.071666834999
 20
1630.359047354184
 42
0.5193727904429945
 10
5728.335035341055
 20
1595.182929932015
 10
5792.567047068724
 20
1550.741807240731
  0
DIMENSION
  5
CD8
330
1F
100
AcDbEntity
  8
0
100
AcDbDimension
280
     0
  2
*D11
 10
5581.498729793596
 20
1114.585015731027
 30
0.0
 11
5581.498729793595
 21
1378.119279476064
 31
0.0
 70
   160
  1
{\fArial Narrow|b0|i0|c0|p34;\H1.08333x;≥\A0;\fvoestalpine Light|b0|i0|c0|p34;\H0.92308x;<>}
 71
     5
 42
700.4003058632658
 73
     0
 74
     0
 75
     0
  3
STIL2$0
100
AcDbAlignedDimension
 13
5792.567047068724
 23
1814.985321594293
 33
0.0
 14
5754.067891270455
 24
1114.585015731027
 34
0.0
 50
90.0
100
AcDbRotatedDimension
1001
ACAD
1000
DSTYLE
1002
{
1070
    40
1040
10.0
1070
    47
1040
40.0
1070
    48
1040
40.0
1070
    71
1070
     1
1070
   146
1040
0.75
1002
}
  0
DIMENSION
  5
CD9
102
{ACAD_XDICTIONARY
360
CDA
102
}
102
{ACAD_REACTORS
330
CDB
102
}
330
1F
100
AcDbEntity
  8
0
100
AcDbDimension
280
     0
  2
*D14
 10
6091.709105760154
 20
1915.433031337195
 30
0.0
 11
5905.38884885846
 21
1915.433031337195
 31
0.0
 70
    32
 71
     5
 42
372.6405138033879
 73
     0
 74
     0
 75
     0
  3
STIL2$0
100
AcDbAlignedDimension
 13
5719.068591956766
 23
1751.17249484122
 33
0.0
 14
6091.709105760154
 24
1805.985321594304
 34
0.0
100
AcDbRotatedDimension
1001
ACAD
1000
DSTYLE
1002
{
1070
    40
1040
10.0
1070
    47
1040
20.0
1070
    48
1040
20.0
1070
    71
1070
     1
1070
   146
1040
0.75
1002
}
  0
DIMENSION
  5
CDC
330
1F
100
AcDbEntity
  8
0
100
AcDbDimension
280
     0
  2
*D12
 10
5719.067891270455
 20
3076.202078780025
 30
0.0
 11
5990.356536864172
 21
3076.202078780025
 31
0.0
 70
    32
 71
     5
 42
542.5772911874355
 73
     0
 74
     0
 75
     0
  3
STIL2$0
100
AcDbAlignedDimension
 13
6261.645182457891
 23
1154.904100983636
 33
0.0
 14
5719.067891270455
 24
1751.17249484122
 34
0.0
100
AcDbRotatedDimension
1001
ACAD
1000
DSTYLE
1002
{
1070
    40
1040
10.0
1070
    47
1040
20.0
1070
    48
1040
20.0
1070
    71
1070
     1
1070
   146
1040
0.75
1002
}
  0
DIMENSION
  5
CDD
330
1F
100
AcDbEntity
  8
0
100
AcDbDimension
280
     0
  2
*D13
 10
6470.140754086665
 20
1129.890664310609
 30
0.0
 11
6470.140754086664
 21
1712.181753755947
 31
0.0
 70
   160
  1
{\H1.08333x;≥}<>
 71
     5
 42
1799.499999999991
 73
     0
 74
     0
 75
     0
  3
STIL2$0
100
AcDbAlignedDimension
 13
6183.709105758921
 23
2929.3906643106
 33
0.0
 14
6136.709105760145
 24
1129.890664310609
 34
0.0
 50
90.0
100
AcDbRotatedDimension
1001
ACAD
1000
DSTYLE
1002
{
1070
    40
1040
10.0
1070
    47
1040
40.0
1070
    48
1040
40.0
1070
    71
1070
     1
1070
   146
1040
0.75
1002
}
  0
LWPOLYLINE
  5
CDE
330
1F
100
AcDbEntity
  8
0
100
AcDbPolyline
 90
        4
 70
     1
 43
0.0
 10
5931.908866079692
 20
1141.71464832851
 10
5932.70822684667
 20
1121.730629154073
 10
6262.444543224868
 20
1134.920081809199
 10
6261.645182457891
 20
1154.904100983629
  0
DIMENSION
  5
CDF
330
1F
100
AcDbEntity
  8
0
100
AcDbDimension
280
     0
  2
*D10
 10
5581.498729793709
 20
1044.585015731027
 30
0.0
 11
5581.498729793708
 21
909.3830658703014
 31
0.0
 70
    32
 71
     5
 42
70.0
 73
     0
 74
     0
 75
     0
  3
STIL2$0
100
AcDbAlignedDimension
 13
5754.067891270455
 23
1114.585015731027
 33
0.0
 14
5734.067891270453
 24
1044.585015731027
 34
0.0
 50
90.0
100
AcDbRotatedDimension
1001
ACAD
1000
DSTYLE
1002
{
1070
    40
1040
10.0
1002
}
  0
HATCH
  5
CE0
330
1F
100
AcDbEntity
  8
0
100
AcDbHatch
 10
0.0
 20
0.0
 30
0.0
210
0.0
220
0.0
230
1.0
  2
EARTH
 70
     0
 71
     0
 91
        2
 92
       16
 93
        2
 72
     1
 10
5528.548806769344
 20
983.7443441788854
 11
5566.577456155435
 21
983.7443441788854
 72
     1
 10
5566.577456155449
 20
983.7443441788854
 11
5528.548806769357
 21
983.7443441788854
 97
        0
 92
        1
 93
        4
 72
     1
 10
5450.701991870701
 20
983.4420153082247
 11
5454.441479639682
 21
1044.585015731041
 72
     1
 10
5454.441479639682
 20
1044.585015731041
 11
5734.067891270453
 21
1044.585015731027
 72
     1
 10
5734.067891270453
 20
1044.585015731027
 11
5734.067891270453
 21
983.4420153082247
 72
     1
 10
5734.067891270453
 20
983.4420153082247
 11
5450.701991870701
 21
983.4420153082247
 97
        0
 75
     0
 76
     1
 52
45.0
 41
7.5
 77
     0
 78
     6
 53
135.0
 43
20099.17156157003
 44
-910.4403513848447
 45
-0.0000000000000071
 46
67.35192090801866
 79
     2
 49
47.625
 49
-47.625
 53
135.0
 43
20111.80004674028
 44
-897.8118662145933
 45
-0.0000000000000071
 46
67.35192090801866
 79
     2
 49
47.625
 49
-47.625
 53
135.0
 43
20124.42853191052
 44
-885.1833810443421
 45
-0.0000000000000071
 46
67.35192090801866
 79
     2
 49
47.625
 49
-47.625
 53
45.0
 43
20124.42853191052
 44
-876.7643909308317
 45
67.35192090801866
 46
0.0000000000000071
 79
     2
 49
47.625
 49
-47.625
 53
45.0
 43
20111.80004674028
 44
-864.1359057605805
 45
67.35192090801866
 46
0.0000000000000071
 79
     2
 49
47.625
 49
-47.625
 53
45.0
 43
20099.17156157003
 44
-851.5074205903292
 45
67.35192090801866
 46
0.0000000000000071
 79
     2
 49
47.625
 49
-47.625
 98
        3
 10
5004.895934806622
 20
1012.458866466237
 10
5304.790713157338
 20
1010.040795536399
 10
5457.156633960964
 20
1017.294955901605
  0
LINE
  5
CE1
330
1F
100
AcDbEntity
  8
0
100
AcDbLine
 10
5454.441479639682
 20
1044.585015731027
 30
0.0
 11
5734.067891270453
 21
1044.585015731027
 31
0.0
  0
HATCH
  5
CE2
330
1F
100
AcDbEntity
  8
0
100
AcDbHatch
 10
0.0
 20
0.0
 30
0.0
210
0.0
220
0.0
230
1.0
  2
ANSI33
 70
     0
 71
     0
 91
        1
 92
        7
 72
     0
 73
     1
 93
       25
 10
6204.74068785867
 20
1132.611927594545
 10
5990.412082212853
 20
1124.03878336872
 10
5992.810108530022
 20
1064.088125439892
 10
5992.460388194471
 20
1064.07413662647
 10
5995.457991070633
 20
989.1340647223405
 10
5994.320588419571
 20
984.0845702150106
 10
5982.206899916091
 20
983.6000226748728
 10
5980.669816881498
 20
988.5425377547653
 10
5977.672214005383
 20
1063.482609658902
 10
5977.298179843092
 20
1064.076466513543
 10
5974.924467352662
 20
1123.419278774308
 10
5754.067891270455
 20
1114.585015731027
 10
5734.067891270453
 20
1044.585015731027
 10
5734.067891270453
 20
964.5850157310267
 10
6326.709105760245
 20
964.5850157310267
 10
6327.276837134262
 20
1137.513373565569
 10
6220.228302718861
 20
1133.231432188957
 10
6222.626329036029
 20
1073.280774260122
 10
6222.276608700481
 20
1073.2667854467
 10
6225.274211576638
 20
998.3267135425704
 10
6224.136808925578
 20
993.2772190352407
 10
6212.023120422099
 20
992.7926714951027
 10
6210.486037387505
 20
997.7351865749952
 10
6207.48843451139
 20
1072.675258479132
 10
6207.114400349099
 20
1073.269115333773
 97
        0
 75
     0
 76
     1
 52
0.0
 41
10.0
 77
     0
 78
     2
 53
45.0
 43
-106612.8485109245
 44
44513.97183573665
 45
-44.90128060534575
 46
44.90128060534575
 79
     0
 53
45.0
 43
-106567.9472109245
 44
44513.97183573665
 45
-44.90128060534575
 46
44.90128060534575
 79
     2
 49
31.75
 49
-15.875
 47
1.307937854694239
 98
        1
 10
6053.879973314317
 20
1082.62816146297
1001
GradientColor1ACI
1070
     5
1001
GradientColor2ACI
1070
     2
1001
ACAD
1010
0.0
1020
0.0
1030
0.0
  0
LINE
  5
CE3
330
1F
100
AcDbEntity
  8
0
100
AcDbLine
 10
5734.067891270453
 20
1044.585015731027
 30
0.0
 11
5754.067891270455
 21
1114.585015731027
 31
0.0
  0
LINE
  5
CE4
330
1F
100
AcDbEntity
  8
0
100
AcDbLine
 10
5754.067891270455
 20
1114.585015731027
 30
0.0
 11
6326.709105760245
 21
1137.490664310607
 31
0.0
  0
LINE
  5
CE5
330
1F
100
AcDbEntity
  8
0
100
AcDbLine
 10
5734.067891270453
 20
1044.585015731027
 30
0.0
 11
5734.067891270453
 21
964.5850157310267
 31
0.0
  0
LINE
  5
CE6
330
1F
100
AcDbEntity
  8
0
100
AcDbLine
 10
6327.276837134262
 20
1137.513373565569
 30
0.0
 11
6326.709105760245
 21
964.5850157310267
 31
0.0
  0
ELLIPSE
  5
CE7
330
1F
100
AcDbEntity
  8
0
100
AcDbEllipse
 10
6202.378256640638
 20
1157.557932782445
 30
0.0
 11
2.892516514872066
 21
0.1157006605960879
 31
0.0
210
0.0
220
0.0
230
1.0
 40
0.352523008751315
 41
3.141592653588848
 42
4.712388980384107
  0
ELLIPSE
  5
CE8
330
1F
100
AcDbEntity
  8
0
100
AcDbEllipse
 10
6201.920932029512
 20
1168.991048060918
 30
0.0
 11
2.892516514872145
 21
0.115700660594122
 31
0.0
210
0.0
220
0.0
230
-1.0
 40
0.3525230087513151
 41
3.141592653588808
 42
4.712388980385032
  0
ELLIPSE
  5
CE9
330
1F
100
AcDbEntity
  8
0
100
AcDbEllipse
 10
6220.590693806204
 20
1158.286430269072
 30
0.0
 11
2.892516514872145
 21
0.115700660594122
 31
0.0
210
0.0
220
0.0
230
-1.0
 40
0.3525230087513151
 41
-0.0000000000009839
 42
1.570796326795239
  0
ELLIPSE
  5
CEA
330
1F
100
AcDbEntity
  8
0
100
AcDbEllipse
 10
6220.13336919505
 20
1169.719545547537
 30
0.0
 11
2.892516514872066
 21
0.1157006605960879
 31
0.0
210
0.0
220
0.0
230
1.0
 40
0.352523008751315
 41
-0.000000000000945
 42
1.570796326794314
  0
ELLIPSE
  5
CEB
330
1F
100
AcDbEntity
  8
0
100
AcDbEllipse
 10
6208.591958708545
 20
1157.806480865169
 30
0.0
 11
2.892516514872145
 21
0.115700660594122
 31
0.0
210
0.0
220
0.0
230
-1.0
 40
0.3525230087513151
 41
-0.0000000000009839
 42
1.570796326795239
  0
ELLIPSE
  5
CEC
330
1F
100
AcDbEntity
  8
0
100
AcDbEllipse
 10
6214.376991738296
 20
1158.037882186349
 30
0.0
 11
2.892516514872066
 21
0.1157006605960879
 31
0.0
210
0.0
220
0.0
230
1.0
 40
0.352523008751315
 41
3.141592653588848
 42
4.712388980384107
  0
ELLIPSE
  5
CED
330
1F
100
AcDbEntity
  8
0
100
AcDbEllipse
 10
6208.591958708545
 20
1157.806480865169
 30
0.0
 11
2.892516514872145
 21
0.115700660594122
 31
0.0
210
0.0
220
0.0
230
-1.0
 40
0.3525230087513151
 41
-0.0000000000009839
 42
1.570796326795239
  0
ELLIPSE
  5
CEE
330
1F
100
AcDbEntity
  8
0
100
AcDbEllipse
 10
6214.376991738296
 20
1158.037882186349
 30
0.0
 11
2.892516514872066
 21
0.1157006605960879
 31
0.0
210
0.0
220
0.0
230
1.0
 40
0.352523008751315
 41
3.141592653588848
 42
4.712388980384107
  0
ELLIPSE
  5
CEF
330
1F
100
AcDbEntity
  8
0
100
AcDbEllipse
 10
6213.919667127157
 20
1169.470997464821
 30
0.0
 11
2.892516514872145
 21
0.115700660594122
 31
0.0
210
0.0
220
0.0
230
-1.0
 40
0.3525230087513151
 41
3.141592653588808
 42
4.712388980385032
  0
ELLIPSE
  5
CF0
330
1F
100
AcDbEntity
  8
0
100
AcDbEllipse
 10
6208.13463409742
 20
1169.239596143634
 30
0.0
 11
2.892516514872066
 21
0.1157006605960879
 31
0.0
210
0.0
220
0.0
230
1.0
 40
0.352523008751315
 41
-0.000000000000945
 42
1.570796326794314
  0
LINE
  5
CF1
330
1F
100
AcDbEntity
  8
0
100
AcDbLine
 10
6211.027150612274
 20
1169.355296804228
 30
0.0
 11
6211.484475223428
 21
1157.922181525762
 31
0.0
  0
LINE
  5
CF2
330
1F
100
AcDbEntity
  8
0
100
AcDbLine
 10
6198.987628369643
 20
1169.895026025013
 30
-0.0000000000000013
 11
6222.985098564932
 21
1170.854924832813
 31
0.0
  0
LINE
  5
CF3
330
1F
100
AcDbEntity
  8
0
100
AcDbLine
 10
6222.985098564932
 20
1170.854924832813
 30
0.0
 11
6223.523997466044
 21
1157.382452304977
 31
0.0
  0
LINE
  5
CF4
330
1F
100
AcDbEntity
  8
0
100
AcDbLine
 10
6198.987628369643
 20
1169.895026025013
 30
-0.0000000000000013
 11
6199.526527270757
 21
1156.422553497163
 31
0.0
  0
LINE
  5
CF5
330
1F
100
AcDbEntity
  8
0
 48
10.0
100
AcDbLine
 10
6191.701115347365
 20
1152.106338299207
 30
0.0
 11
6231.669153696254
 21
1153.705059833161
 31
0.0
  0
CIRCLE
  5
CF6
330
1F
100
AcDbEntity
  8
0
100
AcDbCircle
 10
-6252.801120885293
 20
0.0
 30
907.7156101546176
 40
11.0
210
-0.0399680383489357
220
0.999200958721787
230
0.0
  0
CIRCLE
  5
CF7
330
1F
100
AcDbEntity
  8
0
100
AcDbCircle
 10
6252.801120885293
 20
0.0
 30
-907.7156101546176
 40
11.0
210
0.0399680383489357
220
-0.999200958721787
230
0.0
  0
CIRCLE
  5
CF8
330
1F
100
AcDbEntity
  8
0
100
AcDbCircle
 10
6252.801120885293
 20
0.0
 30
-907.7156101546176
 40
8.299999999999981
210
0.0399680383489357
220
-0.999200958721787
230
0.0
  0
CIRCLE
  5
CF9
330
1F
100
AcDbEntity
  8
0
100
AcDbCircle
 10
-6252.801120885293
 20
0.0
 30
907.7156101546176
 40
8.299999999999981
210
-0.0399680383489357
220
0.999200958721787
230
0.0
  0
LINE
  5
CFA
330
1F
100
AcDbEntity
  8
0
100
AcDbLine
 10
6222.516472914366
 20
1157.342151322911
 30
0.0
 11
6200.534051822462
 21
1156.462854479228
 31
0.0
  0
CIRCLE
  5
CFB
330
1F
100
AcDbEntity
  8
0
100
AcDbCircle
 10
6252.801120885293
 20
0.0
 30
-907.7156101546176
 40
11.0
210
0.0399680383489357
220
-0.999200958721787
230
0.0
  0
CIRCLE
  5
CFC
330
1F
100
AcDbEntity
  8
0
100
AcDbCircle
 10
6252.801120885293
 20
0.0
 30
-907.7156101546176
 40
11.0
210
0.0399680383489357
220
-0.999200958721787
230
0.0
  0
CIRCLE
  5
CFD
330
1F
100
AcDbEntity
  8
0
100
AcDbCircle
 10
6252.801120885293
 20
0.0
 30
-907.7156101546176
 40
8.299999999999981
210
0.0399680383489357
220
-0.999200958721787
230
0.0
  0
CIRCLE
  5
CFE
330
1F
100
AcDbEntity
  8
0
100
AcDbCircle
 10
6252.801120885293
 20
0.0
 30
-907.7156101546176
 40
8.299999999999981
210
0.0399680383489357
220
-0.999200958721787
230
0.0
  0
LINE
  5
CFF
330
1F
100
AcDbEntity
  8
0
100
AcDbLine
 10
6218.709517261632
 20
1171.201068620386
 30
0.0
 11
6203.221902401442
 21
1170.581564025975
 31
0.0
  0
LINE
  5
D00
330
1F
100
AcDbEntity
  8
0
100
AcDbLine
 10
6204.339418881506
 20
1182.635860848241
 30
0.0
 11
6216.632767861163
 21
1183.127594807425
 31
0.0
  0
LINE
  5
D01
330
1F
100
AcDbEntity
  8
0
100
AcDbLine
 10
6203.221902401442
 20
1170.581564025975
 30
0.0
 11
6218.709517261632
 21
1171.201068620386
 31
0.0
  0
LINE
  5
D02
330
1F
100
AcDbEntity
  8
0
100
AcDbLine
 10
6218.709517261632
 20
1171.201068620386
 30
0.0
 11
6218.73078031082
 21
1170.669492390545
 31
0.0
  0
LINE
  5
D03
330
1F
100
AcDbEntity
  8
0
100
AcDbLine
 10
6203.221902401442
 20
1170.581564025975
 30
0.0
 11
6203.242556037199
 21
1170.065223131707
 31
-0.0000000000000011
  0
LINE
  5
D04
330
1F
100
AcDbEntity
  8
0
100
AcDbLine
 10
6211.249329481703
 20
1170.385494069494
 30
0.0
 11
6213.106158564647
 21
1170.976934272498
 31
0.0
  0
LINE
  5
D05
330
1F
100
AcDbEntity
  8
0
100
AcDbLine
 10
6203.713090402213
 20
1170.084044506308
 30
0.0
 11
6205.569919485155
 21
1170.675484709318
 31
0.0
  0
LINE
  5
D06
330
1F
100
AcDbEntity
  8
0
100
AcDbLine
 10
6215.017449021434
 20
1170.536218851077
 30
0.0
 11
6216.874278104377
 21
1171.127659054095
 31
0.0
  0
LINE
  5
D07
330
1F
100
AcDbEntity
  8
0
100
AcDbLine
 10
6207.481209941958
 20
1170.234769287905
 30
0.0
 11
6209.338039024885
 21
1170.826209490915
 31
0.0
  0
LINE
  5
D08
330
1F
100
AcDbEntity
  8
0
100
AcDbLine
 10
6203.520182332584
 20
1181.889559751973
 30
0.0
 11
6203.932324800837
 21
1171.585998046008
 31
0.0
  0
LINE
  5
D09
330
1F
100
AcDbEntity
  8
0
100
AcDbLine
 10
6217.508995754695
 20
1182.449112288865
 30
0.0
 11
6217.921138222934
 21
1172.1455505829
 31
0.0
  0
LINE
  5
D0A
330
1F
100
AcDbEntity
  8
0
100
AcDbLine
 10
6203.221902401442
 20
1170.581564025975
 30
0.0
 11
6203.932324800837
 21
1171.585998046008
 31
0.0
  0
LINE
  5
D0B
330
1F
100
AcDbEntity
  8
0
100
AcDbLine
 10
6218.709517261632
 20
1171.201068620386
 30
0.0
 11
6217.921138222934
 21
1172.1455505829
 31
0.0
  0
LINE
  5
D0C
330
1F
100
AcDbEntity
  8
0
100
AcDbLine
 10
6203.932324800837
 20
1171.585998046008
 30
0.0
 11
6217.921138222934
 21
1172.1455505829
 31
0.0
  0
LINE
  5
D0D
330
1F
100
AcDbEntity
  8
0
100
AcDbLine
 10
6203.520182332584
 20
1181.889559751973
 30
0.0
 11
6204.339418881506
 21
1182.635860848241
 31
0.0
  0
LINE
  5
D0E
330
1F
100
AcDbEntity
  8
0
100
AcDbLine
 10
6217.508995754695
 20
1182.449112288865
 30
0.0
 11
6216.632767861163
 21
1183.127594807425
 31
0.0
  0
LINE
  5
D0F
330
1F
100
AcDbEntity
  8
0
100
AcDbLine
 10
6206.736315245136
 20
1182.731736702786
 30
0.0
 11
6207.176953385665
 21
1171.715783189414
 31
0.0
  0
LINE
  5
D10
330
1F
100
AcDbEntity
  8
0
100
AcDbLine
 10
6214.235871497548
 20
1183.031718952887
 30
0.0
 11
6214.676509638077
 21
1172.015765439501
 31
0.0
  0
LINE
  5
D11
330
1F
100
AcDbEntity
  8
0
 48
10.0
100
AcDbLine
 10
6231.509281542856
 20
1157.701863668044
 30
0.0
 11
6191.541243193984
 21
1156.103142134088
 31
0.0
  0
LINE
  5
D12
330
1F
100
AcDbEntity
  8
0
 48
10.0
100
AcDbLine
 10
6191.541243193984
 20
1156.103142134088
 30
0.0
 11
6191.701115347379
 21
1152.106338299207
 31
0.0
  0
LINE
  5
D13
330
1F
100
AcDbEntity
  8
0
 48
10.0
100
AcDbLine
 10
6231.669153696254
 20
1153.705059833161
 30
0.0
 11
6231.509281542856
 21
1157.701863668044
 31
0.0
  0
ELLIPSE
  5
D14
330
1F
100
AcDbEntity
  8
0
100
AcDbEllipse
 10
5972.56203613463
 20
1148.365283962215
 30
0.0
 11
2.892516514872066
 21
0.1157006605960879
 31
0.0
210
0.0
220
0.0
230
1.0
 40
0.352523008751315
 41
3.141592653588848
 42
4.712388980384107
  0
ELLIPSE
  5
D15
330
1F
100
AcDbEntity
  8
0
100
AcDbEllipse
 10
5972.104711523505
 20
1159.798399240688
 30
0.0
 11
2.892516514872145
 21
0.115700660594122
 31
0.0
210
0.0
220
0.0
230
-1.0
 40
0.3525230087513151
 41
3.141592653588808
 42
4.712388980385032
  0
ELLIPSE
  5
D16
330
1F
100
AcDbEntity
  8
0
100
AcDbEllipse
 10
5990.774473300196
 20
1149.093781448842
 30
0.0
 11
2.892516514872145
 21
0.115700660594122
 31
0.0
210
0.0
220
0.0
230
-1.0
 40
0.3525230087513151
 41
-0.0000000000009839
 42
1.570796326795239
  0
ELLIPSE
  5
D17
330
1F
100
AcDbEntity
  8
0
100
AcDbEllipse
 10
5990.317148689042
 20
1160.526896727308
 30
0.0
 11
2.892516514872066
 21
0.1157006605960879
 31
0.0
210
0.0
220
0.0
230
1.0
 40
0.352523008751315
 41
-0.000000000000945
 42
1.570796326794314
  0
ELLIPSE
  5
D18
330
1F
100
AcDbEntity
  8
0
100
AcDbEllipse
 10
5978.775738202538
 20
1148.613832044939
 30
0.0
 11
2.892516514872145
 21
0.115700660594122
 31
0.0
210
0.0
220
0.0
230
-1.0
 40
0.3525230087513151
 41
-0.0000000000009839
 42
1.570796326795239
  0
ELLIPSE
  5
D19
330
1F
100
AcDbEntity
  8
0
100
AcDbEllipse
 10
5984.560771232288
 20
1148.845233366119
 30
0.0
 11
2.892516514872066
 21
0.1157006605960879
 31
0.0
210
0.0
220
0.0
230
1.0
 40
0.352523008751315
 41
3.141592653588848
 42
4.712388980384107
  0
ELLIPSE
  5
D1A
330
1F
100
AcDbEntity
  8
0
100
AcDbEllipse
 10
5978.775738202538
 20
1148.613832044939
 30
0.0
 11
2.892516514872145
 21
0.115700660594122
 31
0.0
210
0.0
220
0.0
230
-1.0
 40
0.3525230087513151
 41
-0.0000000000009839
 42
1.570796326795239
  0
ELLIPSE
  5
D1B
330
1F
100
AcDbEntity
  8
0
100
AcDbEllipse
 10
5984.560771232288
 20
1148.845233366119
 30
0.0
 11
2.892516514872066
 21
0.1157006605960879
 31
0.0
210
0.0
220
0.0
230
1.0
 40
0.352523008751315
 41
3.141592653588848
 42
4.712388980384107
  0
ELLIPSE
  5
D1C
330
1F
100
AcDbEntity
  8
0
100
AcDbEllipse
 10
5984.10344662115
 20
1160.278348644591
 30
0.0
 11
2.892516514872145
 21
0.115700660594122
 31
0.0
210
0.0
220
0.0
230
-1.0
 40
0.3525230087513151
 41
3.141592653588808
 42
4.712388980385032
  0
ELLIPSE
  5
D1D
330
1F
100
AcDbEntity
  8
0
100
AcDbEllipse
 10
5978.318413591415
 20
1160.046947323404
 30
0.0
 11
2.892516514872066
 21
0.1157006605960879
 31
0.0
210
0.0
220
0.0
230
1.0
 40
0.352523008751315
 41
-0.000000000000945
 42
1.570796326794314
  0
LINE
  5
D1E
330
1F
100
AcDbEntity
  8
0
100
AcDbLine
 10
5981.210930106266
 20
1160.162647983998
 30
0.0
 11
5981.66825471742
 21
1148.729532705532
 31
0.0
  0
LINE
  5
D1F
330
1F
100
AcDbEntity
  8
0
100
AcDbLine
 10
5969.171407863638
 20
1160.702377204783
 30
-0.0000000000000013
 11
5993.168878058927
 21
1161.662276012583
 31
0.0
  0
LINE
  5
D20
330
1F
100
AcDbEntity
  8
0
100
AcDbLine
 10
5993.168878058927
 20
1161.662276012583
 30
0.0
 11
5993.707776960039
 21
1148.189803484747
 31
0.0
  0
LINE
  5
D21
330
1F
100
AcDbEntity
  8
0
100
AcDbLine
 10
5969.171407863638
 20
1160.702377204783
 30
-0.0000000000000013
 11
5969.710306764749
 21
1147.229904676933
 31
0.0
  0
LINE
  5
D22
330
1F
100
AcDbEntity
  8
0
 48
10.0
100
AcDbLine
 10
5961.884894841357
 20
1142.913689478977
 30
0.0
 11
6001.852933190249
 21
1144.512411012932
 31
0.0
  0
CIRCLE
  5
D23
330
1F
100
AcDbEntity
  8
0
100
AcDbCircle
 10
-6022.801120885372
 20
0.0
 30
907.7156101546187
 40
11.0
210
-0.0399680383489357
220
0.9992009587217868
230
0.0
  0
CIRCLE
  5
D24
330
1F
100
AcDbEntity
  8
0
100
AcDbCircle
 10
6022.801120885372
 20
0.0
 30
-907.7156101546187
 40
11.0
210
0.0399680383489357
220
-0.9992009587217868
230
0.0
  0
CIRCLE
  5
D25
330
1F
100
AcDbEntity
  8
0
100
AcDbCircle
 10
6022.801120885372
 20
0.0
 30
-907.7156101546187
 40
8.299999999999981
210
0.0399680383489357
220
-0.9992009587217868
230
0.0
  0
CIRCLE
  5
D26
330
1F
100
AcDbEntity
  8
0
100
AcDbCircle
 10
-6022.801120885372
 20
0.0
 30
907.7156101546187
 40
8.299999999999981
210
-0.0399680383489357
220
0.9992009587217868
230
0.0
  0
LINE
  5
D27
330
1F
100
AcDbEntity
  8
0
100
AcDbLine
 10
5992.700252408359
 20
1148.149502502681
 30
0.0
 11
5970.717831316455
 21
1147.270205658998
 31
0.0
  0
CIRCLE
  5
D28
330
1F
100
AcDbEntity
  8
0
100
AcDbCircle
 10
6022.801120885372
 20
0.0
 30
-907.7156101546187
 40
11.0
210
0.0399680383489357
220
-0.9992009587217868
230
0.0
  0
CIRCLE
  5
D29
330
1F
100
AcDbEntity
  8
0
100
AcDbCircle
 10
6022.801120885372
 20
0.0
 30
-907.7156101546187
 40
11.0
210
0.0399680383489357
220
-0.9992009587217868
230
0.0
  0
CIRCLE
  5
D2A
330
1F
100
AcDbEntity
  8
0
100
AcDbCircle
 10
6022.801120885372
 20
0.0
 30
-907.7156101546187
 40
8.299999999999981
210
0.0399680383489357
220
-0.9992009587217868
230
0.0
  0
CIRCLE
  5
D2B
330
1F
100
AcDbEntity
  8
0
100
AcDbCircle
 10
6022.801120885372
 20
0.0
 30
-907.7156101546187
 40
8.299999999999981
210
0.0399680383489357
220
-0.9992009587217868
230
0.0
  0
LINE
  5
D2C
330
1F
100
AcDbEntity
  8
0
100
AcDbLine
 10
5988.893296755625
 20
1162.008419800157
 30
0.0
 11
5973.405681895434
 21
1161.388915205745
 31
0.0
  0
LINE
  5
D2D
330
1F
100
AcDbEntity
  8
0
100
AcDbLine
 10
5974.5231983755
 20
1173.44321202801
 30
0.0
 11
5986.816547355156
 21
1173.934945987195
 31
0.0
  0
LINE
  5
D2E
330
1F
100
AcDbEntity
  8
0
100
AcDbLine
 10
5973.405681895434
 20
1161.388915205745
 30
0.0
 11
5988.893296755625
 21
1162.008419800157
 31
0.0
  0
LINE
  5
D2F
330
1F
100
AcDbEntity
  8
0
100
AcDbLine
 10
5988.893296755625
 20
1162.008419800157
 30
0.0
 11
5988.914559804812
 21
1161.476843570315
 31
0.0
  0
LINE
  5
D30
330
1F
100
AcDbEntity
  8
0
100
AcDbLine
 10
5973.405681895434
 20
1161.388915205745
 30
0.0
 11
5973.426335531192
 21
1160.872574311477
 31
-0.0000000000000011
  0
LINE
  5
D31
330
1F
100
AcDbEntity
  8
0
100
AcDbLine
 10
5981.433108975696
 20
1161.192845249265
 30
0.0
 11
5983.289938058639
 21
1161.784285452267
 31
0.0
  0
LINE
  5
D32
330
1F
100
AcDbEntity
  8
0
100
AcDbLine
 10
5973.896869896205
 20
1160.891395686078
 30
0.0
 11
5975.753698979148
 21
1161.482835889088
 31
0.0
  0
LINE
  5
D33
330
1F
100
AcDbEntity
  8
0
100
AcDbLine
 10
5985.201228515427
 20
1161.343570030847
 30
0.0
 11
5987.05805759837
 21
1161.935010233865
 31
0.0
  0
LINE
  5
D34
330
1F
100
AcDbEntity
  8
0
100
AcDbLine
 10
5977.66498943595
 20
1161.042120467675
 30
0.0
 11
5979.521818518879
 21
1161.633560670685
 31
0.0
  0
LINE
  5
D35
330
1F
100
AcDbEntity
  8
0
100
AcDbLine
 10
5973.703961826578
 20
1172.696910931743
 30
0.0
 11
5974.11610429483
 21
1162.393349225778
 31
0.0
  0
LINE
  5
D36
330
1F
100
AcDbEntity
  8
0
100
AcDbLine
 10
5987.692775248689
 20
1173.256463468635
 30
0.0
 11
5988.104917716926
 21
1162.95290176267
 31
0.0
  0
LINE
  5
D37
330
1F
100
AcDbEntity
  8
0
100
AcDbLine
 10
5973.405681895434
 20
1161.388915205745
 30
0.0
 11
5974.11610429483
 21
1162.393349225778
 31
0.0
  0
LINE
  5
D38
330
1F
100
AcDbEntity
  8
0
100
AcDbLine
 10
5988.893296755625
 20
1162.008419800157
 30
0.0
 11
5988.104917716926
 21
1162.95290176267
 31
0.0
  0
LINE
  5
D39
330
1F
100
AcDbEntity
  8
0
100
AcDbLine
 10
5974.11610429483
 20
1162.393349225778
 30
0.0
 11
5988.104917716926
 21
1162.95290176267
 31
0.0
  0
LINE
  5
D3A
330
1F
100
AcDbEntity
  8
0
100
AcDbLine
 10
5973.703961826578
 20
1172.696910931743
 30
0.0
 11
5974.5231983755
 21
1173.44321202801
 31
0.0
  0
LINE
  5
D3B
330
1F
100
AcDbEntity
  8
0
100
AcDbLine
 10
5987.692775248689
 20
1173.256463468635
 30
0.0
 11
5986.816547355156
 21
1173.934945987195
 31
0.0
  0
LINE
  5
D3C
330
1F
100
AcDbEntity
  8
0
100
AcDbLine
 10
5976.92009473913
 20
1173.539087882556
 30
0.0
 11
5977.360732879657
 21
1162.523134369185
 31
0.0
  0
LINE
  5
D3D
330
1F
100
AcDbEntity
  8
0
100
AcDbLine
 10
5984.419650991542
 20
1173.839070132657
 30
0.0
 11
5984.860289132069
 21
1162.823116619271
 31
0.0
  0
LINE
  5
D3E
330
1F
100
AcDbEntity
  8
0
 48
10.0
100
AcDbLine
 10
6001.693061036851
 20
1148.509214847814
 30
0.0
 11
5961.725022687977
 21
1146.910493313859
 31
0.0
  0
LINE
  5
D3F
330
1F
100
AcDbEntity
  8
0
 48
10.0
100
AcDbLine
 10
5961.725022687977
 20
1146.910493313859
 30
0.0
 11
5961.884894841372
 21
1142.913689478977
 31
0.0
  0
LINE
  5
D40
330
1F
100
AcDbEntity
  8
0
 48
10.0
100
AcDbLine
 10
6001.852933190249
 20
1144.512411012932
 30
0.0
 11
6001.693061036851
 21
1148.509214847814
 31
0.0
  0
LINE
  5
D41
330
1F
100
AcDbEntity
  8
0
100
AcDbLine
 10
6183.709105760142
 20
2265.710517156185
 30
0.0
 11
6183.709105760142
 21
2221.15779690478
 31
0.0
  0
LINE
  5
D42
330
1F
100
AcDbEntity
  8
0
100
AcDbLine
 10
6189.79271790608
 20
2214.218039466588
 30
0.0
 11
6212.625493614226
 21
2211.202994845767
 31
0.0
  0
LINE
  5
D43
330
1F
100
AcDbEntity
  8
0
100
AcDbLine
 10
6218.709105760143
 20
2204.263237407588
 30
0.0
 11
6218.709105760143
 21
2159.710517156185
 31
0.0
  0
ARC
  5
D44
330
1F
100
AcDbEntity
  8
0
100
AcDbCircle
 10
6190.709105760142
 20
2221.15779690478
 30
0.0
 40
7.0
100
AcDbArc
 50
179.9999999999957
 51
262.4776717064843
  0
ARC
  5
D45
330
1F
100
AcDbEntity
  8
0
100
AcDbCircle
 10
6211.709105760154
 20
2204.263237407588
 30
0.0
 40
6.999999999989086
100
AcDbArc
 50
359.9999999999819
 51
82.4776717064056
  0
LINE
  5
D46
330
1F
100
AcDbEntity
  8
0
100
AcDbLine
 10
6183.709105760142
 20
1156.71051715617
 30
0.0
 11
6183.709105760142
 21
1201.263237407576
 31
0.0
  0
LINE
  5
D47
330
1F
100
AcDbEntity
  8
0
100
AcDbLine
 10
6189.79271790608
 20
1208.202994845767
 30
0.0
 11
6212.625493614226
 21
1211.218039466589
 31
0.0
  0
LINE
  5
D48
330
1F
100
AcDbEntity
  8
0
100
AcDbLine
 10
6218.709105760143
 20
1218.157796904767
 30
0.0
 11
6218.709105760143
 21
1262.71051715617
 31
0.0
  0
ARC
  5
D49
330
1F
100
AcDbEntity
  8
0
100
AcDbCircle
 10
6190.709105760142
 20
1201.263237407576
 30
0.0
 40
7.0
100
AcDbArc
 50
97.52232829351569
 51
180.0
  0
ARC
  5
D4A
330
1F
100
AcDbEntity
  8
0
100
AcDbCircle
 10
6211.709105760154
 20
1218.157796904767
 30
0.0
 40
6.999999999989086
100
AcDbArc
 50
277.5223282935944
 51
0.0000000000260551
  0
LINE
  5
D4B
330
1F
100
AcDbEntity
  8
0
100
AcDbLine
 10
6209.709105760114
 20
1217.710517156178
 30
0.0
 11
6209.709105760114
 21
2204.710517156178
 31
0.0
  0
LWPOLYLINE
  5
D4C
330
1F
100
AcDbEntity
  8
0
100
AcDbPolyline
 90
        8
 70
     1
 43
0.0
 10
6194.209105760142
 20
2282.710517156179
 10
6194.209105760144
 20
2322.710517156179
 42
0.4142135623731307
 10
6186.709105760145
 20
2330.210517156179
 10
6086.709105760142
 20
2330.210517156179
 42
0.4142135623730951
 10
6079.209105760143
 20
2322.710517156179
 10
6079.209105760143
 20
2282.710517156179
 42
0.414213562373184
 10
6086.709105760142
 20
2275.210517156179
 10
6186.709105760145
 20
2275.210517156179
 42
0.4142135623731486
  0
LWPOLYLINE
  5
D4D
330
1F
100
AcDbEntity
  8
0
100
AcDbPolyline
 90
       10
 70
     0
 43
0.0
 10
6164.793102045769
 20
2282.210517156179
 10
6179.793102045769
 20
2282.210517156179
 42
0.414213562373113
 10
6187.293102045768
 20
2289.710517156179
 10
6187.293102045768
 20
2315.710517156179
 42
0.4142135623731846
 10
6179.793102045768
 20
2323.210517156179
 10
6093.793102045768
 20
2323.210517156179
 42
0.4142135623731307
 10
6086.293102045769
 20
2315.71051715618
 10
6086.293102045769
 20
2289.710517156179
 42
0.4142135623731666
 10
6093.793102045768
 20
2282.210517156179
 10
6108.79310204577
 20
2282.210517156179
  0
LINE
  5
E32
330
1F
100
AcDbEntity
  8
0
100
AcDbLine
 10
6178.709105758921
 20
2336.210517156183
 30
0.0
 11
6178.709105758921
 21
2934.3906643106
 31
0.0
  0
LINE
  5
E33
330
1F
100
AcDbEntity
  8
0
100
AcDbLine
 10
6218.709105758921
 20
2402.657796904792
 30
0.0
 11
6218.709105758921
 21
2447.210517156191
 31
0.0
  0
LINE
  5
E39
330
1F
100
AcDbEntity
  8
0
100
AcDbLine
 10
6183.709105758921
 20
2341.210517156191
 30
0.0
 11
6183.709105758921
 21
2385.763237407596
 31
0.0
  0
ARC
  5
E3A
330
1F
100
AcDbEntity
  8
0
100
AcDbCircle
 10
6192.709105758921
 20
2385.763237407596
 30
0.0
 40
9.0
100
AcDbArc
 50
97.52232829346297
 51
180.0
  0
LINE
  5
E41
330
1F
100
AcDbEntity
  8
0
100
AcDbLine
 10
6214.363668511818
 20
2397.700827306091
 30
0.0
 11
6191.530892803676
 21
2394.68578268527
 31
0.0
  0
ARC
  5
E42
330
1F
100
AcDbEntity
  8
0
100
AcDbCircle
 10
6213.709105758921
 20
2402.657796904792
 30
0.0
 40
5.0
100
AcDbArc
 50
277.5223282934629
 51
0.0
  0
LINE
  5
E44
330
1F
100
AcDbEntity
  8
0
100
AcDbLine
 10
6218.709105758921
 20
2867.943384562014
 30
0.0
 11
6218.709105758921
 21
2823.390664310615
 31
0.0
  0
LINE
  5
E4A
330
1F
100
AcDbEntity
  8
0
100
AcDbLine
 10
6183.709105758921
 20
2929.390664310615
 30
0.0
 11
6183.709105758921
 21
2884.837944059209
 31
0.0
  0
ARC
  5
E4B
330
1F
100
AcDbEntity
  8
0
100
AcDbCircle
 10
6192.709105758921
 20
2884.837944059209
 30
0.0
 40
9.0
100
AcDbArc
 50
180.0
 51
262.4776717065369
  0
LINE
  5
E52
330
1F
100
AcDbEntity
  8
0
100
AcDbLine
 10
6214.363668511818
 20
2872.900354160714
 30
0.0
 11
6191.530892803676
 21
2875.915398781535
 31
0.0
  0
ARC
  5
E53
330
1F
100
AcDbEntity
  8
0
100
AcDbCircle
 10
6213.709105758921
 20
2867.943384562014
 30
0.0
 40
5.0
100
AcDbArc
 50
0.0
 51
82.47767170653704
  0
LINE
  5
E56
330
1F
100
AcDbEntity
  8
0
100
AcDbLine
 10
6118.70910575892
 20
2336.210517156191
 30
0.0
 11
6118.709105758949
 21
2934.390664310607
 31
0.0
  0
LINE
  5
E57
330
1F
100
AcDbEntity
  8
0
100
AcDbLine
 10
6118.709105758949
 20
2934.390664310607
 30
0.0
 11
6178.709105758921
 21
2934.390664310615
 31
0.0
  0
LINE
  5
E5B
330
1F
100
AcDbEntity
  8
0
100
AcDbLine
 10
6209.709105760143
 20
2868.390664310608
 30
0.0
 11
6209.709105760114
 21
2402.210517156206
 31
0.0
  0
LINE
  5
EB1
330
1F
100
AcDbEntity
  8
0
100
AcDbLine
 10
6081.709105760143
 20
2336.210517156175
 30
0.0
 11
6191.709105760144
 21
2336.210517156183
 31
0.0
  0
ARC
  5
EB2
330
1F
100
AcDbEntity
  8
0
100
AcDbCircle
 10
6081.709105760143
 20
2324.210517156175
 30
0.0
 40
12.0
100
AcDbArc
 50
90.0
 51
180.0
  0
LINE
  5
EB3
330
1F
100
AcDbEntity
  8
0
100
AcDbLine
 10
6069.709105760144
 20
2241.570938608235
 30
0.0
 11
6069.709105760144
 21
2324.210517156175
 31
0.0
  0
ARC
  5
EB4
330
1F
100
AcDbEntity
  8
0
100
AcDbCircle
 10
6191.709105760144
 20
2324.210517156183
 30
0.0
 40
12.0
100
AcDbArc
 50
0.0
 51
90.0
  0
LINE
  5
EB5
330
1F
100
AcDbEntity
  8
0
100
AcDbLine
 10
6203.709105760143
 20
2241.570938608235
 30
0.0
 11
6203.709105760143
 21
2324.210517156183
 31
0.0
  0
VIEWPORT
  5
4DA
102
{ACAD_XDICTIONARY
360
4DB
102
}
330
D2
100
AcDbEntity
 67
     1
  8
0
100
AcDbViewport
 10
186.11896265368
 20
-3.905376792975346
 30
0.0
 40
1956.531178333976
 41
929.766327793534
 68
     1
 69
     1
 12
186.11896265368
 22
-3.905376792975346
 13
0.0
 23
0.0
 14
10.0
 24
10.0
 15
10.0
 25
10.0
 16
0.0
 26
0.0
 36
1.0
 17
0.0
 27
0.0
 37
0.0
 42
50.0
 43
0.0
 44
0.0
 45
929.766327793534
 50
0.0
 51
0.0
 72
  1000
 90
   819232
  1

281
     0
 71
     1
 74
     0
110
0.0
120
0.0
130
0.0
111
1.0
121
0.0
131
0.0
112
0.0
122
1.0
132
0.0
 79
     0
146
0.0
170
     0
 61
     5
348
F5
292
     1
282
     1
141
0.0
142
0.0
 63
   250
421
  3355443
  0
VIEWPORT
  5
4DE
102
{ACAD_XDICTIONARY
360
4DF
102
}
330
D2
100
AcDbEntity
 67
     1
  8
0
100
AcDbViewport
 10
145.3303314447403
 20
101.8116623163223
 30
0.0
 40
232.5285303115845
 41
162.8986597061157
 68
     2
 69
     2
 12
2123.804719419324
 22
1657.691258220839
 13
0.0
 23
0.0
 14
10.0
 24
10.0
 15
10.0
 25
10.0
 16
0.0
 26
0.0
 36
1.0
 17
0.0
 27
0.0
 37
0.0
 42
50.0
 43
0.0
 44
0.0
 45
1568.355772701413
 50
0.0
 51
0.0
 72
  1000
 90
   819296
  1

281
     0
 71
     1
 74
     0
110
0.0
120
0.0
130
0.0
111
1.0
121
0.0
131
0.0
112
0.0
122
1.0
132
0.0
 79
     0
146
0.0
170
     0
 61
     5
348
F5
292
     1
282
     1
141
0.0
142
0.0
 63
   250
421
  3355443
  0
ENDSEC
  0
SECTION
  2
OBJECTS
  0
DICTIONARY
  5
C
330
0
100
AcDbDictionary
281
     1
  3
ACAD_CIP_PREVIOUS_PRODUCT_INFO
350
216
  3
ACAD_COLOR
350
6B
  3
ACAD_DETAILVIEWSTYLE
350
21B
  3
ACAD_GROUP
350
D
  3
ACAD_LAYOUT
350
1A
  3
ACAD_MATERIAL
350
6A
  3
ACAD_MLEADERSTYLE
350
12D
  3
ACAD_MLINESTYLE
350
17
  3
ACAD_PLOTSETTINGS
350
19
  3
ACAD_PLOTSTYLENAME
350
E
  3
ACAD_SCALELIST
350
10C
  3
ACAD_SECTIONVIEWSTYLE
350
219
  3
ACAD_TABLESTYLE
350
7E
  3
ACAD_VISUALSTYLE
350
EF
  3
ACDB_RECOMPOSE_DATA
350
F7E
  3
AcDbVariableDictionary
350
5E
  0
DICTIONARY
  5
1FF
330
2
100
AcDbDictionary
280
     1
281
     1
  3
ACAD_LAYERSTATES
360
200
  0
DICTIONARY
  5
13C
330
10
100
AcDbDictionary
280
     1
281
     1
  0
DICTIONARY
  5
1CE
330
1F
100
AcDbDictionary
280
     1
281
     1
  3
ACAD_SORTENTS
360
732
  0
DICTIONARY
  5
4CB
330
4CA
100
AcDbDictionary
280
     1
281
     1
  3
ASDK_XREC_ANNOTATION_SCALE_INFO
360
4CC
  0
DICTIONARY
  5
4CF
330
4CE
100
AcDbDictionary
280
     1
281
     1
  3
ASDK_XREC_ANNOTATION_SCALE_INFO
360
4D0
  0
DICTIONARY
  5
615
330
614
100
AcDbDictionary
280
     1
281
     1
  3
ACAD_DIMASSOC
360
616
  0
DICTIONARY
  5
CDA
330
CD9
100
AcDbDictionary
280
     1
281
     1
  3
ACAD_DIMASSOC
360
CDB
  0
DICTIONARY
  5
4DB
330
4DA
100
AcDbDictionary
280
     1
281
     1
  3
ASDK_XREC_ANNOTATION_SCALE_INFO
360
4DC
  0
DICTIONARY
  5
4DF
330
4DE
100
AcDbDictionary
280
     1
281
     1
  3
ASDK_XREC_ANNOTATION_SCALE_INFO
360
4E0
  0
XRECORD
  5
216
102
{ACAD_REACTORS
330
C
102
}
330
C
100
AcDbXrecord
280
     1
300
AMECH_PP
300
2019
300

  0
DICTIONARY
  5
6B
102
{ACAD_REACTORS
330
C
102
}
330
C
100
AcDbDictionary
281
     1
  0
DICTIONARY
  5
21B
102
{ACAD_REACTORS
330
C
102
}
330
C
100
AcDbDictionary
281
     1
  3
Imperial24
350
ABC
  3
Metric50
350
21C
  0
DICTIONARY
  5
D
102
{ACAD_REACTORS
330
C
102
}
330
C
100
AcDbDictionary
281
     1
  0
DICTIONARY
  5
1A
102
{ACAD_REACTORS
330
C
102
}
330
C
100
AcDbDictionary
281
     1
  3
Layout1
350
D3
  3
Layout2
350
D7
  3
Model
350
22
  0
DICTIONARY
  5
6A
102
{ACAD_REACTORS
330
C
102
}
330
C
100
AcDbDictionary
281
     1
  3
ByBlock
350
ED
  3
ByLayer
350
EC
  3
Global
350
EE
  0
DICTIONARY
  5
12D
102
{ACAD_REACTORS
330
C
102
}
330
C
100
AcDbDictionary
281
     1
  3
Standard
350
12E
  0
DICTIONARY
  5
17
102
{ACAD_REACTORS
330
C
102
}
330
C
100
AcDbDictionary
281
     1
  3
Standard
350
18
  0
DICTIONARY
  5
19
102
{ACAD_REACTORS
330
C
102
}
330
C
100
AcDbDictionary
281
     1
  0
ACDBDICTIONARYWDFLT
  5
E
102
{ACAD_REACTORS
330
C
102
}
330
C
100
AcDbDictionary
281
     1
  3
Normal
350
F
100
AcDbDictionaryWithDefault
340
F
  0
DICTIONARY
  5
10C
102
{ACAD_REACTORS
330
C
102
}
330
C
100
AcDbDictionary
281
     1
  3
A0
350
10D
  3
A1
350
1BE
  3
A2
350
1BF
  3
A3
350
1C0
  3
A4
350
1C1
  3
A5
350
1C2
  3
A6
350
1C3
  3
A7
350
1C4
  3
A8
350
1C5
  3
A9
350
1C6
  3
B0
350
1C7
  3
B1
350
1C8
  3
B2
350
1C9
  3
B3
350
1CA
  3
B4
350
1CB
  3
B5
350
1CC
  3
B6
350
1CD
  0
DICTIONARY
  5
219
102
{ACAD_REACTORS
330
C
102
}
330
C
100
AcDbDictionary
281
     1
  3
Imperial24
350
ABB
  3
Metric50
350
21A
  0
DICTIONARY
  5
7E
102
{ACAD_REACTORS
330
C
102
}
330
C
100
AcDbDictionary
281
     1
  3
Standard
350
7F
  0
DICTIONARY
  5
EF
102
{ACAD_REACTORS
330
C
102
}
330
C
100
AcDbDictionary
281
     1
  3
2dWireframe
350
F5
  3
Basic
350
F4
  3
Brighten
350
FB
  3
ColorChange
350
FF
  3
Conceptual
350
F8
  3
Dim
350
FA
  3
EdgeColorOff
350
1E6
  3
Facepattern
350
FE
  3
Flat
350
F0
  3
FlatWithEdges
350
F1
  3
Gouraud
350
F2
  3
GouraudWithEdges
350
F3
  3
Hidden
350
F7
  3
JitterOff
350
1E4
  3
Linepattern
350
FD
  3
OverhangOff
350
1E5
  3
Realistic
350
F9
  3
Shaded
350
1F3
  3
Shaded with edges
350
1F2
  3
Shades of Gray
350
1EF
  3
Sketchy
350
1F0
  3
Thicken
350
FC
  3
Wireframe
350
F6
  3
X-Ray
350
1F1
  0
XRECORD
  5
F7E
102
{ACAD_REACTORS
330
C
102
}
330
C
100
AcDbXrecord
280
     1
 90
        1
330
7F
  0
DICTIONARY
  5
5E
102
{ACAD_REACTORS
330
C
102
}
330
C
100
AcDbDictionary
281
     1
  3
CANNOSCALE
350
146
  3
CENTEREXE
350
259
  3
CENTERLTYPEFILE
350
25A
  3
CMLEADERSTYLE
350
145
  3
CTABLESTYLE
350
84
  3
CVIEWDETAILSTYLE
350
227
  3
CVIEWSECTIONSTYLE
350
228
  3
DIMASSOC
350
5F
  3
HIDETEXT
350
63
  3
INDEXCTL
350
B62
  3
LAYEREVAL
350
1AE
  3
LAYERNOTIFY
350
1AF
  3
LIGHTINGUNITS
350
B60
  3
MSLTSCALE
350
B5F
  3
SORTENTS
350
B61
  0
DICTIONARY
  5
200
102
{ACAD_REACTORS
330
1FF
102
}
330
1FF
100
AcDbDictionary
281
     1
  0
SORTENTSTABLE
  5
732
102
{ACAD_REACTORS
330
1CE
102
}
330
1CE
100
AcDbSortentsTable
330
1F
331
60D
  5
626
331
614
  5
627
331
617
  5
628
331
618
  5
629
331
619
  5
63B
331
62B
  5
640
331
630
  5
641
331
631
  5
642
331
632
  5
643
331
633
  5
644
331
634
  5
645
331
635
  5
646
331
636
  5
656
331
63A
  5
657
331
63B
  5
658
331
63C
  5
659
331
63D
  5
65A
331
63E
  5
65B
331
63F
  5
65C
331
640
  5
65D
331
641
  5
65E
331
642
  5
65F
331
643
  5
660
331
644
  5
661
331
645
  5
662
331
646
  5
663
331
647
  5
664
331
648
  5
665
331
649
  5
666
331
64A
  5
667
331
64B
  5
668
331
64C
  5
669
331
64D
  5
66A
331
64E
  5
66B
331
64F
  5
66C
331
650
  5
66D
331
651
  5
66F
331
653
  5
670
331
654
  5
671
331
655
  5
678
331
65C
  5
679
331
65D
  5
67A
331
65E
  5
67B
331
65F
  5
67C
331
660
  5
67D
331
661
  5
67E
331
662
  5
67F
331
663
  5
680
331
664
  5
681
331
665
  5
682
331
666
  5
683
331
667
  5
684
331
668
  5
686
331
66A
  5
687
331
66B
  5
688
331
66C
  5
689
331
66D
  5
68A
331
66E
  5
68B
331
66F
  5
68C
331
670
  5
68D
331
671
  5
68E
331
672
  5
68F
331
673
  5
690
331
674
  5
691
331
675
  5
692
331
676
  5
693
331
677
  5
694
331
678
  5
695
331
679
  5
696
331
67A
  5
697
331
67B
  5
698
331
67C
  5
699
331
67D
  5
69A
331
67E
  5
69B
331
67F
  5
69C
331
680
  5
69D
331
681
  5
69E
331
682
  5
69F
331
683
  5
6A0
331
684
  5
6A1
331
685
  5
6A2
331
686
  5
722
331
688
  5
723
331
689
  5
724
331
68A
  5
72B
331
691
  5
72C
331
692
  5
72D
331
693
  5
72E
331
694
  5
72F
331
695
  5
730
331
696
  5
731
331
697
  5
744
331
698
  5
745
331
699
  5
746
331
69A
  5
747
331
69B
  5
748
331
69C
  5
749
331
69D
  5
74B
331
69F
  5
74C
331
6A0
  5
74D
331
6A1
  5
74E
331
6A2
  5
74F
331
6A3
  5
754
331
754
  5
755
331
755
  5
756
331
756
  5
757
331
757
  5
758
331
758
  5
759
331
759
  5
75A
331
75A
  5
75B
331
75B
  5
75C
331
75C
  5
75D
331
75D
  5
75E
331
75E
  5
761
331
86B
  5
86F
331
86C
  5
871
331
86D
  5
873
331
86E
  5
874
331
86F
  5
875
331
871
  5
876
331
873
  5
877
331
874
  5
87D
331
875
  5
87E
331
876
  5
881
331
877
  5
884
331
87D
  5
889
331
87E
  5
88A
331
881
  5
88C
331
884
  5
896
331
889
  5
899
331
88A
  5
89A
331
88C
  5
89C
331
896
  5
8A1
331
899
  5
8A6
331
89A
  5
8AF
331
89C
  5
8B1
331
8A1
  5
8B3
331
8A6
  5
8B5
331
8AF
  5
8B7
331
8B1
  5
8B8
331
8B3
  5
8B9
331
8B5
  5
8BF
331
8B7
  5
8C0
331
8B8
  5
8C3
331
8B9
  5
8C6
331
8BF
  5
8CB
331
8C0
  5
8D5
331
8C3
  5
8D8
331
8C6
  5
8DF
331
8CB
  5
8E8
331
8D5
  5
8EA
331
8D8
  5
8EC
331
8DF
  5
8EE
331
8E8
  5
8F0
331
8EA
  5
8F1
331
8EC
  5
8F2
331
8EE
  5
8F8
331
8F0
  5
8F9
331
8F1
  5
8FC
331
8F2
  5
8FF
331
8F8
  5
904
331
8F9
  5
90E
331
8FC
  5
911
331
8FF
  5
913
331
904
  5
AC6
331
90E
  5
AC7
331
911
  5
AEE
331
913
  5
AF6
331
AC6
  5
AF7
331
AC7
  5
AFF
331
AEE
  5
B00
331
AF6
  5
B3D
331
AF7
  5
B5C
331
AFF
  5
B5D
331
B00
  5
B5E
331
B3D
  5
618
331
B5D
  5
76E
331
B5E
  5
86D
  0
XRECORD
  5
4CC
102
{ACAD_REACTORS
330
4CB
102
}
330
4CB
100
AcDbXrecord
280
     1
 90
        1
340
10D
  0
XRECORD
  5
4D0
102
{ACAD_REACTORS
330
4CF
102
}
330
4CF
100
AcDbXrecord
280
     1
 90
        1
340
10D
  0
DIMASSOC
  5
616
102
{ACAD_REACTORS
330
615
102
}
330
615
100
AcDbDimAssoc
330
614
 90
        2
 70
     0
 71
     0
  1
AcDbOsnapPointRef
 72
    13
331
5FF
 73
     2
 91
        0
 40
0.0
 10
0.0
 20
0.0
 30
2.000000000000000E+50
 75
     0
  0
DIMASSOC
  5
CDB
102
{ACAD_REACTORS
330
CDA
102
}
330
CDA
100
AcDbDimAssoc
330
CD9
 90
        2
 70
     0
 71
     0
  1
AcDbOsnapPointRef
 72
    13
331
CD6
 73
     2
 91
        0
 40
0.0
 10
0.0
 20
0.0
 30
2.000000000000000E+50
 75
     0
  0
XRECORD
  5
4DC
102
{ACAD_REACTORS
330
4DB
102
}
330
4DB
100
AcDbXrecord
280
     1
 90
        1
340
10D
  0
XRECORD
  5
4E0
102
{ACAD_REACTORS
330
4DF
102
}
330
4DF
100
AcDbXrecord
280
     1
 90
        1
340
10D
  0
ACDBDETAILVIEWSTYLE
  5
ABC
102
{ACAD_REACTORS
330
21B
102
}
330
21B
100
AcDbModelDocViewStyle
 70
     0
  3
Imperial24
290
     0
300
Imperial24
 90
        0
100
AcDbDetailViewStyle
 70
     0
 71
     0
 90
        3
 71
     1
340
11
 62
   256
 40
0.24
340
0
 62
   256
 40
0.24
300

 40
0.36
280
     3
 71
     2
340
16
 90
       25
 62
   256
 71
     3
340
11
 62
   256
 40
0.24
 90
        1
 40
0.75
 90
        1
300
%<\AcVar ViewType \f "%tc1">% %<\AcVar ViewDetailId>%\PVARIA %<\AcVar ViewScale \f "%sn">%
 71
     4
340
16
 90
       25
 62
   256
340
16
 90
       25
 62
   256
280
     0
  0
ACDBDETAILVIEWSTYLE
  5
21C
102
{ACAD_REACTORS
330
21B
102
}
330
21B
100
AcDbModelDocViewStyle
 70
     0
  3
Metric50
290
     0
300
Metric50
 90
        0
100
AcDbDetailViewStyle
 70
     0
 71
     0
 90
        3
 71
     1
340
11
 62
   256
 40
5.0
340
0
 62
   256
 40
5.0
300

 40
0.0
280
     1
 71
     2
340
16
 90
       25
 62
   256
 71
     3
340
11
 62
   256
 40
5.0
 90
        0
 40
15.0
 90
        1
300
%<\AcVar ViewDetailId>% (%<\AcVar ViewScale \f "%sn">%)
 71
     4
340
16
 90
       25
 62
   256
340
16
 90
       25
 62
   256
280
     0
  0
LAYOUT
  5
D3
102
{ACAD_REACTORS
330
1A
102
}
330
1A
100
AcDbPlotSettings
  1

  2
PDF-XChange Printer
  4
A4
  6

 40
3.174999952316282
 41
3.174999952316282
 42
3.175003051757812
 43
3.17498779296875
 44
209.9733276367186
 45
297.0106506347656
 46
0.0
 47
0.0
 48
0.0
 49
0.0
140
0.0
141
0.0
142
1.0
143
1.0
 70
   688
 72
     1
 73
     1
 74
     5
  7

 75
    16
147
1.0
 76
     0
 77
     2
 78
   300
148
0.0
149
0.0
100
AcDbLayout
  1
Layout1
 70
     1
 71
     1
 10
-3.17498779296875
 20
-3.174999952316282
 11
293.8356628417969
 21
206.7983276844024
 12
0.0
 22
0.0
 32
0.0
 14
29.06606628894805
 24
20.36233246326446
 34
0.0
 15
261.5945966005325
 25
183.2609921693802
 35
0.0
146
0.0
 13
0.0
 23
0.0
 33
0.0
 16
1.0
 26
0.0
 36
0.0
 17
0.0
 27
1.0
 37
0.0
 76
     0
330
D2
331
4DA
1001
ACAD_PSEXT
1000
PDF-XChange Printer
1000
PDF-XChange Standard Driver
1000
PXC
1000

1070
     0
  0
LAYOUT
  5
D7
102
{ACAD_REACTORS
330
1A
102
}
330
1A
100
AcDbPlotSettings
  1

  2
PDF-XChange Printer
  4
A4
  6

 40
3.174999952316282
 41
3.174999952316282
 42
3.175003051757812
 43
3.17498779296875
 44
209.9733276367186
 45
297.0106506347656
 46
0.0
 47
0.0
 48
0.0
 49
0.0
140
0.0
141
0.0
142
1.0
143
1.0
 70
   688
 72
     1
 73
     1
 74
     5
  7

 75
    16
147
1.0
 76
     0
 77
     2
 78
   300
148
0.0
149
0.0
100
AcDbLayout
  1
Layout2
 70
     1
 71
     2
 10
-3.17498779296875
 20
-3.174999952316282
 11
293.8356628417969
 21
206.7983276844024
 12
0.0
 22
0.0
 32
0.0
 14
29.06606628894805
 24
20.36233246326446
 34
0.0
 15
261.5945966005325
 25
183.2609921693802
 35
0.0
146
0.0
 13
0.0
 23
0.0
 33
0.0
 16
1.0
 26
0.0
 36
0.0
 17
0.0
 27
1.0
 37
0.0
 76
     0
330
D6
331
4CA
1001
ACAD_PSEXT
1000
PDF-XChange Printer
1000
PDF-XChange Standard Driver
1000
PXC
1000

1070
     0
  0
LAYOUT
  5
22
102
{ACAD_REACTORS
330
1A
102
}
330
1A
100
AcDbPlotSettings
  1

  2
none_device
  4
ISO_A4_(210.00_x_297.00_MM)
  6

 40
7.5
 41
20.0
 42
7.5
 43
20.0
 44
210.0
 45
297.0
 46
11.54999923706054
 47
-13.65000009536743
 48
0.0
 49
0.0
140
0.0
141
0.0
142
1.0
143
8.704084754739808
 70
 11952
 72
     1
 73
     0
 74
     0
  7

 75
     0
147
0.1148885871608098
 76
     0
 77
     2
 78
   300
148
0.0
149
0.0
100
AcDbLayout
  1
Model
 70
     1
 71
     0
 10
0.0
 20
0.0
 11
12.0
 21
9.0
 12
0.0
 22
0.0
 32
0.0
 14
0.0
 24
0.0
 34
0.0
 15
0.0
 25
0.0
 35
0.0
146
0.0
 13
0.0
 23
0.0
 33
0.0
 16
1.0
 26
0.0
 36
0.0
 17
0.0
 27
1.0
 37
0.0
 76
     0
330
1F
331
EA
1001
ACAD_PSEXT
1000
None
1000
None
1000
Not applicable
1000
The layout will not be plotted unless a new plotter configuration name is selected.
1070
     0
  0
MATERIAL
  5
ED
102
{ACAD_XDICTIONARY
360
1F9
102
}
102
{ACAD_REACTORS
330
6A
102
}
330
6A
100
AcDbMaterial
  1
ByBlock
  0
MATERIAL
  5
EC
102
{ACAD_XDICTIONARY
360
1F7
102
}
102
{ACAD_REACTORS
330
6A
102
}
330
6A
100
AcDbMaterial
  1
ByLayer
  0
MATERIAL
  5
EE
102
{ACAD_XDICTIONARY
360
173
102
}
102
{ACAD_REACTORS
330
6A
102
}
330
6A
100
AcDbMaterial
  1
Global
 43
0.0007999999797903
 43
0.0
 43
0.0
 43
0.0
 43
0.0
 43
0.0007999999797903
 43
0.0
 43
0.0
 43
0.0
 43
0.0
 43
1.0
 43
0.0
 43
0.0
 43
0.0
 43
0.0
 43
1.0
 49
0.0007999999797903
 49
0.0
 49
0.0
 49
0.0
 49
0.0
 49
0.0007999999797903
 49
0.0
 49
0.0
 49
0.0
 49
0.0
 49
1.0
 49
0.0
 49
0.0
 49
0.0
 49
0.0
 49
1.0
142
0.0007999999797903
142
0.0
142
0.0
142
0.0
142
0.0
142
0.0007999999797903
142
0.0
142
0.0
142
0.0
142
0.0
142
1.0
142
0.0
142
0.0
142
0.0
142
0.0
142
1.0
144
0.0007999999797903
144
0.0
144
0.0
144
0.0
144
0.0
144
0.0007999999797903
144
0.0
144
0.0
144
0.0
144
0.0
144
1.0
144
0.0
144
0.0
144
0.0
144
0.0
144
1.0
1001
ACAD
1070
    -1
1070
     3
1070
     0
1000

1071
        0
1070
     0
  0
MLEADERSTYLE
  5
12E
102
{ACAD_REACTORS
330
12D
102
}
330
12D
100
AcDbMLeaderStyle
179
     2
170
     2
171
     1
172
     0
 90
        2
 40
0.0
 41
0.0
173
     1
 91
-1056964608
340
14
 92
       -2
290
     1
 42
2.0
291
     1
 43
8.0
  3
Standard
 44
4.0
300

342
11
174
     1
178
     1
175
     1
176
     0
 93
-1056964608
 45
4.0
292
     0
297
     0
 46
4.0
 94
-1056964608
 47
1.0
 49
1.0
140
1.0
293
     1
141
0.0
294
     1
177
     0
142
1.0
295
     0
296
     0
143
3.75
271
     0
272
     9
273
     9
298
     0
1001
ACAD_MLEADERVER
1070
     2
  0
MLINESTYLE
  5
18
102
{ACAD_REACTORS
330
17
102
}
330
17
100
AcDbMlineStyle
  2
STANDARD
 70
     0
  3

 62
   256
 51
90.0
 52
90.0
 71
     2
 49
0.5
 62
   256
  6
BYLAYER
 49
-0.5
 62
   256
  6
BYLAYER
  0
ACDBPLACEHOLDER
  5
F
102
{ACAD_REACTORS
330
E
102
}
330
E
  0
SCALE
  5
10D
102
{ACAD_REACTORS
330
10C
102
}
330
10C
100
AcDbScale
 70
     0
300
1:1
140
1.0
141
1.0
290
     1
  0
SCALE
  5
1BE
102
{ACAD_REACTORS
330
10C
102
}
330
10C
100
AcDbScale
 70
     0
300
1:2
140
1.0
141
2.0
290
     0
  0
SCALE
  5
1BF
102
{ACAD_REACTORS
330
10C
102
}
330
10C
100
AcDbScale
 70
     0
300
1:4
140
1.0
141
4.0
290
     0
  0
SCALE
  5
1C0
102
{ACAD_REACTORS
330
10C
102
}
330
10C
100
AcDbScale
 70
     0
300
1:5
140
1.0
141
5.0
290
     0
  0
SCALE
  5
1C1
102
{ACAD_REACTORS
330
10C
102
}
330
10C
100
AcDbScale
 70
     0
300
1:8
140
1.0
141
8.0
290
     0
  0
SCALE
  5
1C2
102
{ACAD_REACTORS
330
10C
102
}
330
10C
100
AcDbScale
 70
     0
300
1:10
140
1.0
141
10.0
290
     0
  0
SCALE
  5
1C3
102
{ACAD_REACTORS
330
10C
102
}
330
10C
100
AcDbScale
 70
     0
300
1:16
140
1.0
141
16.0
290
     0
  0
SCALE
  5
1C4
102
{ACAD_REACTORS
330
10C
102
}
330
10C
100
AcDbScale
 70
     0
300
1:20
140
1.0
141
20.0
290
     0
  0
SCALE
  5
1C5
102
{ACAD_REACTORS
330
10C
102
}
330
10C
100
AcDbScale
 70
     0
300
1:30
140
1.0
141
30.0
290
     0
  0
SCALE
  5
1C6
102
{ACAD_REACTORS
330
10C
102
}
330
10C
100
AcDbScale
 70
     0
300
1:40
140
1.0
141
40.0
290
     0
  0
SCALE
  5
1C7
102
{ACAD_REACTORS
330
10C
102
}
330
10C
100
AcDbScale
 70
     0
300
1:50
140
1.0
141
50.0
290
     0
  0
SCALE
  5
1C8
102
{ACAD_REACTORS
330
10C
102
}
330
10C
100
AcDbScale
 70
     0
300
1:100
140
1.0
141
100.0
290
     0
  0
SCALE
  5
1C9
102
{ACAD_REACTORS
330
10C
102
}
330
10C
100
AcDbScale
 70
     0
300
2:1
140
2.0
141
1.0
290
     0
  0
SCALE
  5
1CA
102
{ACAD_REACTORS
330
10C
102
}
330
10C
100
AcDbScale
 70
     0
300
4:1
140
4.0
141
1.0
290
     0
  0
SCALE
  5
1CB
102
{ACAD_REACTORS
330
10C
102
}
330
10C
100
AcDbScale
 70
     0
300
8:1
140
8.0
141
1.0
290
     0
  0
SCALE
  5
1CC
102
{ACAD_REACTORS
330
10C
102
}
330
10C
100
AcDbScale
 70
     0
300
10:1
140
10.0
141
1.0
290
     0
  0
SCALE
  5
1CD
102
{ACAD_REACTORS
330
10C
102
}
330
10C
100
AcDbScale
 70
     0
300
100:1
140
100.0
141
1.0
290
     0
  0
ACDBSECTIONVIEWSTYLE
  5
ABB
102
{ACAD_REACTORS
330
219
102
}
330
219
100
AcDbModelDocViewStyle
 70
     0
  3
Imperial24
290
     0
300
Imperial24
 90
        0
100
AcDbSectionViewStyle
 70
     0
 71
     0
 90
       78
 71
     1
340
11
 62
   256
 40
0.24
340
0
340
0
 62
   256
 40
0.24
300
I, O, Q, S, X, Z
 40
0.48
 90
        3
 40
0.18
 90
        1
 71
     2
340
16
 90
       25
 62
   256
340
16
 90
       50
 62
   256
 40
0.24
 40
0.0
 40
0.24
 71
     3
340
11
 62
   256
 40
0.24
 90
        1
 40
0.75
 90
        1
300
%<\AcVar ViewType \f "%tc1">% %<\AcVar ViewSectionStartId>%-%<\AcVar ViewSectionEndId>%\PVARIA %<\AcVar ViewScale \f "%sn">%
 71
     4
 62
   256
 62
   257
300
ANSI31
 40
1.0
 90
        0
290
     0
290
     0
 90
        6
 40
0.0
 40
1.570796326794896
 40
0.2617993877991494
 40
1.308996938995747
 40
-0.2617993877991494
 40
1.832595714594044
  0
ACDBSECTIONVIEWSTYLE
  5
21A
102
{ACAD_REACTORS
330
219
102
}
330
219
100
AcDbModelDocViewStyle
 70
     0
  3
Metric50
290
     0
300
Metric50
 90
        0
100
AcDbSectionViewStyle
 70
     0
 71
     0
 90
      102
 71
     1
340
11
 62
   256
 40
5.0
340
0
340
0
 62
   256
 40
5.0
300
I, O, Q, S, X, Z
 40
10.0
 90
        0
 40
2.5
 90
        0
 71
     2
340
16
 90
       25
 62
   256
340
16
 90
       50
 62
   256
 40
5.0
 40
2.5
 40
5.0
 71
     3
340
11
 62
   256
 40
5.0
 90
        0
 40
15.0
 90
        1
300
%<\AcVar ViewSectionStartId>%-%<\AcVar ViewSectionEndId>% (%<\AcVar ViewScale \f "%sn">%)
 71
     4
 62
   256
 62
   257
300
ANSI31
 40
1.0
 90
        0
290
     0
290
     0
 90
        6
 40
0.0
 40
1.570796326794896
 40
0.2617993877991494
 40
1.308996938995747
 40
-0.2617993877991494
 40
1.832595714594044
  0
TABLESTYLE
  5
7F
102
{ACAD_XDICTIONARY
360
162
102
}
102
{ACAD_REACTORS
330
7E
102
}
330
7E
100
AcDbTableStyle
280
     0
  3
Standard
 70
     0
 71
     0
 40
1.5
 41
1.5
280
     0
281
     0
  7
Standard
140
4.5
170
     2
 62
     0
 63
     7
283
     0
 90
      512
 91
        0
  1

274
    -2
284
     1
 64
     0
275
    -2
285
     1
 65
     0
276
    -2
286
     1
 66
     0
277
    -2
287
     1
 67
     0
278
    -2
288
     1
 68
     0
279
    -2
289
     1
 69
     0
  7
Standard
140
6.0
170
     5
 62
     0
 63
     7
283
     0
 90
      512
 91
        0
  1

274
    -2
284
     1
 64
     0
275
    -2
285
     1
 65
     0
276
    -2
286
     1
 66
     0
277
    -2
287
     1
 67
     0
278
    -2
288
     1
 68
     0
279
    -2
289
     1
 69
     0
  7
Standard
140
4.5
170
     5
 62
     0
 63
     7
283
     0
 90
      512
 91
        0
  1

274
    -2
284
     1
 64
     0
275
    -2
285
     1
 65
     0
276
    -2
286
     1
 66
     0
277
    -2
287
     1
 67
     0
278
    -2
288
     1
 68
     0
279
    -2
289
     1
 69
     0
  0
VISUALSTYLE
  5
F5
102
{ACAD_REACTORS
330
EF
102
}
330
EF
100
AcDbVisualStyle
  2

 70
     4
177
     3
291
     0
 70
    58
 90
        0
176
     1
 90
        2
176
     1
 90
        1
176
     1
 90
        0
176
     1
 40
0.6
176
     1
 40
30.0
176
     1
 62
     7
176
     1
 90
        1
176
     1
 90
        4
176
     1
 62
     7
176
     1
 62
   257
176
     1
 90
        1
176
     1
 90
        1
176
     1
 40
1.0
176
     1
 90
        0
176
     1
 62
   257
176
     1
 40
1.0
176
     1
 90
        1
176
     1
 90
        6
176
     1
 90
        2
176
     1
 62
     7
176
     1
 90
        5
176
     1
 90
        0
176
     1
 90
        0
176
     1
290
     0
176
     1
 90
        1
176
     1
 40
0.0
176
     1
 90
        0
176
     1
290
     1
176
     1
290
     1
176
     1
290
     0
176
     1
290
     0
176
     1
290
     0
176
     1
290
     0
176
     1
290
     0
176
     1
290
     0
176
     1
290
     0
176
     1
 90
       50
176
     1
 40
0.0
176
     1
 40
1.0
176
     1
 90
        0
176
     1
 62
    18
176
     1
 90
       50
176
     1
 90
        3
176
     1
 62
     5
420
      255
176
     1
290
     0
176
     1
 90
       50
176
     1
 90
       50
176
     1
 90
       50
176
     1
290
     0
176
     1
 90
       50
176
     1
 62
   256
176
     0
 40
1.0
176
     0
 90
        2
176
     1
  1
strokes_ogs.tif
176
     1
290
     0
176
     1
 40
1.0
176
     1
 40
1.0
176
     1
1001
ACAD
1000
AcDbSavedByObjectVersion
1070
     0
  0
VISUALSTYLE
  5
F4
102
{ACAD_REACTORS
330
EF
102
}
330
EF
100
AcDbVisualStyle
  2

 70
     7
177
     3
291
     1
 70
    58
 90
        1
176
     1
 90
        0
176
     1
 90
        1
176
     1
 90
        0
176
     1
 40
0.6
176
     1
 40
30.0
176
     1
 62
     7
176
     1
 90
        0
176
     1
 90
        4
176
     1
 62
     7
176
     1
 62
   257
176
     1
 90
        1
176
     1
 90
        1
176
     1
 40
1.0
176
     1
 90
        8
176
     1
 62
     7
176
     1
 40
1.0
176
     1
 90
        1
176
     1
 90
        6
176
     1
 90
        2
176
     1
 62
     7
176
     1
 90
        5
176
     1
 90
        0
176
     1
 90
        0
176
     1
290
     0
176
     1
 90
        1
176
     1
 40
0.0
176
     1
 90
        0
176
     1
290
     0
176
     1
290
     1
176
     1
290
     1
176
     1
290
     0
176
     1
290
     0
176
     1
290
     0
176
     1
290
     0
176
     1
290
     0
176
     1
290
     0
176
     1
 90
       50
176
     1
 40
0.0
176
     1
 40
1.0
176
     1
 90
        0
176
     1
 62
    18
176
     1
 90
       50
176
     1
 90
        3
176
     1
 62
     5
420
      255
176
     1
290
     0
176
     1
 90
       50
176
     1
 90
       50
176
     1
 90
       50
176
     1
290
     0
176
     1
 90
       50
176
     1
 62
   256
176
     0
 40
1.0
176
     0
 90
        2
176
     1
  1
strokes_ogs.tif
176
     1
290
     0
176
     1
 40
1.0
176
     1
 40
1.0
176
     1
1001
ACAD
1000
AcDbSavedByObjectVersion
1070
     0
  0
VISUALSTYLE
  5
FB
102
{ACAD_REACTORS
330
EF
102
}
330
EF
100
AcDbVisualStyle
  2

 70
    12
177
     3
291
     1
 70
    58
 90
        2
176
     1
 90
        2
176
     1
 90
        1
176
     1
 90
        0
176
     1
 40
0.6
176
     1
 40
30.0
176
     1
 62
     7
176
     1
 90
        1
176
     1
 90
        4
176
     1
 62
     7
176
     1
 62
   257
176
     1
 90
        1
176
     1
 90
        1
176
     1
 40
1.0
176
     1
 90
        8
176
     1
 62
     7
176
     1
 40
1.0
176
     1
 90
        1
176
     1
 90
        6
176
     1
 90
        2
176
     1
 62
     7
176
     1
 90
        5
176
     1
 90
        0
176
     1
 90
        0
176
     1
290
     0
176
     1
 90
        1
176
     1
 40
50.0
176
     1
 90
        0
176
     1
290
     0
176
     1
290
     1
176
     1
290
     1
176
     1
290
     0
176
     1
290
     0
176
     1
290
     0
176
     1
290
     0
176
     1
290
     0
176
     1
290
     0
176
     1
 90
       50
176
     1
 40
0.0
176
     1
 40
1.0
176
     1
 90
        0
176
     1
 62
    18
176
     1
 90
       50
176
     1
 90
        3
176
     1
 62
     5
420
      255
176
     1
290
     0
176
     1
 90
       50
176
     1
 90
       50
176
     1
 90
       50
176
     1
290
     0
176
     1
 90
       50
176
     1
 62
   256
176
     0
 40
1.0
176
     0
 90
        2
176
     1
  1
strokes_ogs.tif
176
     1
290
     0
176
     1
 40
1.0
176
     1
 40
1.0
176
     1
1001
ACAD
1000
AcDbSavedByObjectVersion
1070
     0
  0
VISUALSTYLE
  5
FF
102
{ACAD_REACTORS
330
EF
102
}
330
EF
100
AcDbVisualStyle
  2

 70
    16
177
     3
291
     1
 70
    58
 90
        2
176
     1
 90
        2
176
     1
 90
        3
176
     1
 90
        0
176
     1
 40
0.6
176
     1
 40
30.0
176
     1
 62
     8
176
     1
 90
        1
176
     1
 90
        4
176
     1
 62
     7
176
     1
 62
   257
176
     1
 90
        1
176
     1
 90
        1
176
     1
 40
1.0
176
     1
 90
        8
176
     1
 62
     8
176
     1
 40
1.0
176
     1
 90
        1
176
     1
 90
        6
176
     1
 90
        2
176
     1
 62
     7
176
     1
 90
        5
176
     1
 90
        0
176
     1
 90
        0
176
     1
290
     0
176
     1
 90
        1
176
     1
 40
0.0
176
     1
 90
        0
176
     1
290
     0
176
     1
290
     1
176
     1
290
     1
176
     1
290
     0
176
     1
290
     0
176
     1
290
     0
176
     1
290
     0
176
     1
290
     0
176
     1
290
     0
176
     1
 90
       50
176
     1
 40
0.0
176
     1
 40
1.0
176
     1
 90
        0
176
     1
 62
    18
176
     1
 90
       50
176
     1
 90
        3
176
     1
 62
     5
420
      255
176
     1
290
     0
176
     1
 90
       50
176
     1
 90
       50
176
     1
 90
       50
176
     1
290
     0
176
     1
 90
       50
176
     1
 62
   256
176
     0
 40
1.0
176
     0
 90
        2
176
     1
  1
strokes_ogs.tif
176
     1
290
     0
176
     1
 40
1.0
176
     1
 40
1.0
176
     1
1001
ACAD
1000
AcDbSavedByObjectVersion
1070
     0
  0
VISUALSTYLE
  5
F8
102
{ACAD_REACTORS
330
EF
102
}
330
EF
100
AcDbVisualStyle
  2

 70
     9
177
     3
291
     0
 70
    58
 90
        3
176
     1
 90
        2
176
     1
 90
        1
176
     1
 90
        0
176
     1
 40
0.6
176
     1
 40
30.0
176
     1
 62
     7
176
     1
 90
        2
176
     1
 90
        2
176
     1
 62
     7
176
     1
 62
   257
176
     1
 90
        1
176
     1
 90
        1
176
     1
 40
40.0
176
     1
 90
        8
176
     1
 62
     7
176
     1
 40
1.0
176
     1
 90
        1
176
     1
 90
        6
176
     1
 90
        2
176
     1
 62
     7
176
     1
 90
        3
176
     1
 90
        0
176
     1
 90
        0
176
     1
290
     0
176
     1
 90
        1
176
     1
 40
0.0
176
     1
 90
        0
176
     1
290
     0
176
     1
290
     1
176
     1
290
     1
176
     1
290
     0
176
     1
290
     0
176
     1
290
     0
176
     1
290
     0
176
     1
290
     0
176
     1
290
     0
176
     1
 90
       50
176
     1
 40
0.0
176
     1
 40
1.0
176
     1
 90
        0
176
     1
 62
    18
176
     1
 90
       50
176
     1
 90
        3
176
     1
 62
     5
420
      255
176
     1
290
     0
176
     1
 90
       50
176
     1
 90
       50
176
     1
 90
       50
176
     1
290
     0
176
     1
 90
       50
176
     1
 62
   256
176
     0
 40
1.0
176
     0
 90
        2
176
     1
  1
strokes_ogs.tif
176
     1
290
     0
176
     1
 40
1.0
176
     1
 40
1.0
176
     1
1001
ACAD
1000
AcDbSavedByObjectVersion
1070
     0
  0
VISUALSTYLE
  5
FA
102
{ACAD_REACTORS
330
EF
102
}
330
EF
100
AcDbVisualStyle
  2

 70
    11
177
     3
291
     1
 70
    58
 90
        2
176
     1
 90
        2
176
     1
 90
        1
176
     1
 90
        0
176
     1
 40
0.6
176
     1
 40
30.0
176
     1
 62
     7
176
     1
 90
        1
176
     1
 90
        4
176
     1
 62
     7
176
     1
 62
   257
176
     1
 90
        1
176
     1
 90
        1
176
     1
 40
1.0
176
     1
 90
        8
176
     1
 62
     7
176
     1
 40
1.0
176
     1
 90
        1
176
     1
 90
        6
176
     1
 90
        2
176
     1
 62
     7
176
     1
 90
        5
176
     1
 90
        0
176
     1
 90
        0
176
     1
290
     0
176
     1
 90
        1
176
     1
 40
-50.0
176
     1
 90
        0
176
     1
290
     0
176
     1
290
     1
176
     1
290
     1
176
     1
290
     0
176
     1
290
     0
176
     1
290
     0
176
     1
290
     0
176
     1
290
     0
176
     1
290
     0
176
     1
 90
       50
176
     1
 40
0.0
176
     1
 40
1.0
176
     1
 90
        0
176
     1
 62
    18
176
     1
 90
       50
176
     1
 90
        3
176
     1
 62
     5
420
      255
176
     1
290
     0
176
     1
 90
       50
176
     1
 90
       50
176
     1
 90
       50
176
     1
290
     0
176
     1
 90
       50
176
     1
 62
   256
176
     0
 40
1.0
176
     0
 90
        2
176
     1
  1
strokes_ogs.tif
176
     1
290
     0
176
     1
 40
1.0
176
     1
 40
1.0
176
     1
1001
ACAD
1000
AcDbSavedByObjectVersion
1070
     0
  0
VISUALSTYLE
  5
1E6
102
{ACAD_REACTORS
330
EF
102
}
330
EF
100
AcDbVisualStyle
  2

 70
    22
177
     3
291
     1
 70
    58
 90
        2
176
     0
 90
        2
176
     0
 90
        0
176
     0
 90
        0
176
     0
 40
0.6
176
     0
 40
30.0
176
     0
 62
     7
176
     0
 90
        1
176
     0
 90
        4
176
     0
 62
     7
176
     0
 62
   257
176
     0
 90
        1
176
     0
 90
        1
176
     0
 40
1.0
176
     0
 90
        8
176
     2
 62
     7
176
     0
 40
1.0
176
     0
 90
        1
176
     0
 90
        6
176
     0
 90
        2
176
     0
 62
     7
176
     0
 90
        5
176
     0
 90
        0
176
     0
 90
        0
176
     0
290
     0
176
     0
 90
        1
176
     0
 40
0.0
176
     0
 90
        0
176
     0
290
     0
176
     1
290
     1
176
     1
290
     1
176
     1
290
     0
176
     1
290
     0
176
     1
290
     0
176
     1
290
     0
176
     1
290
     0
176
     1
290
     0
176
     1
 90
       50
176
     1
 40
0.0
176
     1
 40
1.0
176
     1
 90
        0
176
     1
 62
    18
176
     1
 90
       50
176
     1
 90
        3
176
     1
 62
     5
420
      255
176
     1
290
     0
176
     1
 90
       50
176
     1
 90
       50
176
     1
 90
       50
176
     1
290
     0
176
     1
 90
       50
176
     1
 62
   256
176
     0
 40
1.0
176
     0
 90
        2
176
     1
  1
strokes_ogs.tif
176
     1
290
     0
176
     1
 40
1.0
176
     1
 40
1.0
176
     1
1001
ACAD
1000
AcDbSavedByObjectVersion
1070
     0
  0
VISUALSTYLE
  5
FE
102
{ACAD_REACTORS
330
EF
102
}
330
EF
100
AcDbVisualStyle
  2

 70
    15
177
     3
291
     1
 70
    58
 90
        2
176
     1
 90
        2
176
     1
 90
        1
176
     1
 90
        0
176
     1
 40
0.6
176
     1
 40
30.0
176
     1
 62
     7
176
     1
 90
        1
176
     1
 90
        4
176
     1
 62
     7
176
     1
 62
   257
176
     1
 90
        1
176
     1
 90
        1
176
     1
 40
1.0
176
     1
 90
        8
176
     1
 62
     7
176
     1
 40
1.0
176
     1
 90
        1
176
     1
 90
        6
176
     1
 90
        2
176
     1
 62
     7
176
     1
 90
        5
176
     1
 90
        0
176
     1
 90
        0
176
     1
290
     0
176
     1
 90
        1
176
     1
 40
0.0
176
     1
 90
        0
176
     1
290
     0
176
     1
290
     1
176
     1
290
     1
176
     1
290
     0
176
     1
290
     0
176
     1
290
     0
176
     1
290
     0
176
     1
290
     0
176
     1
290
     0
176
     1
 90
       50
176
     1
 40
0.0
176
     1
 40
1.0
176
     1
 90
        0
176
     1
 62
    18
176
     1
 90
       50
176
     1
 90
        3
176
     1
 62
     5
420
      255
176
     1
290
     0
176
     1
 90
       50
176
     1
 90
       50
176
     1
 90
       50
176
     1
290
     0
176
     1
 90
       50
176
     1
 62
   256
176
     0
 40
1.0
176
     0
 90
        2
176
     1
  1
strokes_ogs.tif
176
     1
290
     0
176
     1
 40
1.0
176
     1
 40
1.0
176
     1
1001
ACAD
1000
AcDbSavedByObjectVersion
1070
     0
  0
VISUALSTYLE
  5
F0
102
{ACAD_REACTORS
330
EF
102
}
330
EF
100
AcDbVisualStyle
  2

 70
     0
177
     3
291
     1
 70
    58
 90
        2
176
     1
 90
        1
176
     1
 90
        1
176
     1
 90
        2
176
     1
 40
0.6
176
     1
 40
30.0
176
     1
 62
     7
176
     1
 90
        0
176
     1
 90
        0
176
     1
 62
     7
176
     1
 62
   257
176
     1
 90
        1
176
     1
 90
        1
176
     1
 40
1.0
176
     1
 90
        8
176
     1
 62
     7
176
     1
 40
1.0
176
     1
 90
        1
176
     1
 90
        6
176
     1
 90
        2
176
     1
 62
     7
176
     1
 90
        5
176
     1
 90
        0
176
     1
 90
        0
176
     1
290
     0
176
     1
 90
       13
176
     1
 40
0.0
176
     1
 90
        0
176
     1
290
     0
176
     1
290
     1
176
     1
290
     1
176
     1
290
     0
176
     1
290
     0
176
     1
290
     0
176
     1
290
     0
176
     1
290
     0
176
     1
290
     0
176
     1
 90
       50
176
     1
 40
0.0
176
     1
 40
1.0
176
     1
 90
        0
176
     1
 62
    18
176
     1
 90
       50
176
     1
 90
        3
176
     1
 62
     5
420
      255
176
     1
290
     0
176
     1
 90
       50
176
     1
 90
       50
176
     1
 90
       50
176
     1
290
     0
176
     1
 90
       50
176
     1
 62
   256
176
     0
 40
1.0
176
     0
 90
        2
176
     1
  1
strokes_ogs.tif
176
     1
290
     0
176
     1
 40
1.0
176
     1
 40
1.0
176
     1
1001
ACAD
1000
AcDbSavedByObjectVersion
1070
     0
  0
VISUALSTYLE
  5
F1
102
{ACAD_REACTORS
330
EF
102
}
330
EF
100
AcDbVisualStyle
  2

 70
     1
177
     3
291
     1
 70
    58
 90
        2
176
     1
 90
        1
176
     1
 90
        1
176
     1
 90
        2
176
     1
 40
0.6
176
     1
 40
30.0
176
     1
 62
     7
176
     1
 90
        1
176
     1
 90
        0
176
     1
 62
     7
176
     1
 62
   257
176
     1
 90
        1
176
     1
 90
        1
176
     1
 40
1.0
176
     1
 90
        0
176
     1
 62
   257
176
     1
 40
1.0
176
     1
 90
        1
176
     1
 90
        6
176
     1
 90
        2
176
     1
 62
     7
176
     1
 90
        5
176
     1
 90
        0
176
     1
 90
        0
176
     1
290
     0
176
     1
 90
       13
176
     1
 40
0.0
176
     1
 90
        0
176
     1
290
     0
176
     1
290
     1
176
     1
290
     1
176
     1
290
     0
176
     1
290
     0
176
     1
290
     0
176
     1
290
     0
176
     1
290
     0
176
     1
290
     0
176
     1
 90
       50
176
     1
 40
0.0
176
     1
 40
1.0
176
     1
 90
        0
176
     1
 62
    18
176
     1
 90
       50
176
     1
 90
        3
176
     1
 62
     5
420
      255
176
     1
290
     0
176
     1
 90
       50
176
     1
 90
       50
176
     1
 90
       50
176
     1
290
     0
176
     1
 90
       50
176
     1
 62
   256
176
     0
 40
1.0
176
     0
 90
        2
176
     1
  1
strokes_ogs.tif
176
     1
290
     0
176
     1
 40
1.0
176
     1
 40
1.0
176
     1
1001
ACAD
1000
AcDbSavedByObjectVersion
1070
     0
  0
VISUALSTYLE
  5
F2
102
{ACAD_REACTORS
330
EF
102
}
330
EF
100
AcDbVisualStyle
  2

 70
     2
177
     3
291
     1
 70
    58
 90
        2
176
     1
 90
        2
176
     1
 90
        1
176
     1
 90
        2
176
     1
 40
0.6
176
     1
 40
30.0
176
     1
 62
     7
176
     1
 90
        0
176
     1
 90
        0
176
     1
 62
     7
176
     1
 62
   257
176
     1
 90
        1
176
     1
 90
        1
176
     1
 40
1.0
176
     1
 90
        0
176
     1
 62
     7
176
     1
 40
1.0
176
     1
 90
        1
176
     1
 90
        6
176
     1
 90
        2
176
     1
 62
     7
176
     1
 90
        5
176
     1
 90
        0
176
     1
 90
        0
176
     1
290
     0
176
     1
 90
       13
176
     1
 40
0.0
176
     1
 90
        0
176
     1
290
     0
176
     1
290
     1
176
     1
290
     1
176
     1
290
     0
176
     1
290
     0
176
     1
290
     0
176
     1
290
     0
176
     1
290
     0
176
     1
290
     0
176
     1
 90
       50
176
     1
 40
0.0
176
     1
 40
1.0
176
     1
 90
        0
176
     1
 62
    18
176
     1
 90
       50
176
     1
 90
        3
176
     1
 62
     5
420
      255
176
     1
290
     0
176
     1
 90
       50
176
     1
 90
       50
176
     1
 90
       50
176
     1
290
     0
176
     1
 90
       50
176
     1
 62
   256
176
     0
 40
1.0
176
     0
 90
        2
176
     1
  1
strokes_ogs.tif
176
     1
290
     0
176
     1
 40
1.0
176
     1
 40
1.0
176
     1
1001
ACAD
1000
AcDbSavedByObjectVersion
1070
     0
  0
VISUALSTYLE
  5
F3
102
{ACAD_REACTORS
330
EF
102
}
330
EF
100
AcDbVisualStyle
  2

 70
     3
177
     3
291
     1
 70
    58
 90
        2
176
     1
 90
        2
176
     1
 90
        1
176
     1
 90
        2
176
     1
 40
0.6
176
     1
 40
30.0
176
     1
 62
     7
176
     1
 90
        1
176
     1
 90
        0
176
     1
 62
     7
176
     1
 62
   257
176
     1
 90
        1
176
     1
 90
        1
176
     1
 40
1.0
176
     1
 90
        0
176
     1
 62
   257
176
     1
 40
1.0
176
     1
 90
        1
176
     1
 90
        6
176
     1
 90
        2
176
     1
 62
     7
176
     1
 90
        5
176
     1
 90
        0
176
     1
 90
        0
176
     1
290
     0
176
     1
 90
       13
176
     1
 40
0.0
176
     1
 90
        0
176
     1
290
     0
176
     1
290
     1
176
     1
290
     1
176
     1
290
     0
176
     1
290
     0
176
     1
290
     0
176
     1
290
     0
176
     1
290
     0
176
     1
290
     0
176
     1
 90
       50
176
     1
 40
0.0
176
     1
 40
1.0
176
     1
 90
        0
176
     1
 62
    18
176
     1
 90
       50
176
     1
 90
        3
176
     1
 62
     5
420
      255
176
     1
290
     0
176
     1
 90
       50
176
     1
 90
       50
176
     1
 90
       50
176
     1
290
     0
176
     1
 90
       50
176
     1
 62
   256
176
     0
 40
1.0
176
     0
 90
        2
176
     1
  1
strokes_ogs.tif
176
     1
290
     0
176
     1
 40
1.0
176
     1
 40
1.0
176
     1
1001
ACAD
1000
AcDbSavedByObjectVersion
1070
     0
  0
VISUALSTYLE
  5
F7
102
{ACAD_REACTORS
330
EF
102
}
330
EF
100
AcDbVisualStyle
  2

 70
     6
177
     3
291
     0
 70
    58
 90
        1
176
     1
 90
        2
176
     1
 90
        2
176
     1
 90
        0
176
     1
 40
0.6
176
     1
 40
30.0
176
     1
 62
     7
176
     1
 90
        2
176
     1
 90
        2
176
     1
 62
     7
176
     1
 62
   257
176
     1
 90
        2
176
     1
 90
        1
176
     1
 40
40.0
176
     1
 90
        0
176
     1
 62
   257
176
     1
 40
1.0
176
     1
 90
        1
176
     1
 90
        6
176
     1
 90
        2
176
     1
 62
     7
176
     1
 90
        3
176
     1
 90
        0
176
     1
 90
        0
176
     1
290
     0
176
     1
 90
        1
176
     1
 40
0.0
176
     1
 90
        0
176
     1
290
     0
176
     1
290
     1
176
     1
290
     1
176
     1
290
     0
176
     1
290
     0
176
     1
290
     0
176
     1
290
     0
176
     1
290
     0
176
     1
290
     0
176
     1
 90
       50
176
     1
 40
0.0
176
     1
 40
1.0
176
     1
 90
        0
176
     1
 62
    18
176
     1
 90
       50
176
     1
 90
        3
176
     1
 62
     5
420
      255
176
     1
290
     0
176
     1
 90
       50
176
     1
 90
       50
176
     1
 90
       50
176
     1
290
     0
176
     1
 90
       50
176
     1
 62
   256
176
     0
 40
1.0
176
     0
 90
        2
176
     1
  1
strokes_ogs.tif
176
     1
290
     0
176
     1
 40
1.0
176
     1
 40
1.0
176
     1
1001
ACAD
1000
AcDbSavedByObjectVersion
1070
     0
  0
VISUALSTYLE
  5
1E4
102
{ACAD_REACTORS
330
EF
102
}
330
EF
100
AcDbVisualStyle
  2

 70
    20
177
     3
291
     1
 70
    58
 90
        2
176
     0
 90
        2
176
     0
 90
        0
176
     0
 90
        0
176
     0
 40
0.6
176
     0
 40
30.0
176
     0
 62
     7
176
     0
 90
        1
176
     0
 90
        4
176
     0
 62
     7
176
     0
 62
   257
176
     0
 90
        1
176
     0
 90
        1
176
     0
 40
1.0
176
     0
 90
       10
176
     2
 62
     7
176
     0
 40
1.0
176
     0
 90
        1
176
     0
 90
        6
176
     0
 90
        2
176
     0
 62
     7
176
     0
 90
        5
176
     0
 90
        0
176
     0
 90
        0
176
     0
290
     0
176
     0
 90
        1
176
     0
 40
0.0
176
     0
 90
        0
176
     0
290
     0
176
     1
290
     1
176
     1
290
     1
176
     1
290
     0
176
     1
290
     0
176
     1
290
     0
176
     1
290
     0
176
     1
290
     0
176
     1
290
     0
176
     1
 90
       50
176
     1
 40
0.0
176
     1
 40
1.0
176
     1
 90
        0
176
     1
 62
    18
176
     1
 90
       50
176
     1
 90
        3
176
     1
 62
     5
420
      255
176
     1
290
     0
176
     1
 90
       50
176
     1
 90
       50
176
     1
 90
       50
176
     1
290
     0
176
     1
 90
       50
176
     1
 62
   256
176
     0
 40
1.0
176
     0
 90
        2
176
     1
  1
strokes_ogs.tif
176
     1
290
     0
176
     1
 40
1.0
176
     1
 40
1.0
176
     1
1001
ACAD
1000
AcDbSavedByObjectVersion
1070
     0
  0
VISUALSTYLE
  5
FD
102
{ACAD_REACTORS
330
EF
102
}
330
EF
100
AcDbVisualStyle
  2

 70
    14
177
     3
291
     1
 70
    58
 90
        2
176
     1
 90
        2
176
     1
 90
        1
176
     1
 90
        0
176
     1
 40
0.6
176
     1
 40
30.0
176
     1
 62
     7
176
     1
 90
        1
176
     1
 90
        4
176
     1
 62
     7
176
     1
 62
   257
176
     1
 90
        7
176
     1
 90
        7
176
     1
 40
1.0
176
     1
 90
        8
176
     1
 62
     7
176
     1
 40
1.0
176
     1
 90
        1
176
     1
 90
        6
176
     1
 90
        2
176
     1
 62
     7
176
     1
 90
        5
176
     1
 90
        0
176
     1
 90
        0
176
     1
290
     0
176
     1
 90
        1
176
     1
 40
0.0
176
     1
 90
        0
176
     1
290
     0
176
     1
290
     1
176
     1
290
     1
176
     1
290
     0
176
     1
290
     0
176
     1
290
     0
176
     1
290
     0
176
     1
290
     0
176
     1
290
     0
176
     1
 90
       50
176
     1
 40
0.0
176
     1
 40
1.0
176
     1
 90
        0
176
     1
 62
    18
176
     1
 90
       50
176
     1
 90
        3
176
     1
 62
     5
420
      255
176
     1
290
     0
176
     1
 90
       50
176
     1
 90
       50
176
     1
 90
       50
176
     1
290
     0
176
     1
 90
       50
176
     1
 62
   256
176
     0
 40
1.0
176
     0
 90
        2
176
     1
  1
strokes_ogs.tif
176
     1
290
     0
176
     1
 40
1.0
176
     1
 40
1.0
176
     1
1001
ACAD
1000
AcDbSavedByObjectVersion
1070
     0
  0
VISUALSTYLE
  5
1E5
102
{ACAD_REACTORS
330
EF
102
}
330
EF
100
AcDbVisualStyle
  2

 70
    21
177
     3
291
     1
 70
    58
 90
        2
176
     0
 90
        2
176
     0
 90
        0
176
     0
 90
        0
176
     0
 40
0.6
176
     0
 40
30.0
176
     0
 62
     7
176
     0
 90
        1
176
     0
 90
        4
176
     0
 62
     7
176
     0
 62
   257
176
     0
 90
        1
176
     0
 90
        1
176
     0
 40
1.0
176
     0
 90
        9
176
     2
 62
     7
176
     0
 40
1.0
176
     0
 90
        1
176
     0
 90
        6
176
     0
 90
        2
176
     0
 62
     7
176
     0
 90
        5
176
     0
 90
        0
176
     0
 90
        0
176
     0
290
     0
176
     0
 90
        1
176
     0
 40
0.0
176
     0
 90
        0
176
     0
290
     0
176
     1
290
     1
176
     1
290
     1
176
     1
290
     0
176
     1
290
     0
176
     1
290
     0
176
     1
290
     0
176
     1
290
     0
176
     1
290
     0
176
     1
 90
       50
176
     1
 40
0.0
176
     1
 40
1.0
176
     1
 90
        0
176
     1
 62
    18
176
     1
 90
       50
176
     1
 90
        3
176
     1
 62
     5
420
      255
176
     1
290
     0
176
     1
 90
       50
176
     1
 90
       50
176
     1
 90
       50
176
     1
290
     0
176
     1
 90
       50
176
     1
 62
   256
176
     0
 40
1.0
176
     0
 90
        2
176
     1
  1
strokes_ogs.tif
176
     1
290
     0
176
     1
 40
1.0
176
     1
 40
1.0
176
     1
1001
ACAD
1000
AcDbSavedByObjectVersion
1070
     0
  0
VISUALSTYLE
  5
F9
102
{ACAD_REACTORS
330
EF
102
}
330
EF
100
AcDbVisualStyle
  2

 70
     8
177
     3
291
     0
 70
    58
 90
        2
176
     1
 90
        3
176
     1
 90
        0
176
     1
 90
        2
176
     1
 40
0.6
176
     1
 40
30.0
176
     1
 62
     7
176
     1
 90
        0
176
     1
 90
        0
176
     1
 62
     7
176
     1
 62
   257
176
     1
 90
        1
176
     1
 90
        1
176
     1
 40
1.0
176
     1
 90
        8
176
     1
 62
   257
176
     1
 40
1.0
176
     1
 90
        1
176
     1
 90
        6
176
     1
 90
        2
176
     1
 62
     7
176
     1
 90
        3
176
     1
 90
        0
176
     1
 90
        0
176
     1
290
     0
176
     1
 90
       13
176
     1
 40
0.0
176
     1
 90
        0
176
     1
290
     0
176
     1
290
     1
176
     1
290
     1
176
     1
290
     0
176
     1
290
     0
176
     1
290
     0
176
     1
290
     0
176
     1
290
     0
176
     1
290
     0
176
     1
 90
       50
176
     1
 40
0.0
176
     1
 40
1.0
176
     1
 90
        0
176
     1
 62
    18
176
     1
 90
       50
176
     1
 90
        3
176
     1
 62
     5
420
      255
176
     1
290
     0
176
     1
 90
       50
176
     1
 90
       50
176
     1
 90
       50
176
     1
290
     0
176
     1
 90
       50
176
     1
 62
   256
176
     0
 40
1.0
176
     0
 90
        2
176
     1
  1
strokes_ogs.tif
176
     1
290
     0
176
     1
 40
1.0
176
     1
 40
1.0
176
     1
1001
ACAD
1000
AcDbSavedByObjectVersion
1070
     0
  0
VISUALSTYLE
  5
1F3
102
{ACAD_REACTORS
330
EF
102
}
330
EF
100
AcDbVisualStyle
  2

 70
    27
177
     3
291
     0
 70
    58
 90
        2
176
     1
 90
        2
176
     1
 90
        1
176
     1
 90
        2
176
     1
 40
0.6
176
     1
 40
30.0
176
     1
 62
     7
176
     1
 90
        0
176
     1
 90
        4
176
     1
 62
     7
176
     1
 62
   257
176
     1
 90
        1
176
     1
 90
        1
176
     1
 40
1.0
176
     1
 90
        8
176
     1
 62
   257
176
     1
 40
1.0
176
     1
 90
        1
176
     1
 90
        6
176
     1
 90
        2
176
     1
 62
     8
176
     1
 90
        3
176
     1
 90
        0
176
     1
 90
        0
176
     1
290
     0
176
     1
 90
        5
176
     1
 40
0.0
176
     1
 90
        0
176
     1
290
     0
176
     1
290
     1
176
     1
290
     1
176
     1
290
     0
176
     1
290
     0
176
     1
290
     0
176
     1
290
     0
176
     1
290
     0
176
     1
290
     0
176
     1
 90
       50
176
     1
 40
0.0
176
     1
 40
1.0
176
     1
 90
        0
176
     1
 62
    18
176
     1
 90
       50
176
     1
 90
        3
176
     1
 62
     5
420
      255
176
     1
290
     0
176
     1
 90
       50
176
     1
 90
       50
176
     1
 90
       50
176
     1
290
     0
176
     1
 90
       50
176
     1
 62
   256
176
     0
 40
1.0
176
     0
 90
        2
176
     1
  1
strokes_ogs.tif
176
     1
290
     0
176
     1
 40
1.0
176
     1
 40
1.0
176
     1
1001
ACAD
1000
AcDbSavedByObjectVersion
1070
     0
  0
VISUALSTYLE
  5
1F2
102
{ACAD_REACTORS
330
EF
102
}
330
EF
100
AcDbVisualStyle
  2

 70
    26
177
     3
291
     0
 70
    58
 90
        2
176
     1
 90
        2
176
     1
 90
        1
176
     1
 90
        2
176
     1
 40
0.6
176
     1
 40
30.0
176
     1
 62
     7
176
     1
 90
        1
176
     1
 90
        2
176
     1
 62
     7
176
     1
 62
   257
176
     1
 90
        2
176
     1
 90
        1
176
     1
 40
1.0
176
     1
 90
        8
176
     1
 62
   257
176
     1
 40
1.0
176
     1
 90
        1
176
     1
 90
        6
176
     1
 90
        2
176
     1
 62
     7
176
     1
 90
        3
176
     1
 90
        0
176
     1
 90
        0
176
     1
290
     0
176
     1
 90
        5
176
     1
 40
0.0
176
     1
 90
        0
176
     1
290
     0
176
     1
290
     1
176
     1
290
     1
176
     1
290
     0
176
     1
290
     0
176
     1
290
     0
176
     1
290
     0
176
     1
290
     0
176
     1
290
     0
176
     1
 90
       50
176
     1
 40
0.0
176
     1
 40
1.0
176
     1
 90
        0
176
     1
 62
    18
176
     1
 90
       50
176
     1
 90
        3
176
     1
 62
     5
420
      255
176
     1
290
     0
176
     1
 90
       50
176
     1
 90
       50
176
     1
 90
       50
176
     1
290
     0
176
     1
 90
       50
176
     1
 62
   256
176
     0
 40
1.0
176
     0
 90
        2
176
     1
  1
strokes_ogs.tif
176
     1
290
     0
176
     1
 40
1.0
176
     1
 40
1.0
176
     1
1001
ACAD
1000
AcDbSavedByObjectVersion
1070
     0
  0
VISUALSTYLE
  5
1EF
102
{ACAD_REACTORS
330
EF
102
}
330
EF
100
AcDbVisualStyle
  2

 70
    23
177
     3
291
     0
 70
    58
 90
        2
176
     1
 90
        2
176
     1
 90
        3
176
     1
 90
        0
176
     1
 40
0.6
176
     1
 40
30.0
176
     1
 62
     7
176
     1
 90
        2
176
     1
 90
        2
176
     1
 62
     7
176
     1
 62
     7
176
     1
 90
        1
176
     1
 90
        1
176
     1
 40
40.0
176
     1
 90
        8
176
     1
 62
     7
176
     1
 40
1.0
176
     1
 90
        1
176
     1
 90
        6
176
     1
 90
        2
176
     1
 62
     7
176
     1
 90
        3
176
     1
 90
        0
176
     1
 90
        0
176
     1
290
     0
176
     1
 90
        1
176
     1
 40
0.0
176
     1
 90
        0
176
     1
290
     0
176
     1
290
     1
176
     1
290
     1
176
     1
290
     0
176
     1
290
     0
176
     1
290
     0
176
     1
290
     0
176
     1
290
     0
176
     1
290
     0
176
     1
 90
       50
176
     1
 40
0.0
176
     1
 40
1.0
176
     1
 90
        0
176
     1
 62
    18
176
     1
 90
       50
176
     1
 90
        3
176
     1
 62
     5
420
      255
176
     1
290
     0
176
     1
 90
       50
176
     1
 90
       50
176
     1
 90
       50
176
     1
290
     0
176
     1
 90
       50
176
     1
 62
   256
176
     0
 40
1.0
176
     0
 90
        2
176
     1
  1
strokes_ogs.tif
176
     1
290
     0
176
     1
 40
1.0
176
     1
 40
1.0
176
     1
1001
ACAD
1000
AcDbSavedByObjectVersion
1070
     0
  0
VISUALSTYLE
  5
1F0
102
{ACAD_REACTORS
330
EF
102
}
330
EF
100
AcDbVisualStyle
  2

 70
    24
177
     3
291
     0
 70
    58
 90
        1
176
     1
 90
        2
176
     1
 90
        2
176
     1
 90
        0
176
     1
 40
0.6
176
     1
 40
30.0
176
     1
 62
     7
176
     1
 90
        2
176
     1
 90
        2
176
     1
 62
     7
176
     1
 62
     7
176
     1
 90
        1
176
     1
 90
        1
176
     1
 40
40.0
176
     1
 90
       11
176
     1
 62
     7
176
     1
 40
1.0
176
     1
 90
        1
176
     1
 90
        6
176
     1
 90
        2
176
     1
 62
     7
176
     1
 90
        6
176
     1
 90
        0
176
     1
 90
        0
176
     1
290
     0
176
     1
 90
        1
176
     1
 40
0.0
176
     1
 90
        0
176
     1
290
     0
176
     1
290
     1
176
     1
290
     1
176
     1
290
     0
176
     1
290
     0
176
     1
290
     0
176
     1
290
     0
176
     1
290
     0
176
     1
290
     0
176
     1
 90
       50
176
     1
 40
0.0
176
     1
 40
1.0
176
     1
 90
        0
176
     1
 62
    18
176
     1
 90
       50
176
     1
 90
        3
176
     1
 62
     5
420
      255
176
     1
290
     0
176
     1
 90
       50
176
     1
 90
       50
176
     1
 90
       50
176
     1
290
     0
176
     1
 90
       50
176
     1
 62
   256
176
     0
 40
1.0
176
     0
 90
        2
176
     1
  1
strokes_ogs.tif
176
     1
290
     0
176
     1
 40
1.0
176
     1
 40
1.0
176
     1
1001
ACAD
1000
AcDbSavedByObjectVersion
1070
     0
  0
VISUALSTYLE
  5
FC
102
{ACAD_REACTORS
330
EF
102
}
330
EF
100
AcDbVisualStyle
  2

 70
    13
177
     3
291
     1
 70
    58
 90
        2
176
     1
 90
        2
176
     1
 90
        1
176
     1
 90
        0
176
     1
 40
0.6
176
     1
 40
30.0
176
     1
 62
     7
176
     1
 90
        1
176
     1
 90
        4
176
     1
 62
     7
176
     1
 62
   257
176
     1
 90
        1
176
     1
 90
        1
176
     1
 40
1.0
176
     1
 90
       12
176
     1
 62
     7
176
     1
 40
1.0
176
     1
 90
        1
176
     1
 90
        6
176
     1
 90
        2
176
     1
 62
     7
176
     1
 90
        5
176
     1
 90
        0
176
     1
 90
        0
176
     1
290
     0
176
     1
 90
        1
176
     1
 40
0.0
176
     1
 90
        0
176
     1
290
     0
176
     1
290
     1
176
     1
290
     1
176
     1
290
     0
176
     1
290
     0
176
     1
290
     0
176
     1
290
     0
176
     1
290
     0
176
     1
290
     0
176
     1
 90
       50
176
     1
 40
0.0
176
     1
 40
1.0
176
     1
 90
        0
176
     1
 62
    18
176
     1
 90
       50
176
     1
 90
        3
176
     1
 62
     5
420
      255
176
     1
290
     0
176
     1
 90
       50
176
     1
 90
       50
176
     1
 90
       50
176
     1
290
     0
176
     1
 90
       50
176
     1
 62
   256
176
     0
 40
1.0
176
     0
 90
        2
176
     1
  1
strokes_ogs.tif
176
     1
290
     0
176
     1
 40
1.0
176
     1
 40
1.0
176
     1
1001
ACAD
1000
AcDbSavedByObjectVersion
1070
     0
  0
VISUALSTYLE
  5
F6
102
{ACAD_REACTORS
330
EF
102
}
330
EF
100
AcDbVisualStyle
  2

 70
     5
177
     3
291
     0
 70
    58
 90
        0
176
     1
 90
        2
176
     1
 90
        0
176
     1
 90
        0
176
     1
 40
0.6
176
     1
 40
30.0
176
     1
 62
     7
176
     1
 90
        1
176
     1
 90
        4
176
     1
 62
     7
176
     1
 62
   257
176
     1
 90
        1
176
     1
 90
        1
176
     1
 40
1.0
176
     1
 90
        0
176
     1
 62
   257
176
     1
 40
1.0
176
     1
 90
        1
176
     1
 90
        6
176
     1
 90
        2
176
     1
 62
     7
176
     1
 90
        3
176
     1
 90
        0
176
     1
 90
        0
176
     1
290
     0
176
     1
 90
        1
176
     1
 40
0.0
176
     1
 90
        0
176
     1
290
     0
176
     1
290
     1
176
     1
290
     1
176
     1
290
     0
176
     1
290
     0
176
     1
290
     0
176
     1
290
     0
176
     1
290
     0
176
     1
290
     0
176
     1
 90
       50
176
     1
 40
0.0
176
     1
 40
1.0
176
     1
 90
        0
176
     1
 62
    18
176
     1
 90
       50
176
     1
 90
        3
176
     1
 62
     5
420
      255
176
     1
290
     0
176
     1
 90
       50
176
     1
 90
       50
176
     1
 90
       50
176
     1
290
     0
176
     1
 90
       50
176
     1
 62
   256
176
     0
 40
1.0
176
     0
 90
        2
176
     1
  1
strokes_ogs.tif
176
     1
290
     0
176
     1
 40
1.0
176
     1
 40
1.0
176
     1
1001
ACAD
1000
AcDbSavedByObjectVersion
1070
     0
  0
VISUALSTYLE
  5
1F1
102
{ACAD_REACTORS
330
EF
102
}
330
EF
100
AcDbVisualStyle
  2

 70
    25
177
     3
291
     0
 70
    58
 90
        2
176
     1
 90
        2
176
     1
 90
        1
176
     1
 90
        1
176
     1
 40
0.5
176
     1
 40
30.0
176
     1
 62
     7
176
     1
 90
        1
176
     1
 90
        0
176
     1
 62
     7
176
     1
 62
   257
176
     1
 90
        1
176
     1
 90
        1
176
     1
 40
1.0
176
     1
 90
        8
176
     1
 62
     7
176
     1
 40
1.0
176
     1
 90
        1
176
     1
 90
        6
176
     1
 90
        2
176
     1
 62
     7
176
     1
 90
        3
176
     1
 90
        0
176
     1
 90
        0
176
     1
290
     0
176
     1
 90
       13
176
     1
 40
0.0
176
     1
 90
        0
176
     1
290
     0
176
     1
290
     1
176
     1
290
     1
176
     1
290
     0
176
     1
290
     0
176
     1
290
     0
176
     1
290
     0
176
     1
290
     0
176
     1
290
     0
176
     1
 90
       50
176
     1
 40
0.0
176
     1
 40
1.0
176
     1
 90
        0
176
     1
 62
    18
176
     1
 90
       50
176
     1
 90
        3
176
     1
 62
     5
420
      255
176
     1
290
     0
176
     1
 90
       50
176
     1
 90
       50
176
     1
 90
       50
176
     1
290
     0
176
     1
 90
       50
176
     1
 62
   256
176
     0
 40
1.0
176
     0
 90
        2
176
     1
  1
strokes_ogs.tif
176
     1
290
     0
176
     1
 40
1.0
176
     1
 40
1.0
176
     1
1001
ACAD
1000
AcDbSavedByObjectVersion
1070
     0
  0
DICTIONARYVAR
  5
146
102
{ACAD_REACTORS
330
5E
102
}
330
5E
100
DictionaryVariables
280
     0
  1
1:1
  0
DICTIONARYVAR
  5
259
102
{ACAD_REACTORS
330
5E
102
}
330
5E
100
DictionaryVariables
280
     0
  1
3.500000
  0
DICTIONARYVAR
  5
25A
102
{ACAD_REACTORS
330
5E
102
}
330
5E
100
DictionaryVariables
280
     0
  1
acadiso.lin
  0
DICTIONARYVAR
  5
145
102
{ACAD_REACTORS
330
5E
102
}
330
5E
100
DictionaryVariables
280
     0
  1
STANDARD
  0
DICTIONARYVAR
  5
84
102
{ACAD_REACTORS
330
5E
102
}
330
5E
100
DictionaryVariables
280
     0
  1
STANDARD
  0
DICTIONARYVAR
  5
227
102
{ACAD_REACTORS
330
5E
102
}
330
5E
100
DictionaryVariables
280
     0
  1
Metric50
  0
DICTIONARYVAR
  5
228
102
{ACAD_REACTORS
330
5E
102
}
330
5E
100
DictionaryVariables
280
     0
  1
Metric50
  0
DICTIONARYVAR
  5
5F
102
{ACAD_REACTORS
330
5E
102
}
330
5E
100
DictionaryVariables
280
     0
  1
2
  0
DICTIONARYVAR
  5
63
102
{ACAD_REACTORS
330
5E
102
}
330
5E
100
DictionaryVariables
280
     0
  1
1
  0
DICTIONARYVAR
  5
B62
102
{ACAD_REACTORS
330
5E
102
}
330
5E
100
DictionaryVariables
280
     0
  1
0
  0
DICTIONARYVAR
  5
1AE
102
{ACAD_REACTORS
330
5E
102
}
330
5E
100
DictionaryVariables
280
     0
  1
0
  0
DICTIONARYVAR
  5
1AF
102
{ACAD_REACTORS
330
5E
102
}
330
5E
100
DictionaryVariables
280
     0
  1
0
  0
DICTIONARYVAR
  5
B60
102
{ACAD_REACTORS
330
5E
102
}
330
5E
100
DictionaryVariables
280
     0
  1
2
  0
DICTIONARYVAR
  5
B5F
102
{ACAD_REACTORS
330
5E
102
}
330
5E
100
DictionaryVariables
280
     0
  1
1
  0
DICTIONARYVAR
  5
B61
102
{ACAD_REACTORS
330
5E
102
}
330
5E
100
DictionaryVariables
280
     0
  1
127
  0
DICTIONARY
  5
1F9
330
ED
100
AcDbDictionary
280
     1
281
     1
  3
ACAD_XREC_ROUNDTRIP
360
BD5
  3
FBXASSET
360
1FA
  0
DICTIONARY
  5
1F7
330
EC
100
AcDbDictionary
280
     1
281
     1
  3
ACAD_XREC_ROUNDTRIP
360
BD4
  3
FBXASSET
360
1F8
  0
DICTIONARY
  5
173
330
EE
100
AcDbDictionary
280
     1
281
     1
  3
ACAD_XREC_ROUNDTRIP
360
BD6
  3
BUMPTILE
360
175
  3
DIFFUSETILE
360
174
  3
FBXASSET
360
1FB
  3
OPACITYTILE
360
176
  3
REFLECTIONTILE
360
177
  0
DICTIONARY
  5
162
330
7F
100
AcDbDictionary
280
     1
281
     1
  3
ACAD_ROUNDTRIP_2008_TABLESTYLE_CELLSTYLEMAP
360
F7D
  0
XRECORD
  5
BD5
102
{ACAD_REACTORS
330
1F9
102
}
330
1F9
100
AcDbXrecord
280
     1
102
MATERIAL
148
0.0
149
0.0
149
0.0
 93
        0
 94
       63
282
     0
 72
     1
 77
     1
171
     1
175
     1
179
     1
273
     0
  0
XRECORD
  5
1FA
102
{ACAD_REACTORS
330
1F9
102
}
330
1F9
100
AcDbXrecord
280
     1
 70
     1
 90
429727718
  1
D62C5603-E3A1-4AEA-B7FB-FE5D8D0755AF
310
504B03040A0000080000CC70623B3DEE336E79000000790000001B0000006175746F6465736B2D64657369676E2D7061636B6167652E786D6C3C3F786D6C2076657273696F6E3D22312E302220656E636F64696E673D227574662D3822203F3E3C666F726D6174733E3C666F726D61743E687474703A2F2F736368656D612E
310
6175746F6465736B2E636F6D2F64657369676E2D7061636B6167652F323030393C2F666F726D61743E3C2F666F726D6174733E504B0304140006080800CC70623BD486FD9CA0000000F4000000130000005B436F6E74656E745F54797065735D2E786D6C7D8EC10E82300C865F65E91D8A1E8C310C0EEA1BF002731658846E
310
D98AC1B77784ABF1D8FE5FBFBF75BBCE937A534CCEB38643598122B6FEE978D0B0485F9C41B54DDD7D022595594E1A469170414C76A4D9A4D207E29CF43ECE46F218070CC6BECC4078ACAA135ACF422C856C0E68EA1BF5669944DDD7BCDE7B1F8E415D77AECB980613C2E4AC91FC167A2B244592486606FC29C8FD7F045B9A
310
EF7053A7E60B504B0304140006080800CC70623B853B8169EB0000007C01000008000000636F72652E786D6C8D90416EC3201045AF62CDB6C206821CC7C244919D9CA01740401C94182C03558F5F9C3852BBEB6A467FFE9B197D7EFC9E1EC5975982F5AE035262288C535E5B377690E21535501C055FBC8FBF6C503839990E
310
5619041F179FE64D52DE45E362569DD7661365082642A11EB9E920A89B99642953CC8E702F67A9EE7234257977194EC9EAE275C4EABCCF5EAD5940D4AC6F0E35A568B8F43562CD7046CD199FD07E60174276A7BE677B5EADB0E0D14EEFFB6A31321A0D82627C4084204C3F096B71DD52F6819B16635EADF63F509AF53FA164
310
5DDCD1EDDD17164090FCC8732078B56691CB33A85CD7DCC40F504B0304140006080800CC70623B55019EA25F0000007C00000007000000636E782E786D6C4DCB3B0E80201045D1AD90E915ED2CF8AC45050C11660C8261F98AB1B07AC9C97D42D718D865D3E909258CFD00CCE24AC6E326A164D74DC0B4128928FF32603847
310
2BA13128B1252AC747C6BAB984FC68F0B87FE8960A5C09FE86CFB69FBA01504B0304140006080800CC70623BDBABAAF470010000D40300000C0000006662782F636F72652E786D6CC553D16E823014FD95A6AF4B694182CC941A83FA05FB810A9511A125A5257EFE2E82712ECEB8A7F100CD39F7F69E734AF9FADC366850B6
310
AF8DCE7018308C942E4C59EB2AC3DE1D498AD15A706B8CFB56869196ADCAF00863C12B6B7C374385D14E6907A836A59A41D9F7CA615434B0C8705F7CAA5606D23BA8E84F41278B93AC54100640439DE0BDB320004D43C63716C7C399D30917DCFBBA9CD9BA8469F5B156168B24CED3F7248AC8769F27244EB73B92EED8862C
310
B7F13E0C179B3C8F979C8ECD82BBBABDAA2BAC924E9558448CBD9330242CFA08E3154B5651FCC6D215639C8EE5774DBE2B5F6CF2B5768B68963BB5F5588420E442FC700B1139D4CB01F450C1E918227C2E09DF070D8140C84E1E9AAB8F1340832A9CB13130A5F1376A908D57309505ECF2A0DF179C4E9D30F5B239B87E3823
310
7A79C6F31DE1A8A5AEC08474B03C7837EAE4938639B44E5932B833D2C6B6B279CDC613877FA26EE21F4A2A4C63EC7F29A2F301D1F9F7A0E37D145F504B0304140006080800CC70623B9C113CC27E0000009D0000000B0000006662782F636E782E786D6C4DCCDF0A83201C86E15B91DFB94BFB330DD428C8FB886521330DA7
310
6397BF1A1DECE883878F57749FCDA1B7892F1BBC047A23808C7F84D9FA55424E0BE6803A256208E9EF06C84F9B91703228B1C690F78B66B34CD9A5439DF5CF0BFBF65E35BCA1B8D6A5C6F540381E886698B5741C695F9503EBA150A2F8958E3DC3EA0B504B0304140006080800CC70623B7DF2F77C2A010000120200003100
310
00006662782F41393633353835312D344632462D344230382D423046372D3739314545314133324237412F636F72652E786D6C8D51DB8EC22014FC15C2939B0D2DB4B45643319AE817EC0F6041255A68B86CFCFC856D4D76DF7CE190393373060EDB3DC707F856CE6B6B7A480A0C81328395DA5C7B18C3057510EC3873D686
310
3F34088C18550F330C39BB3A1BA7051AAC09CA84841A2BD5020AEF55806078A44B0FFD7053A328440C89E1EFC52486BBB8AA8214A99D789CF9E05200300FC927E4FB4D5B375D43103D5527440FB843077C5AA3F5861C8F645F5787F59E95B390B318B55CE45AA638FAA2957BD7248B390B7A7CC51F9C124149C82B8C378810
310
84AB2F42B7B8DD56F413775B8C5999E9FF4471926F8AA236A1AE96B8B3CC434E5839373893369E1FAF30EA395917409EB7F26AF8801C171837A4A6AC9C89E9F9C9B1A58BA30FD6A5EF5DDDCF894B9AD9B6A59C957943A9FCAE2FD5BC4DFE03504B0304140006080800CC70623BAD7543B64E01000033030000300000006662
310
782F41393633353835312D344632462D344230382D423046372D3739314545314133324237412F636E782E786D6CD593CD6EC32010845F0571AD6CE3D48AD20813A9873E410FBD12D82434182C7EAAE6EDBB2424CD25871E7B41D6EC30B3FA84F9E67BB2E40B4234DE8DB46F1925E094D7C6ED479AD3AE5951B2113C789FEE
310
6C943839C1488B4C05DF079FE72A69D8C96C13AAD6B8631503449F83828872B949AC57D26200B826A308D316B4064D6E46FCDA41C05550DC9E483A00797BFD207EFB092A45DE9514C1BBD22178396BD39D891265658C238DEA00936C654E5E433CB65A26D9F6EDB5EBC14EBF49A45CB856E66048291F6939A9A81BB5C89177
310
38143CA680F4AA299D66A042CEB3354A2684DC9D8D178FE0D9B8B41CAAD720F880EE7EF93C0C18769E099ECC04D5A102C8049A8A05632F4DDF376CF1DE0F6BB65C2F8627B65A33C6BB62177CEBBDAD973006829F89F22E814B54F4BC2BE347F8AA8F681390B50FA73F804400B5F542E796F19FF974E7F78DB802FE05E20750
310
4B0304140006080800CC70623BE75B7789680500003C100000340000006662782F41393633353835312D344632462D344230382D423046372D3739314545314133324237412F6F626A656374732E786D6CAD575B8F9B3818FD2B887D06C22499CB8AA1CA655245D5B455A356FB305264C061D8018C6C3393D95FBFC7600890
310
A4CD5EF210B0B1BFEBF98E3F7B1FF6596ABC522E1296DF9BAE3D320D9A872C4AF2F8DE2CE5CEBA358D0FBEC719939D65A691938CDE9B6ADAF4BD98B3B2D05311DD91329583D9D5FC0F438434A7A611A644887B5384CF34233629258BA878B12322891DEFF6B66BD70BFB62634E8AE781D082709A4B588AF91C528CDA28B73F
310
1C998EEF39EABBEFA97FBD6A7C7E9553F9D3D79FE442923C3C523610337627CB87ABE99D359D4CC6D6E4FACAB5E6ABF9D2726FC6A3C5F56271377BB88362213924694B38DD99FE47C48627A1E7D49F5A8BB5E1A74C0A599ED3B0F21F1E56366B89112D681E218F0915D0D6F17AD41FBA2A369DCF6335D62ABBD39779D5DDD1
310
11D4D8DE3CBB96B2E04FB8202E41051754A1AA8E8F76B4C6DFE810B580B1547F4B84911149794252234D024EF8BBE963A95AE27B3D310A9D5C215C7960FAEE415ED75694C6AFB17BCACA5D99A60A9AA65F217B0BFC53292ACB92BF283FAD0D3621576592CB5BED907C2FA8E9DF794E35E97BEA31BED21FEB401ABB94C44839
310
DCACBF0E1C5DA8DA5B2F4DFFD32AD86F543D9E565E7056502E157C00AD2671CD534549AB752FCA9CDA00677A313F04E51B22FF19E57B300579E3C97EB29F682D92935CEC18CF901B7B54FD8C51F362B56FC72FE0B3C1EAE335EDCCBF5AEC39ADB17DC238973F804BA5E6F6BFE7AF1FB32E523BE9F3BD571418E3631DCA4D48
310
5250CF639223210A9446CA30052EDF057BD35F8329C1ECD84552BF0DC8D18BE7BCE23BFE6BD960AB4A7DE79923A103BEBD80F911CBAA2C60DB19B01CF164A5583B772EE6D3FFA56666CBCDA74DC97724A48F9A58967497E489C4D979006FD7A05E227A1EBDD0F737C623387A9C844D3709995625106D157315F8B8392CD4E0
310
A0B9A720C4BE9829CEF37EA1E13111214D53925356365ADA634861B52519DD27A00AEB808EAF0628E6F435519D446F45CF2C9CF5214F0A15B2F6D06B79DA3EE3CBF7F56780D2F4E7EF73A0F5E5B02A38D07DC852C6B7C1FBB6664213E0C39E3EBA7FF4E1AD23EA2829407C85E586727488B751B2DB9502BC7B228A3FD68B6E
310
A65A22397E690AA8D158D7E404EC8CDA235CC3B7D1898680131CEC2CDF2638C65196279577750F15884AEE19F94199155B92B13297978469D4F8D358DF0AEF7631E28DC8F0D9F437D5D39A83B2231A1D52D543813A824EF8D44BCFF2FA6A31BD1E8DAD87F1CCB526B3879935BF59CDADD5C37479BB1CDD4CA7B3556B516589
310
EF352754B706114D9C885EC9131DE6EFEB43D99AFE2391C2F958179413D7CFEF6B1B6DB1E7600F00DE6E5C67454A339A4BA2E0FBA85ED26F045D454F463DBFCE484C2F90F2E5E3666003662ED8F755951A7D1BECD5B30B550B2785C8E7320B7292A4838DDA71BBC863ED7613CAF659337A3354231D4FF4A182A54904C2898C
310
98B28C4AD0CE056CCF332A80986E571EE9DBC305BB5FEB7E509220A58D25CF042D712A806AC0AD0C657FDEF80D2D9CEAA2EE4D1C76F60BFE74219A06527D6F82DF6412526107381E55E353090704D085B52408A8913C4ED159D79BDA71BB4BC506F4831350EB6F975CD22D69BF7AC49B91A2C0A9DDA3D5CA36AD20FC478E37
310
E61844E2352865EBCB61A275A65283CAAA9DD27703B4102F5AF51EF5F573B75CBB5AD38BC845F7A49F82A0966A49C2E3EA5EA0ECD326CD965F1DB402C6FA8B51A4658C5C5E2EC9E214602E55810345408596591009A82E7E7FFACA19EEA299B14A0081A705CB3296EBC14CDF658DCD336EA6D1136881AAEB87B81AB9EE53D5
310
F5EB8BC8362082DA24122F98680A4E7930C01A0079749CEA14382A0783E5EBA5A10F8C098456A03D6A4AEB6BB881E2513747552A5DB22C7EDAF83BD5528081A365F7FF06504B0304140006080000CC70623B000000000000000000000000350000006662782F41393633353835312D344632462D344230382D423046372D37
310
39314545314133324237412F76657274696365732E62696E504B0304140006080800CC70623BF270F1330600000004000000360000006662782F41393633353835312D344632462D344230382D423046372D3739314545314133324237412F747269616E676C65732E62696E636660600000504B0304140006080000CC7062
310
3B000000000000000000000000370000006662782F41393633353835312D344632462D344230382D423046372D3739314545314133324237412F617474726962757465732E62696E504B0304140006080800CC70623B08DA0BD19000000041010000360000006662782F41393633353835312D344632462D344230382D4230
310
46372D3739314545314133324237412F6469726563746F72792E786D6C858F410AC3201045AF22B36F53E9A60B35CBEEBAE80D244E44489C6234F4F835464A48035D0DF398FF9F8AF63D0E6CC63039F212F8F9020C7D47C6792B21C5FE7403D62A1188E2E60C98D7234A5830286103A55745067B9D86B8A3CF9C7F90C11DE6
310
07FB144396D7B6A82D282E9A152AD114D5EF2CB866EEE831B8EEA07A7BB5A8D7D61A2BAAEB7FD5F70921FF497D00504B0304140006080800CC70623BEDD1DC58FD000000A00100003B0000006662782F41393633353835312D344632462D344230382D423046372D3739314545314133324237412F7265736F75726365732F
310
636F72652E786D6C8D504B6E833010BD0A9A6D65B00922041947112427E8052C33A156828DFCA97AFC9A40A576D7CDCCE87D344F8F9FBFE667F689CE6B6B3A6039850C8DB2A336530731DC4903D95970676DF82583CCC8193B5861107C72362E3BA4AC096842428D1D7107A5F7182053CF7474E0D507CE32973124857FE48B
310
540F3961CEF244279DE03EB81420DB9EAC1384436FA353E879B1B182C7A8C75DA3C7F453DF353A1075D537A7BA6464B8F535A99AE14A9A2BBD90E350DD183B5CFABE3AF262350B1EF4FC9351399401471025A527C218A1E53BAB5A5AB765F5469B96525EACF23FA6B88CFF34456DC2A1DCE36E360F82A5202F42F062ED2BAD
310
579969AFDD8A6F504B010214000A0000080000CC70623B3DEE336E79000000790000001B00000000000000000000000000000000006175746F6465736B2D64657369676E2D7061636B6167652E786D6C504B01021400140006080800CC70623BD486FD9CA0000000F40000001300000000000000000000000000B20000005B
310
436F6E74656E745F54797065735D2E786D6C504B01021400140006080800CC70623B853B8169EB0000007C010000080000000000000000000000000083010000636F72652E786D6C504B01021400140006080800CC70623B55019EA25F0000007C000000070000000000000000000000000094020000636E782E786D6C504B
310
01021400140006080800CC70623BDBABAAF470010000D40300000C00000000000000000000000000180300006662782F636F72652E786D6C504B01021400140006080800CC70623B9C113CC27E0000009D0000000B00000000000000000000000000B20400006662782F636E782E786D6C504B01021400140006080800CC70
310
623B7DF2F77C2A010000120200003100000000000000000000000000590500006662782F41393633353835312D344632462D344230382D423046372D3739314545314133324237412F636F72652E786D6C504B01021400140006080800CC70623BAD7543B64E010000330300003000000000000000000000000000D2060000
310
6662782F41393633353835312D344632462D344230382D423046372D3739314545314133324237412F636E782E786D6C504B01021400140006080800CC70623BE75B7789680500003C10000034000000000000000000000000006E0800006662782F41393633353835312D344632462D344230382D423046372D3739314545
310
314133324237412F6F626A656374732E786D6C504B01021400140006080000CC70623B0000000000000000000000003500000000000000000000000000280E00006662782F41393633353835312D344632462D344230382D423046372D3739314545314133324237412F76657274696365732E62696E504B01021400140006
310
080800CC70623BF270F133060000000400000036000000000000000000000000007B0E00006662782F41393633353835312D344632462D344230382D423046372D3739314545314133324237412F747269616E676C65732E62696E504B01021400140006080000CC70623B0000000000000000000000003700000000000000
310
000000000000D50E00006662782F41393633353835312D344632462D344230382D423046372D3739314545314133324237412F617474726962757465732E62696E504B01021400140006080800CC70623B08DA0BD1900000004101000036000000000000000000000000002A0F00006662782F41393633353835312D344632
310
462D344230382D423046372D3739314545314133324237412F6469726563746F72792E786D6C504B01021400140006080800CC70623BEDD1DC58FD000000A00100003B000000000000000000000000000E1000006662782F41393633353835312D344632462D344230382D423046372D3739314545314133324237412F7265
310
736F75726365732F636F72652E786D6C504B0506000000000E000E0080040000641100000000
  0
XRECORD
  5
BD4
102
{ACAD_REACTORS
330
1F7
102
}
330
1F7
100
AcDbXrecord
280
     1
102
MATERIAL
148
0.0
149
0.0
149
0.0
 93
        0
 94
       63
282
     0
 72
     1
 77
     1
171
     1
175
     1
179
     1
273
     0
  0
XRECORD
  5
1F8
102
{ACAD_REACTORS
330
1F7
102
}
330
1F7
100
AcDbXrecord
280
     1
 70
     1
 90
429727718
  1
30362254-06B7-45E0-A893-8CFA70E3D6BC
310
504B03040A0000080000CC70623B3DEE336E79000000790000001B0000006175746F6465736B2D64657369676E2D7061636B6167652E786D6C3C3F786D6C2076657273696F6E3D22312E302220656E636F64696E673D227574662D3822203F3E3C666F726D6174733E3C666F726D61743E687474703A2F2F736368656D612E
310
6175746F6465736B2E636F6D2F64657369676E2D7061636B6167652F323030393C2F666F726D61743E3C2F666F726D6174733E504B0304140006080800CC70623BD486FD9CA0000000F4000000130000005B436F6E74656E745F54797065735D2E786D6C7D8EC10E82300C865F65E91D8A1E8C310C0EEA1BF002731658846E
310
D98AC1B77784ABF1D8FE5FBFBF75BBCE937A534CCEB38643598122B6FEE978D0B0485F9C41B54DDD7D022595594E1A469170414C76A4D9A4D207E29CF43ECE46F218070CC6BECC4078ACAA135ACF422C856C0E68EA1BF5669944DDD7BCDE7B1F8E415D77AECB980613C2E4AC91FC167A2B244592486606FC29C8FD7F045B9A
310
EF7053A7E60B504B0304140006080800CC70623B1EC5D7A3EB0000007C01000008000000636F72652E786D6C8D90416EC3201045AF82665B6103C6756C6122AB4D4ED00B204C5C94182C03558F5F9C3852BBEB6A467FFE9B197D71FC9E6FE8CBACC17AD7032D0820E3B41FAD9B7A48F1820F808E52ACDEC75F36404ECDA687
310
4D0629A6D5A76597B477D1B89855E747B38B2A041301E95B6E7A08FAD3CCAA50296647B8168BD2573599823EBB0CA76447F43862C7BCCF5EAC59410E4DDD9C7973C2755553CCCFA4C603E3040F1565ED3B1FDE4E432BCA0D9622DAF9795FAF464533826484B498524CD807E51D79ED187F21878E10516EF63F505AC67F42C9
310
BA58B1FDDD071640D2FCC87D2045B96591CB3DA85CB7DCE40F504B0304140006080800CC70623B55019EA25F0000007C00000007000000636E782E786D6C4DCB3B0E80201045D1AD90E915ED2CF8AC45050C11660C8261F98AB1B07AC9C97D42D718D865D3E909258CFD00CCE24AC6E326A164D74DC0B4128928FF32603847
310
2BA13128B1252AC747C6BAB984FC68F0B87FE8960A5C09FE86CFB69FBA01504B0304140006080800CC70623B8C9102E971010000D40300000C0000006662782F636F72652E786D6CC5535B6E833010BC8AE5DF0A6C08340F1947A84D4ED00B38C6A128602363A31CBFCB234A53A551FA553EC09AD9F5CE8C31DB9E9B1AF5CA
310
7695D1198E428A91D2D214952E33ECDD315861B4E5CC1AE3BE9561A445A3323CC098B3D21ADFCE9034DA29ED00D5A6503328BA4E398C640D8B0C77F253352214DE4145770A5B214FA2546114020D759C75CE8200340D19DE981F0F6746269C33EFAB6266AB02A655C74A59CCF365BADC27CB5D902ED22848F6340DF238A141
310
BE88E2F57B92BFEDF23523433367AE6A2EEAA455C2A902F398D2751045018D3FA264435F3771F242571B4A1919CA6F9A7C5B3CD9E42BED16F12C776AEB308F40C848FC700B1139D4891EF410CEC810227CC6846F8386402064270EF5C5C709A05E49676C024C61FC95EA45ED154CA5211D1FF4FB8291A913A68E9B83EBBB33
310
E2A7673CDE118E5AE8124C0807CB8377834E366998436B950D7A7746DAD846D4CFD978E0F04FD455FC5D49D2D4C6FE9722321F10997F0F32DC47FE05504B0304140006080800CC70623BFFEA85907E0000009D0000000B0000006662782F636E782E786D6C4DCCD10A83201886E15B91FFDC95D95A811AB6F23E625948A6C3
310
E9D8E5AF46073BFAE0E1E365ED67B3E8ADC3CB78C7815C7240DA3DFC64DCC221C519D7805AC182F7F1EF06C88D9BE6703008B6049F9E274D7A1E938DBB5AE3D6131B2589BA0D3D965551E0B2EA732C9B9A624AAEB41E3A557677029960D9AFB4EF11165F504B0304140006080800CC70623B4FEEA4082C0100001202000031
310
0000006662782F39464131463745442D413632322D343644302D413938332D3331353338454246344243312F636F72652E786D6C8D515B6EC32010BC0AE2AB55850DD871ED0813254D72825EC00192A2C460F1A872FC42ED48ED5F7E00CDCECCCEB26C731F6FE05B39AFADE921293004CA082BB5B9F43086336A21D870E6AC
310
0D7F68109861543DCC30E4ECE26C9C164858139409093556AA051CBC570102714B8F1E7AF1A5C6A11862480C7F2DA6415C878B2A4891CA89C7990F2E050073937C42DE1DB7E4F87ED8A36D4329AA9B3D46DBAEAD504556557BD81DEBDD0761E52CE42C462D17B996298E3E6BE59E35C962CE821E1FF18553435012728A7187
310
0841987E927A8D9B35ADDF70BBC6989599FE4F1427F9A4286A132ABAC49D651EF234CD5CE04CDA78BA3DC2A8FB645D00B9DF8B57E215725C60BCA2A463E54C4CE327C7A65E1C7DB02E7DEFCBF594B864C5CA6CDBD49C957943E9FA5D5FBAF336F90F504B0304140006080800CC70623BAD7543B64E01000033030000300000
310
006662782F39464131463745442D413632322D343644302D413938332D3331353338454246344243312F636E782E786D6CD593CD6EC32010845F0571AD6CE3D48AD20813A9873E410FBD12D82434182C7EAAE6EDBB2424CD25871E7B41D6EC30B3FA84F9E67BB2E40B4234DE8DB46F1925E094D7C6ED479AD3AE5951B2113C
310
789FEE6C943839C1488B4C05DF079FE72A69D8C96C13AAD6B8631503449F83828872B949AC57D26200B826A308D316B4064D6E46FCDA41C05550DC9E483A00797BFD207EFB092A45DE9514C1BBD22178396BD39D891265658C238DEA00936C654E5E433CB65A26D9F6EDB5EBC14EBF49A45CB856E66048291F6939A9A81BB5
310
C8917738143CA680F4AA299D66A042CEB3354A2684DC9D8D178FE0D9B8B41CAAD720F880EE7EF93C0C18769E099ECC04D5A102C8049A8A05632F4DDF376CF1DE0F6BB65C2F8627B65A33C6BB62177CEBBDAD973006829F89F22E814B54F4BC2BE347F8AA8F681390B50FA73F804400B5F542E796F19FF974E7F78DB802FE05
310
E207504B0304140006080800CC70623B16AB87BA640500003C100000340000006662782F39464131463745442D413632322D343644302D413938332D3331353338454246344243312F6F626A656374732E786D6CAD575B6FA33818FD2B887DE6924B3BED8A326A92B68A663B534DD4D13E548A0C38942D60649B369D5FBFC7
310
600890A493BDE42160637FD7F31D7FF63E6FB3D478A55C242CBF3247B66B1A340F5994E4F19559CA8D75611A9F7D8F33263BCB4C232719BD32D5B4E97B316765A1A722BA21652A07B3B7B33F0D11D29C9A46981221AE4C113ED38CD8A4942CA2E2C58E882476BCD9DA23BB5ED8171B73523C0F841684D35CC252CCE79062D4
310
468DFA43D7747CCF51DF7D4FFDEB5593E3AB9CCA9FBEFE241792E4E19EB28198C968BAB8199F5D5A67D3E9C49A9E8F47D6EC76B6B0469F26EEFC7C3EBFBCBEB98462213924694B38DD98FE1D62C393D073EA4FADC5DAF04326852CCF6958F90F0F2B9BB5C48816348F90C7840A68EB78EDF68723159BCEE7891A6B95DDE9D3
310
BCEAEEE8086A6C6F9E5D4B59F0175C10A7A0820BAA5055C7473B5AE3CFDD452D602CD5DF12616444529E90D448938013FE6EFA58AA96F85E4F8C42275708571E98FE6827AF6B2B4AE3D7D83D64E5A64C53054DD3AF90BD06FEA9149565C94FCA0F6B834DC85599E4F2423B24DF0B6AFA979E534DFA9E7A4CC6FA631D486393
310
921829879BF5D781A373557BCB85E97FB90DB62B558F8795179C15944B051F40AB495CF35451D26A4727654E6D8033BD98EF82F21D91FF8AF2DD9982BCF1643BDD4EB516C9492E368C67C88DED563FC36D5EACF66DFF057C3658BDBFA69DF9578B3DA735B64F18C7F20770A9D45CFCF7FCF563D6456A277DBEF78A02637CA2
310
43B90A490AEAB94F72244481D24819A6C0E59B606BFA4B3025981DBB48EAB701D97BF19C577CC77F2D1B6C55A9EF3C732474C0B727303F625995056C3B02963D9EAC146BE78EC5FCEC7FA999EBC5EACBAAE41B12D27B4D2C0BBA49F244E2ECDC81B76B502F113D8F5EE8FB1BE3111CDD4FC2AA9B844CAB1288B68AB90A7CDC
310
1C166AB0D3DC5310625FCC14E779BFD0709F8890A629C9292B1B2DED31A4B0DA928CEE135085754027E3018A397D4D5427D15BD1330B677DC8934285AC3DF45A9EB68FF8F2B8FC0A509AFEECFD0FF2DE25CC6047F7214B195F07EFEB9A094D800F7BFAE8FED187B78EA8A3A400F115961BCAD1215E47C966530AF0EE8128FE
310
58CEBB996A8964FFA529A046635D9353B0336A8F700DDF46271A024E70B0B37C9DE01847591E54DED53D54202AB947E4076556AC49C6CA5C9E1226B7F1A7B1BE15DEED62C41B91E1B3E9AFAAA735036547343A925075041DF0A9979E893B391F8FCFA6967B3EFB644DCF6E5CEBFAE272625DCC6FAF3FB93793C5F90CE1EF57
310
407342756B10D1C489E8953CD1617E5CEECAD6F4EF8914CE5D5D504E5C3F1F9736DA62CFC11E00BCDDB8CC8A9466349744C1F75EBDA4DF09BA8A9E8C7A7E9991989E20E5DBDD6A6003664ED8F7A04A8DBE0DF6EAD9B9AA858342E47399053949D2C146EDB85DE4B176BB0965FBAC19BD19AA918E27FA50C1D22402E144464C
310
59462568E704B6E71915404CB72B8FF4EDE184DDAF753F284990D2C6926782963815403548A70C657FDEF80D2D9CEAA2AE4C1C76F60BFE74219A06527D6582DF6412526107381E55E353090704D085B52408D0933C4ED159D79BDA71BB4BC506F4831350EB6F979CD22D69BF7AC49B91A2C0A9DDA3D5CA36AD20FC478E37E6
310
1844E2352865EBCB6EA275A652E3836BE04EFB400BF1A2556F515F1FBB35B2AB35BD889C744FFA1004B5544B121E57F70215746DD2F5E2C1412B602CBF19455AC6C8E5E9922C4E01E65215385004546899059180EAFCF7A707CE7017CD8CDB0410789AB32C63B91E5CEBBBACB17AC6CD347A022D5075FD106377347AAABA7E
310
7D11590744509B44E205134DC1290F06580320F78E537D3D73540E06CB970B431F185308AD40BBD794D6D77003C5A36E8EAA54BA64597CD8F83BD552A080A365F7FF06504B0304140006080000CC70623B000000000000000000000000350000006662782F39464131463745442D413632322D343644302D413938332D3331
310
353338454246344243312F76657274696365732E62696E504B0304140006080800CC70623BF270F1330600000004000000360000006662782F39464131463745442D413632322D343644302D413938332D3331353338454246344243312F747269616E676C65732E62696E636660600000504B0304140006080000CC70623B
310
000000000000000000000000370000006662782F39464131463745442D413632322D343644302D413938332D3331353338454246344243312F617474726962757465732E62696E504B0304140006080800CC70623B08DA0BD19000000041010000360000006662782F39464131463745442D413632322D343644302D413938
310
332D3331353338454246344243312F6469726563746F72792E786D6C858F410AC3201045AF22B36F53E9A60B35CBEEBAE80D244E44489C6234F4F835464A48035D0DF398FF9F8AF63D0E6CC63039F212F8F9020C7D47C6792B21C5FE7403D62A1188E2E60C98D7234A5830286103A55745067B9D86B8A3CF9C7F90C11DE607
310
FB144396D7B6A82D282E9A152AD114D5EF2CB866EEE831B8EEA07A7BB5A8D7D61A2BAAEB7FD5F70921FF497D00504B0304140006080800CC70623B0D6EF93BFE000000A00100003B0000006662782F39464131463745442D413632322D343644302D413938332D3331353338454246344243312F7265736F75726365732F63
310
6F72652E786D6C8D50596E833010BD0A9ADFCA60B334011947A8694ED00B586642AC041B79A97AFC9A40A5F6AF3F33A3B7689E1E3F7DCD8FEC139DD7D6F4C0720A191A65476DA61E62B892236427C19DB5E1970C322367EC618541F0C9D9B8EC90B226A009093576C41D94DE63804C3DD2D18357379C652E63480A7FCF17A9
310
EE72C29CE5894E3AC17D702940B63D59270887DE46A7D0F36263058F518FBB468FE9A7BE6A7420864373B8D4873369AA8691FA421B3294352543C5CAF65C0F6FEF43CB8BD52C78D0F34F46E550061C419494B6843142CB0F5677F4B52BEB177AEC28E5C52AFF638ACBF84F53D42654E51E77B379102C05791282176B5F693D
310
CB4C7BED567C03504B010214000A0000080000CC70623B3DEE336E79000000790000001B00000000000000000000000000000000006175746F6465736B2D64657369676E2D7061636B6167652E786D6C504B01021400140006080800CC70623BD486FD9CA0000000F40000001300000000000000000000000000B20000005B
310
436F6E74656E745F54797065735D2E786D6C504B01021400140006080800CC70623B1EC5D7A3EB0000007C010000080000000000000000000000000083010000636F72652E786D6C504B01021400140006080800CC70623B55019EA25F0000007C000000070000000000000000000000000094020000636E782E786D6C504B
310
01021400140006080800CC70623B8C9102E971010000D40300000C00000000000000000000000000180300006662782F636F72652E786D6C504B01021400140006080800CC70623BFFEA85907E0000009D0000000B00000000000000000000000000B30400006662782F636E782E786D6C504B01021400140006080800CC70
310
623B4FEEA4082C0100001202000031000000000000000000000000005A0500006662782F39464131463745442D413632322D343644302D413938332D3331353338454246344243312F636F72652E786D6C504B01021400140006080800CC70623BAD7543B64E010000330300003000000000000000000000000000D5060000
310
6662782F39464131463745442D413632322D343644302D413938332D3331353338454246344243312F636E782E786D6C504B01021400140006080800CC70623B16AB87BA640500003C1000003400000000000000000000000000710800006662782F39464131463745442D413632322D343644302D413938332D3331353338
310
454246344243312F6F626A656374732E786D6C504B01021400140006080000CC70623B0000000000000000000000003500000000000000000000000000270E00006662782F39464131463745442D413632322D343644302D413938332D3331353338454246344243312F76657274696365732E62696E504B01021400140006
310
080800CC70623BF270F133060000000400000036000000000000000000000000007A0E00006662782F39464131463745442D413632322D343644302D413938332D3331353338454246344243312F747269616E676C65732E62696E504B01021400140006080000CC70623B0000000000000000000000003700000000000000
310
000000000000D40E00006662782F39464131463745442D413632322D343644302D413938332D3331353338454246344243312F617474726962757465732E62696E504B01021400140006080800CC70623B08DA0BD190000000410100003600000000000000000000000000290F00006662782F39464131463745442D413632
310
322D343644302D413938332D3331353338454246344243312F6469726563746F72792E786D6C504B01021400140006080800CC70623B0D6EF93BFE000000A00100003B000000000000000000000000000D1000006662782F39464131463745442D413632322D343644302D413938332D3331353338454246344243312F7265
310
736F75726365732F636F72652E786D6C504B0506000000000E000E0080040000641100000000
  0
XRECORD
  5
BD6
102
{ACAD_REACTORS
330
173
102
}
330
173
100
AcDbXrecord
280
     1
102
MATERIAL
148
0.0
149
0.0
149
0.0
 93
        0
 94
       63
282
     0
 72
     1
 77
     1
171
     1
175
     1
179
     1
273
     0
  0
XRECORD
  5
175
102
{ACAD_REACTORS
330
173
102
}
330
173
100
AcDbXrecord
280
     1
270
     1
271
     1
  0
XRECORD
  5
174
102
{ACAD_REACTORS
330
173
102
}
330
173
100
AcDbXrecord
280
     1
270
     1
271
     1
  0
XRECORD
  5
1FB
102
{ACAD_REACTORS
330
173
102
}
330
173
100
AcDbXrecord
280
     1
 70
     0
 90
1673772943
  1
ECE7A1D2-D628-4531-984C-D00F80459256
310
504B03040A0000080000CC70623B3DEE336E79000000790000001B0000006175746F6465736B2D64657369676E2D7061636B6167652E786D6C3C3F786D6C2076657273696F6E3D22312E302220656E636F64696E673D227574662D3822203F3E3C666F726D6174733E3C666F726D61743E687474703A2F2F736368656D612E
310
6175746F6465736B2E636F6D2F64657369676E2D7061636B6167652F323030393C2F666F726D61743E3C2F666F726D6174733E504B0304140006080800CC70623BD486FD9CA0000000F4000000130000005B436F6E74656E745F54797065735D2E786D6C7D8EC10E82300C865F65E91D8A1E8C310C0EEA1BF002731658846E
310
D98AC1B77784ABF1D8FE5FBFBF75BBCE937A534CCEB38643598122B6FEE978D0B0485F9C41B54DDD7D022595594E1A469170414C76A4D9A4D207E29CF43ECE46F218070CC6BECC4078ACAA135ACF422C856C0E68EA1BF5669944DDD7BCDE7B1F8E415D77AECB980613C2E4AC91FC167A2B244592486606FC29C8FD7F045B9A
310
EF7053A7E60B504B0304140006080800CC70623BD9DDAED0EC0000007C01000008000000636F72652E786D6C8D90416EC3201045AF82665B61836D9CD8C2444DD39CA01740405C94182C03558F5F9C3852BBEB6A467FFE9B197D7EF89E6EE8CB2CC17A37002D0820E394D7D68D03A478C17B4007C117EFE32F1B20272733C0
310
2A83E0E3E2D3BC49CABB685CCCAAF3DA6CA20CC14440EA969B0182FA34932C648AD911AEC52CD5558EA6A0CF2EC329598D1E47ACCEFBECC59A050463A7EA5833865FEBDD0E37353BE3EE8DBDE3F6786A48D375FBF6CC78B9C282473B3DEFABC5C86834888A900E538A49F5419B9EB47DD5BC907D4F082F57FB1F28CDFA9F50
310
B22ED6D5F6EE030B20687EE43E10BC5CB3C8E51E54AE6B6EE207504B0304140006080800CC70623B55019EA25F0000007C00000007000000636E782E786D6C4DCB3B0E80201045D1AD90E915ED2CF8AC45050C11660C8261F98AB1B07AC9C97D42D718D865D3E909258CFD00CCE24AC6E326A164D74DC0B4128928FF326038
310
472BA13128B1252AC747C6BAB984FC68F0B87FE8960A5C09FE86CFB69FBA01504B0304140006080800CC70623BA24EB22D72010000D40300000C0000006662782F636F72652E786D6CC5535B6E833010BC8AE5DF0A6C5E49888CA3A6694ED00B38E05014B091B1518EDFE511A5A9D228FD2A1F60CDEC7A67C6986DCE4D8D7A
310
69BA4AAB0C073EC548AA5C17952A33ECECD15B61B4E1CC686DBF9561A44423333CC098B3D268D7CE50AE9595CA02AA74216750749DB418E5352C32DCE59FB211BE70162ABA93DF8AFC244AE9073ED050C759670D0840D390E18DF9F1706664C23973AE2A66B62A605A75ACA4C13C4976E1364A12EF355A2EBD384AF65EFA96
310
BC7B8BED2EA6719AAE16FB8491A199335B351775B991C2CA02F390D2D40B028F861F41BCA68B7518BFD0D59A524686F29B26D7164F36B94AD9289CE54E6D1DE6010819891F6E21228B3AD1831EC219194284CF98F06DD01008846CC5A1BEF83801D4CBDC6A1303536877A57A513B0953A94FC707FDBE6064EA84A9E3E6E0FA
310
EE8CF0E9198F7784A316AA0413C2C2F2E0ECA0934D1AE6D05A69BCDE9E91D2A611F573361E38FC1375157F5752AE6B6DFE4B11990F88CCBF0719EE23FF02504B0304140006080800CC70623B408A7D3B7C0000009D0000000B0000006662782F636E782E786D6C4DCCD10A83201886E15B91FFDC552A92A0064DBC8F581632
310
D3703A76F9ABD1C18E3E78F878E5F0D9027ABBFCF2292AE86E2D20171F69F6715550CB827B40839639A5F2770314A7CD293819B45C73AAFB45B35BA61ACAA1C1C7E7855C58C15BC331339661262CC762340413D68D77DA5B42298546CBE6573AF60CEB2F504B0304140006080800CC70623B449FB9BD290100001202000031
310
0000006662782F36394639363044362D344446342D343946362D394244322D3234314243333846323333332F636F72652E786D6C8D515B6EC32010BC0AE22B55850D98B871848994463E412FE002495162B07854397EA176A4F62F3F2C9A9D991D587EB84F37F0AD7D30CEF6905418026DA553C65E7A98E219ED203808EE9D
310
8B7F6810D871D23D2C3014FCE25D9A57483A1BB58D19B54EE9151C43D0110279CB971E06F9A5A7B11A53CC8C70ADE6515EC78BAE4895DB992778883E0700CB907242D17643D7E2538BD869608875438BBAE38922CAC8F1BDD90DB4691A5E2F42C153326A951B95E398B3D1FE599322163C9AE9115F7A3D46ADA0A018778810
310
84E907617BDCEE297BC5BB3DC6BC2EF47FA234AB2745C9D8D8D035EE220B50105E2F0DC1954B9FB747187D9F9D8FA0CCDB042D5FA0C015C65B42DF78BD10F3F3B363CB56C7109DCFDFBBB97E662ED92EB62D13BC2E1BCAE5777DB9966D8A1F504B0304140006080800CC70623BAD7543B64E01000033030000300000006662
310
782F36394639363044362D344446342D343946362D394244322D3234314243333846323333332F636E782E786D6CD593CD6EC32010845F0571AD6CE3D48AD20813A9873E410FBD12D82434182C7EAAE6EDBB2424CD25871E7B41D6EC30B3FA84F9E67BB2E40B4234DE8DB46F1925E094D7C6ED479AD3AE5951B2113C789FEE
310
6C943839C1488B4C05DF079FE72A69D8C96C13AAD6B8631503449F83828872B949AC57D26200B826A308D316B4064D6E46FCDA41C05550DC9E483A00797BFD207EFB092A45DE9514C1BBD22178396BD39D891265658C238DEA00936C654E5E433CB65A26D9F6EDB5EBC14EBF49A45CB856E66048291F6939A9A81BB5C89177
310
38143CA680F4AA299D66A042CEB3354A2684DC9D8D178FE0D9B8B41CAAD720F880EE7EF93C0C18769E099ECC04D5A102C8049A8A05632F4DDF376CF1DE0F6BB65C2F8627B65A33C6BB62177CEBBDAD973006829F89F22E814B54F4BC2BE347F8AA8F681390B50FA73F804400B5F542E796F19FF974E7F78DB802FE05E20750
310
4B0304140006080800CC70623B8D05915C650500003B100000340000006662782F36394639363044362D344446342D343946362D394244322D3234314243333846323333332F6F626A656374732E786D6CAD575B6FA33814FE2B887D06429276DA1565D4266D158D3A339A6846FB502932E050B66023DB74D2FDF5FB190C01
310
9276B2973C046C8ECFF53B17071F77456EBD502133CEAE6CDF9DD81665314F32965ED995DA3A17B6F5310C04E7AA47665B8C14F4CAD6DB7618A48257A5D94AE89654B91AEDDEDDFC61C998326A5B714EA4BCB265FC440BE2924AF184CA6737218AB8E976E7FA6E4338649B0A523E8D98964450A6A029F619B8588D52FE7039
310
B1BD30F0F4F730D0FF866AF6369557DB33949F31A9088B0F848DD8CCFCF9F2767A76E99CCDE733677E3EF59D9BBB9BA5E37F984D16E78BC5E5F5ED25044B25C0C96822E8D60EEFE11B91C581D77CEA34368A1F5329E68CD1B8B61F16D63A1B8E092D294B10C78C4A48EB593D192E7DED9BDEE7995E1B91FDEDD3ACEA9FE831
310
6A756F9F7D4D79F4274C90A7A04248AA51D5F8C718DAE06FB2F75AC4796EBE65D22A88A22223B995679120E2D50E41AA49C260C046A35368846B0BECD0DFF3EBEB8AD4F835768F69B9ADF25C43D30E6B646F807FAA64AD59F61715C7A54127C4AACA98BA3006A9D792DAE165E0D59B61A01FB3A9F9D838D2DAE62445C86166
310
F37564E842E7DE6A69879FEEA2DD5AE7E371E1A5E025154AC307D06A03D73EB5978C58FFA4C8E9033066E0F3BD53BEC1F39F91BE7B55103791EDE6BBB991A2046172CB4581D8B893FA674DDA17A77B3B7C413D1B511FD2743BFF8A38F03A658705E3ADF8015C3A3417FF3D7E439FF591DA0B5F18BC20C1B8981957AE6392A3
310
F43C640C01D1A0B4728E2DD4F26DB4B3C3152A252A3B4E913CEC1C72F012782FF88EFF8637AA552DBEF76408E8A8DE9E50F9E1CB3A2DA0DB1B6039A893B56063DC5B3E3FFB5F72E67AB9FEB4AEC496C4F4C1149625DD662C53E89D7BF0F6151A046260D1337DFDC94502430F83B0EE07A130A224BCAD7DAE1D9FB6CD422FF6
310
920702629C4BB9AE79C12F243C6432A6794E18E5552BA56B431AAB5D91317302B2B071E86C3A42B1A02F999E24061403B5D0EB639195DA655DD3EBEAB4FB862DDF579F014AD0E73C22F99E28DA57FB98E75C6CA2D74D53086D600F4786E0FE3144B771A8A7B900F03594DB8A633CBC49B2EDB69228BB479CF863B5E807AAAB
310
23872F6DFEB4129B949CA33823F58830E86D65621E10047D9DB34D862E8EAC3C2ABC2F7B2C40D67CDFE01F5545B92105AF983AC54D93D69E56FB8E797F88913F898A9FEC705D3F9D1B54EC8426FB500D40A03BD0119B06E1B95DDC7EB8F6975367793EBD70E66733DFB9BC982F9CE564727731999F5D4ECFCE3B8D6A4DC2A0
310
6D50FD148437D110834A64C6CDDF57FBACB5C307A2A477DFE4939736CFEF2B175371E0E10CF0DD1D5C15654E0BCA14D1E87DD02FF93782A162C0A3D95F1524A52770F972BF1EE9809D13CE7DD599467F8ECE9ADD85CE85A34CD45355448C64F9E8A031DC2D596ACC6E5DD93D9B82DE2EF5CAF81363A8E47996A0DE24564A79
310
4115AACE09C55E14540231FDA13C319787134EBF34E3A022514E5B4D9E0826E25C02D5805B15ABE1BEF51B26383D445DD9E875EE33FE4C22DA16427D65A3BCA92CA6D28DD01DF5DC53330704308475351050232CCD31583787BA75774AFB06E5070DD0C8EF484E19968C5D83BA5B90B244D31E54D55A372320FE4786B7EA58
310
44E135AA5467CB7EA333A61683CC6A8C3257034C10CF46F40EF9F5BE59BE5BD30C3C72D235E95D10345C1D45445A5F0BB47E46A5EBE5570F9380B5FA629579952296A773720405982B9DE04011506178964401AA8BDF1FBF0A8EAB6861DD6580C0E38217056766716DAEB2D6FA0917D3E4116581EADB879C4E7CFFB11EFACD
310
3D641311495D92C8676CB409A72D18610D803CE8A626049E8EC1887CB5B44CC39883690DDA8399B4B9855B481E7D71D4A9D22F96E5BB73BF5793020C02137BF837504B0304140006080000CC70623B000000000000000000000000350000006662782F36394639363044362D344446342D343946362D394244322D32343142
310
43333846323333332F76657274696365732E62696E504B0304140006080800CC70623BF270F1330600000004000000360000006662782F36394639363044362D344446342D343946362D394244322D3234314243333846323333332F747269616E676C65732E62696E636660600000504B0304140006080000CC70623B0000
310
00000000000000000000370000006662782F36394639363044362D344446342D343946362D394244322D3234314243333846323333332F617474726962757465732E62696E504B0304140006080800CC70623B08DA0BD19000000041010000360000006662782F36394639363044362D344446342D343946362D394244322D
310
3234314243333846323333332F6469726563746F72792E786D6C858F410AC3201045AF22B36F53E9A60B35CBEEBAE80D244E44489C6234F4F835464A48035D0DF398FF9F8AF63D0E6CC63039F212F8F9020C7D47C6792B21C5FE7403D62A1188E2E60C98D7234A5830286103A55745067B9D86B8A3CF9C7F90C11DE607FB14
310
4396D7B6A82D282E9A152AD114D5EF2CB866EEE831B8EEA07A7BB5A8D7D61A2BAAEB7FD5F70921FF497D00504B0304140006080800CC70623BCA768048FE000000A00100003B0000006662782F36394639363044362D344446342D343946362D394244322D3234314243333846323333332F7265736F75726365732F636F72
310
652E786D6C8D50596E833010BD0A9ADFCA60D600328E9AA639412F609909B1126CE4A5EAF16B0295DABFFECC8CDEA2797AECF8353F924FB44E193D409E5248504B332A3D0D10FC95B4901C39B3C6F85F3248B49871801506CE266BC2B243D2688FDA47549B11775038871E12F988C7004EDE7016A9083E2ADC3D5D84BC8B09
310
D33C8D74D471E6BC8D0192EDC93A815B742658898E651BCB59086ADC356A8C3FD555A1055ED7E7E254D615792D0F075295F585746FF53B694EE78A565DD736979A65AB9933AFE69F8CD2A2F038022F28ED489E135A7CE4554F9BBEA85E68DB53CAB255FEC71496F19FA6A0B42F8B3DEE6673C0F318E4497096AD7DC5F52C33
310
EEB55BFE0D504B010214000A0000080000CC70623B3DEE336E79000000790000001B00000000000000000000000000000000006175746F6465736B2D64657369676E2D7061636B6167652E786D6C504B01021400140006080800CC70623BD486FD9CA0000000F40000001300000000000000000000000000B20000005B436F
310
6E74656E745F54797065735D2E786D6C504B01021400140006080800CC70623BD9DDAED0EC0000007C010000080000000000000000000000000083010000636F72652E786D6C504B01021400140006080800CC70623B55019EA25F0000007C000000070000000000000000000000000095020000636E782E786D6C504B0102
310
1400140006080800CC70623BA24EB22D72010000D40300000C00000000000000000000000000190300006662782F636F72652E786D6C504B01021400140006080800CC70623B408A7D3B7C0000009D0000000B00000000000000000000000000B50400006662782F636E782E786D6C504B01021400140006080800CC70623B
310
449FB9BD290100001202000031000000000000000000000000005A0500006662782F36394639363044362D344446342D343946362D394244322D3234314243333846323333332F636F72652E786D6C504B01021400140006080800CC70623BAD7543B64E010000330300003000000000000000000000000000D20600006662
310
782F36394639363044362D344446342D343946362D394244322D3234314243333846323333332F636E782E786D6C504B01021400140006080800CC70623B8D05915C650500003B10000034000000000000000000000000006E0800006662782F36394639363044362D344446342D343946362D394244322D32343142433338
310
46323333332F6F626A656374732E786D6C504B01021400140006080000CC70623B0000000000000000000000003500000000000000000000000000250E00006662782F36394639363044362D344446342D343946362D394244322D3234314243333846323333332F76657274696365732E62696E504B010214001400060808
310
00CC70623BF270F13306000000040000003600000000000000000000000000780E00006662782F36394639363044362D344446342D343946362D394244322D3234314243333846323333332F747269616E676C65732E62696E504B01021400140006080000CC70623B00000000000000000000000037000000000000000000
310
00000000D20E00006662782F36394639363044362D344446342D343946362D394244322D3234314243333846323333332F617474726962757465732E62696E504B01021400140006080800CC70623B08DA0BD190000000410100003600000000000000000000000000270F00006662782F36394639363044362D344446342D
310
343946362D394244322D3234314243333846323333332F6469726563746F72792E786D6C504B01021400140006080800CC70623BCA768048FE000000A00100003B000000000000000000000000000B1000006662782F36394639363044362D344446342D343946362D394244322D3234314243333846323333332F7265736F
310
75726365732F636F72652E786D6C504B0506000000000E000E0080040000621100000000
  0
XRECORD
  5
176
102
{ACAD_REACTORS
330
173
102
}
330
173
100
AcDbXrecord
280
     1
270
     1
271
     1
  0
XRECORD
  5
177
102
{ACAD_REACTORS
330
173
102
}
330
173
100
AcDbXrecord
280
     1
270
     1
271
     1
  0
CELLSTYLEMAP
  5
F7D
102
{ACAD_REACTORS
330
162
102
}
330
162
100
AcDbCellStyleMap
 90
        3
300
CELLSTYLE
  1
TABLEFORMAT_BEGIN
 90
        5
170
     1
 91
        0
 92
    32768
 62
   257
 93
        1
300
CONTENTFORMAT
  1
CONTENTFORMAT_BEGIN
 90
        0
 91
        0
 92
      512
 93
        0
300

 40
0.0
140
1.0
 94
        5
 62
     0
340
11
144
6.0
309
CONTENTFORMAT_END
171
     1
301
MARGIN
  1
CELLMARGIN_BEGIN
 40
1.5
 40
1.5
 40
1.5
 40
1.5
 40
0.18
 40
0.18
309
CELLMARGIN_END
 94
        6
 95
        1
302
GRIDFORMAT
  1
GRIDFORMAT_BEGIN
 90
        0
 91
        1
 62
     0
 92
       -2
340
14
 93
        0
 40
1.125
309
GRIDFORMAT_END
 95
        2
302
GRIDFORMAT
  1
GRIDFORMAT_BEGIN
 90
        0
 91
        1
 62
     0
 92
       -2
340
14
 93
        0
 40
1.125
309
GRIDFORMAT_END
 95
        4
302
GRIDFORMAT
  1
GRIDFORMAT_BEGIN
 90
        0
 91
        1
 62
     0
 92
       -2
340
14
 93
        0
 40
1.125
309
GRIDFORMAT_END
 95
        8
302
GRIDFORMAT
  1
GRIDFORMAT_BEGIN
 90
        0
 91
        1
 62
     0
 92
       -2
340
14
 93
        0
 40
1.125
309
GRIDFORMAT_END
 95
       16
302
GRIDFORMAT
  1
GRIDFORMAT_BEGIN
 90
        0
 91
        1
 62
     0
 92
       -2
340
14
 93
        0
 40
1.125
309
GRIDFORMAT_END
 95
       32
302
GRIDFORMAT
  1
GRIDFORMAT_BEGIN
 90
        0
 91
        1
 62
     0
 92
       -2
340
14
 93
        0
 40
1.125
309
GRIDFORMAT_END
309
TABLEFORMAT_END
  1
CELLSTYLE_BEGIN
 90
        1
 91
        1
300
_TITLE
309
CELLSTYLE_END
300
CELLSTYLE
  1
TABLEFORMAT_BEGIN
 90
        5
170
     1
 91
        0
 92
        0
 62
   257
 93
        1
300
CONTENTFORMAT
  1
CONTENTFORMAT_BEGIN
 90
        0
 91
        0
 92
      512
 93
        0
300

 40
0.0
140
1.0
 94
        5
 62
     0
340
11
144
4.5
309
CONTENTFORMAT_END
171
     1
301
MARGIN
  1
CELLMARGIN_BEGIN
 40
1.5
 40
1.5
 40
1.5
 40
1.5
 40
0.18
 40
0.18
309
CELLMARGIN_END
 94
        6
 95
        1
302
GRIDFORMAT
  1
GRIDFORMAT_BEGIN
 90
        0
 91
        1
 62
     0
 92
       -2
340
14
 93
        0
 40
1.125
309
GRIDFORMAT_END
 95
        2
302
GRIDFORMAT
  1
GRIDFORMAT_BEGIN
 90
        0
 91
        1
 62
     0
 92
       -2
340
14
 93
        0
 40
1.125
309
GRIDFORMAT_END
 95
        4
302
GRIDFORMAT
  1
GRIDFORMAT_BEGIN
 90
        0
 91
        1
 62
     0
 92
       -2
340
14
 93
        0
 40
1.125
309
GRIDFORMAT_END
 95
        8
302
GRIDFORMAT
  1
GRIDFORMAT_BEGIN
 90
        0
 91
        1
 62
     0
 92
       -2
340
14
 93
        0
 40
1.125
309
GRIDFORMAT_END
 95
       16
302
GRIDFORMAT
  1
GRIDFORMAT_BEGIN
 90
        0
 91
        1
 62
     0
 92
       -2
340
14
 93
        0
 40
1.125
309
GRIDFORMAT_END
 95
       32
302
GRIDFORMAT
  1
GRIDFORMAT_BEGIN
 90
        0
 91
        1
 62
     0
 92
       -2
340
14
 93
        0
 40
1.125
309
GRIDFORMAT_END
309
TABLEFORMAT_END
  1
CELLSTYLE_BEGIN
 90
        2
 91
        1
300
_HEADER
309
CELLSTYLE_END
300
CELLSTYLE
  1
TABLEFORMAT_BEGIN
 90
        5
170
     1
 91
        0
 92
        0
 62
   257
 93
        1
300
CONTENTFORMAT
  1
CONTENTFORMAT_BEGIN
 90
        0
 91
        0
 92
      512
 93
        0
300

 40
0.0
140
1.0
 94
        2
 62
     0
340
11
144
4.5
309
CONTENTFORMAT_END
171
     1
301
MARGIN
  1
CELLMARGIN_BEGIN
 40
1.5
 40
1.5
 40
1.5
 40
1.5
 40
0.18
 40
0.18
309
CELLMARGIN_END
 94
        6
 95
        1
302
GRIDFORMAT
  1
GRIDFORMAT_BEGIN
 90
        0
 91
        1
 62
     0
 92
       -2
340
14
 93
        0
 40
1.125
309
GRIDFORMAT_END
 95
        2
302
GRIDFORMAT
  1
GRIDFORMAT_BEGIN
 90
        0
 91
        1
 62
     0
 92
       -2
340
14
 93
        0
 40
1.125
309
GRIDFORMAT_END
 95
        4
302
GRIDFORMAT
  1
GRIDFORMAT_BEGIN
 90
        0
 91
        1
 62
     0
 92
       -2
340
14
 93
        0
 40
1.125
309
GRIDFORMAT_END
 95
        8
302
GRIDFORMAT
  1
GRIDFORMAT_BEGIN
 90
        0
 91
        1
 62
     0
 92
       -2
340
14
 93
        0
 40
1.125
309
GRIDFORMAT_END
 95
       16
302
GRIDFORMAT
  1
GRIDFORMAT_BEGIN
 90
        0
 91
        1
 62
     0
 92
       -2
340
14
 93
        0
 40
1.125
309
GRIDFORMAT_END
 95
       32
302
GRIDFORMAT
  1
GRIDFORMAT_BEGIN
 90
        0
 91
        1
 62
     0
 92
       -2
340
14
 93
        0
 40
1.125
309
GRIDFORMAT_END
309
TABLEFORMAT_END
  1
CELLSTYLE_BEGIN
 90
        3
 91
        2
300
_DATA
309
CELLSTYLE_END
  0
ENDSEC
  0
SECTION
  2
ACDSDATA
 70
     2
 71
     8
  0
ACDSSCHEMA
 90
        0
  1
AcDb_Thumbnail_Schema
  2
AcDbDs::ID
280
    10
 91
        8
  2
Thumbnail_Data
280
    15
 91
        0
101
ACDSRECORD
 95
        0
 90
        1
  2
AcDbDs::TreatedAsObjectData
280
     1
291
     1
101
ACDSRECORD
 95
        0
 90
        2
  2
AcDbDs::Legacy
280
     1
291
     1
101
ACDSRECORD
  1
AcDbDs::ID
 90
        3
  2
AcDs:Indexable
280
     1
291
     1
101
ACDSRECORD
  1
AcDbDs::ID
 90
        4
  2
AcDbDs::HandleAttribute
280
     7
282
     1
  0
ACDSSCHEMA
 90
        1
  1
AcDbDs::TreatedAsObjectDataSchema
  2
AcDbDs::TreatedAsObjectData
280
     1
 91
        0
  0
ACDSSCHEMA
 90
        2
  1
AcDbDs::LegacySchema
  2
AcDbDs::Legacy
280
     1
 91
        0
  0
ACDSSCHEMA
 90
        3
  1
AcDbDs::IndexedPropertySchema
  2
AcDs:Indexable
280
     1
 91
        0
  0
ACDSSCHEMA
 90
        4
  1
AcDbDs::HandleAttributeSchema
  2
AcDbDs::HandleAttribute
280
     7
 91
        1
284
     1
  0
ACDSRECORD
 90
        0
  2
AcDbDs::ID
280
    10
320
22
  2
Thumbnail_Data
280
    15
 94
     1237
310
89504E470D0A1A0A0000000D49484452000001000000006108030000000E738F1F00000300504C5445212830FFFFFF2128300000000000000000000000000000000000000000000000000000330000660000990000CC0000FF0033000033330033660033990033CC0033FF0066000066330066660066990066CC0066FF0099
310
000099330099660099990099CC0099FF00CC0000CC3300CC6600CC9900CCCC00CCFF00FF0000FF3300FF6600FF9900FFCC00FFFF3300003300333300663300993300CC3300FF3333003333333333663333993333CC3333FF3366003366333366663366993366CC3366FF3399003399333399663399993399CC3399FF33CC00
310
33CC3333CC6633CC9933CCCC33CCFF33FF0033FF3333FF6633FF9933FFCC33FFFF6600006600336600666600996600CC6600FF6633006633336633666633996633CC6633FF6666006666336666666666996666CC6666FF6699006699336699666699996699CC6699FF66CC0066CC3366CC6666CC9966CCCC66CCFF66FF0066
310
FF3366FF6666FF9966FFCC66FFFF9900009900339900669900999900CC9900FF9933009933339933669933999933CC9933FF9966009966339966669966999966CC9966FF9999009999339999669999999999CC9999FF99CC0099CC3399CC6699CC9999CCCC99CCFF99FF0099FF3399FF6699FF9999FFCC99FFFFCC0000CC00
310
33CC0066CC0099CC00CCCC00FFCC3300CC3333CC3366CC3399CC33CCCC33FFCC6600CC6633CC6666CC6699CC66CCCC66FFCC9900CC9933CC9966CC9999CC99CCCC99FFCCCC00CCCC33CCCC66CCCC99CCCCCCCCCCFFCCFF00CCFF33CCFF66CCFF99CCFFCCCCFFFFFF0000FF0033FF0066FF0099FF00CCFF00FFFF3300FF3333
310
FF3366FF3399FF33CCFF33FFFF6600FF6633FF6666FF6699FF66CCFF66FFFF9900FF9933FF9966FF9999FF99CCFF99FFFFCC00FFCC33FFCC66FFCC99FFCCCCFFCCFFFFFF00FFFF33FFFF66FFFF99FFFFCCFFFFFF0000000D0D0D1A1A1A2828283535354343435050505D5D5D6B6B6B787878868686939393A1A1A1AEAEAEBB
310
BBBBC9C9C9D6D6D6E4E4E4F1F1F1FFFFFF0000000000000000000000000000000000000000000000000000000000002E4550F10000017F4944415478DAED9AD1AE82301005FBFFFF7BDECD45F482023D898D7677677C909893EA4E296C89AD010000C04CE88FE75B49014BF5EB5145018787050568A5B48092CB602FA02100
310
01084000021080801C5B1C395B9CAC02EE9B1BF51B5CED3685A904DCCB6A9D0637B980E57559D67F32A90021000108404041016B1B6408B093C1CE80B51CE30C7093E11A6119F3EA27C3CDBF36071A900C286069832D014E32AD809657C0E6C4D6E7C9685DC0EED27625C04D867CCAD3BFB9F9C990F577CBF293084040A846
310
D01620046414B07BD0D9BD0D9AC9A09BA1DE63713F19B2FAF6DCE4195BC134FF8FA93DFDAF0D6EAF2C3F19B30F18970400000000000000000000F805F2E8E7C20AF00C7D3E4E58015F1E67D625A0C44B40073E5E134E26F0FC7F2713FB044FBB469C5F362A33EB4D4063329A788DB3048EC43C26EE3177A73F7193391BC61A
310
67BEEADFAEDEC7F374367FDB0F9D7166BDE8E9BCAC8B36EF3DE68C33D1D48F2F4EDED715BE0C220020FC66190108A85C7D4507DCBA0066E6068ACBB6A4B248E00B0000000049454E44AE426082DD140000000049454E44AE426082426082
  0
ENDSEC
  0
EOF
