  0
SECTION
  2
HEADER
  9
$ACADVER
  1
AC1027
  9
$ACADMAINTVER
 70
   125
  9
$DWGCODEPAGE
  3
ANSI_1252
  9
$LASTSAVEDBY
  1
U732372
  9
$REQUIREDVERSIONS
160
                 0
  9
$INSBASE
 10
0.0
 20
0.0
 30
0.0
  9
$EXTMIN
 10
2356.269982184777
 20
-3097.387342179582
 30
0.0
  9
$EXTMAX
 10
7323.5075617183
 20
910.4467751679589
 30
0.0
  9
$LIMMIN
 10
-1091.180495341761
 20
-619.6501650024412
  9
$LIMMAX
 10
1056.97244419739
 20
951.0353648293053
  9
$ORTHOMODE
 70
     0
  9
$REGENMODE
 70
     1
  9
$FILLMODE
 70
     1
  9
$QTEXTMODE
 70
     0
  9
$MIRRTEXT
 70
     1
  9
$LTSCALE
 40
1.0
  9
$ATTMODE
 70
     1
  9
$TEXTSIZE
 40
4.0
  9
$TRACEWID
 40
0.05
  9
$TEXTSTYLE
  7
ARIALFETT
  9
$CLAYER
  8
Hilfslinie
  9
$CELTYPE
  6
BYLAYER
  9
$CECOLOR
 62
   256
  9
$CELTSCALE
 40
1.0
  9
$DISPSILH
 70
     0
  9
$DIMSCALE
 40
300.0
  9
$DIMASZ
 40
0.25
  9
$DIMEXO
 40
0.1
  9
$DIMDLI
 40
0.5
  9
$DIMRND
 40
0.0
  9
$DIMDLE
 40
0.0
  9
$DIMEXE
 40
0.25
  9
$DIMTP
 40
0.0
  9
$DIMTM
 40
0.0
  9
$DIMTXT
 40
0.25
  9
$DIMCEN
 40
0.09
  9
$DIMTSZ
 40
0.0
  9
$DIMTOL
 70
     0
  9
$DIMLIM
 70
     0
  9
$DIMTIH
 70
     0
  9
$DIMTOH
 70
     0
  9
$DIMSE1
 70
     0
  9
$DIMSE2
 70
     0
  9
$DIMTAD
 70
     1
  9
$DIMZIN
 70
     0
  9
$DIMBLK
  1

  9
$DIMASO
 70
     1
  9
$DIMSHO
 70
     1
  9
$DIMPOST
  1

  9
$DIMAPOST
  1

  9
$DIMALT
 70
     0
  9
$DIMALTD
 70
     2
  9
$DIMALTF
 40
25.4
  9
$DIMLFAC
 40
1.0
  9
$DIMTOFL
 70
     0
  9
$DIMTVP
 40
0.0
  9
$DIMTIX
 70
     0
  9
$DIMSOXD
 70
     0
  9
$DIMSAH
 70
     0
  9
$DIMBLK1
  1

  9
$DIMBLK2
  1

  9
$DIMSTYLE
  2
TYPENBLATT_M25
  9
$DIMCLRD
 70
     0
  9
$DIMCLRE
 70
     0
  9
$DIMCLRT
 70
     0
  9
$DIMTFAC
 40
1.0
  9
$DIMGAP
 40
0.075
  9
$DIMJUST
 70
     0
  9
$DIMSD1
 70
     0
  9
$DIMSD2
 70
     0
  9
$DIMTOLJ
 70
     1
  9
$DIMTZIN
 70
     0
  9
$DIMALTZ
 70
     0
  9
$DIMALTTZ
 70
     0
  9
$DIMUPT
 70
     0
  9
$DIMDEC
 70
     0
  9
$DIMTDEC
 70
     0
  9
$DIMALTU
 70
     2
  9
$DIMALTTD
 70
     2
  9
$DIMTXSTY
  7
VOEST
  9
$DIMAUNIT
 70
     0
  9
$DIMADEC
 70
     0
  9
$DIMALTRND
 40
0.0
  9
$DIMAZIN
 70
     0
  9
$DIMDSEP
 70
    46
  9
$DIMATFIT
 70
     3
  9
$DIMFRAC
 70
     0
  9
$DIMLDRBLK
  1

  9
$DIMLUNIT
 70
     2
  9
$DIMLWD
 70
    -2
  9
$DIMLWE
 70
    -2
  9
$DIMTMOVE
 70
     0
  9
$DIMFXL
 40
1.0
  9
$DIMFXLON
 70
     0
  9
$DIMJOGANG
 40
0.7853981633974483
  9
$DIMTFILL
 70
     0
  9
$DIMTFILLCLR
 70
     0
  9
$DIMARCSYM
 70
     0
  9
$DIMLTYPE
  6

  9
$DIMLTEX1
  6

  9
$DIMLTEX2
  6

  9
$DIMTXTDIRECTION
 70
     0
  9
$LUNITS
 70
     2
  9
$LUPREC
 70
     4
  9
$SKETCHINC
 40
0.1
  9
$FILLETRAD
 40
0.0
  9
$AUNITS
 70
     0
  9
$AUPREC
 70
     4
  9
$MENU
  1
acad
  9
$ELEVATION
 40
0.0
  9
$PELEVATION
 40
0.0
  9
$THICKNESS
 40
0.0
  9
$LIMCHECK
 70
     0
  9
$CHAMFERA
 40
0.0
  9
$CHAMFERB
 40
0.0
  9
$CHAMFERC
 40
1.0
  9
$CHAMFERD
 40
0.0
  9
$SKPOLY
 70
     0
  9
$TDCREATE
 40
2451353.459988426
  9
$TDUCREATE
 40
2451353.376661864
  9
$TDUPDATE
 40
2459235.615011574
  9
$TDUUPDATE
 40
2459235.573344908
  9
$TDINDWG
 40
3.4680404282
  9
$TDUSRTIMER
 40
3.4680404282
  9
$USRTIMER
 70
     1
  9
$ANGBASE
 50
0.0
  9
$ANGDIR
 70
     0
  9
$PDMODE
 70
     0
  9
$PDSIZE
 40
0.0
  9
$PLINEWID
 40
0.0
  9
$SPLFRAME
 70
     0
  9
$SPLINETYPE
 70
     6
  9
$SPLINESEGS
 70
     8
  9
$HANDSEED
  5
3521
  9
$SURFTAB1
 70
     6
  9
$SURFTAB2
 70
     6
  9
$SURFTYPE
 70
     6
  9
$SURFU
 70
     6
  9
$SURFV
 70
     6
  9
$UCSBASE
  2

  9
$UCSNAME
  2

  9
$UCSORG
 10
0.0
 20
0.0
 30
0.0
  9
$UCSXDIR
 10
1.0
 20
0.0
 30
0.0
  9
$UCSYDIR
 10
0.0
 20
1.0
 30
0.0
  9
$UCSORTHOREF
  2

  9
$UCSORTHOVIEW
 70
     0
  9
$UCSORGTOP
 10
0.0
 20
0.0
 30
0.0
  9
$UCSORGBOTTOM
 10
0.0
 20
0.0
 30
0.0
  9
$UCSORGLEFT
 10
0.0
 20
0.0
 30
0.0
  9
$UCSORGRIGHT
 10
0.0
 20
0.0
 30
0.0
  9
$UCSORGFRONT
 10
0.0
 20
0.0
 30
0.0
  9
$UCSORGBACK
 10
0.0
 20
0.0
 30
0.0
  9
$PUCSBASE
  2

  9
$PUCSNAME
  2

  9
$PUCSORG
 10
0.0
 20
0.0
 30
0.0
  9
$PUCSXDIR
 10
1.0
 20
0.0
 30
0.0
  9
$PUCSYDIR
 10
0.0
 20
1.0
 30
0.0
  9
$PUCSORTHOREF
  2

  9
$PUCSORTHOVIEW
 70
     0
  9
$PUCSORGTOP
 10
0.0
 20
0.0
 30
0.0
  9
$PUCSORGBOTTOM
 10
0.0
 20
0.0
 30
0.0
  9
$PUCSORGLEFT
 10
0.0
 20
0.0
 30
0.0
  9
$PUCSORGRIGHT
 10
0.0
 20
0.0
 30
0.0
  9
$PUCSORGFRONT
 10
0.0
 20
0.0
 30
0.0
  9
$PUCSORGBACK
 10
0.0
 20
0.0
 30
0.0
  9
$USERI1
 70
     0
  9
$USERI2
 70
     0
  9
$USERI3
 70
     0
  9
$USERI4
 70
     0
  9
$USERI5
 70
     0
  9
$USERR1
 40
0.0
  9
$USERR2
 40
0.0
  9
$USERR3
 40
0.0
  9
$USERR4
 40
0.0
  9
$USERR5
 40
0.0
  9
$WORLDVIEW
 70
     1
  9
$SHADEDGE
 70
     3
  9
$SHADEDIF
 70
    70
  9
$TILEMODE
 70
     1
  9
$MAXACTVP
 70
    48
  9
$PINSBASE
 10
0.0
 20
0.0
 30
0.0
  9
$PLIMCHECK
 70
     0
  9
$PEXTMIN
 10
28.68718261718749
 20
19.99191756248473
 30
0.0
  9
$PEXTMAX
 10
258.1846435546875
 20
179.9272580623627
 30
0.0
  9
$PLIMMIN
 10
-5.027069091796875
 20
-5.027082920074462
  9
$PLIMMAX
 10
291.89892578125
 20
204.9462447166443
  9
$UNITMODE
 70
     0
  9
$VISRETAIN
 70
     1
  9
$PLINEGEN
 70
     0
  9
$PSLTSCALE
 70
     1
  9
$TREEDEPTH
 70
  3020
  9
$CMLSTYLE
  2
STANDARD
  9
$CMLJUST
 70
     0
  9
$CMLSCALE
 40
1.0
  9
$PROXYGRAPHICS
 70
     1
  9
$MEASUREMENT
 70
     1
  9
$CELWEIGHT
370
    -1
  9
$ENDCAPS
280
     0
  9
$JOINSTYLE
280
     0
  9
$LWDISPLAY
290
     0
  9
$INSUNITS
 70
     0
  9
$HYPERLINKBASE
  1

  9
$STYLESHEET
  1

  9
$XEDIT
290
     1
  9
$CEPSNTYPE
380
     0
  9
$PSTYLEMODE
290
     1
  9
$FINGERPRINTGUID
  2
{F800076F-75BD-11D5-8B46-0050046A49B2}
  9
$VERSIONGUID
  2
{E4ED557F-AD5C-614C-B625-81F986C6D5F5}
  9
$EXTNAMES
290
     1
  9
$PSVPSCALE
 40
0.0
  9
$OLESTARTUP
290
     0
  9
$SORTENTS
280
   127
  9
$INDEXCTL
280
     0
  9
$HIDETEXT
280
     0
  9
$XCLIPFRAME
280
     0
  9
$HALOGAP
280
     0
  9
$OBSCOLOR
 70
   257
  9
$OBSLTYPE
280
     0
  9
$INTERSECTIONDISPLAY
280
     0
  9
$INTERSECTIONCOLOR
 70
   257
  9
$DIMASSOC
280
     2
  9
$PROJECTNAME
  1

  9
$CAMERADISPLAY
290
     0
  9
$LENSLENGTH
 40
50.0
  9
$CAMERAHEIGHT
 40
0.0
  9
$STEPSPERSEC
 40
2.0
  9
$STEPSIZE
 40
6.0
  9
$3DDWFPREC
 40
2.0
  9
$PSOLWIDTH
 40
0.25
  9
$PSOLHEIGHT
 40
4.0
  9
$LOFTANG1
 40
1.570796326794896
  9
$LOFTANG2
 40
1.570796326794896
  9
$LOFTMAG1
 40
0.0
  9
$LOFTMAG2
 40
0.0
  9
$LOFTPARAM
 70
     7
  9
$LOFTNORMALS
280
     1
  9
$LATITUDE
 40
37.795
  9
$LONGITUDE
 40
-122.394
  9
$NORTHDIRECTION
 40
0.0
  9
$TIMEZONE
 70
 -8000
  9
$LIGHTGLYPHDISPLAY
280
     1
  9
$TILEMODELIGHTSYNCH
280
     1
  9
$CMATERIAL
347
1F1F
  9
$SOLIDHIST
280
     1
  9
$SHOWHIST
280
     1
  9
$DWFFRAME
280
     2
  9
$DGNFRAME
280
     0
  9
$REALWORLDSCALE
290
     1
  9
$INTERFERECOLOR
 62
     1
  9
$INTERFEREOBJVS
345
1F41
  9
$INTERFEREVPVS
346
2CDA
  9
$CSHADOW
280
     0
  9
$SHADOWPLANELOCATION
 40
0.0
  0
ENDSEC
  0
SECTION
  2
CLASSES
  0
CLASS
  1
LWPOLYLINE
  2
AcDbPolyline
  3
ObjectDBX Classes
 90
        0
 91
        3
280
     0
281
     1
  0
CLASS
  1
HATCH
  2
AcDbHatch
  3
ObjectDBX Classes
 90
        0
 91
        0
280
     0
281
     1
  0
CLASS
  1
DICTIONARYVAR
  2
AcDbDictionaryVar
  3
ObjectDBX Classes
 90
        0
 91
       10
280
     0
281
     0
  0
CLASS
  1
ACDBDICTIONARYWDFLT
  2
AcDbDictionaryWithDefault
  3
ObjectDBX Classes
 90
        0
 91
        1
280
     0
281
     0
  0
CLASS
  1
ACDBPLACEHOLDER
  2
AcDbPlaceHolder
  3
ObjectDBX Classes
 90
        0
 91
        1
280
     0
281
     0
  0
CLASS
  1
LAYOUT
  2
AcDbLayout
  3
ObjectDBX Classes
 90
        0
 91
        3
280
     0
281
     0
  0
CLASS
  1
TABLESTYLE
  2
AcDbTableStyle
  3
ObjectDBX Classes
 90
     4095
 91
        1
280
     0
281
     0
  0
CLASS
  1
MATERIAL
  2
AcDbMaterial
  3
ObjectDBX Classes
 90
     1153
 91
        3
280
     0
281
     0
  0
CLASS
  1
VISUALSTYLE
  2
AcDbVisualStyle
  3
ObjectDBX Classes
 90
     4095
 91
       26
280
     0
281
     0
  0
CLASS
  1
SCALE
  2
AcDbScale
  3
ObjectDBX Classes
 90
     1153
 91
       33
280
     0
281
     0
  0
CLASS
  1
MLEADERSTYLE
  2
AcDbMLeaderStyle
  3
ACDB_MLEADERSTYLE_CLASS
 90
     4095
 91
        1
280
     0
281
     0
  0
CLASS
  1
CELLSTYLEMAP
  2
AcDbCellStyleMap
  3
ObjectDBX Classes
 90
     1152
 91
        3
280
     0
281
     0
  0
CLASS
  1
SORTENTSTABLE
  2
AcDbSortentsTable
  3
ObjectDBX Classes
 90
        0
 91
        1
280
     0
281
     0
  0
CLASS
  1
ACDBSECTIONVIEWSTYLE
  2
AcDbSectionViewStyle
  3
ObjectDBX Classes
 90
     1025
 91
        3
280
     0
281
     0
  0
CLASS
  1
ACDBDETAILVIEWSTYLE
  2
AcDbDetailViewStyle
  3
ObjectDBX Classes
 90
     1025
 91
        3
280
     0
281
     0
  0
CLASS
  1
ACME_DOCUMENT
  2
AcMeDbDoc
  3
AcMeServices
 90
     1024
 91
        0
280
     0
281
     0
  0
CLASS
  1
AMGSETTINGSOBJ
  2
AmgSettingsObj
  3
"AcadM|Product Description: AutoCAD Mechanical|Company: Autodesk, Inc."
 90
     1024
 91
        3
280
     0
281
     0
  0
CLASS
  1
ACMESCOPE
  2
AcMeScope
  3
AcMeServices
 90
     1024
 91
        1
280
     0
281
     0
  0
CLASS
  1
ACMECOMMANDHISTORY
  2
AcMeCommandHistory
  3
AcMeServices
 90
     1024
 91
        1
280
     0
281
     0
  0
CLASS
  1
ACIMSYSVARMAN
  2
AcImSysVarManager
  3
AcMeServices
 90
     1024
 91
        3
280
     0
281
     0
  0
CLASS
  1
ACIMINTSYSVAR
  2
AcImIntSysVar
  3
AcMeServices
 90
     1024
 91
        2
280
     0
281
     0
  0
CLASS
  1
ACMESTATEMGR
  2
AcMeStateMgr
  3
AcMeServices
 90
     1024
 91
        1
280
     0
281
     0
  0
CLASS
  1
ACDBENTITYCACHE
  2
AcMeEntityCache
  3
AcMeServices
 90
     1024
 91
        0
280
     0
281
     0
  0
CLASS
  1
ACGREFMASTER
  2
AcGrefMaster
  3
AcAttribServices
 90
     1024
 91
        1
280
     0
281
     0
  0
CLASS
  1
ACME_DATABASE
  2
AcMeDbDatabase
  3
AcMeServices
 90
     1024
 91
        0
280
     0
281
     0
  0
CLASS
  1
ACRFINSADJUSTERMGR
  2
AcRfInsAdjusterMgr
  3
AcMeServices
 90
     1024
 91
        0
280
     0
281
     0
  0
CLASS
  1
ACGREFACADMASTER
  2
AcGrefacadMaster
  3
AcGrefServices
 90
     1024
 91
        1
280
     0
281
     0
  0
CLASS
  1
AMDTMENUSTATEMGR
  2
AmdtMenuStateMgr
  3
McadcomServices
 90
     1024
 91
        0
280
     0
281
     0
  0
CLASS
  1
AMDTMCOMMENUSTATE
  2
AmdtMcomMenuState
  3
McadcomServices
 90
     1024
 91
        0
280
     0
281
     0
  0
CLASS
  1
AMIMASTER
  2
AmiMaster
  3
AmiServices
 90
     1024
 91
        1
280
     0
281
     0
  0
CLASS
  1
MAPIAMMOUDLE
  2
MApiAmModule
  3
MApiAmServices
 90
     1024
 91
        1
280
     0
281
     0
  0
CLASS
  1
ACIMSTRSYSVAR
  2
AcImStrSysVar
  3
AcMeServices
 90
     1024
 91
        5
280
     0
281
     0
  0
CLASS
  1
AMDTAMMENUSTATE
  2
AmdtAmMenuState
  3
DesignerAssemblies
 90
     1024
 91
        0
280
     0
281
     0
  0
CLASS
  1
ACAMPROJECT
  2
AcAmProject
  3
DesignerAssemblies
 90
     1024
 91
        1
280
     0
281
     0
  0
CLASS
  1
ACAMGRCOMPDEF
  2
AcAmGrCompDef
  3
DesignerAssemblies
 90
     1024
 91
        1
280
     0
281
     0
  0
CLASS
  1
ACAMCOMPDEF
  2
AcAmCompDef
  3
DesignerAssemblies
 90
     1024
 91
        1
280
     0
281
     0
  0
CLASS
  1
ACAMCOMPDEFMGR
  2
AcAmCompDefMgr
  3
DesignerAssemblies
 90
     1024
 91
        1
280
     0
281
     0
  0
CLASS
  1
AMCONTEXTMGR
  2
AcAmContextMgr
  3
DesignerAssemblies
 90
     1024
 91
        1
280
     0
281
     0
  0
CLASS
  1
ACAMCONTEXTMODELER
  2
AcAmContextModeler
  3
DesignerAssemblies
 90
     1024
 91
        1
280
     0
281
     0
  0
CLASS
  1
ACMDATADICTIONARY
  2
AcmDataDictionary
  3
"AcmSymBB|Product Description: AutoCAD Mechanical|Company: Autodesk, Inc."
 90
     1024
 91
        1
280
     0
281
     0
  0
CLASS
  1
ACAMGRCOMPDEFSET
  2
AcAmGrCompDefSet
  3
DesignerAssemblies
 90
     1024
 91
        0
280
     0
281
     0
  0
CLASS
  1
AMDTBROWSERDBTAB
  2
AmdtBrowserDbTab
  3
McadcomServices
 90
     1024
 91
        0
280
     0
281
     0
  0
CLASS
  1
CBROWSERAPPOBJECT
  2
CBrowserAppObject
  3
McadcomServices
 90
     1024
 91
        0
280
     0
281
     0
  0
CLASS
  1
DM_PLACEHOLDER
  2
AcDmSelsetPlaceholder
  3
McadcomServices
 90
     1024
 91
        0
280
     0
281
     0
  0
CLASS
  1
ACMSTANDARDANSI
  2
AcmStandardANSI
  3
"Amdt_StdImp|Product Description: AutoCAD Mechanical|Company: Autodesk, Inc."
 90
     1024
 91
        0
280
     0
281
     0
  0
CLASS
  1
ACMSURFSTANDARDANSI
  2
AcmSurfTextStdANSI
  3
"Amdt_StdImp|Product Description: AutoCAD Mechanical|Company: Autodesk, Inc."
 90
     1024
 91
        0
280
     0
281
     0
  0
CLASS
  1
ACMFCFSTANDARDANSI
  2
AcmFCFStdANSI
  3
"Amdt_StdImp|Product Description: AutoCAD Mechanical|Company: Autodesk, Inc."
 90
     1024
 91
        0
280
     0
281
     0
  0
CLASS
  1
ACMWELDSTANDARDANSI
  2
AcmWeldingStdANSI
  3
"Amdt_StdImp|Product Description: AutoCAD Mechanical|Company: Autodesk, Inc."
 90
     1024
 91
        0
280
     0
281
     0
  0
CLASS
  1
ACMIDSTANDARDANSI
  2
AcmIdStdANSI
  3
"Amdt_StdImp|Product Description: AutoCAD Mechanical|Company: Autodesk, Inc."
 90
     1024
 91
        0
280
     0
281
     0
  0
CLASS
  1
ACMDATUMSTANDARDANSI
  2
AcmDatumStdANSI
  3
"Amdt_StdImp|Product Description: AutoCAD Mechanical|Company: Autodesk, Inc."
 90
     1024
 91
        0
280
     0
281
     0
  0
CLASS
  1
ACMBOMSTANDARDANSI
  2
AcmBOMStdANSI
  3
"Amdt_StdImp|Product Description: AutoCAD Mechanical|Company: Autodesk, Inc."
 90
     1024
 91
        0
280
     0
281
     0
  0
CLASS
  1
ACMDETAILSTANDARDANSI
  2
AmdtDetailSymStdANSI
  3
"Amdt_StdImp|Product Description: AutoCAD Mechanical|Company: Autodesk, Inc."
 90
     1024
 91
        0
280
     0
281
     0
  0
CLASS
  1
ACMSECTIONSTANDARDANSI
  2
AmdtSectionSymStdANSI
  3
"Amdt_StdImp|Product Description: AutoCAD Mechanical|Company: Autodesk, Inc."
 90
     1024
 91
        0
280
     0
281
     0
  0
CLASS
  1
ACMCENTERLINESTANDARDANSI
  2
AmdtCenterLineStdANSI
  3
"Amdt_StdImp|Product Description: AutoCAD Mechanical|Company: Autodesk, Inc."
 90
     1024
 91
        0
280
     0
281
     0
  0
CLASS
  1
ACMTHREADLINESTANDARDANSI
  2
AmdtThreadLineStdANSI
  3
"Amdt_StdImp|Product Description: AutoCAD Mechanical|Company: Autodesk, Inc."
 90
     1024
 91
        0
280
     0
281
     0
  0
CLASS
  1
ACMNOTESTANDARDANSI
  2
AmdtNoteStdANSI
  3
"Amdt_StdImp|Product Description: AutoCAD Mechanical|Company: Autodesk, Inc."
 90
     1024
 91
        0
280
     0
281
     0
  0
CLASS
  1
ACMTAPERSTANDARDANSI
  2
AcmTaperStdANSI
  3
"Amdt_StdImp|Product Description: AutoCAD Mechanical|Company: Autodesk, Inc."
 90
     1024
 91
        0
280
     0
281
     0
  0
CLASS
  1
ACMANOOTATIONVIEWSTANDARDANSI
  2
AmdtAnViewStdANSI
  3
"Amdt_StdImp|Product Description: AutoCAD Mechanical|Company: Autodesk, Inc."
 90
     1024
 91
        0
280
     0
281
     0
  0
CLASS
  1
ACAMGLAYSTD
  2
AcAmgLayStd
  3
"AmgLay|Product Description: AutoCAD Mechanical|Company: Autodesk, Inc."
 90
     1024
 91
        1
280
     0
281
     0
  0
CLASS
  1
ACAMGDIMSTD
  2
AcAmgDimStd
  3
"AmgDim|Product Description: AutoCAD Mechanical|Company: Autodesk, Inc."
 90
     1024
 91
        1
280
     0
281
     0
  0
CLASS
  1
AMGOBJPROPCFG
  2
AmgObjPropCfg
  3
"AmgLay|Product Description: AutoCAD Mechanical|Company: Autodesk, Inc."
 90
     1024
 91
        1
280
     0
281
     0
  0
CLASS
  1
ACAMGHOLECHARTSTDANSI
  2
AcAmgHoleChartStdANSI
  3
AmgDim|Product Description: AutoCAD Mechanical|Company: Autodesk, Inc.
 90
     1024
 91
        0
280
     0
281
     0
  0
CLASS
  1
ACAMGTITLESTD
  2
AcAmgTitleStd
  3
"AmgTitle|Product Description: AutoCAD Mechanical|Company: Autodesk, Inc."
 90
     1024
 91
        1
280
     0
281
     0
  0
CLASS
  1
AMDTNOTETEMPLATEDB
  2
AmdtNoteTemplateDB
  3
AcmSymBB|Product Description: AutoCAD Mechanical|Company: Autodesk, Inc.
 90
     1024
 91
        7
280
     0
281
     0
  0
CLASS
  1
ACMSTANDARDDIN
  2
AcmStandardDIN
  3
"Amdt_StdImp|Product Description: AutoCAD Mechanical|Company: Autodesk, Inc."
 90
     1024
 91
        1
280
     0
281
     0
  0
CLASS
  1
AMDTEDGESTANDARDDIN13715
  2
AmdtEdgeStdDIN13715
  3
"Amdt_StdImp|Product Description: AutoCAD Mechanical|Company: Autodesk, Inc."
 90
     1024
 91
        1
280
     0
281
     0
  0
CLASS
  1
ACMSURFSTANDARDDIN2002
  2
AcmSurfTextStdDIN2002
  3
"Amdt_StdImp|Product Description: AutoCAD Mechanical|Company: Autodesk, Inc."
 90
     1024
 91
        1
280
     0
281
     0
  0
CLASS
  1
ACMFCFSTANDARDDIN2008
  2
AcmFCFStdDIN2008
  3
"Amdt_StdImp|Product Description: AutoCAD Mechanical|Company: Autodesk, Inc."
 90
     1024
 91
        1
280
     0
281
     0
  0
CLASS
  1
ACMWELDSTANDARDDIN
  2
AcmWeldingStdDIN
  3
"Amdt_StdImp|Product Description: AutoCAD Mechanical|Company: Autodesk, Inc."
 90
     1024
 91
        1
280
     0
281
     0
  0
CLASS
  1
ACMIDSTANDARDDIN2008
  2
AcmIdStdDIN2008
  3
"Amdt_StdImp|Product Description: AutoCAD Mechanical|Company: Autodesk, Inc."
 90
     1024
 91
        0
280
     0
281
     0
  0
CLASS
  1
ACMDATUMSTANDARDDIN
  2
AcmDatumStdDIN
  3
"Amdt_StdImp|Product Description: AutoCAD Mechanical|Company: Autodesk, Inc."
 90
     1024
 91
        0
280
     0
281
     0
  0
CLASS
  1
ACMBOMSTANDARDDIN
  2
AcmBOMStdDIN
  3
"Amdt_StdImp|Product Description: AutoCAD Mechanical|Company: Autodesk, Inc."
 90
     1024
 91
        1
280
     0
281
     0
  0
CLASS
  1
ACMDETAILSTANDARDDIN
  2
AmdtDetailSymStdDIN
  3
"Amdt_StdImp|Product Description: AutoCAD Mechanical|Company: Autodesk, Inc."
 90
     1024
 91
        1
280
     0
281
     0
  0
CLASS
  1
ACMSECTIONSTANDARDDIN
  2
AmdtSectionSymStdDIN
  3
"Amdt_StdImp|Product Description: AutoCAD Mechanical|Company: Autodesk, Inc."
 90
     1024
 91
        1
280
     0
281
     0
  0
CLASS
  1
ACMCENTERLINESTANDARDDIN
  2
AmdtCenterLineStdDIN
  3
"Amdt_StdImp|Product Description: AutoCAD Mechanical|Company: Autodesk, Inc."
 90
     1024
 91
        1
280
     0
281
     0
  0
CLASS
  1
ACMTHREADLINESTANDARDDIN
  2
AmdtThreadLineStdDIN
  3
"Amdt_StdImp|Product Description: AutoCAD Mechanical|Company: Autodesk, Inc."
 90
     1024
 91
        1
280
     0
281
     0
  0
CLASS
  1
ACMNOTESTANDARDDIN
  2
AmdtNoteStdDIN
  3
"Amdt_StdImp|Product Description: AutoCAD Mechanical|Company: Autodesk, Inc."
 90
     1024
 91
        1
280
     0
281
     0
  0
CLASS
  1
ACMTAPERSTANDARDDIN
  2
AcmTaperStdDIN
  3
"Amdt_StdImp|Product Description: AutoCAD Mechanical|Company: Autodesk, Inc."
 90
     1024
 91
        1
280
     0
281
     0
  0
CLASS
  1
ACMANOOTATIONVIEWSTANDARDDIN
  2
AmdtAnViewStdDIN
  3
"Amdt_StdImp|Product Description: AutoCAD Mechanical|Company: Autodesk, Inc."
 90
     1024
 91
        1
280
     0
281
     0
  0
CLASS
  1
ACAMGHOLECHARTSTDDIN
  2
AcAmgHoleChartStdDIN
  3
AmgDim|Product Description: AutoCAD Mechanical|Company: Autodesk, Inc.
 90
     1024
 91
        1
280
     0
281
     0
  0
CLASS
  1
ACAMGFILTERDAT
  2
AcAmgFilterDat
  3
"AcadM|Product Description: AutoCAD Mechanical|Company: Autodesk, Inc."
 90
     1024
 91
        0
280
     0
281
     0
  0
CLASS
  1
ACMIDSTANDARDDIN2012
  2
AcmIdStdDIN2012
  3
"Amdt_StdImp|Product Description: AutoCAD Mechanical|Company: Autodesk, Inc."
 90
     1024
 91
        1
280
     0
281
     0
  0
CLASS
  1
ACMDATUMSTANDARDDIN2008
  2
AcmDatumStdDIN2008
  3
"Amdt_StdImp|Product Description: AutoCAD Mechanical|Company: Autodesk, Inc."
 90
     1024
 91
        1
280
     0
281
     0
  0
CLASS
  1
ACMSECTIONSTANDARDCUSTOM
  2
AmdtSectionSymStdCustom
  3
"Amdt_StdImp|Product Description: AutoCAD Mechanical|Company: Autodesk, Inc."
 90
     1024
 91
        2
280
     0
281
     0
  0
CLASS
  1
ACMDETAILTANDARDCUSTOM
  2
AmdtDetailSymStdCustom
  3
"Amdt_StdImp|Product Description: AutoCAD Mechanical|Company: Autodesk, Inc."
 90
     1024
 91
        2
280
     0
281
     0
  0
CLASS
  1
FIELD
  2
AcDbField
  3
ObjectDBX Classes
 90
     1152
 91
        6
280
     0
281
     0
  0
CLASS
  1
FIELDLIST
  2
AcDbFieldList
  3
ObjectDBX Classes
 90
     1152
 91
        1
280
     0
281
     0
  0
CLASS
  1
CAMSSTRUCTBTNSTATE
  2
StructBtnState
  3
DesignerAssemblies
 90
     1024
 91
        1
280
     0
281
     0
  0
CLASS
  1
RAPIDRTRENDERSETTINGS
  2
AcDbRapidRTRenderSettings
  3
ObjectDBX Classes
 90
     1024
 91
        7
280
     0
281
     0
  0
ENDSEC
  0
SECTION
  2
TABLES
  0
TABLE
  2
VPORT
  5
8
102
{ACAD_XDICTIONARY
360
202D
102
}
330
0
100
AcDbSymbolTable
 70
     1
1001
ACAD
1000
DbSaveVer
1071
       11
  0
VPORT
  5
1F03
330
8
100
AcDbSymbolTableRecord
100
AcDbViewportTableRecord
  2
*Active
 70
     0
 10
0.0
 20
0.0
 11
1.0
 21
1.0
 12
5728.388655322138
 22
-1135.266252549059
 13
0.0
 23
0.0
 14
0.5
 24
0.5
 15
0.5
 25
0.5
 16
0.0
 26
0.0
 36
1.0
 17
0.0
 27
0.0
 37
0.0
 40
5017.8098320114
 41
2.614441416893733
 42
50.0
 43
0.0
 44
0.0
 50
0.0
 51
0.0
 71
     0
 72
   100
 73
     1
 74
     1
 75
     0
 76
     0
 77
     0
 78
     0
281
     0
 65
     1
110
0.0
120
0.0
130
0.0
111
1.0
121
0.0
131
0.0
112
0.0
122
1.0
132
0.0
 79
     0
146
0.0
348
1F3D
 60
     3
 61
     5
292
     1
282
     1
141
0.0
142
0.0
 63
   250
421
  3355443
1001
ACAD_NAV_VCDISPLAY
1070
     3
  0
ENDTAB
  0
TABLE
  2
LTYPE
  5
5
330
0
100
AcDbSymbolTable
 70
    24
  0
LTYPE
  5
12
330
5
100
AcDbSymbolTableRecord
100
AcDbLinetypeTableRecord
  2
BYBLOCK
 70
     0
  3

 72
    65
 73
     0
 40
0.0
  0
LTYPE
  5
13
330
5
100
AcDbSymbolTableRecord
100
AcDbLinetypeTableRecord
  2
BYLAYER
 70
     0
  3

 72
    65
 73
     0
 40
0.0
  0
LTYPE
  5
14
330
5
100
AcDbSymbolTableRecord
100
AcDbLinetypeTableRecord
  2
CONTINUOUS
 70
     0
  3
Solid line
 72
    65
 73
     0
 40
0.0
  0
LTYPE
  5
222
330
5
100
AcDbSymbolTableRecord
100
AcDbLinetypeTableRecord
  2
STRICHPUNKT
 70
     0
  3
Strichpunkt __ . __ . __ . __ . __ . __ . __ . 
 72
    65
 73
     4
 40
25.4
 49
12.7
 74
     0
 49
-6.349999999999999
 74
     0
 49
0.0
 74
     0
 49
-6.349999999999999
 74
     0
  0
LTYPE
  5
223
330
5
100
AcDbSymbolTableRecord
100
AcDbLinetypeTableRecord
  2
STRICHLINIE
 70
     0
  3
Strichlinie __ __ __ __ __ __ __ __ __ __ __ __
 72
    65
 73
     2
 40
19.05
 49
12.7
 74
     0
 49
-6.349999999999999
 74
     0
  0
LTYPE
  5
22BC
330
5
100
AcDbSymbolTableRecord
100
AcDbLinetypeTableRecord
  2
VERDECKT
 70
     0
  3
Verdeckt __ __ __ __ __ __ __ __ __ __ __ __ __
 72
    65
 73
     2
 40
9.524999999999998
 49
6.349999999999999
 74
     0
 49
-3.174999999999999
 74
     0
  0
LTYPE
  5
2CE5
330
5
100
AcDbSymbolTableRecord
100
AcDbLinetypeTableRecord
  2
PHANTOM2
 70
     0
  3
Phantom (.5x) ___ _ _ ___ _ _ ___ _ _ ___ _ _
 72
    65
 73
     6
 40
1.25
 49
0.625
 74
     0
 49
-0.125
 74
     0
 49
0.125
 74
     0
 49
-0.125
 74
     0
 49
0.125
 74
     0
 49
-0.125
 74
     0
  0
LTYPE
  5
2DAA
330
5
100
AcDbSymbolTableRecord
100
AcDbLinetypeTableRecord
  2
ACDINWELD
 70
     0
  3
_ _ _ _ _
 72
    65
 73
     2
 40
2.0
 49
2.0
 74
     0
 49
-1.0
 74
     0
  0
LTYPE
  5
2DAB
330
5
100
AcDbSymbolTableRecord
100
AcDbLinetypeTableRecord
  2
ACDINTGL
 70
     0
  3
_ _ _ _ _
 72
    65
 73
     2
 40
3.0
 49
2.0
 74
     0
 49
-1.0
 74
     0
  0
LTYPE
  5
2DAC
330
5
100
AcDbSymbolTableRecord
100
AcDbLinetypeTableRecord
  2
ACDINTGB
 70
     0
  3
__ . . __ . .
 72
    65
 73
     6
 40
9.0
 49
4.0
 74
     0
 49
-1.0
 74
     0
 49
1.0
 74
     0
 49
-1.0
 74
     0
 49
1.0
 74
     0
 49
-1.0
 74
     0
  0
LTYPE
  5
30F3
330
5
100
AcDbSymbolTableRecord
100
AcDbLinetypeTableRecord
  2
Amconstr
 70
     0
  3
_______________________
 72
    65
 73
     2
 40
9999.0
 49
9999.0
 74
     0
 49
0.0
 74
     0
  0
LTYPE
  5
30F8
330
5
100
AcDbSymbolTableRecord
100
AcDbLinetypeTableRecord
  2
Amzigzag
 70
     0
  3
/\/-/\/-/\/-/\/-/\/-/\/
 72
    65
 73
     2
 40
11.0001
 49
0.0001
 74
     4
 75
   136
340
30F7
 46
0.04
 50
0.0
 44
0.0
 45
0.0
 49
-11.0
 74
     0
  0
LTYPE
  5
30F9
330
5
100
AcDbSymbolTableRecord
100
AcDbLinetypeTableRecord
  2
AM_DIN_F_W050
 70
     0
  3
__ __ __ __ __ __ __ __ __ __ __ __ __ __ __
 72
    65
 73
     2
 40
6.25
 49
4.75
 74
     0
 49
-1.5
 74
     0
  0
LTYPE
  5
30FA
330
5
100
AcDbSymbolTableRecord
100
AcDbLinetypeTableRecord
  2
AM_DIN_G_W050
 70
     0
  3
____ . ____ . ____ . ____ . ____ . ____ . ____
 72
    65
 73
     4
 40
13.75
 49
9.75
 74
     0
 49
-1.5
 74
     0
 49
1.0
 74
     0
 49
-1.5
 74
     0
  0
LTYPE
  5
30FB
330
5
100
AcDbSymbolTableRecord
100
AcDbLinetypeTableRecord
  2
AM_DIN_K_W050
 70
     0
  3
_____ . . _____ . . _____ . . ____ .. ____
 72
    65
 73
     6
 40
16.25
 49
9.75
 74
     0
 49
-1.5
 74
     0
 49
1.0
 74
     0
 49
-1.5
 74
     0
 49
1.0
 74
     0
 49
-1.5
 74
     0
  0
LTYPE
  5
30FC
330
5
100
AcDbSymbolTableRecord
100
AcDbLinetypeTableRecord
  2
AM_DIN_G_W050x2
 70
     0
  3
__ . __ . __ . __ . __ . __
 72
    65
 73
     4
 40
6.875
 49
4.75
 74
     0
 49
-0.875
 74
     0
 49
0.375
 74
     0
 49
-0.875
 74
     0
  0
LTYPE
  5
30FD
330
5
100
AcDbSymbolTableRecord
100
AcDbLinetypeTableRecord
  2
AM_DIN_F_W050x2
 70
     0
  3
 _ _ _ _ _ _ _ _ _ _ _ _
 72
    65
 73
     2
 40
3.125
 49
2.25
 74
     0
 49
-0.875
 74
     0
  0
ENDTAB
  0
TABLE
  2
LAYER
  5
2
102
{ACAD_XDICTIONARY
360
1CA7
102
}
330
0
100
AcDbSymbolTable
 70
    21
  0
LAYER
  5
E
102
{ACAD_XDICTIONARY
360
1F87
102
}
330
2
100
AcDbSymbolTableRecord
100
AcDbLayerTableRecord
  2
0
 70
     0
 62
     7
  6
CONTINUOUS
370
    -3
390
195F
347
1F2F
348
0
  0
LAYER
  5
12F
102
{ACAD_XDICTIONARY
360
1F8B
102
}
330
2
100
AcDbSymbolTableRecord
100
AcDbLayerTableRecord
  2
25
 70
     0
 62
     7
  6
CONTINUOUS
370
    -3
390
195F
347
1F2F
348
0
  0
LAYER
  5
1DA
102
{ACAD_XDICTIONARY
360
1F8D
102
}
330
2
100
AcDbSymbolTableRecord
100
AcDbLayerTableRecord
  2
35
 70
     0
 62
     2
  6
CONTINUOUS
370
    -3
390
195F
347
1F2F
348
0
  0
LAYER
  5
224
102
{ACAD_XDICTIONARY
360
1F8F
102
}
330
2
100
AcDbSymbolTableRecord
100
AcDbLayerTableRecord
  2
KOTIERUNG
 70
     0
 62
     7
  6
CONTINUOUS
370
    -3
390
195F
347
1F2F
348
0
  0
LAYER
  5
225
330
2
100
AcDbSymbolTableRecord
100
AcDbLayerTableRecord
  2
DEFPOINTS
 70
     0
 62
     7
  6
CONTINUOUS
290
     0
370
    -3
390
195F
347
1F2F
348
0
  0
LAYER
  5
226
102
{ACAD_XDICTIONARY
360
1F91
102
}
330
2
100
AcDbSymbolTableRecord
100
AcDbLayerTableRecord
  2
18
 70
     0
 62
     1
  6
CONTINUOUS
370
    -3
390
195F
347
1F2F
348
0
  0
LAYER
  5
425
102
{ACAD_XDICTIONARY
360
1F93
102
}
330
2
100
AcDbSymbolTableRecord
100
AcDbLayerTableRecord
  2
50
 70
     0
 62
    33
  6
CONTINUOUS
370
    -3
390
195F
347
1F2F
348
0
  0
LAYER
  5
22BD
102
{ACAD_XDICTIONARY
360
22BE
102
}
330
2
100
AcDbSymbolTableRecord
100
AcDbLayerTableRecord
  2
Hilfslinie
 70
     0
 62
     3
  6
CONTINUOUS
290
     0
370
    -3
390
195F
347
1F2F
348
0
  0
ENDTAB
  0
TABLE
  2
STYLE
  5
3
330
0
100
AcDbSymbolTable
 70
    12
  0
STYLE
  5
F
330
3
100
AcDbSymbolTableRecord
100
AcDbTextStyleTableRecord
  2
STANDARD
 70
     0
 40
0.0
 41
1.0
 50
0.0
 71
     0
 42
25.0
  3
ARIALN.TTF
  4

1001
ACAD
1000
Arial Narrow
1071
       34
  0
STYLE
  5
428
330
3
100
AcDbSymbolTableRecord
100
AcDbTextStyleTableRecord
  2
VOEST
 70
     0
 40
0.0
 41
1.0
 50
0.0
 71
     0
 42
4.0
  3
ARIALN.TTF
  4

1001
ACAD
1000
Arial Narrow
1071
       34
  0
STYLE
  5
14E5
330
3
100
AcDbSymbolTableRecord
100
AcDbTextStyleTableRecord
  2
ARIALFETT
 70
     0
 40
0.0
 41
1.0
 50
0.0
 71
     0
 42
4.0
  3
ARIALN.TTF
  4

1001
ACAD
1000
Arial Narrow
1071
       34
  0
STYLE
  5
2953
330
3
100
AcDbSymbolTableRecord
100
AcDbTextStyleTableRecord
  2
LOGO1
 70
     0
 40
0.0
 41
1.175
 50
0.0
 71
     0
 42
6.158564712355089
  3
swissb.ttf
  4

1001
ACAD
1000
Swis721 BT
1071
 33554466
  0
STYLE
  5
2954
330
3
100
AcDbSymbolTableRecord
100
AcDbTextStyleTableRecord
  2
LOGO3
 70
     0
 40
0.0
 41
1.175
 50
0.0
 71
     0
 42
6.158564712355089
  3
swissel.ttf
  4

1001
ACAD
1000
Swis721 LtEx BT
1071
       34
  0
STYLE
  5
2955
330
3
100
AcDbSymbolTableRecord
100
AcDbTextStyleTableRecord
  2
LOGO2
 70
     0
 40
0.0
 41
1.175
 50
0.0
 71
     0
 42
6.158564712355089
  3
swiss.ttf
  4

1001
ACAD
1000
Swis721 BT
1071
       34
  0
STYLE
  5
2DAD
330
3
100
AcDbSymbolTableRecord
100
AcDbTextStyleTableRecord
  2
ACDINGDT
 70
     0
 40
0.0
 41
1.0
 50
0.0
 71
     0
 42
2.5
  3
amgdt.shx
  4

  0
STYLE
  5
30F7
330
3
100
AcDbSymbolTableRecord
100
AcDbTextStyleTableRecord
  2

 70
     1
 40
0.0
 41
1.0
 50
0.0
 71
     0
 42
4.0
  3
genltshp.shx
  4

  0
ENDTAB
  0
TABLE
  2
VIEW
  5
6
330
0
100
AcDbSymbolTable
 70
     3
  0
ENDTAB
  0
TABLE
  2
UCS
  5
7
330
0
100
AcDbSymbolTable
 70
     0
  0
ENDTAB
  0
TABLE
  2
APPID
  5
9
330
0
100
AcDbSymbolTable
 70
    20
  0
APPID
  5
10
330
9
100
AcDbSymbolTableRecord
100
AcDbRegAppTableRecord
  2
ACAD
 70
     0
  0
APPID
  5
24
330
9
100
AcDbSymbolTableRecord
100
AcDbRegAppTableRecord
  2
CONTENTTABDATA
 70
     0
  0
APPID
  5
25
330
9
100
AcDbSymbolTableRecord
100
AcDbRegAppTableRecord
  2
CONTENTCURRENTTAB
 70
     0
  0
APPID
  5
116
330
9
100
AcDbSymbolTableRecord
100
AcDbRegAppTableRecord
  2
CONTENTBLOCKICON
 70
     0
  0
APPID
  5
117
330
9
100
AcDbSymbolTableRecord
100
AcDbRegAppTableRecord
  2
CONTENTBLOCKDESCRIPTION
 70
     0
  0
APPID
  5
1CA6
330
9
100
AcDbSymbolTableRecord
100
AcDbRegAppTableRecord
  2
ACAD_PSEXT
 70
     0
  0
APPID
  5
1F6C
330
9
100
AcDbSymbolTableRecord
100
AcDbRegAppTableRecord
  2
ACAD_MLEADERVER
 70
     0
  0
APPID
  5
1F85
330
9
100
AcDbSymbolTableRecord
100
AcDbRegAppTableRecord
  2
ACAD_EXEMPT_FROM_CAD_STANDARDS
 70
     0
  0
APPID
  5
2CFD
330
9
100
AcDbSymbolTableRecord
100
AcDbRegAppTableRecord
  2
MCAD_NO_VIS
 70
     0
  0
APPID
  5
2CFE
330
9
100
AcDbSymbolTableRecord
100
AcDbRegAppTableRecord
  2
ACAD_TEMP_GRAPHIC
 70
     0
  0
APPID
  5
2D0A
330
9
100
AcDbSymbolTableRecord
100
AcDbRegAppTableRecord
  2
ACATTRIBSERVICES
 70
     0
  0
APPID
  5
2D22
330
9
100
AcDbSymbolTableRecord
100
AcDbRegAppTableRecord
  2
DESIGNERASSEMBLIES
 70
     0
  0
APPID
  5
2D3C
330
9
100
AcDbSymbolTableRecord
100
AcDbRegAppTableRecord
  2
ACAD_DSTYLE_DIMJAG
 70
     0
  0
APPID
  5
2D3D
330
9
100
AcDbSymbolTableRecord
100
AcDbRegAppTableRecord
  2
ACAD_DSTYLE_DIMBREAK
 70
     0
  0
APPID
  5
2D55
330
9
100
AcDbSymbolTableRecord
100
AcDbRegAppTableRecord
  2
GENIUS_GENSCREG_15
 70
     0
  0
APPID
  5
2D56
330
9
100
AcDbSymbolTableRecord
100
AcDbRegAppTableRecord
  2
GENIUS_GENODEF_13
 70
     0
  0
APPID
  5
2D57
330
9
100
AcDbSymbolTableRecord
100
AcDbRegAppTableRecord
  2
GENIUS_GENOBJ-N-SDF_13
 70
     0
  0
APPID
  5
2D59
330
9
100
AcDbSymbolTableRecord
100
AcDbRegAppTableRecord
  2
AcAecLayerStandard
 70
     0
  0
APPID
  5
31D7
330
9
100
AcDbSymbolTableRecord
100
AcDbRegAppTableRecord
  2
ACCMTRANSPARENCY
 70
     0
  0
APPID
  5
33D1
330
9
100
AcDbSymbolTableRecord
100
AcDbRegAppTableRecord
  2
ACAD_NAV_VCDISPLAY
 70
     0
  0
ENDTAB
  0
TABLE
  2
DIMSTYLE
  5
A
330
0
100
AcDbSymbolTable
 70
    23
100
AcDbDimStyleTable
 71
     1
340
1ACC
  0
DIMSTYLE
105
1D
330
A
100
AcDbSymbolTableRecord
100
AcDbDimStyleTableRecord
  2
STANDARD
 70
     0
340
F
  0
DIMSTYLE
105
1ACC
102
{ACAD_REACTORS
330
1AD6
330
1AFD
330
1BD3
330
1AF0
330
181C
102
}
330
A
100
AcDbSymbolTableRecord
100
AcDbDimStyleTableRecord
  2
TYPENBLATT_M25
 70
     0
 40
300.0
 41
0.25
 42
0.1
 43
0.5
 44
0.25
 73
     0
 74
     0
 77
     1
140
0.25
147
0.075
271
     0
272
     0
340
428
  0
DIMSTYLE
105
2DAE
102
{ACAD_REACTORS
330
30DD
102
}
330
A
100
AcDbSymbolTableRecord
100
AcDbDimStyleTableRecord
  2
AM_DIN
 70
     0
  4
"
 41
3.5
 42
1.0
 43
10.0
 44
1.0
 47
0.1
 48
0.1
 50
90.0
 73
     0
 74
     0
 77
     1
 78
     8
 79
     2
140
3.5
141
0.0
143
0.0393701
146
0.71
147
1.5
172
     1
176
   256
177
   256
178
     2
271
     2
272
     3
274
     4
283
     0
284
     8
340
F
345
12
346
12
347
12
371
    -1
372
    -1
1001
ACAD_DSTYLE_DIMJAG
1070
   388
1040
1.5
1001
ACAD_DSTYLE_DIMBREAK
1070
   391
1040
3.75
  0
DIMSTYLE
105
2DAF
330
A
100
AcDbSymbolTableRecord
100
AcDbDimStyleTableRecord
  2
AM_DIN$3
 70
     0
  4
"
 41
3.5
 42
1.0
 43
10.0
 44
1.0
 47
0.1
 48
0.1
 50
90.0
 73
     0
 77
     1
 78
     8
 79
     2
140
3.5
141
0.0
143
0.0393701
146
0.71
147
1.5
176
   256
177
   256
178
     2
271
     2
272
     3
274
     4
283
     0
284
     8
288
     1
289
     0
340
F
345
12
346
12
347
12
371
    -1
372
    -1
1001
ACAD_DSTYLE_DIMBREAK
1070
   391
1040
3.75
1001
ACAD_DSTYLE_DIMJAG
1070
   388
1040
1.5
  0
DIMSTYLE
105
2DB0
330
A
100
AcDbSymbolTableRecord
100
AcDbDimStyleTableRecord
  2
AM_DIN$4
 70
     0
  4
"
 41
3.5
 42
1.0
 43
10.0
 44
1.0
 47
0.1
 48
0.1
 50
90.0
 73
     0
 77
     1
 78
     8
 79
     2
140
3.5
141
0.0
143
0.0393701
146
0.71
147
1.5
176
   256
177
   256
178
     2
271
     2
272
     3
274
     4
283
     0
284
     8
288
     1
289
     0
340
F
345
12
346
12
347
12
371
    -1
372
    -1
1001
ACAD_DSTYLE_DIMBREAK
1070
   391
1040
3.75
1001
ACAD_DSTYLE_DIMJAG
1070
   388
1040
1.5
  0
DIMSTYLE
105
2DB1
330
A
100
AcDbSymbolTableRecord
100
AcDbDimStyleTableRecord
  2
AM_DIN$6
 70
     0
  4
"
 41
3.5
 42
1.0
 43
10.0
 44
1.0
 47
0.1
 48
0.1
 50
90.0
 73
     0
 74
     0
 78
     8
 79
     2
140
3.5
141
0.0
143
0.0393701
146
0.71
147
1.5
172
     1
176
   256
177
   256
178
     2
271
     2
272
     3
274
     4
283
     0
284
     8
340
F
345
12
346
12
347
12
371
    -1
372
    -1
1001
ACAD_DSTYLE_DIMBREAK
1070
   391
1040
3.75
1001
ACAD_DSTYLE_DIMJAG
1070
   388
1040
1.5
  0
DIMSTYLE
105
2DB2
330
A
100
AcDbSymbolTableRecord
100
AcDbDimStyleTableRecord
  2
AM_DIN$7
 70
     0
  4
"
 41
3.5
 42
1.0
 43
10.0
 44
1.0
 47
0.1
 48
0.1
 50
90.0
 73
     0
 74
     0
 77
     1
 78
     8
 79
     2
140
3.5
141
0.0
143
0.0393701
146
0.71
147
1.5
172
     1
176
   256
177
   256
178
     2
271
     2
272
     3
274
     4
283
     0
284
     8
340
F
345
12
346
12
347
12
371
    -1
372
    -1
1001
ACAD_DSTYLE_DIMBREAK
1070
   391
1040
3.75
1001
ACAD_DSTYLE_DIMJAG
1070
   388
1040
1.5
  0
DIMSTYLE
105
2DB3
330
A
100
AcDbSymbolTableRecord
100
AcDbDimStyleTableRecord
  2
AM_DIN$SF
 70
     0
  4
"
 41
3.5
 42
1.0
 43
10.0
 44
1.0
 47
0.1
 48
0.1
 50
90.0
 73
     0
 74
     0
 75
     1
 76
     1
 77
     1
 78
     8
 79
     2
140
3.5
141
0.0
143
0.0393701
146
0.71
147
1.5
172
     1
176
   256
177
   256
178
     2
271
     2
272
     3
274
     4
283
     0
284
     8
340
F
345
12
346
12
347
12
371
    -1
372
    -1
1001
ACAD_DSTYLE_DIMBREAK
1070
   391
1040
3.75
1001
ACAD_DSTYLE_DIMJAG
1070
   388
1040
1.5
  0
DIMSTYLE
105
2DB4
330
A
100
AcDbSymbolTableRecord
100
AcDbDimStyleTableRecord
  2
AM_DIN$SH
 70
     0
  4
"
 41
3.5
 42
1.0
 43
10.0
 44
1.0
 47
0.1
 48
0.1
 50
90.0
 73
     0
 74
     0
 75
     1
 76
     1
 77
     1
 78
     8
 79
     2
140
3.5
141
0.0
143
0.0393701
144
2.0
146
0.71
147
1.5
172
     1
173
     1
176
   256
177
   256
178
     2
271
     2
272
     3
274
     4
283
     0
284
     8
340
F
343
2D43
345
12
346
12
347
12
371
    -1
372
    -1
1001
ACAD_DSTYLE_DIMBREAK
1070
   391
1040
3.75
1001
ACAD_DSTYLE_DIMJAG
1070
   388
1040
1.5
  0
ENDTAB
  0
TABLE
  2
BLOCK_RECORD
  5
1
330
0
100
AcDbSymbolTable
 70
    11
  0
BLOCK_RECORD
  5
18
102
{ACAD_XDICTIONARY
360
23E7
102
}
330
1
100
AcDbSymbolTableRecord
100
AcDbBlockTableRecord
  2
*MODEL_SPACE
340
1962
 70
     0
280
     1
281
     0
  0
BLOCK_RECORD
  5
34B2
330
1
100
AcDbSymbolTableRecord
100
AcDbBlockTableRecord
  2
*Paper_Space
340
34B3
 70
     0
280
     1
281
     0
  0
BLOCK_RECORD
  5
180F
330
1
100
AcDbSymbolTableRecord
100
AcDbBlockTableRecord
  2
*D0
340
0
 70
     0
280
     1
281
     0
  0
BLOCK_RECORD
  5
1AD7
330
1
100
AcDbSymbolTableRecord
100
AcDbBlockTableRecord
  2
*D1
340
0
 70
     0
280
     1
281
     0
  0
BLOCK_RECORD
  5
1AF1
330
1
100
AcDbSymbolTableRecord
100
AcDbBlockTableRecord
  2
*D2
340
0
 70
     0
280
     1
281
     0
  0
BLOCK_RECORD
  5
1AFE
330
1
100
AcDbSymbolTableRecord
100
AcDbBlockTableRecord
  2
*D3
340
0
 70
     0
280
     1
281
     0
  0
BLOCK_RECORD
  5
1BD4
330
1
100
AcDbSymbolTableRecord
100
AcDbBlockTableRecord
  2
*D4
340
0
 70
     0
280
     1
281
     0
  0
BLOCK_RECORD
  5
2D43
330
1
100
AcDbSymbolTableRecord
100
AcDbBlockTableRecord
  2
GENAXEH
340
0
 70
     0
280
     1
281
     0
  0
BLOCK_RECORD
  5
30CF
330
1
100
AcDbSymbolTableRecord
100
AcDbBlockTableRecord
  2
*U8
340
0
 70
     0
280
     1
281
     0
  0
BLOCK_RECORD
  5
310B
330
1
100
AcDbSymbolTableRecord
100
AcDbBlockTableRecord
  2
_ACMFILLED30
340
0
 70
     0
280
     1
281
     0
  0
ENDTAB
  0
ENDSEC
  0
SECTION
  2
BLOCKS
  0
BLOCK
  5
19
330
18
100
AcDbEntity
  8
0
100
AcDbBlockBegin
  2
*MODEL_SPACE
 70
     0
 10
0.0
 20
0.0
 30
0.0
  3
*MODEL_SPACE
  1

  0
ENDBLK
  5
1A
330
18
100
AcDbEntity
  8
0
100
AcDbBlockEnd
  0
BLOCK
  5
34B4
330
34B2
100
AcDbEntity
 67
     1
  8
0
100
AcDbBlockBegin
  2
*Paper_Space
 70
     0
 10
0.0
 20
0.0
 30
0.0
  3
*Paper_Space
  1

  0
ENDBLK
  5
34B5
330
34B2
100
AcDbEntity
 67
     1
  8
0
100
AcDbBlockEnd
  0
BLOCK
  5
1810
330
180F
100
AcDbEntity
  8
0
100
AcDbBlockBegin
  2
*D0
 70
     1
 10
0.0
 20
0.0
 30
0.0
  3
*D0
  1

  0
LINE
  5
33C5
330
180F
100
AcDbEntity
  8
KOTIERUNG
 62
     0
440
 16777216
370
    -2
100
AcDbLine
 10
6978.93546440193
 20
-315.3686587273653
 30
0.0
 11
7323.5075617183
 21
-315.3686587273652
 31
0.0
  0
LINE
  5
33C6
330
180F
100
AcDbEntity
  8
KOTIERUNG
 62
     0
440
 16777216
370
    -2
100
AcDbLine
 10
6977.184467459742
 20
334.6313412726352
 30
0.0
 11
7323.5075617183
 21
334.6313412726353
 31
0.0
  0
LINE
  5
33C7
330
180F
100
AcDbEntity
  8
KOTIERUNG
 62
     0
440
 16777216
370
    -2
100
AcDbLine
 10
7248.5075617183
 20
-240.3686587273652
 30
0.0
 11
7248.5075617183
 21
259.6313412726352
 31
0.0
  0
SOLID
  5
33C8
330
180F
100
AcDbEntity
  8
KOTIERUNG
 62
     0
440
 16777216
100
AcDbTrace
 10
7236.0075617183
 20
-240.3686587273652
 30
0.0
 11
7261.0075617183
 21
-240.3686587273652
 31
0.0
 12
7248.5075617183
 22
-315.3686587273652
 32
0.0
 13
7248.5075617183
 23
-315.3686587273652
 33
0.0
  0
SOLID
  5
33C9
330
180F
100
AcDbEntity
  8
KOTIERUNG
 62
     0
440
 16777216
100
AcDbTrace
 10
7236.0075617183
 20
259.6313412726352
 30
0.0
 11
7261.0075617183
 21
259.6313412726352
 31
0.0
 12
7248.5075617183
 22
334.6313412726352
 32
0.0
 13
7248.5075617183
 23
334.6313412726352
 33
0.0
  0
MTEXT
  5
33CA
330
180F
100
AcDbEntity
  8
KOTIERUNG
 62
     0
440
 16777216
100
AcDbMText
 10
7187.71458763917
 20
9.631341272632955
 30
0.0
 40
75.0
 41
0.0
 46
0.0
 71
     5
 72
     1
  1
\A1;650{\H56.25;±40}
  7
VOEST
 11
0.0000000000000001
 21
1.0
 31
0.0
 73
     1
 44
1.0
  0
POINT
  5
33CB
330
180F
100
AcDbEntity
  8
DEFPOINTS
 62
     0
440
 16777216
100
AcDbPoint
 10
6948.93546440193
 20
-315.3686587273653
 30
0.0
  0
POINT
  5
33CC
330
180F
100
AcDbEntity
  8
DEFPOINTS
 62
     0
440
 16777216
100
AcDbPoint
 10
6947.184467459742
 20
334.6313412726352
 30
0.0
  0
POINT
  5
33CD
330
180F
100
AcDbEntity
  8
DEFPOINTS
 62
     0
440
 16777216
100
AcDbPoint
 10
7248.5075617183
 20
334.6313412726352
 30
0.0
  0
ENDBLK
  5
181B
330
180F
100
AcDbEntity
  8
0
100
AcDbBlockEnd
  0
BLOCK
  5
1AE1
330
1AD7
100
AcDbEntity
  8
0
100
AcDbBlockBegin
  2
*D1
 70
     1
 10
0.0
 20
0.0
 30
0.0
  3
*D1
  1

  0
LINE
  5
33EA
330
1AD7
100
AcDbEntity
  8
KOTIERUNG
 62
     0
440
 16777216
370
    -2
100
AcDbLine
 10
6479.979765942712
 20
259.6313412726349
 30
0.0
 11
6479.979765942712
 21
688.9729901852478
 31
0.0
  0
LINE
  5
33EB
330
1AD7
100
AcDbEntity
  8
KOTIERUNG
 62
     0
440
 16777216
370
    -2
100
AcDbLine
 10
4663.180984890932
 20
-148.505890177316
 30
0.0
 11
4663.180984890932
 21
688.9729901852478
 31
0.0
  0
LINE
  5
33EC
330
1AD7
100
AcDbEntity
  8
KOTIERUNG
 62
     0
440
 16777216
370
    -2
100
AcDbLine
 10
6404.979765942712
 20
613.9729901852478
 30
0.0
 11
4738.180984890933
 21
613.9729901852478
 31
0.0
  0
SOLID
  5
33ED
330
1AD7
100
AcDbEntity
  8
KOTIERUNG
 62
     0
440
 16777216
100
AcDbTrace
 10
6404.979765942712
 20
626.4729901852478
 30
0.0
 11
6404.979765942712
 21
601.4729901852478
 31
0.0
 12
6479.979765942712
 22
613.9729901852478
 32
0.0
 13
6479.979765942712
 23
613.9729901852478
 33
0.0
  0
SOLID
  5
33EE
330
1AD7
100
AcDbEntity
  8
KOTIERUNG
 62
     0
440
 16777216
100
AcDbTrace
 10
4738.180984890933
 20
626.4729901852478
 30
0.0
 11
4738.180984890933
 21
601.4729901852478
 31
0.0
 12
4663.180984890932
 22
613.9729901852478
 32
0.0
 13
4663.180984890932
 23
613.9729901852478
 33
0.0
  0
MTEXT
  5
33EF
330
1AD7
100
AcDbEntity
  8
KOTIERUNG
 62
     0
440
 16777216
100
AcDbMText
 10
5571.580375416822
 20
674.7659642643748
 30
0.0
 40
75.0
 41
0.0
 46
0.0
 71
     5
 72
     1
  1
\A1;~1817
  7
VOEST
 73
     1
 44
1.0
  0
POINT
  5
33F0
330
1AD7
100
AcDbEntity
  8
DEFPOINTS
 62
     0
440
 16777216
100
AcDbPoint
 10
6479.979765942712
 20
229.6313412726349
 30
0.0
  0
POINT
  5
33F1
330
1AD7
100
AcDbEntity
  8
DEFPOINTS
 62
     0
440
 16777216
100
AcDbPoint
 10
4663.180984890932
 20
-178.505890177316
 30
0.0
  0
POINT
  5
33F2
330
1AD7
100
AcDbEntity
  8
DEFPOINTS
 62
     0
440
 16777216
100
AcDbPoint
 10
4663.180984890932
 20
613.9729901852478
 30
0.0
  0
ENDBLK
  5
1AE2
330
1AD7
100
AcDbEntity
  8
0
100
AcDbBlockEnd
  0
BLOCK
  5
1AFB
330
1AF1
100
AcDbEntity
  8
0
100
AcDbBlockBegin
  2
*D2
 70
     1
 10
0.0
 20
0.0
 30
0.0
  3
*D2
  1

  0
LINE
  5
3408
330
1AF1
100
AcDbEntity
  8
KOTIERUNG
 62
     0
440
 16777216
370
    -2
100
AcDbLine
 10
6479.979765942712
 20
284.6313412726349
 30
0.0
 11
6479.979765942712
 21
864.9249470642754
 31
0.0
  0
LINE
  5
3409
330
1AF1
100
AcDbEntity
  8
KOTIERUNG
 62
     0
440
 16777216
370
    -2
100
AcDbLine
 10
3012.331835258973
 20
-618.0331686835135
 30
0.0
 11
3012.331835258973
 21
864.9249470642752
 31
0.0
  0
LINE
  5
340A
330
1AF1
100
AcDbEntity
  8
KOTIERUNG
 62
     0
440
 16777216
370
    -2
100
AcDbLine
 10
6404.979765942712
 20
789.9249470642753
 30
0.0
 11
3087.331835258973
 21
789.9249470642753
 31
0.0
  0
SOLID
  5
340B
330
1AF1
100
AcDbEntity
  8
KOTIERUNG
 62
     0
440
 16777216
100
AcDbTrace
 10
6404.979765942712
 20
802.4249470642754
 30
0.0
 11
6404.979765942712
 21
777.4249470642753
 31
0.0
 12
6479.979765942712
 22
789.9249470642753
 32
0.0
 13
6479.979765942712
 23
789.9249470642753
 33
0.0
  0
SOLID
  5
340C
330
1AF1
100
AcDbEntity
  8
KOTIERUNG
 62
     0
440
 16777216
100
AcDbTrace
 10
3087.331835258973
 20
802.4249470642754
 30
0.0
 11
3087.331835258973
 21
777.4249470642753
 31
0.0
 12
3012.331835258973
 22
789.9249470642753
 32
0.0
 13
3012.331835258973
 23
789.9249470642753
 33
0.0
  0
MTEXT
  5
340D
330
1AF1
100
AcDbEntity
  8
KOTIERUNG
 62
     0
440
 16777216
100
AcDbMText
 10
4746.155800600842
 20
850.7179211434023
 30
0.0
 40
75.0
 41
0.0
 46
0.0
 71
     5
 72
     1
  1
\A1;~3468
  7
VOEST
 73
     1
 44
1.0
  0
POINT
  5
340E
330
1AF1
100
AcDbEntity
  8
DEFPOINTS
 62
     0
440
 16777216
100
AcDbPoint
 10
6479.979765942712
 20
254.6313412726349
 30
0.0
  0
POINT
  5
340F
330
1AF1
100
AcDbEntity
  8
DEFPOINTS
 62
     0
440
 16777216
100
AcDbPoint
 10
3012.331835258973
 20
-648.0331686835135
 30
0.0
  0
POINT
  5
3410
330
1AF1
100
AcDbEntity
  8
DEFPOINTS
 62
     0
440
 16777216
100
AcDbPoint
 10
3012.331835258973
 20
789.9249470642753
 30
0.0
  0
ENDBLK
  5
1AFC
330
1AF1
100
AcDbEntity
  8
0
100
AcDbBlockEnd
  0
BLOCK
  5
1B08
330
1AFE
100
AcDbEntity
  8
0
100
AcDbBlockBegin
  2
*D3
 70
     1
 10
0.0
 20
0.0
 30
0.0
  3
*D3
  1

  0
LINE
  5
2279
330
1AFE
100
AcDbEntity
  8
KOTIERUNG
 62
     0
440
 16777216
370
    -2
100
AcDbLine
 10
6194.55422303179
 20
-3097.387342179582
 30
0.0
 11
2401.791810288459
 21
-3097.387342179581
 31
0.0
  0
LINE
  5
227A
330
1AFE
100
AcDbEntity
  8
KOTIERUNG
 62
     0
440
 16777216
370
    -2
100
AcDbLine
 10
2641.28897599697
 20
-2820.075463804164
 30
0.0
 11
2401.79181028846
 21
-2820.075463804164
 31
0.0
  0
LINE
  5
227B
330
1AFE
100
AcDbEntity
  8
KOTIERUNG
 62
     0
440
 16777216
370
    -2
100
AcDbLine
 10
2476.791810288459
 20
-3022.387342179581
 30
0.0
 11
2476.791810288459
 21
-2895.075463804165
 31
0.0
  0
LINE
  5
227C
330
1AFE
100
AcDbEntity
  8
KOTIERUNG
 62
     0
440
 16777216
370
    -2
100
AcDbLine
 10
2476.791810288459
 20
-2820.075463804164
 30
0.0
 11
2476.791810288459
 21
-2514.468369670467
 31
0.0
  0
SOLID
  5
227D
330
1AFE
100
AcDbEntity
  8
KOTIERUNG
 62
     0
440
 16777216
100
AcDbTrace
 10
2464.29181028846
 20
-3022.387342179581
 30
0.0
 11
2489.29181028846
 21
-3022.387342179581
 31
0.0
 12
2476.791810288459
 22
-3097.387342179581
 32
0.0
 13
2476.791810288459
 23
-3097.387342179581
 33
0.0
  0
SOLID
  5
227E
330
1AFE
100
AcDbEntity
  8
KOTIERUNG
 62
     0
440
 16777216
100
AcDbTrace
 10
2464.29181028846
 20
-2895.075463804165
 30
0.0
 11
2489.29181028846
 21
-2895.075463804165
 31
0.0
 12
2476.791810288459
 22
-2820.075463804164
 32
0.0
 13
2476.791810288459
 23
-2820.075463804164
 33
0.0
  0
MTEXT
  5
227F
330
1AFE
100
AcDbEntity
  8
KOTIERUNG
 62
     0
440
 16777216
100
AcDbMText
 10
2415.998836209333
 20
-2629.771916737315
 30
0.0
 40
75.0
 41
0.0
 46
0.0
 71
     5
 72
     1
  1
\A1;~350
  7
VOEST
 11
0.0000000000000001
 21
1.0
 31
0.0
 73
     1
 44
1.0
  0
POINT
  5
2280
330
1AFE
100
AcDbEntity
  8
DEFPOINTS
 62
     0
440
 16777216
100
AcDbPoint
 10
6224.554223031791
 20
-3097.387342179582
 30
0.0
  0
POINT
  5
2281
330
1AFE
100
AcDbEntity
  8
DEFPOINTS
 62
     0
440
 16777216
100
AcDbPoint
 10
2671.28897599697
 20
-2820.075463804164
 30
0.0
  0
POINT
  5
2282
330
1AFE
100
AcDbEntity
  8
DEFPOINTS
 62
     0
440
 16777216
100
AcDbPoint
 10
2476.791810288459
 20
-2820.075463804164
 30
0.0
  0
ENDBLK
  5
1B09
330
1AFE
100
AcDbEntity
  8
0
100
AcDbBlockEnd
  0
BLOCK
  5
1BDE
330
1BD4
100
AcDbEntity
  8
0
100
AcDbBlockBegin
  2
*D4
 70
     1
 10
0.0
 20
0.0
 30
0.0
  3
*D4
  1

  0
LINE
  5
33FF
330
1BD4
100
AcDbEntity
  8
KOTIERUNG
 62
     0
440
 16777216
370
    -2
100
AcDbLine
 10
2982.331835258974
 20
-648.0331686835137
 30
0.0
 11
2490.579964350744
 21
-648.0331686835138
 31
0.0
  0
LINE
  5
3400
330
1BD4
100
AcDbEntity
  8
KOTIERUNG
 62
     0
440
 16777216
370
    -2
100
AcDbLine
 10
2659.867718535622
 20
-315.3686587273654
 30
0.0
 11
2490.579964350744
 21
-315.3686587273654
 31
0.0
  0
LINE
  5
3401
330
1BD4
100
AcDbEntity
  8
KOTIERUNG
 62
     0
440
 16777216
370
    -2
100
AcDbLine
 10
2565.579964350745
 20
-573.0331686835138
 30
0.0
 11
2565.579964350745
 21
-390.3686587273654
 31
0.0
  0
SOLID
  5
3402
330
1BD4
100
AcDbEntity
  8
KOTIERUNG
 62
     0
440
 16777216
100
AcDbTrace
 10
2553.079964350744
 20
-573.0331686835138
 30
0.0
 11
2578.079964350744
 21
-573.0331686835138
 31
0.0
 12
2565.579964350745
 22
-648.0331686835138
 32
0.0
 13
2565.579964350745
 23
-648.0331686835138
 33
0.0
  0
SOLID
  5
3403
330
1BD4
100
AcDbEntity
  8
KOTIERUNG
 62
     0
440
 16777216
100
AcDbTrace
 10
2553.079964350744
 20
-390.3686587273654
 30
0.0
 11
2578.079964350744
 21
-390.3686587273654
 31
0.0
 12
2565.579964350745
 22
-315.3686587273654
 32
0.0
 13
2565.579964350745
 23
-315.3686587273654
 33
0.0
  0
MTEXT
  5
3404
330
1BD4
100
AcDbEntity
  8
KOTIERUNG
 62
     0
440
 16777216
100
AcDbMText
 10
2504.786990271617
 20
-481.7009137054403
 30
0.0
 40
75.0
 41
0.0
 46
0.0
 71
     5
 72
     1
  1
\A1;~150
  7
VOEST
 11
0.0000000000000001
 21
1.0
 31
0.0
 73
     1
 44
1.0
  0
POINT
  5
3405
330
1BD4
100
AcDbEntity
  8
DEFPOINTS
 62
     0
440
 16777216
100
AcDbPoint
 10
3012.331835258974
 20
-648.0331686835137
 30
0.0
  0
POINT
  5
3406
330
1BD4
100
AcDbEntity
  8
DEFPOINTS
 62
     0
440
 16777216
100
AcDbPoint
 10
2689.867718535622
 20
-315.3686587273653
 30
0.0
  0
POINT
  5
3407
330
1BD4
100
AcDbEntity
  8
DEFPOINTS
 62
     0
440
 16777216
100
AcDbPoint
 10
2565.579964350745
 20
-315.3686587273654
 30
0.0
  0
ENDBLK
  5
1BDF
330
1BD4
100
AcDbEntity
  8
0
100
AcDbBlockEnd
  0
BLOCK
  5
2D45
330
2D43
100
AcDbEntity
  8
0
100
AcDbBlockBegin
  2
GENAXEH
 70
     0
 10
0.0
 20
0.0
 30
0.0
  3
GENAXEH
  1

  0
LINE
  5
2D44
330
2D43
100
AcDbEntity
  8
0
100
AcDbLine
 10
-1.0
 20
0.0
 30
0.0
 11
1.0
 21
0.0
 31
0.0
  0
ENDBLK
  5
2D46
330
2D43
100
AcDbEntity
  8
0
100
AcDbBlockEnd
  0
BLOCK
  5
30D0
330
30CF
100
AcDbEntity
  8
0
100
AcDbBlockBegin
  2
*U8
 70
     1
 10
0.0
 20
0.0
 30
0.0
  3
*U8
  1

  0
ENDBLK
  5
30D1
330
30CF
100
AcDbEntity
  8
0
100
AcDbBlockEnd
  0
BLOCK
  5
310C
330
310B
100
AcDbEntity
  8
0
100
AcDbBlockBegin
  2
_ACMFILLED30
 70
     0
 10
0.0
 20
0.0
 30
0.0
  3
_ACMFILLED30
  1

  0
TRACE
  5
310E
330
310B
100
AcDbEntity
  8
Hilfslinie
 62
     0
100
AcDbTrace
 10
-1.0
 20
-0.26794919
 30
0.0
 11
-1.0
 21
0.26794919
 31
0.0
 12
0.0
 22
0.0
 32
0.0
 13
0.0
 23
0.0
 33
0.0
  0
ENDBLK
  5
310D
330
310B
100
AcDbEntity
  8
0
100
AcDbBlockEnd
  0
ENDSEC
  0
SECTION
  2
ENTITIES
  0
LINE
  5
623
330
18
100
AcDbEntity
  8
35
100
AcDbLine
 10
6225.506932667624
 20
334.631341272635
 30
0.0
 11
6947.184467459738
 21
334.631341272635
 31
0.0
  0
LINE
  5
624
330
18
100
AcDbEntity
  8
35
100
AcDbLine
 10
6266.292318700816
 20
2.461028219631771
 30
0.0
 11
6925.563877941982
 21
2.461028219631771
 31
0.0
  0
LINE
  5
625
330
18
100
AcDbEntity
  8
18
100
AcDbLine
 10
6231.707624228644
 20
284.1307611066566
 30
0.0
 11
6916.920679135994
 21
284.1307611066566
 31
0.0
  0
LINE
  5
626
330
18
100
AcDbEntity
  8
18
100
AcDbLine
 10
6237.327173537855
 20
238.3632047633648
 30
0.0
 11
6930.581496223236
 21
238.3632047633648
 31
0.0
  0
LINE
  5
627
330
18
100
AcDbEntity
  8
18
100
AcDbLine
 10
6241.71750196756
 20
202.6068490992599
 30
0.0
 11
6953.421414724902
 21
202.6068490992599
 31
0.0
  0
LINE
  5
628
330
18
100
AcDbEntity
  8
18
100
AcDbLine
 10
6250.202756825038
 20
133.4999940103076
 30
0.0
 11
6921.076834690355
 21
133.4999940103076
 31
0.0
  0
LINE
  5
629
330
18
100
AcDbEntity
  8
18
100
AcDbLine
 10
6256.338288856661
 20
83.53009562483403
 30
0.0
 11
6928.438462446085
 21
83.53009562483403
 31
0.0
  0
LINE
  5
62A
330
18
100
AcDbEntity
  8
18
100
AcDbLine
 10
6261.95735724733
 20
37.76645604874501
 30
0.0
 11
6940.683141452886
 21
37.76645604874501
 31
0.0
  0
LINE
  5
856
330
18
100
AcDbEntity
  8
35
100
AcDbLine
 10
6319.506932667623
 20
2.46102821963177
 30
0.0
 11
6319.506932667623
 21
334.6313412726349
 31
0.0
  0
LINE
  5
857
330
18
100
AcDbEntity
  8
18
  6
STRICHLINIE
 48
0.2
100
AcDbLine
 10
6639.506932667623
 20
2.461028219631771
 30
0.0
 11
6639.506932667623
 21
334.6313412726349
 31
0.0
  0
LINE
  5
B06
330
18
100
AcDbEntity
  8
18
  6
STRICHLINIE
 48
0.05
100
AcDbLine
 10
6639.506932667623
 20
-3026.560294611134
 30
0.0
 11
6639.506932667623
 21
-3097.361264155979
 31
0.0
  0
LINE
  5
B07
330
18
100
AcDbEntity
  8
35
 48
0.05
100
AcDbLine
 10
6319.506932667623
 20
-3026.560294611134
 30
0.0
 11
6319.506932667623
 21
-3097.361264155979
 31
0.0
  0
LINE
  5
B1D
330
18
100
AcDbEntity
  8
50
100
AcDbLine
 10
2689.867718535621
 20
-315.3686587273652
 30
0.0
 11
3647.520778070297
 21
-315.3686587273649
 31
0.0
  0
MTEXT
  5
10E0
330
18
100
AcDbEntity
  8
KOTIERUNG
100
AcDbMText
 10
7495.698312492914
 20
470.9395909145314
 30
0.0
 40
25.0
 41
0.0
 46
0.0
 71
     4
 72
     1
  1
\A1;
  7
VOEST
 73
     1
 44
1.0
  0
LINE
  5
15EB
330
18
100
AcDbEntity
  8
18
100
AcDbLine
 10
6266.292318700816
 20
2.461028219631771
 30
0.0
 11
6225.506932667624
 21
334.6313412726355
 31
0.0
  0
LINE
  5
15EC
330
18
100
AcDbEntity
  8
35
100
AcDbLine
 10
6225.506932667624
 20
334.6313412726349
 30
0.0
 11
3155.125161098965
 21
-439.5187246463022
 31
0.0
  0
LINE
  5
15ED
330
18
100
AcDbEntity
  8
35
100
AcDbLine
 10
3155.125161098965
 20
-439.5187246463022
 30
0.0
 11
2789.584857655369
 21
-633.8799516396609
 31
0.0
  0
LINE
  5
15EE
330
18
100
AcDbEntity
  8
35
100
AcDbLine
 10
6266.292318700816
 20
2.461028219631771
 30
0.0
 11
3275.058318657209
 21
-751.9552818954765
 31
0.0
  0
LINE
  5
15EF
330
18
100
AcDbEntity
  8
35
100
AcDbLine
 10
3275.058318657209
 20
-751.9552818954765
 30
0.0
 11
2945.529373635441
 21
-927.1689299690063
 31
0.0
  0
LINE
  5
15F0
330
18
100
AcDbEntity
  8
18
100
AcDbLine
 10
3275.058318657209
 20
-751.9552818954765
 30
0.0
 11
3155.125161098965
 21
-439.5187246463022
 31
0.0
  0
LINE
  5
162A
330
18
100
AcDbEntity
  8
35
100
AcDbLine
 10
2789.584857655369
 20
-633.8799516396609
 30
0.0
 11
2945.529373635441
 21
-927.1689299690063
 31
0.0
  0
LINE
  5
162C
330
18
100
AcDbEntity
  8
50
100
AcDbLine
 10
5006.108845634048
 20
-315.3686587273652
 30
0.0
 11
6948.935464401926
 21
-315.3686587273652
 31
0.0
  0
LINE
  5
162D
330
18
100
AcDbEntity
  8
18
100
AcDbLine
 10
3173.358861703219
 20
-487.0191386993501
 30
0.0
 11
2813.293443947491
 21
-678.4693173352027
 31
0.0
  0
LINE
  5
162E
330
18
100
AcDbEntity
  8
18
100
AcDbLine
 10
3189.883660369077
 20
-530.0677110000422
 30
0.0
 11
2834.780010148869
 21
-718.8796710395499
 31
0.0
  0
LINE
  5
162F
330
18
100
AcDbEntity
  8
18
100
AcDbLine
 10
3202.793822623364
 20
-563.6998335121083
 30
0.0
 11
2851.566602322024
 21
-750.450659202579
 31
0.0
  0
LINE
  5
1630
330
18
100
AcDbEntity
  8
18
100
AcDbLine
 10
3227.745490529989
 20
-628.7011507215257
 30
0.0
 11
2884.010305579853
 21
-811.4683905534196
 31
0.0
  0
LINE
  5
1631
330
18
100
AcDbEntity
  8
18
100
AcDbLine
 10
3245.787583579041
 20
-675.7024100277935
 30
0.0
 11
2907.469751867133
 21
-855.5891920482789
 31
0.0
  0
LINE
  5
1632
330
18
100
AcDbEntity
  8
18
100
AcDbLine
 10
3262.310968059946
 20
-718.7472982507331
 30
0.0
 11
2928.954479257692
 21
-895.9960874524501
 31
0.0
  0
LINE
  5
1633
330
18
100
AcDbEntity
  8
18
100
AcDbLine
 10
6231.707624228646
 20
284.1307611066566
 30
0.0
 11
3173.358861703219
 21
-487.0191386993501
 31
0.0
  0
LINE
  5
1634
330
18
100
AcDbEntity
  8
18
100
AcDbLine
 10
3189.883660369079
 20
-530.0677110000414
 30
0.0
 11
6237.327173537855
 21
238.3632047633648
 31
0.0
  0
LINE
  5
1635
330
18
100
AcDbEntity
  8
18
100
AcDbLine
 10
6241.71750196756
 20
202.6068490992599
 30
0.0
 11
3202.793822623366
 21
-563.6998335121072
 31
0.0
  0
LINE
  5
1636
330
18
100
AcDbEntity
  8
18
100
AcDbLine
 10
3227.74549052999
 20
-628.7011507215252
 30
0.0
 11
6250.202756825038
 21
133.4999940103076
 31
0.0
  0
LINE
  5
1637
330
18
100
AcDbEntity
  8
18
100
AcDbLine
 10
6256.338288856661
 20
83.53009562483403
 30
0.0
 11
3245.787583579041
 21
-675.7024100277932
 31
0.0
  0
LINE
  5
1638
330
18
100
AcDbEntity
  8
18
100
AcDbLine
 10
3262.310968059948
 20
-718.7472982507329
 30
0.0
 11
6261.95735724733
 21
37.76645604874501
 31
0.0
  0
LINE
  5
1718
330
18
100
AcDbEntity
  8
25
100
AcDbLine
 10
6229.506932667624
 20
-3026.560294611134
 30
0.0
 11
6937.920484369271
 21
-3026.560294611134
 31
0.0
  0
LINE
  5
1719
330
18
100
AcDbEntity
  8
25
100
AcDbLine
 10
6224.554223031791
 20
-3097.387342179582
 30
0.0
 11
6937.920484369271
 21
-3097.361264155979
 31
0.0
  0
SPLINE
  5
17F2
330
18
100
AcDbEntity
  8
25
100
AcDbSpline
210
0.0
220
0.0
230
1.0
 70
  1064
 71
     3
 72
    12
 73
     8
 74
     6
 42
0.000000001
 43
0.0000000001
 44
0.0000000001
 13
-0.3784594042423786
 23
-0.9256178905685132
 33
0.0
 40
0.0
 40
0.0
 40
0.0
 40
0.0
 40
83.46299022233067
 40
143.4551890498907
 40
241.7983477240323
 40
316.1312197319721
 40
362.5169324105286
 40
362.5169324105286
 40
362.5169324105286
 40
362.5169324105286
 10
6947.184467459738
 20
334.631341272635
 30
0.0
 10
6927.136510954776
 20
307.3744257271445
 30
0.0
 10
6892.678323166122
 20
260.5255653870186
 30
0.0
 10
6986.050710715833
 20
200.3909180558234
 30
0.0
 10
6884.982404865268
 20
122.9288705911314
 30
0.0
 10
6957.628924299275
 20
54.79078605941161
 30
0.0
 10
6931.415581003877
 20
16.77284339364596
 30
0.0
 10
6925.563877941982
 20
2.46102821963177
 30
0.0
 11
6947.184467459738
 21
334.631341272635
 31
0.0
 11
6917.456137324792
 21
256.6422579068166
 31
0.0
 11
6952.589638296813
 21
208.0140661903388
 31
0.0
 11
6917.456137324792
 21
116.1608465001372
 31
0.0
 11
6941.779327899509
 21
45.92012995186451
 31
0.0
 11
6925.563877941982
 21
2.46102821963177
 31
0.0
  0
SPLINE
  5
17F8
330
18
100
AcDbEntity
  8
25
100
AcDbSpline
210
0.0
220
0.0
230
1.0
 70
  1064
 71
     3
 72
    10
 73
     6
 74
     4
 42
0.000000001
 43
0.0000000001
 44
0.0000000001
 12
-0.6919049015738731
 22
-0.721988647540977
 32
0.0
 40
0.0
 40
0.0
 40
0.0
 40
0.0
 40
23.78603837424629
 40
50.91596176909291
 40
73.18245700023272
 40
73.18245700023272
 40
73.18245700023272
 40
73.18245700023272
 10
6937.920484369271
 20
-3026.560294611134
 30
0.0
 10
6932.434592189216
 20
-3032.284711169861
 30
0.0
 10
6951.762099769645
 20
-3052.348145871094
 30
0.0
 10
6928.853254155765
 20
-3073.3533939356
 30
0.0
 10
6935.103191191503
 20
-3089.901741524264
 30
0.0
 10
6937.920484369271
 20
-3097.361264155979
 30
0.0
 11
6937.920484369271
 21
-3026.560294611134
 31
0.0
 11
6942.796263297052
 21
-3049.841239638957
 31
0.0
 11
6933.880547895933
 21
-3075.464330051639
 31
0.0
 11
6937.920484369271
 21
-3097.361264155979
 31
0.0
  0
DIMENSION
  5
181C
330
18
100
AcDbEntity
  8
KOTIERUNG
100
AcDbDimension
280
     0
  2
*D0
 10
7248.5075617183
 20
334.6313412726352
 30
0.0
 11
7187.71458763917
 21
9.631341272632955
 31
0.0
 70
    32
  1
<>
 71
     5
 42
650.0000000000003
 73
     0
 74
     0
 75
     0
  3
TYPENBLATT_M25
100
AcDbAlignedDimension
 13
6948.935464401926
 23
-315.3686587273652
 33
0.0
 14
6947.184467459738
 24
334.631341272635
 34
0.0
 50
90.0
100
AcDbRotatedDimension
1001
ACAD
1000
DSTYLE
1002
{
1070
   146
1040
0.75
1070
    47
1040
40.0
1070
   147
1040
0.075
1070
    48
1040
40.0
1070
    72
1070
     0
1070
    71
1070
     1
1002
}
  0
LINE
  5
1A1B
330
18
100
AcDbEntity
  8
25
100
AcDbLine
 10
6229.506932667624
 20
-3026.560294611134
 30
0.0
 11
3087.180174349178
 21
-2806.82740231714
 31
0.0
  0
LINE
  5
1A1C
330
18
100
AcDbEntity
  8
25
100
AcDbLine
 10
6224.554223031791
 20
-3097.387342179582
 30
0.0
 11
3077.298884181013
 21
-2877.136435197792
 31
0.0
  0
LINE
  5
1A1D
330
18
100
AcDbEntity
  8
25
100
AcDbLine
 10
3087.180174349178
 20
-2806.82740231714
 30
0.0
 11
2681.170266165134
 21
-2749.766430923513
 31
0.0
  0
LINE
  5
1A1E
330
18
100
AcDbEntity
  8
25
100
AcDbLine
 10
3077.298884181013
 20
-2877.136435197792
 30
0.0
 11
2671.28897599697
 21
-2820.075463804164
 31
0.0
  0
LINE
  5
1A1F
330
18
100
AcDbEntity
  8
25
100
AcDbLine
 10
2681.170266165134
 20
-2749.766430923513
 30
0.0
 11
2671.28897599697
 21
-2820.075463804164
 31
0.0
  0
LINE
  5
1A20
330
18
100
AcDbEntity
  8
18
100
AcDbLine
 10
6229.506932667624
 20
-3026.560294611134
 30
0.0
 11
6224.554223031791
 21
-3097.387342179582
 31
0.0
  0
LINE
  5
1A21
330
18
100
AcDbEntity
  8
18
100
AcDbLine
 10
3087.180174349178
 20
-2806.82740231714
 30
0.0
 11
3077.298884181013
 21
-2877.136435197792
 31
0.0
  0
DIMENSION
  5
1AD6
330
18
100
AcDbEntity
  8
KOTIERUNG
100
AcDbDimension
280
     0
  2
*D1
 10
4663.180984890932
 20
613.9729901852478
 30
0.0
 11
5571.580375416822
 21
674.7659642643748
 31
0.0
 70
    32
  1
~<>
 71
     5
 42
1816.79878105178
 73
     0
 74
     0
 75
     0
  3
TYPENBLATT_M25
100
AcDbAlignedDimension
 13
6479.979765942712
 23
229.6313412726349
 33
0.0
 14
4663.180984890932
 24
-178.505890177316
 34
0.0
 50
180.0
100
AcDbRotatedDimension
  0
DIMENSION
  5
1AF0
330
18
100
AcDbEntity
  8
KOTIERUNG
100
AcDbDimension
280
     0
  2
*D2
 10
3012.331835258973
 20
789.9249470642753
 30
0.0
 11
4746.155800600842
 21
850.7179211434023
 31
0.0
 70
    32
  1
~<>
 71
     5
 42
3467.647930683739
 73
     0
 74
     0
 75
     0
  3
TYPENBLATT_M25
100
AcDbAlignedDimension
 13
6479.979765942712
 23
254.6313412726349
 33
0.0
 14
3012.331835258973
 24
-648.0331686835135
 34
0.0
 50
180.0
100
AcDbRotatedDimension
  0
DIMENSION
  5
1AFD
330
18
100
AcDbEntity
  8
KOTIERUNG
100
AcDbDimension
280
     0
  2
*D3
 10
2476.791810288459
 20
-2820.075463804164
 30
0.0
 11
2476.79181028846
 21
-2629.771916737315
 31
0.0
 70
   160
  1
~350
 71
     5
 42
277.3118783754167
 73
     0
 74
     0
 75
     0
  3
TYPENBLATT_M25
100
AcDbAlignedDimension
 13
6224.554223031791
 23
-3097.387342179582
 33
0.0
 14
2671.28897599697
 24
-2820.075463804164
 34
0.0
 50
90.0
100
AcDbRotatedDimension
  0
DIMENSION
  5
1BD3
330
18
100
AcDbEntity
  8
KOTIERUNG
100
AcDbDimension
280
     0
  2
*D4
 10
2565.579964350745
 20
-315.3686587273654
 30
0.0
 11
2504.786990271617
 21
-481.7009137054403
 31
0.0
 70
    32
  1
~150
 71
     5
 42
332.6645099561484
 73
     0
 74
     0
 75
     0
  3
TYPENBLATT_M25
100
AcDbAlignedDimension
 13
3012.331835258973
 23
-648.0331686835135
 33
0.0
 14
2689.867718535621
 24
-315.3686587273652
 34
0.0
 50
90.0
100
AcDbRotatedDimension
  0
LINE
  5
22D0
330
18
100
AcDbEntity
  8
18
  6
VERDECKT
 48
0.25
100
AcDbLine
 10
6509.506932667623
 20
214.6313412726314
 30
0.0
 11
6509.506932667623
 21
2.461028219631773
 31
0.0
  0
LINE
  5
22D1
330
18
100
AcDbEntity
  8
25
100
AcDbLine
 10
6509.506932667623
 20
2.461028219631771
 30
0.0
 11
6509.506932667623
 21
-315.3686587273652
 31
0.0
  0
LINE
  5
22D2
330
18
100
AcDbEntity
  8
18
  6
VERDECKT
 48
0.25
100
AcDbLine
 10
6449.506932667631
 20
214.6313412726385
 30
0.0
 11
6449.506932667631
 21
2.461028219631547
 31
0.0
  0
LINE
  5
22D3
330
18
100
AcDbEntity
  8
25
100
AcDbLine
 10
6449.506932667631
 20
2.461028219631543
 30
0.0
 11
6449.506932667627
 21
-315.3686587273654
 31
0.0
  0
LINE
  5
22D4
330
18
100
AcDbEntity
  8
18
  6
VERDECKT
 48
0.25
100
AcDbLine
 10
6505.307364568273
 20
2.461028219631771
 30
0.0
 11
6505.712540069328
 21
-315.3686587273652
 31
0.0
  0
LINE
  5
22D5
330
18
100
AcDbEntity
  8
18
  6
VERDECKT
 48
0.25
100
AcDbLine
 10
6453.506932667639
 20
2.461028219631543
 30
0.0
 11
6453.506932667652
 21
-315.3686587273654
 31
0.0
  0
LINE
  5
22D6
330
18
100
AcDbEntity
  8
18
  6
VERDECKT
 48
0.25
100
AcDbLine
 10
6509.506932667623
 20
214.6313412726372
 30
0.0
 11
6449.506932667631
 21
214.6313412726328
 31
0.0
  0
LINE
  5
22D8
330
18
100
AcDbEntity
  8
18
  6
VERDECKT
 48
0.25
100
AcDbLine
 10
6509.506932667623
 20
-590.7900178492105
 30
0.0
 11
6509.506932667625
 21
-503.2340569379791
 31
0.0
  0
LINE
  5
22D9
330
18
100
AcDbEntity
  8
18
  6
VERDECKT
 48
0.25
100
AcDbLine
 10
6449.506932667627
 20
-315.3686587273615
 30
0.0
 11
6449.50693266762
 21
-461.2002577613136
 31
0.0
  0
LINE
  5
23A3
330
18
100
AcDbEntity
  8
18
  6
VERDECKT
 48
0.25
100
AcDbLine
 10
6509.506932667623
 20
-590.790017849212
 30
0.0
 11
6449.506932667624
 21
-590.7900178492163
 31
0.0
  0
LINE
  5
23A4
330
18
100
AcDbEntity
  8
18
  6
STRICHPUNKT
 48
0.075
100
AcDbLine
 10
6379.979765942717
 20
-443.1457169427451
 30
0.0
 11
6579.979765942737
 21
-495.0809292317958
 31
0.0
  0
LINE
  5
23A5
330
18
100
AcDbEntity
  8
18
  6
STRICHPUNKT
 48
0.075
100
AcDbLine
 10
6379.979765942717
 20
-469.5989524326964
 30
0.0
 11
6579.979765942737
 21
-521.5341647217463
 31
0.0
  0
LINE
  5
23EE
330
18
100
AcDbEntity
  8
18
  6
VERDECKT
 48
0.25
100
AcDbLine
 10
6509.506932667624
 20
-476.7808214480285
 30
0.0
 11
6509.506932667623
 21
-315.3686587273652
 31
0.0
  0
LINE
  5
23EF
330
18
100
AcDbEntity
  8
18
  6
VERDECKT
 48
0.25
100
AcDbLine
 10
6449.506932667624
 20
-487.6534932512661
 30
0.0
 11
6449.506932667624
 21
-590.7900178492179
 31
0.0
  0
LINE
  5
33E5
330
18
100
AcDbEntity
  8
18
  6
VERDECKT
 48
0.25
100
AcDbLine
 10
4693.180984890928
 20
-178.5058901773196
 30
0.0
 11
4693.180984890926
 21
-593.7353430230037
 31
0.0
  0
LINE
  5
33E6
330
18
100
AcDbEntity
  8
18
  6
VERDECKT
 48
0.25
100
AcDbLine
 10
4633.180984890937
 20
-178.5058901773125
 30
0.0
 11
4633.180984890937
 21
-578.1547793362922
 31
0.0
  0
LINE
  5
33E7
330
18
100
AcDbEntity
  8
18
  6
VERDECKT
 48
0.25
100
AcDbLine
 10
4693.180984890928
 20
-178.5058901773138
 30
0.0
 11
4633.180984890937
 21
-178.5058901773182
 31
0.0
  0
LINE
  5
33E8
330
18
100
AcDbEntity
  8
18
  6
VERDECKT
 48
0.25
100
AcDbLine
 10
4693.180984890928
 20
-742.1882392182351
 30
0.0
 11
4633.180984890937
 21
-742.1882392182395
 31
0.0
  0
LINE
  5
33F3
330
18
100
AcDbEntity
  8
18
  6
STRICHPUNKT
 48
0.075
100
AcDbLine
 10
4563.653818166019
 20
-560.10023851772
 30
0.0
 11
4763.65381816604
 21
-612.0354508067707
 31
0.0
  0
LINE
  5
33F4
330
18
100
AcDbEntity
  8
18
  6
STRICHPUNKT
 48
0.075
100
AcDbLine
 10
4563.653818166019
 20
-586.5534740076713
 30
0.0
 11
4763.65381816604
 21
-638.4886862967212
 31
0.0
  0
LINE
  5
33F5
330
18
100
AcDbEntity
  8
18
  6
VERDECKT
 48
0.25
100
AcDbLine
 10
4693.180984890926
 20
-620.1885785129543
 30
0.0
 11
4693.180984890928
 21
-742.1882392182351
 31
0.0
  0
LINE
  5
33F6
330
18
100
AcDbEntity
  8
18
  6
VERDECKT
 48
0.25
100
AcDbLine
 10
4633.180984890937
 20
-604.6080148262433
 30
0.0
 11
4633.180984890937
 21
-742.1882392182395
 31
0.0
  0
LINE
  5
33F7
330
18
100
AcDbEntity
  8
18
  6
VERDECKT
 48
0.25
100
AcDbLine
 10
3042.331835258968
 20
-648.033168683517
 30
0.0
 11
3042.331835258967
 21
-1056.088770082821
 31
0.0
  0
LINE
  5
33F8
330
18
100
AcDbEntity
  8
18
  6
VERDECKT
 48
0.25
100
AcDbLine
 10
3042.331835258967
 20
-1082.542005572772
 30
0.0
 11
3042.331835258968
 21
-1254.758732995693
 31
0.0
  0
LINE
  5
33F9
330
18
100
AcDbEntity
  8
18
  6
VERDECKT
 48
0.25
100
AcDbLine
 10
2982.331835258977
 20
-648.03316868351
 30
0.0
 11
2982.331835258977
 21
-1040.50820639611
 31
0.0
  0
LINE
  5
33FA
330
18
100
AcDbEntity
  8
18
  6
VERDECKT
 48
0.25
100
AcDbLine
 10
2982.331835258977
 20
-1066.961441886061
 30
0.0
 11
2982.331835258977
 21
-1254.758732995697
 31
0.0
  0
LINE
  5
33FB
330
18
100
AcDbEntity
  8
18
  6
VERDECKT
 48
0.25
100
AcDbLine
 10
3042.331835258968
 20
-648.0331686835113
 30
0.0
 11
2982.331835258977
 21
-648.0331686835157
 31
0.0
  0
LINE
  5
33FC
330
18
100
AcDbEntity
  8
18
  6
VERDECKT
 48
0.25
100
AcDbLine
 10
3042.331835258968
 20
-1254.758732995693
 30
0.0
 11
2982.331835258977
 21
-1254.758732995697
 31
0.0
  0
LINE
  5
33FD
330
18
100
AcDbEntity
  8
18
  6
STRICHPUNKT
 48
0.075
100
AcDbLine
 10
2912.80466853406
 20
-1022.453665577538
 30
0.0
 11
3112.80466853408
 21
-1074.388877866589
 31
0.0
  0
LINE
  5
33FE
330
18
100
AcDbEntity
  8
18
  6
STRICHPUNKT
 48
0.075
100
AcDbLine
 10
2912.80466853406
 20
-1048.906901067489
 30
0.0
 11
3112.80466853408
 21
-1100.842113356539
 31
0.0
  0
LINE
  5
34C8
330
18
100
AcDbEntity
  8
25
100
AcDbLine
 10
2953.055185899668
 20
-2767.780813035625
 30
0.0
 11
2951.385108688148
 21
-2779.664029860523
 31
0.0
  0
ARC
  5
34C9
330
18
100
AcDbEntity
  8
25
100
AcDbCircle
 10
2959.30725323808
 20
-2780.777414668204
 30
0.0
 40
7.999999999999971
100
AcDbArc
 50
171.9999999999959
 51
261.9999999999959
  0
LINE
  5
34CA
330
18
100
AcDbEntity
  8
25
100
AcDbLine
 10
2958.193868430399
 20
-2788.699559218136
 30
0.0
 11
3001.765663455028
 21
-2794.82317566038
 31
0.0
  0
ARC
  5
34CB
330
18
100
AcDbEntity
  8
25
100
AcDbCircle
 10
3002.879048262709
 20
-2786.901031110447
 30
0.0
 40
8.000000000000808
100
AcDbArc
 50
262.0
 51
351.9999999999996
  0
LINE
  5
34CC
330
18
100
AcDbEntity
  8
25
100
AcDbLine
 10
3010.801192812642
 20
-2788.014415918127
 30
0.0
 11
3022.491733293288
 21
-2704.831898143836
 31
0.0
  0
ARC
  5
34CD
330
18
100
AcDbEntity
  8
25
100
AcDbCircle
 10
3014.569588743355
 20
-2703.718513336156
 30
0.0
 40
8.000000000000294
100
AcDbArc
 50
352.0000000000028
 51
82.00000000000235
  0
LINE
  5
34CE
330
18
100
AcDbEntity
  8
25
100
AcDbLine
 10
3015.682973551035
 20
-2695.796368786223
 30
0.0
 11
2972.111178526406
 21
-2689.67275234398
 31
0.0
  0
ARC
  5
34CF
330
18
100
AcDbEntity
  8
25
100
AcDbCircle
 10
2970.997793718725
 20
-2697.594896893911
 30
0.0
 40
7.999999999999007
100
AcDbArc
 50
81.99999999999823
 51
172.0000000000019
  0
LINE
  5
34D0
330
18
100
AcDbEntity
  8
25
100
AcDbLine
 10
2963.075649168793
 20
-2696.481512086231
 30
0.0
 11
2961.405571957272
 21
-2708.36472891113
 31
0.0
  0
LINE
  5
34DC
330
18
100
AcDbEntity
  8
25
100
AcDbLine
 10
4629.811761475489
 20
-2894.649873246616
 30
0.0
 11
4628.974683790559
 21
-2906.620641849734
 31
0.0
  0
ARC
  5
34DD
330
18
100
AcDbEntity
  8
25
100
AcDbCircle
 10
4636.955196192639
 20
-2907.178693639688
 30
0.0
 40
8.000000000000945
100
AcDbArc
 50
175.9999999999974
 51
265.9999999999905
  0
LINE
  5
34DE
330
18
100
AcDbEntity
  8
25
100
AcDbLine
 10
4636.397144402685
 20
-2915.159206041766
 30
0.0
 11
4680.289962614117
 21
-2918.228490886508
 31
0.0
  0
ARC
  5
34DF
330
18
100
AcDbEntity
  8
25
100
AcDbCircle
 10
4680.84801440407
 20
-2910.247978484429
 30
0.0
 40
8.00000000000049
100
AcDbArc
 50
265.9999999999972
 51
356.0000000000002
  0
LINE
  5
34E0
330
18
100
AcDbEntity
  8
25
100
AcDbLine
 10
4688.828526806149
 20
-2910.806030274382
 30
0.0
 11
4694.688070600655
 21
-2827.010650052557
 31
0.0
  0
ARC
  5
34E1
330
18
100
AcDbEntity
  8
25
100
AcDbCircle
 10
4686.707558198576
 20
-2826.452598262603
 30
0.0
 40
7.999999999999974
100
AcDbArc
 50
356.0000000000035
 51
86.00000000000349
  0
LINE
  5
34E2
330
18
100
AcDbEntity
  8
25
100
AcDbLine
 10
4687.265609988529
 20
-2818.472085860526
 30
0.0
 11
4643.372791777096
 21
-2815.402801015784
 31
0.0
  0
ARC
  5
34E3
330
18
100
AcDbEntity
  8
25
100
AcDbCircle
 10
4642.814739987144
 20
-2823.383313417862
 30
0.0
 40
7.999999999999583
100
AcDbArc
 50
85.99999999999676
 51
175.9999999999998
  0
LINE
  5
34E4
330
18
100
AcDbEntity
  8
25
100
AcDbLine
 10
4634.834227585066
 20
-2822.825261627909
 30
0.0
 11
4633.997149900135
 21
-2834.796030231027
 31
0.0
  0
LINE
  5
34F0
330
18
100
AcDbEntity
  8
25
100
AcDbLine
 10
6449.506932667623
 20
-3006.560294611134
 30
0.0
 11
6449.506932667623
 21
-3018.560294611134
 31
0.0
  0
ARC
  5
34F1
330
18
100
AcDbEntity
  8
25
100
AcDbCircle
 10
6457.506932667623
 20
-3018.560294611134
 30
0.0
 40
8.0
100
AcDbArc
 50
179.9999999999967
 51
270.0
  0
LINE
  5
34F2
330
18
100
AcDbEntity
  8
25
100
AcDbLine
 10
6457.506932667623
 20
-3026.560294611134
 30
0.0
 11
6501.506932667623
 21
-3026.560294611134
 31
0.0
  0
ARC
  5
34F3
330
18
100
AcDbEntity
  8
25
100
AcDbCircle
 10
6501.506932667624
 20
-3018.560294611134
 30
0.0
 40
8.000000000000454
100
AcDbArc
 50
269.9999999999935
 51
359.9999999999968
  0
LINE
  5
34F4
330
18
100
AcDbEntity
  8
25
100
AcDbLine
 10
6509.506932667624
 20
-3018.560294611134
 30
0.0
 11
6509.506932667624
 21
-2934.560294611134
 31
0.0
  0
ARC
  5
34F5
330
18
100
AcDbEntity
  8
25
100
AcDbCircle
 10
6501.506932667624
 20
-2934.560294611135
 30
0.0
 40
8.0
100
AcDbArc
 50
0.0000000000032569
 51
90.00000000000651
  0
LINE
  5
34F6
330
18
100
AcDbEntity
  8
25
100
AcDbLine
 10
6501.506932667623
 20
-2926.560294611134
 30
0.0
 11
6457.506932667624
 21
-2926.560294611134
 31
0.0
  0
ARC
  5
34F7
330
18
100
AcDbEntity
  8
25
100
AcDbCircle
 10
6457.506932667624
 20
-2934.560294611134
 30
0.0
 40
8.0
100
AcDbArc
 50
90.0
 51
179.9999999999967
  0
LINE
  5
34F8
330
18
100
AcDbEntity
  8
25
100
AcDbLine
 10
6449.506932667624
 20
-2934.560294611133
 30
0.0
 11
6449.506932667623
 21
-2946.560294611133
 31
0.0
  0
VIEWPORT
  5
34B9
102
{ACAD_XDICTIONARY
360
34BA
102
}
330
34B2
100
AcDbEntity
 67
     1
  8
0
100
AcDbViewport
 10
143.4359283447265
 20
99.95958089828491
 30
0.0
 40
580.8028161409882
 41
222.1517806396485
 68
     1
 69
     1
 12
143.4359283447265
 22
99.95958089828491
 13
0.0
 23
0.0
 14
10.0
 24
10.0
 15
10.0
 25
10.0
 16
0.0
 26
0.0
 36
1.0
 17
0.0
 27
0.0
 37
0.0
 42
50.0
 43
0.0
 44
0.0
 45
222.1517806396485
 50
0.0
 51
0.0
 72
   100
 90
   819232
  1

281
     0
 71
     1
 74
     0
110
0.0
120
0.0
130
0.0
111
1.0
121
0.0
131
0.0
112
0.0
122
1.0
132
0.0
 79
     0
146
0.0
170
     0
 61
     5
348
1F3D
292
     1
282
     1
141
0.0
142
0.0
 63
   250
421
  3355443
  0
VIEWPORT
  5
34BD
102
{ACAD_XDICTIONARY
360
34BE
102
}
330
34B2
100
AcDbEntity
 67
     1
  8
Hilfslinie
100
AcDbViewport
 10
143.4359130859375
 20
99.95958781242372
 30
0.0
 40
229.4974609375
 41
159.9353404998779
 68
     2
 69
     2
 12
4839.888771951538
 22
-1093.470283505811
 13
0.0
 23
0.0
 14
0.5
 24
0.5
 15
0.5
 25
0.5
 16
0.0
 26
0.0
 36
1.0
 17
0.0
 27
0.0
 37
0.0
 42
50.0
 43
0.0
 44
0.0
 45
4053.464107298366
 50
0.0
 51
0.0
 72
   100
 90
   819232
  1

281
     0
 71
     1
 74
     0
110
0.0
120
0.0
130
0.0
111
1.0
121
0.0
131
0.0
112
0.0
122
1.0
132
0.0
 79
     0
146
0.0
170
     0
 61
     5
348
1F3D
292
     1
282
     1
141
0.0
142
0.0
 63
   250
421
  3355443
  0
ENDSEC
  0
SECTION
  2
OBJECTS
  0
DICTIONARY
  5
C
330
0
100
AcDbDictionary
281
     1
  3
ACAD_CIP_PREVIOUS_PRODUCT_INFO
350
2CF5
  3
ACAD_COLOR
350
1C61
  3
ACAD_DETAILVIEWSTYLE
350
2CE7
  3
ACAD_FIELDLIST
350
3108
  3
ACAD_GROUP
350
D
  3
ACAD_LAYOUT
350
1960
  3
ACAD_MATERIAL
350
1C60
  3
ACAD_MLEADERSTYLE
350
1F6A
  3
ACAD_MLINESTYLE
350
1B
  3
ACAD_PLOTSETTINGS
350
1961
  3
ACAD_PLOTSTYLENAME
350
195E
  3
ACAD_RENDER_ACTIVE_RAPIDRT_SETTINGS
350
33A4
  3
ACAD_RENDER_RAPIDRT_SETTINGS
350
339D
  3
ACAD_SCALELIST
350
1F48
  3
ACAD_SECTIONVIEWSTYLE
350
2CE4
  3
ACAD_TABLESTYLE
350
1C9C
  3
ACAD_VISUALSTYLE
350
1F37
  3
ACDB_RECOMPOSE_DATA
350
3520
  3
ACDBVARIABLEDICTIONARY
350
1109
  3
ACGREF_MASTER
350
30BD
  3
ACGREFACAD_MASTER
350
30C0
  3
AcmDictionary
350
2D23
  3
ACME_COMMAND_HISTORY
350
30B8
  3
ACME_SCOPE_NAME
350
30B7
  3
ACMESTATEMGR
350
30BB
  3
AcmeSysVarManager
350
30B9
  3
AcmSystemVariableManager
350
30C5
  3
AMG
350
2CF8
  3
AMGSNAPSETTINGS
350
2DE5
  3
AMI_MASTER
350
30C3
  3
AUTOCAD_ASSEMBLIES_PROJECT
350
30CE
  3
CONTENTDICTIONARY
350
23
  3
Designer_Assemblies_SysVars
350
30C8
  3
GREFAM_MODULE
350
30C4
  3
StructToggleButtonState
350
315D
  0
DICTIONARY
  5
202D
330
8
100
AcDbDictionary
280
     1
281
     1
  0
DICTIONARY
  5
1CA7
330
2
100
AcDbDictionary
280
     1
281
     1
  3
ACAD_LAYERFILTERS
360
1F0A
  3
ACAD_LAYERSTATES
360
1CA8
  3
ACLYDICTIONARY
360
1F09
  0
DICTIONARY
  5
1F87
330
E
100
AcDbDictionary
280
     1
281
     1
  3
ADSK_XREC_LAYER_RECONCILED
360
1F88
  0
DICTIONARY
  5
1F8B
330
12F
100
AcDbDictionary
280
     1
281
     1
  3
ADSK_XREC_LAYER_RECONCILED
360
1F8C
  0
DICTIONARY
  5
1F8D
330
1DA
100
AcDbDictionary
280
     1
281
     1
  3
ADSK_XREC_LAYER_RECONCILED
360
1F8E
  0
DICTIONARY
  5
1F8F
330
224
100
AcDbDictionary
280
     1
281
     1
  3
ADSK_XREC_LAYER_RECONCILED
360
1F90
  0
DICTIONARY
  5
1F91
330
226
100
AcDbDictionary
280
     1
281
     1
  3
ADSK_XREC_LAYER_RECONCILED
360
1F92
  0
DICTIONARY
  5
1F93
330
425
100
AcDbDictionary
280
     1
281
     1
  3
ADSK_XREC_LAYER_RECONCILED
360
1F94
  0
DICTIONARY
  5
22BE
330
22BD
100
AcDbDictionary
280
     1
281
     1
  0
DICTIONARY
  5
23E7
330
18
100
AcDbDictionary
280
     1
281
     1
  3
ACAD_SORTENTS
360
23E8
  0
DICTIONARY
  5
34BA
330
34B9
100
AcDbDictionary
280
     1
281
     1
  3
ASDK_XREC_ANNOTATION_SCALE_INFO
360
34BB
  0
DICTIONARY
  5
34BE
330
34BD
100
AcDbDictionary
280
     1
281
     1
  3
ASDK_XREC_ANNOTATION_SCALE_INFO
360
34BF
  0
XRECORD
  5
2CF5
102
{ACAD_REACTORS
330
C
102
}
330
C
100
AcDbXrecord
280
     1
300
AMECH_PP
300
2017
300
86627AMECH_PP_2017_0F
  0
DICTIONARY
  5
1C61
102
{ACAD_REACTORS
330
C
102
}
330
C
100
AcDbDictionary
281
     1
  0
DICTIONARY
  5
2CE7
102
{ACAD_REACTORS
330
C
102
}
330
C
100
AcDbDictionary
281
     1
  3
DIN 6
350
3103
  3
Imperial24
350
2CE8
  3
Metric50
350
2DB6
  0
FIELDLIST
  5
3108
102
{ACAD_REACTORS
330
C
102
}
330
C
100
AcDbIdSet
 90
        6
330
3106
330
3107
330
3109
330
3111
330
3112
330
3113
100
AcDbFieldList
  0
DICTIONARY
  5
D
102
{ACAD_REACTORS
330
C
102
}
330
C
100
AcDbDictionary
281
     1
  0
DICTIONARY
  5
1960
102
{ACAD_REACTORS
330
C
102
}
330
C
100
AcDbDictionary
281
     1
  3
Layout1
350
34B3
  3
Model
350
1962
  0
DICTIONARY
  5
1C60
102
{ACAD_REACTORS
330
C
102
}
330
C
100
AcDbDictionary
281
     1
  3
ByBlock
350
1F27
  3
ByLayer
350
1F1F
  3
Global
350
1F2F
  0
DICTIONARY
  5
1F6A
102
{ACAD_REACTORS
330
C
102
}
330
C
100
AcDbDictionary
281
     1
  3
Standard
350
1F6B
  0
DICTIONARY
  5
1B
102
{ACAD_REACTORS
330
C
102
}
330
C
100
AcDbDictionary
281
     1
  3
STANDARD
350
1C
  0
DICTIONARY
  5
1961
102
{ACAD_REACTORS
330
C
102
}
330
C
100
AcDbDictionary
281
     1
  0
ACDBDICTIONARYWDFLT
  5
195E
102
{ACAD_REACTORS
330
C
102
}
330
C
100
AcDbDictionary
281
     1
  3
Normal
350
195F
100
AcDbDictionaryWithDefault
340
195F
  0
ACAD_PROXY_OBJECT
  5
33A4
102
{ACAD_REACTORS
330
C
102
}
330
C
100
AcDbProxyObject
 90
      499
 91
      588
 95
  8192031
 70
     0
162
               518
311
4193401A401D001D0019401B0024655C019401B80190019401D0008000D400800148019401B80190019401C800B401140188019401B8019401B80080018401B800
161
               201
310
40AE40E4150140502000000000000021000000000000000840CC
 94
        0
  0
DICTIONARY
  5
339D
102
{ACAD_REACTORS
330
C
102
}
330
C
100
AcDbDictionary
281
     1
  3
Hoch
350
33A0
  3
Mittagsqualität
350
33A2
  3
Mittel
350
339F
  3
Morgenqualität
350
33A1
  3
Nachtqualität
350
33A3
  3
Niedrig
350
339E
  0
DICTIONARY
  5
1F48
102
{ACAD_REACTORS
330
C
102
}
330
C
100
AcDbDictionary
281
     1
  3
A0
350
1F49
  3
A1
350
1F4A
  3
A2
350
1F4B
  3
A3
350
1F4C
  3
A4
350
1F4D
  3
A5
350
1F4E
  3
A6
350
1F4F
  3
A7
350
1F50
  3
A8
350
1F51
  3
A9
350
1F52
  3
B0
350
1F53
  3
B1
350
1F54
  3
B2
350
1F55
  3
B3
350
1F56
  3
B4
350
1F57
  3
B5
350
1F58
  3
B6
350
1F59
  3
B7
350
1F5A
  3
B8
350
1F5B
  3
B9
350
1F5C
  3
C0
350
1F5D
  3
C1
350
1F5E
  3
C2
350
1F5F
  3
C3
350
1F60
  3
C4
350
1F61
  3
C5
350
1F62
  3
C6
350
1F63
  3
C7
350
1F64
  3
C8
350
1F65
  3
C9
350
1F66
  3
D0
350
1F67
  3
D1
350
1F68
  3
D2
350
1F69
  0
DICTIONARY
  5
2CE4
102
{ACAD_REACTORS
330
C
102
}
330
C
100
AcDbDictionary
281
     1
  3
DIN ISO 128-40_2002-05
350
310A
  3
Imperial24
350
2CE6
  3
Metric50
350
2DB5
  0
DICTIONARY
  5
1C9C
102
{ACAD_REACTORS
330
C
102
}
330
C
100
AcDbDictionary
281
     1
  3
Standard
350
1C9D
  0
DICTIONARY
  5
1F37
102
{ACAD_REACTORS
330
C
102
}
330
C
100
AcDbDictionary
281
     1
  3
2dWireframe
350
1F3D
  3
3D Hidden
350
1F3F
  3
3dWireframe
350
1F3E
  3
Basic
350
1F3C
  3
Brighten
350
1F43
  3
ColorChange
350
1F47
  3
Conceptual
350
1F40
  3
Dim
350
1F42
  3
EdgeColorOff
350
2CE3
  3
Facepattern
350
1F46
  3
Flat
350
1F38
  3
FlatWithEdges
350
1F39
  3
Gouraud
350
1F3A
  3
GouraudWithEdges
350
1F3B
  3
Hidden
350
2CDB
  3
JitterOff
350
2CE1
  3
Linepattern
350
1F45
  3
OverhangOff
350
2CE2
  3
Realistic
350
1F41
  3
Shaded
350
2CE0
  3
Shaded with edges
350
2CDF
  3
Shades of Gray
350
2CDC
  3
Sketchy
350
2CDD
  3
Thicken
350
1F44
  3
Wireframe
350
2CDA
  3
X-Ray
350
2CDE
  0
XRECORD
  5
3520
102
{ACAD_REACTORS
330
C
102
}
330
C
100
AcDbXrecord
280
     1
 90
        1
330
1C9D
330
2CE6
330
2CE8
330
2DB5
330
2DB6
330
3103
330
310A
  0
DICTIONARY
  5
1109
102
{ACAD_REACTORS
330
C
102
}
330
C
100
AcDbDictionary
281
     1
  3
CANNOSCALE
350
205E
  3
CMLEADERSTYLE
350
205D
  3
CTABLESTYLE
350
1CDC
  3
CVIEWDETAILSTYLE
350
2EAB
  3
CVIEWSECTIONSTYLE
350
2EAC
  3
LAYEREVAL
350
2BC0
  3
LAYERNOTIFY
350
2BC1
  3
LIGHTINGUNITS
350
2BBF
  3
MSLTSCALE
350
2BBE
  3
SORTENTS
350
110A
  0
ACAD_PROXY_OBJECT
  5
30BD
102
{ACAD_REACTORS
330
C
102
}
330
C
100
AcDbProxyObject
 90
      499
 91
      523
 95
  8192031
 70
     0
162
                 0
161
                34
310
0C000042CC
 94
        0
  0
ACAD_PROXY_OBJECT
  5
30C0
102
{ACAD_REACTORS
330
C
102
}
330
C
100
AcDbProxyObject
 90
      499
 91
      526
 95
  8192031
 70
     0
162
                 0
161
               114
310
04000041C08000000000000000000C
 94
        0
  0
DICTIONARY
  5
2D23
102
{ACAD_REACTORS
330
C
102
}
330
C
100
AcDbDictionary
281
     1
  3
AcmBOMDATA
350
30D7
  3
AcmStdDictionary
350
2D2A
  0
ACAD_PROXY_OBJECT
  5
30B8
102
{ACAD_REACTORS
330
C
102
}
330
C
100
AcDbProxyObject
 90
      499
 91
      518
 95
  8192031
 70
     0
162
              5332
311
4115401380110013C010455004E0044004F00421500114016001500114011001240150010455004E0044004F004115401380110013C0108540045005800540045004400490054004115401380110013C010455004E0044004F00421500114016001500114011001240150010455004E0044004F004115401380110013C0108
311
540045005800540045004400490054004115401380110013C010455004E0044004F0042150011401600150011401100124015001054500520041005300450041168013C013C013401055100530041005600450049934014C011C008000B4008001580104010C00E80080008000800190019401CC01AC01D001BC01C000B801
311
8401C801E00080011801A401B001940158019401C801CC01A401BC01B800E8008001055100530041005600450049934014C011C008000B4008001580104010C00E80080008000800190019401CC01AC01D001BC01C000B8018401C801E00080011801A401B001940158019401C801CC01A401BC01B800E80080010E4C00410
311
059004F00550054005F0043004F004E00540052004F004C0041544014C01040158011401264D005300470020002D0020005600410043003A002000200020006400650073006B0074006F0070002E006100720078002000460069006C006500560065007200730069006F006E003A0020004153001040164011401480104500
311
04C004F00540041530010401640114014801054C004100590045005200411400130013C015001054C004100590045005200415300104016401140148010450004C004F0054004150C0130013C014C011401264D005300470020002D0020005600410043003A002000200020006400650073006B0074006F0070002E0061007
311
20078002000460069006C006500560065007200730069006F006E003A002000C
161
               374
310
4780601806018060180601806018060180601806018060140404050101018050101018060180601806018060140404
 94
        0
  0
ACAD_PROXY_OBJECT
  5
30B7
102
{ACAD_REACTORS
330
C
102
}
330
C
100
AcDbProxyObject
 90
      499
 91
      517
 95
  8192031
 70
     0
162
                 0
161
               266
310
13000052C080000000000000000010C442000000000000000000000000AAA406AA8C
360
30BA
360
30C6
360
30C9
360
30CA
360
30CB
360
30CC
360
30CD
360
30D2
360
30D3
360
30D4
360
30D5
360
30D6
 94
        0
  0
ACAD_PROXY_OBJECT
  5
30BB
102
{ACAD_REACTORS
330
C
102
}
330
C
100
AcDbProxyObject
 90
      499
 91
      521
 95
  8192031
 70
     0
162
                 0
161
                50
310
13000044E4128C
 94
        0
  0
ACAD_PROXY_OBJECT
  5
30B9
102
{ACAD_REACTORS
330
C
102
}
330
C
100
AcDbProxyObject
 90
      499
 91
      519
 95
  8192031
 70
     0
162
                 0
161
                32
310
90140A0000
330
30BA
 94
        0
  0
ACAD_PROXY_OBJECT
  5
30C5
102
{ACAD_REACTORS
330
C
102
}
330
C
100
AcDbProxyObject
 90
      499
 91
      519
 95
  8192031
 70
     0
162
                 0
161
                32
310
90140A0000
330
30C6
 94
        0
  0
DICTIONARY
  5
2CF8
102
{ACAD_REACTORS
330
C
102
}
330
C
100
AcDbDictionary
281
     1
  3
AcMgSettings
350
30B3
  3
AMGLAYCFG
350
30EF
  0
DICTIONARY
  5
2DE5
102
{ACAD_REACTORS
330
C
102
}
330
C
100
AcDbDictionary
281
     1
  0
ACAD_PROXY_OBJECT
  5
30C3
102
{ACAD_REACTORS
330
C
102
}
330
C
100
AcDbProxyObject
 90
      499
 91
      529
 95
  8192031
 70
     0
162
                 0
161
                34
310
050000428C
 94
        0
  0
ACAD_PROXY_OBJECT
  5
30CE
102
{ACAD_REACTORS
330
C
102
}
330
C
100
AcDbProxyObject
 90
      499
 91
      533
 95
  8192031
 70
     0
162
                 0
161
                98
310
0E000053C0000000000000000C
330
30D4
330
0
330
30D5
330
0
330
0
330
0
330
0
330
0
 94
        0
  0
DICTIONARY
  5
23
102
{ACAD_REACTORS
330
C
102
}
330
C
100
AcDbDictionary
281
     1
  0
ACAD_PROXY_OBJECT
  5
30C8
102
{ACAD_REACTORS
330
C
102
}
330
C
100
AcDbProxyObject
 90
      499
 91
      519
 95
  8192031
 70
     0
162
                 0
161
                64
310
90541A000000000000
330
30C9
330
30CA
330
30CB
330
30CC
330
30CD
 94
        0
  0
ACAD_PROXY_OBJECT
  5
30C4
102
{ACAD_REACTORS
330
C
102
}
330
C
100
AcDbProxyObject
 90
      499
 91
      530
 95
  8192031
 70
     0
162
                 0
161
                 8
310
0500
 94
        0
  0
ACAD_PROXY_OBJECT
  5
315D
102
{ACAD_REACTORS
330
C
102
}
330
C
100
AcDbProxyObject
 90
      499
 91
      587
 95
  8192031
 70
     0
162
                 0
161
                 1
310
4C
 94
        0
  0
DICTIONARY
  5
1F0A
102
{ACAD_REACTORS
330
1CA7
102
}
330
1CA7
100
AcDbDictionary
281
     1
  0
DICTIONARY
  5
1CA8
102
{ACAD_REACTORS
330
1CA7
102
}
330
1CA7
100
AcDbDictionary
281
     1
  0
DICTIONARY
  5
1F09
102
{ACAD_REACTORS
330
1CA7
102
}
330
1CA7
100
AcDbDictionary
281
     1
1001
ACAD
1000
<All
  0
XRECORD
  5
1F88
102
{ACAD_REACTORS
330
1F87
102
}
330
1F87
100
AcDbXrecord
280
     1
290
     1
  0
XRECORD
  5
1F8C
102
{ACAD_REACTORS
330
1F8B
102
}
330
1F8B
100
AcDbXrecord
280
     1
290
     1
  0
XRECORD
  5
1F8E
102
{ACAD_REACTORS
330
1F8D
102
}
330
1F8D
100
AcDbXrecord
280
     1
290
     1
  0
XRECORD
  5
1F90
102
{ACAD_REACTORS
330
1F8F
102
}
330
1F8F
100
AcDbXrecord
280
     1
290
     1
  0
XRECORD
  5
1F92
102
{ACAD_REACTORS
330
1F91
102
}
330
1F91
100
AcDbXrecord
280
     1
290
     1
  0
XRECORD
  5
1F94
102
{ACAD_REACTORS
330
1F93
102
}
330
1F93
100
AcDbXrecord
280
     1
290
     1
  0
SORTENTSTABLE
  5
23E8
102
{ACAD_REACTORS
330
23E7
102
}
330
23E7
100
AcDbSortentsTable
330
18
331
1A21
  5
1A21
331
857
  5
857
331
33F8
  5
34FC
331
15F0
  5
15F0
331
625
  5
625
331
34CA
  5
34EC
331
17F2
  5
17F2
331
34F4
  5
34DB
331
1AFD
  5
1AFD
331
22D8
  5
22D8
331
34DF
  5
33F3
331
1630
  5
1630
331
1BD3
  5
1BD3
331
62A
  5
62A
331
34E2
  5
33F6
331
162A
  5
162A
331
1637
  5
1637
331
15EC
  5
15EC
331
22D3
  5
22D3
331
1A1F
  5
1A1F
331
23EF
  5
2319
331
623
  5
623
331
34C8
  5
34EA
331
34F2
  5
34D9
331
23A4
  5
23EE
331
22D6
  5
22D6
331
B06
  5
B06
331
33FD
  5
3501
331
34DD
  5
33E7
331
626
  5
626
331
34CF
  5
34F1
331
628
  5
628
331
B1D
  5
B1D
331
1AF0
  5
1AF0
331
33F7
  5
34FB
331
34E0
  5
33F4
331
1635
  5
1635
331
22D1
  5
22D1
331
1A1D
  5
1A1D
331
34F0
  5
34D7
331
181C
  5
181C
331
162F
  5
162F
331
1638
  5
1638
331
22D4
  5
22D4
331
856
  5
856
331
1A20
  5
1A20
331
33FB
  5
34FF
331
10E0
  5
10E0
331
624
  5
624
331
34CD
  5
34EF
331
34F7
  5
34DE
331
17F8
  5
17F8
331
1719
  5
1719
331
33FE
  5
3502
331
33F5
  5
34F4
331
34DE
  5
33E8
331
1633
  5
1633
331
33E7
  5
34F7
331
34D0
  5
34F2
331
1A1B
  5
1A1B
331
1636
  5
1636
331
162D
  5
162D
331
22D2
  5
22D2
331
15EF
  5
15EF
331
1A1E
  5
1A1E
331
33F9
  5
34FD
331
23EE
  5
22D9
331
34CB
  5
34ED
331
34F5
  5
34DC
331
22D9
  5
22DF
331
33FC
  5
3500
331
33F3
  5
34F9
331
34DC
  5
33E6
331
1631
  5
1631
331
33E5
  5
34F3
331
34CE
  5
34F0
331
1AD6
  5
1AD6
331
33F6
  5
34F6
331
34E3
  5
33F7
331
1634
  5
1634
331
22D0
  5
22D0
331
15ED
  5
15ED
331
1A1C
  5
1A1C
331
34C9
  5
34EB
331
34F3
  5
34DA
331
162E
  5
162E
331
23A5
  5
23EF
331
B07
  5
B07
331
33FA
  5
34FE
331
627
  5
627
331
34CC
  5
34EE
331
34F6
  5
34DD
331
629
  5
629
331
34F8
  5
34DF
331
1718
  5
1718
331
33F4
  5
34FA
331
34E1
  5
33F5
331
1632
  5
1632
331
33E6
  5
34F5
331
15EB
  5
15EB
331
33E8
  5
34F8
331
34F1
  5
34D8
331
34E4
  5
33F8
331
162C
  5
162C
331
23A3
  5
23ED
331
15EE
  5
15EE
331
22D5
  5
22D5
  0
XRECORD
  5
34BB
102
{ACAD_REACTORS
330
34BA
102
}
330
34BA
100
AcDbXrecord
280
     1
 90
        1
340
1F49
  0
XRECORD
  5
34BF
102
{ACAD_REACTORS
330
34BE
102
}
330
34BE
100
AcDbXrecord
280
     1
 90
        1
340
1F49
  0
ACDBDETAILVIEWSTYLE
  5
3103
102
{ACAD_XDICTIONARY
360
3104
102
}
102
{ACAD_REACTORS
330
30E5
330
2CE7
102
}
330
2CE7
100
AcDbModelDocViewStyle
 70
     0
  3

290
     0
100
AcDbDetailViewStyle
 70
     0
 71
     0
 90
        3
 71
     1
340
F
 62
     7
 40
5.0
340
0
 62
     3
 40
5.0
300

 40
0.0
280
     0
 71
     2
340
14
 90
       25
 62
     3
 71
     3
340
F
 62
     7
 40
5.0
 90
        0
 40
15.0
 90
        1
300
%<\AcVar ViewDetailId>% %<\AcVar ViewScale \f "%sn">%
 71
     4
340
14
 90
       25
 62
     3
340
14
 90
       25
 62
     3
280
     0
  0
ACDBDETAILVIEWSTYLE
  5
2CE8
102
{ACAD_XDICTIONARY
360
3172
102
}
102
{ACAD_REACTORS
330
2CE7
330
3101
102
}
330
2CE7
100
AcDbModelDocViewStyle
 70
     0
  3
Imperial24
290
     0
100
AcDbDetailViewStyle
 70
     0
 71
     0
 90
        3
 71
     1
340
F
 62
   256
 40
0.24
340
0
 62
   256
 40
0.24
300

 40
0.36
280
     3
 71
     2
340
14
 90
       25
 62
   256
 71
     3
340
F
 62
   256
 40
0.24
 90
        1
 40
0.75
 90
        1
300
%<\AcVar ViewType \f "%tc1">% %<\AcVar ViewDetailId>%\PVARIA %<\AcVar ViewScale \f "%sn">%
 71
     4
340
14
 90
       25
 62
   256
340
14
 90
       25
 62
   256
280
     0
  0
ACDBDETAILVIEWSTYLE
  5
2DB6
102
{ACAD_XDICTIONARY
360
3176
102
}
102
{ACAD_REACTORS
330
2CE7
330
3102
102
}
330
2CE7
100
AcDbModelDocViewStyle
 70
     0
  3
Metric50
290
     0
100
AcDbDetailViewStyle
 70
     0
 71
     0
 90
        3
 71
     1
340
F
 62
   256
 40
5.0
340
0
 62
   256
 40
5.0
300

 40
0.0
280
     1
 71
     2
340
14
 90
       25
 62
   256
 71
     3
340
F
 62
   256
 40
5.0
 90
        0
 40
15.0
 90
        1
300
%<\AcVar ViewDetailId>% (%<\AcVar ViewScale \f "%sn">%)
 71
     4
340
14
 90
       25
 62
   256
340
14
 90
       25
 62
   256
280
     0
  0
LAYOUT
  5
34B3
102
{ACAD_REACTORS
330
1960
102
}
330
1960
100
AcDbPlotSettings
  1

  2
\\2217psvak001\2221PR0081OM112
  4
A4
  6

 40
5.027082920074462
 41
5.027099609375
 42
5.027069091796875
 43
5.027069091796875
 44
209.9733276367187
 45
296.9259948730469
 46
0.0
 47
0.0
 48
0.0
 49
0.0
140
0.0
141
0.0
142
1.0
143
1.0
 70
   688
 72
     1
 73
     1
 74
     5
  7
monochrome.ctb
 75
    16
147
1.0
 76
     0
 77
     2
 78
   300
148
0.0
149
0.0
100
AcDbLayout
  1
Layout1
 70
     1
 71
     1
 10
-5.027069091796875
 20
-5.027082920074462
 11
291.89892578125
 21
204.9462447166443
 12
0.0
 22
0.0
 32
0.0
 14
28.68718261718749
 24
19.99191756248473
 34
0.0
 15
258.1846435546875
 25
179.9272580623627
 35
0.0
146
0.0
 13
0.0
 23
0.0
 33
0.0
 16
1.0
 26
0.0
 36
0.0
 17
0.0
 27
1.0
 37
0.0
 76
     0
330
34B2
331
34B9
1001
ACAD_PSEXT
1000
\\2217psvak001\2221PR0081OM112
1000
KONICA MINOLTA Universal PCL
1000
VAKF BG / Stichauner Roland
1000

1070
     0
  0
LAYOUT
  5
1962
102
{ACAD_REACTORS
330
1960
102
}
330
1960
100
AcDbPlotSettings
  1

  2
\\VAKF3\Lexmark Optra R Plus Series lex4 FS
  4

  6

 40
0.0
 41
0.0
 42
0.0
 43
0.0
 44
0.0
 45
0.0
 46
0.0
 47
0.0
 48
0.0
 49
0.0
140
0.0
141
0.0
142
1.0
143
1.0
 70
  1712
 72
     0
 73
     0
 74
     0
  7

 75
     0
147
1.0
 76
     0
 77
     2
 78
   300
148
0.0
149
0.0
100
AcDbLayout
  1
Model
 70
     1
 71
     0
 10
0.0
 20
0.0
 11
12.0
 21
9.0
 12
0.0
 22
0.0
 32
0.0
 14
0.0
 24
0.0
 34
0.0
 15
0.0
 25
0.0
 35
0.0
146
0.0
 13
0.0
 23
0.0
 33
0.0
 16
1.0
 26
0.0
 36
0.0
 17
0.0
 27
1.0
 37
0.0
 76
     0
330
18
331
1F03
  0
MATERIAL
  5
1F27
102
{ACAD_XDICTIONARY
360
1F28
102
}
102
{ACAD_REACTORS
330
1C60
102
}
330
1C60
100
AcDbMaterial
  1
ByBlock
 72
     0
 43
0.0208333333333333
 43
0.0
 43
0.0
 43
0.0
 43
0.0
 43
0.0208333333333333
 43
0.0
 43
0.0
 43
0.0
 43
0.0
 43
1.0
 43
0.0
 43
0.0
 43
0.0
 43
0.0
 43
1.0
 77
     0
 47
0.0208333333333333
 47
0.0
 47
0.0
 47
0.0
 47
0.0
 47
0.0208333333333333
 47
0.0
 47
0.0
 47
0.0
 47
0.0
 47
1.0
 47
0.0
 47
0.0
 47
0.0
 47
0.0
 47
1.0
171
     0
 49
0.0208333333333333
 49
0.0
 49
0.0
 49
0.0
 49
0.0
 49
0.0208333333333333
 49
0.0
 49
0.0
 49
0.0
 49
0.0
 49
1.0
 49
0.0
 49
0.0
 49
0.0
 49
0.0
 49
1.0
175
     0
142
0.0208333333333333
142
0.0
142
0.0
142
0.0
142
0.0
142
0.0208333333333333
142
0.0
142
0.0
142
0.0
142
0.0
142
1.0
142
0.0
142
0.0
142
0.0
142
0.0
142
1.0
179
     0
144
0.0208333333333333
144
0.0
144
0.0
144
0.0
144
0.0
144
0.0208333333333333
144
0.0
144
0.0
144
0.0
144
0.0
144
1.0
144
0.0
144
0.0
144
0.0
144
0.0
144
1.0
147
0.0208333333333333
147
0.0
147
0.0
147
0.0
147
0.0
147
0.0208333333333333
147
0.0
147
0.0
147
0.0
147
0.0
147
1.0
147
0.0
147
0.0
147
0.0
147
0.0
147
1.0
  0
MATERIAL
  5
1F1F
102
{ACAD_XDICTIONARY
360
1F20
102
}
102
{ACAD_REACTORS
330
1C60
102
}
330
1C60
100
AcDbMaterial
  1
ByLayer
 72
     0
 43
0.0208333333333333
 43
0.0
 43
0.0
 43
0.0
 43
0.0
 43
0.0208333333333333
 43
0.0
 43
0.0
 43
0.0
 43
0.0
 43
1.0
 43
0.0
 43
0.0
 43
0.0
 43
0.0
 43
1.0
 77
     0
 47
0.0208333333333333
 47
0.0
 47
0.0
 47
0.0
 47
0.0
 47
0.0208333333333333
 47
0.0
 47
0.0
 47
0.0
 47
0.0
 47
1.0
 47
0.0
 47
0.0
 47
0.0
 47
0.0
 47
1.0
171
     0
 49
0.0208333333333333
 49
0.0
 49
0.0
 49
0.0
 49
0.0
 49
0.0208333333333333
 49
0.0
 49
0.0
 49
0.0
 49
0.0
 49
1.0
 49
0.0
 49
0.0
 49
0.0
 49
0.0
 49
1.0
175
     0
142
0.0208333333333333
142
0.0
142
0.0
142
0.0
142
0.0
142
0.0208333333333333
142
0.0
142
0.0
142
0.0
142
0.0
142
1.0
142
0.0
142
0.0
142
0.0
142
0.0
142
1.0
179
     0
144
0.0208333333333333
144
0.0
144
0.0
144
0.0
144
0.0
144
0.0208333333333333
144
0.0
144
0.0
144
0.0
144
0.0
144
1.0
144
0.0
144
0.0
144
0.0
144
0.0
144
1.0
147
0.0208333333333333
147
0.0
147
0.0
147
0.0
147
0.0
147
0.0208333333333333
147
0.0
147
0.0
147
0.0
147
0.0
147
1.0
147
0.0
147
0.0
147
0.0
147
0.0
147
1.0
  0
MATERIAL
  5
1F2F
102
{ACAD_XDICTIONARY
360
1F30
102
}
102
{ACAD_REACTORS
330
1C60
102
}
330
1C60
100
AcDbMaterial
  1
Global
 72
     0
 43
0.0208333333333333
 43
0.0
 43
0.0
 43
0.0
 43
0.0
 43
0.0208333333333333
 43
0.0
 43
0.0
 43
0.0
 43
0.0
 43
1.0
 43
0.0
 43
0.0
 43
0.0
 43
0.0
 43
1.0
 77
     0
 47
0.0208333333333333
 47
0.0
 47
0.0
 47
0.0
 47
0.0
 47
0.0208333333333333
 47
0.0
 47
0.0
 47
0.0
 47
0.0
 47
1.0
 47
0.0
 47
0.0
 47
0.0
 47
0.0
 47
1.0
171
     0
 49
0.0208333333333333
 49
0.0
 49
0.0
 49
0.0
 49
0.0
 49
0.0208333333333333
 49
0.0
 49
0.0
 49
0.0
 49
0.0
 49
1.0
 49
0.0
 49
0.0
 49
0.0
 49
0.0
 49
1.0
175
     0
142
0.0208333333333333
142
0.0
142
0.0
142
0.0
142
0.0
142
0.0208333333333333
142
0.0
142
0.0
142
0.0
142
0.0
142
1.0
142
0.0
142
0.0
142
0.0
142
0.0
142
1.0
179
     0
144
0.0208333333333333
144
0.0
144
0.0
144
0.0
144
0.0
144
0.0208333333333333
144
0.0
144
0.0
144
0.0
144
0.0
144
1.0
144
0.0
144
0.0
144
0.0
144
0.0
144
1.0
147
0.0208333333333333
147
0.0
147
0.0
147
0.0
147
0.0
147
0.0208333333333333
147
0.0
147
0.0
147
0.0
147
0.0
147
1.0
147
0.0
147
0.0
147
0.0
147
0.0
147
1.0
  0
MLEADERSTYLE
  5
1F6B
102
{ACAD_REACTORS
330
1F6A
102
}
330
1F6A
100
AcDbMLeaderStyle
179
     2
170
     2
171
     1
172
     0
 90
        2
 40
0.0
 41
0.0
173
     1
 91
-1056964608
340
12
 92
       -2
290
     1
 42
0.09
291
     1
 43
0.36
  3
Standard
 44
0.18
300

342
F
174
     1
178
     6
175
     1
176
     0
 93
-1056964608
 45
0.18
292
     0
297
     0
 46
0.18
 94
-1056964608
 47
1.0
 49
1.0
140
1.0
293
     1
141
0.0
294
     1
177
     0
142
1.0
295
     0
296
     0
143
0.125
271
     0
272
     9
273
     9
298
     0
  0
MLINESTYLE
  5
1C
102
{ACAD_REACTORS
330
1B
102
}
330
1B
100
AcDbMlineStyle
  2
STANDARD
 70
     0
  3

 62
   256
 51
90.0
 52
90.0
 71
     2
 49
0.5
 62
   256
  6
BYLAYER
 49
-0.5
 62
   256
  6
BYLAYER
  0
ACDBPLACEHOLDER
  5
195F
102
{ACAD_REACTORS
330
195E
102
}
330
195E
  0
ACAD_PROXY_OBJECT
  5
33A0
102
{ACAD_REACTORS
330
339D
102
}
330
339D
100
AcDbProxyObject
 90
      499
 91
      588
 95
  8192031
 70
     0
162
               502
311
4112001BC018C01A0024695C019401B80190019401D0008000C400C000800148019401B80190019401C800B401140188019401B8019401B80080018401B800
161
               209
310
40AD0240E4290140902000000000000021000000000000000840CC
 94
        0
  0
ACAD_PROXY_OBJECT
  5
33A2
102
{ACAD_REACTORS
330
339D
102
}
330
339D
100
AcDbProxyObject
 90
      499
 91
      588
 95
  8192031
 70
     0
162
               614
311
43D3401A401D001D00184019C01CC01C401D4018401B001A401D0039001D00245948019401B80190019401C801D00080019803F001C8008000D800C00080013401A401B801D401D0019401B800
161
               217
310
40AD0440D014053C40902000000000000021000000000000000840CC
 94
        0
  0
ACAD_PROXY_OBJECT
  5
339F
102
{ACAD_REACTORS
330
339D
102
}
330
339D
100
AcDbProxyObject
 90
      499
 91
      588
 95
  8192031
 70
     0
162
               518
311
4193401A401D001D0019401B0024655C019401B80190019401D0008000D400800148019401B80190019401C800B401140188019401B8019401B80080018401B800
161
               209
310
40AD0140E4150140502000000000000021000000000000000840CC
 94
        0
  0
ACAD_PROXY_OBJECT
  5
33A1
102
{ACAD_REACTORS
330
339D
102
}
330
339D
100
AcDbProxyObject
 90
      499
 91
      588
 95
  8192031
 70
     0
162
               598
311
4393401BC01C8019C019401B801C401D4018401B001A401D0039001D00245948019401B80190019401C801D00080019803F001C8008000C400C00080013401A401B801D401D0019401B800
161
               217
310
40AD0340D014050A40502000000000000021000000000000000840CC
 94
        0
  0
ACAD_PROXY_OBJECT
  5
33A3
102
{ACAD_REACTORS
330
339D
102
}
330
339D
100
AcDbProxyObject
 90
      499
 91
      588
 95
  8192031
 70
     0
162
               582
311
435380184018C01A001D001C401D4018401B001A401D0039001D00245948019401B80190019401C801D00080019803F001C8008000C400C80080014C01D001D401B80190019401B800
161
               241
310
40AD0540D01404D002000040902000000000000021000000000000000840CC
 94
        0
  0
ACAD_PROXY_OBJECT
  5
339E
102
{ACAD_REACTORS
330
339D
102
}
330
339D
100
AcDbProxyObject
 90
      499
 91
      588
 95
  8192031
 70
     0
162
               518
311
41D3801A40194019001C801A4019C024615C019401B80190019401D0008000C400800148019401B80190019401C800B401140188019401B801940080018401B800
161
               193
310
40AE40E40501902000000000000021000000000000000840CC
 94
        0
  0
SCALE
  5
1F49
102
{ACAD_REACTORS
330
1F48
102
}
330
1F48
100
AcDbScale
 70
     0
300
1:1
140
1.0
141
1.0
290
     1
  0
SCALE
  5
1F4A
102
{ACAD_REACTORS
330
1F48
102
}
330
1F48
100
AcDbScale
 70
     0
300
1:2
140
1.0
141
2.0
290
     0
  0
SCALE
  5
1F4B
102
{ACAD_REACTORS
330
1F48
102
}
330
1F48
100
AcDbScale
 70
     0
300
1:4
140
1.0
141
4.0
290
     0
  0
SCALE
  5
1F4C
102
{ACAD_REACTORS
330
1F48
102
}
330
1F48
100
AcDbScale
 70
     0
300
1:5
140
1.0
141
5.0
290
     0
  0
SCALE
  5
1F4D
102
{ACAD_REACTORS
330
1F48
102
}
330
1F48
100
AcDbScale
 70
     0
300
1:8
140
1.0
141
8.0
290
     0
  0
SCALE
  5
1F4E
102
{ACAD_REACTORS
330
1F48
102
}
330
1F48
100
AcDbScale
 70
     0
300
1:10
140
1.0
141
10.0
290
     0
  0
SCALE
  5
1F4F
102
{ACAD_REACTORS
330
1F48
102
}
330
1F48
100
AcDbScale
 70
     0
300
1:16
140
1.0
141
16.0
290
     0
  0
SCALE
  5
1F50
102
{ACAD_REACTORS
330
1F48
102
}
330
1F48
100
AcDbScale
 70
     0
300
1:20
140
1.0
141
20.0
290
     0
  0
SCALE
  5
1F51
102
{ACAD_REACTORS
330
1F48
102
}
330
1F48
100
AcDbScale
 70
     0
300
1:30
140
1.0
141
30.0
290
     0
  0
SCALE
  5
1F52
102
{ACAD_REACTORS
330
1F48
102
}
330
1F48
100
AcDbScale
 70
     0
300
1:40
140
1.0
141
40.0
290
     0
  0
SCALE
  5
1F53
102
{ACAD_REACTORS
330
1F48
102
}
330
1F48
100
AcDbScale
 70
     0
300
1:50
140
1.0
141
50.0
290
     0
  0
SCALE
  5
1F54
102
{ACAD_REACTORS
330
1F48
102
}
330
1F48
100
AcDbScale
 70
     0
300
1:100
140
1.0
141
100.0
290
     0
  0
SCALE
  5
1F55
102
{ACAD_REACTORS
330
1F48
102
}
330
1F48
100
AcDbScale
 70
     0
300
2:1
140
2.0
141
1.0
290
     0
  0
SCALE
  5
1F56
102
{ACAD_REACTORS
330
1F48
102
}
330
1F48
100
AcDbScale
 70
     0
300
4:1
140
4.0
141
1.0
290
     0
  0
SCALE
  5
1F57
102
{ACAD_REACTORS
330
1F48
102
}
330
1F48
100
AcDbScale
 70
     0
300
8:1
140
8.0
141
1.0
290
     0
  0
SCALE
  5
1F58
102
{ACAD_REACTORS
330
1F48
102
}
330
1F48
100
AcDbScale
 70
     0
300
10:1
140
10.0
141
1.0
290
     0
  0
SCALE
  5
1F59
102
{ACAD_REACTORS
330
1F48
102
}
330
1F48
100
AcDbScale
 70
     0
300
100:1
140
100.0
141
1.0
290
     0
  0
SCALE
  5
1F5A
102
{ACAD_REACTORS
330
1F48
102
}
330
1F48
100
AcDbScale
 70
     0
300
1/128" = 1'-0"
140
0.0078125
141
12.0
290
     0
  0
SCALE
  5
1F5B
102
{ACAD_REACTORS
330
1F48
102
}
330
1F48
100
AcDbScale
 70
     0
300
1/64" = 1'-0"
140
0.015625
141
12.0
290
     0
  0
SCALE
  5
1F5C
102
{ACAD_REACTORS
330
1F48
102
}
330
1F48
100
AcDbScale
 70
     0
300
1/32" = 1'-0"
140
0.03125
141
12.0
290
     0
  0
SCALE
  5
1F5D
102
{ACAD_REACTORS
330
1F48
102
}
330
1F48
100
AcDbScale
 70
     0
300
1/16" = 1'-0"
140
0.0625
141
12.0
290
     0
  0
SCALE
  5
1F5E
102
{ACAD_REACTORS
330
1F48
102
}
330
1F48
100
AcDbScale
 70
     0
300
3/32" = 1'-0"
140
0.09375
141
12.0
290
     0
  0
SCALE
  5
1F5F
102
{ACAD_REACTORS
330
1F48
102
}
330
1F48
100
AcDbScale
 70
     0
300
1/8" = 1'-0"
140
0.125
141
12.0
290
     0
  0
SCALE
  5
1F60
102
{ACAD_REACTORS
330
1F48
102
}
330
1F48
100
AcDbScale
 70
     0
300
3/16" = 1'-0"
140
0.1875
141
12.0
290
     0
  0
SCALE
  5
1F61
102
{ACAD_REACTORS
330
1F48
102
}
330
1F48
100
AcDbScale
 70
     0
300
1/4" = 1'-0"
140
0.25
141
12.0
290
     0
  0
SCALE
  5
1F62
102
{ACAD_REACTORS
330
1F48
102
}
330
1F48
100
AcDbScale
 70
     0
300
3/8" = 1'-0"
140
0.375
141
12.0
290
     0
  0
SCALE
  5
1F63
102
{ACAD_REACTORS
330
1F48
102
}
330
1F48
100
AcDbScale
 70
     0
300
1/2" = 1'-0"
140
0.5
141
12.0
290
     0
  0
SCALE
  5
1F64
102
{ACAD_REACTORS
330
1F48
102
}
330
1F48
100
AcDbScale
 70
     0
300
3/4" = 1'-0"
140
0.75
141
12.0
290
     0
  0
SCALE
  5
1F65
102
{ACAD_REACTORS
330
1F48
102
}
330
1F48
100
AcDbScale
 70
     0
300
1" = 1'-0"
140
1.0
141
12.0
290
     0
  0
SCALE
  5
1F66
102
{ACAD_REACTORS
330
1F48
102
}
330
1F48
100
AcDbScale
 70
     0
300
1-1/2" = 1'-0"
140
1.5
141
12.0
290
     0
  0
SCALE
  5
1F67
102
{ACAD_REACTORS
330
1F48
102
}
330
1F48
100
AcDbScale
 70
     0
300
3" = 1'-0"
140
3.0
141
12.0
290
     0
  0
SCALE
  5
1F68
102
{ACAD_REACTORS
330
1F48
102
}
330
1F48
100
AcDbScale
 70
     0
300
6" = 1'-0"
140
6.0
141
12.0
290
     0
  0
SCALE
  5
1F69
102
{ACAD_REACTORS
330
1F48
102
}
330
1F48
100
AcDbScale
 70
     0
300
1'-0" = 1'-0"
140
12.0
141
12.0
290
     0
  0
ACDBSECTIONVIEWSTYLE
  5
310A
102
{ACAD_XDICTIONARY
360
310F
102
}
102
{ACAD_REACTORS
330
30E6
330
2CE4
102
}
330
2CE4
100
AcDbModelDocViewStyle
 70
     0
  3

290
     0
100
AcDbSectionViewStyle
 70
     0
 71
     0
 90
      102
 71
     1
340
F
 62
     7
 40
5.0
340
310B
340
310B
 62
     7
 40
5.0
300
I,O,Q,S,X,Z
 40
10.0
 90
        0
 40
2.5
 90
        0
 71
     2
340
30FA
 90
       50
 62
     1
340
30FA
 90
       50
 62
     7
 40
10.0
 40
5.0
 40
25.0
 71
     3
340
F
 62
     7
 40
5.0
 90
        0
 40
5.25
 90
        1
300
%<\AcVar ViewSectionStartId>%-%<\AcVar ViewSectionEndId>%
 71
     4
 62
   256
 62
   257
300
ANSI31
 40
1.0
 90
        0
290
     0
290
     0
 90
        6
 40
0.0
 40
1.570796326794896
 40
0.2617993877991494
 40
1.308996938995747
 40
-0.2617993877991494
 40
1.832595714594046
  0
ACDBSECTIONVIEWSTYLE
  5
2CE6
102
{ACAD_XDICTIONARY
360
3170
102
}
102
{ACAD_REACTORS
330
2CE4
330
30FF
102
}
330
2CE4
100
AcDbModelDocViewStyle
 70
     0
  3
Imperial24
290
     0
100
AcDbSectionViewStyle
 70
     0
 71
     0
 90
       78
 71
     1
340
F
 62
   256
 40
0.24
340
0
340
0
 62
   256
 40
0.24
300
I, O, Q, S, X, Z
 40
0.48
 90
        3
 40
0.18
 90
        1
 71
     2
340
2CE5
 90
       25
 62
   256
340
14
 90
       50
 62
   256
 40
0.24
 40
0.0
 40
0.24
 71
     3
340
F
 62
   256
 40
0.24
 90
        1
 40
0.75
 90
        1
300
%<\AcVar ViewType \f "%tc1">% %<\AcVar ViewSectionStartId>%-%<\AcVar ViewSectionEndId>%\PVARIA %<\AcVar ViewScale \f "%sn">%
 71
     4
 62
   256
 62
   257
300
ANSI31
 40
1.0
 90
        0
290
     0
290
     0
 90
        6
 40
0.0
 40
1.570796326794896
 40
0.2617993877991494
 40
1.308996938995747
 40
-0.2617993877991494
 40
1.832595714594046
  0
ACDBSECTIONVIEWSTYLE
  5
2DB5
102
{ACAD_XDICTIONARY
360
3174
102
}
102
{ACAD_REACTORS
330
2CE4
330
3100
102
}
330
2CE4
100
AcDbModelDocViewStyle
 70
     0
  3
Metric50
290
     0
100
AcDbSectionViewStyle
 70
     0
 71
     0
 90
      102
 71
     1
340
F
 62
   256
 40
5.0
340
0
340
0
 62
   256
 40
5.0
300
I, O, Q, S, X, Z
 40
10.0
 90
        0
 40
2.5
 90
        0
 71
     2
340
14
 90
       25
 62
   256
340
14
 90
       50
 62
   256
 40
5.0
 40
2.5
 40
5.0
 71
     3
340
F
 62
   256
 40
5.0
 90
        0
 40
15.0
 90
        1
300
%<\AcVar ViewSectionStartId>%-%<\AcVar ViewSectionEndId>% (%<\AcVar ViewScale \f "%sn">%)
 71
     4
 62
   256
 62
   257
300
ANSI31
 40
1.0
 90
        0
290
     0
290
     0
 90
        6
 40
0.0
 40
1.570796326794896
 40
0.2617993877991494
 40
1.308996938995747
 40
-0.2617993877991494
 40
1.832595714594046
  0
TABLESTYLE
  5
1C9D
102
{ACAD_XDICTIONARY
360
202A
102
}
102
{ACAD_REACTORS
330
1C9C
102
}
330
1C9C
100
AcDbTableStyle
280
     0
  3
Standard
 70
     0
 71
     0
 40
0.06
 41
0.06
280
     0
281
     0
  7
STANDARD
140
0.18
170
     2
 62
     0
 63
     7
283
     0
 90
        4
 91
        0
  1

274
    -2
284
     1
 64
     0
275
    -2
285
     1
 65
     0
276
    -2
286
     1
 66
     0
277
    -2
287
     1
 67
     0
278
    -2
288
     1
 68
     0
279
    -2
289
     1
 69
     0
  7
STANDARD
140
0.25
170
     5
 62
     0
 63
     7
283
     0
 90
        4
 91
        0
  1

274
    -2
284
     1
 64
     0
275
    -2
285
     1
 65
     0
276
    -2
286
     1
 66
     0
277
    -2
287
     1
 67
     0
278
    -2
288
     1
 68
     0
279
    -2
289
     1
 69
     0
  7
STANDARD
140
0.18
170
     5
 62
     0
 63
     7
283
     0
 90
        4
 91
        0
  1

274
    -2
284
     1
 64
     0
275
    -2
285
     1
 65
     0
276
    -2
286
     1
 66
     0
277
    -2
287
     1
 67
     0
278
    -2
288
     1
 68
     0
279
    -2
289
     1
 69
     0
  0
VISUALSTYLE
  5
1F3D
102
{ACAD_REACTORS
330
1F37
102
}
330
1F37
100
AcDbVisualStyle
  2
2dWireframe
 70
     4
177
     3
291
     0
 70
    58
 90
        0
176
     1
 90
        2
176
     1
 90
        0
176
     1
 90
        0
176
     1
 40
0.6
176
     1
 40
30.0
176
     1
 62
     7
420
 16777215
176
     1
 90
        1
176
     1
 90
        4
176
     1
 62
     7
176
     1
 62
   257
176
     1
 90
        1
176
     1
 90
        1
176
     1
 40
1.0
176
     1
 90
        0
176
     1
 62
   257
176
     1
 40
1.0
176
     1
 90
        1
176
     1
 90
        6
176
     1
 90
        2
176
     1
 62
     7
176
     1
 90
        5
176
     1
 90
        0
176
     1
 90
        0
176
     1
290
     0
176
     1
 90
        1
176
     1
 40
0.0
176
     1
 90
        0
176
     1
290
     1
176
     1
290
     1
176
     1
290
     0
176
     1
290
     0
176
     1
290
     0
176
     1
290
     0
176
     1
290
     0
176
     1
290
     0
176
     1
290
     0
176
     1
 90
       50
176
     1
 40
0.0
176
     1
 40
1.0
176
     1
 90
        0
176
     1
 62
    18
420
        0
176
     1
 90
       50
176
     1
 90
        3
176
     1
 62
     5
420
      255
176
     1
290
     0
176
     1
 90
       50
176
     1
 90
       50
176
     1
 90
       50
176
     1
290
     0
176
     1
 90
       50
176
     1
 62
   256
176
     0
 40
1.0
176
     0
 90
        2
176
     1
  1
strokes_ogs.tif
176
     1
290
     0
176
     1
 40
1.0
176
     1
 40
1.0
176
     1
  0
VISUALSTYLE
  5
1F3F
102
{ACAD_REACTORS
330
1F37
102
}
330
1F37
100
AcDbVisualStyle
  2
3D Hidden
 70
     6
177
     3
291
     0
 70
    58
 90
        1
176
     1
 90
        2
176
     1
 90
        2
176
     1
 90
        0
176
     1
 40
0.6
176
     1
 40
30.0
176
     1
 62
     7
420
 16777215
176
     1
 90
        2
176
     1
 90
        2
176
     1
 62
     7
176
     1
 62
   257
176
     1
 90
        2
176
     1
 90
        1
176
     1
 40
40.0
176
     1
 90
        0
176
     1
 62
   257
176
     1
 40
1.0
176
     1
 90
        1
176
     1
 90
        6
176
     1
 90
        2
176
     1
 62
     7
176
     1
 90
        3
176
     1
 90
        0
176
     1
 90
        0
176
     1
290
     0
176
     1
 90
        1
176
     1
 40
0.0
176
     1
 90
        0
176
     1
290
     0
176
     1
290
     1
176
     1
290
     1
176
     1
290
     0
176
     1
290
     0
176
     1
290
     0
176
     1
290
     0
176
     1
290
     0
176
     1
290
     0
176
     1
 90
       50
176
     1
 40
0.0
176
     1
 40
1.0
176
     1
 90
        0
176
     1
 62
    18
420
        0
176
     1
 90
       50
176
     1
 90
        3
176
     1
 62
     5
420
      255
176
     1
290
     0
176
     1
 90
       50
176
     1
 90
       50
176
     1
 90
       50
176
     1
290
     0
176
     1
 90
       50
176
     1
 62
   256
176
     0
 40
1.0
176
     0
 90
        2
176
     1
  1
strokes_ogs.tif
176
     1
290
     0
176
     1
 40
1.0
176
     1
 40
1.0
176
     1
  0
VISUALSTYLE
  5
1F3E
102
{ACAD_REACTORS
330
1F37
102
}
330
1F37
100
AcDbVisualStyle
  2
3dWireframe
 70
     5
177
     3
291
     0
 70
    58
 90
        0
176
     1
 90
        2
176
     1
 90
        0
176
     1
 90
        0
176
     1
 40
0.6
176
     1
 40
30.0
176
     1
 62
     7
420
 16777215
176
     1
 90
        1
176
     1
 90
        4
176
     1
 62
     7
176
     1
 62
   257
176
     1
 90
        1
176
     1
 90
        1
176
     1
 40
1.0
176
     1
 90
        0
176
     1
 62
   257
176
     1
 40
1.0
176
     1
 90
        1
176
     1
 90
        6
176
     1
 90
        2
176
     1
 62
     7
176
     1
 90
        5
176
     1
 90
        0
176
     1
 90
        0
176
     1
290
     0
176
     1
 90
        1
176
     1
 40
0.0
176
     1
 90
        0
176
     1
290
     0
176
     1
290
     1
176
     1
290
     1
176
     1
290
     0
176
     1
290
     0
176
     1
290
     0
176
     1
290
     0
176
     1
290
     0
176
     1
290
     0
176
     1
 90
       50
176
     1
 40
0.0
176
     1
 40
1.0
176
     1
 90
        0
176
     1
 62
    18
420
        0
176
     1
 90
       50
176
     1
 90
        3
176
     1
 62
     5
420
      255
176
     1
290
     0
176
     1
 90
       50
176
     1
 90
       50
176
     1
 90
       50
176
     1
290
     0
176
     1
 90
       50
176
     1
 62
   256
176
     0
 40
1.0
176
     0
 90
        2
176
     1
  1
strokes_ogs.tif
176
     1
290
     0
176
     1
 40
1.0
176
     1
 40
1.0
176
     1
  0
VISUALSTYLE
  5
1F3C
102
{ACAD_REACTORS
330
1F37
102
}
330
1F37
100
AcDbVisualStyle
  2
Basic
 70
     7
177
     3
291
     1
 70
    58
 90
        1
176
     1
 90
        0
176
     1
 90
        1
176
     1
 90
        0
176
     1
 40
0.6
176
     1
 40
30.0
176
     1
 62
     7
420
 16777215
176
     1
 90
        0
176
     1
 90
        4
176
     1
 62
     7
176
     1
 62
   257
176
     1
 90
        1
176
     1
 90
        1
176
     1
 40
1.0
176
     1
 90
        8
176
     1
 62
     7
176
     1
 40
1.0
176
     1
 90
        1
176
     1
 90
        6
176
     1
 90
        2
176
     1
 62
     7
176
     1
 90
        5
176
     1
 90
        0
176
     1
 90
        0
176
     1
290
     0
176
     1
 90
        1
176
     1
 40
0.0
176
     1
 90
        0
176
     1
290
     0
176
     1
290
     1
176
     1
290
     1
176
     1
290
     0
176
     1
290
     0
176
     1
290
     0
176
     1
290
     0
176
     1
290
     0
176
     1
290
     0
176
     1
 90
       50
176
     1
 40
0.0
176
     1
 40
1.0
176
     1
 90
        0
176
     1
 62
    18
420
        0
176
     1
 90
       50
176
     1
 90
        3
176
     1
 62
     5
420
      255
176
     1
290
     0
176
     1
 90
       50
176
     1
 90
       50
176
     1
 90
       50
176
     1
290
     0
176
     1
 90
       50
176
     1
 62
   256
176
     0
 40
1.0
176
     0
 90
        2
176
     1
  1
strokes_ogs.tif
176
     1
290
     0
176
     1
 40
1.0
176
     1
 40
1.0
176
     1
  0
VISUALSTYLE
  5
1F43
102
{ACAD_REACTORS
330
1F37
102
}
330
1F37
100
AcDbVisualStyle
  2
Brighten
 70
    12
177
     3
291
     1
 70
    58
 90
        2
176
     1
 90
        2
176
     1
 90
        0
176
     1
 90
        0
176
     1
 40
0.6
176
     1
 40
30.0
176
     1
 62
     7
420
 16777215
176
     1
 90
        1
176
     1
 90
        4
176
     1
 62
     7
176
     1
 62
   257
176
     1
 90
        1
176
     1
 90
        1
176
     1
 40
1.0
176
     1
 90
        8
176
     1
 62
     7
176
     1
 40
1.0
176
     1
 90
        1
176
     1
 90
        6
176
     1
 90
        2
176
     1
 62
     7
176
     1
 90
        5
176
     1
 90
        0
176
     1
 90
        0
176
     1
290
     0
176
     1
 90
        1
176
     1
 40
50.0
176
     1
 90
        0
176
     1
290
     0
176
     1
290
     1
176
     1
290
     1
176
     1
290
     0
176
     1
290
     0
176
     1
290
     0
176
     1
290
     0
176
     1
290
     0
176
     1
290
     0
176
     1
 90
       50
176
     1
 40
0.0
176
     1
 40
1.0
176
     1
 90
        0
176
     1
 62
    18
420
        0
176
     1
 90
       50
176
     1
 90
        3
176
     1
 62
     5
420
      255
176
     1
290
     0
176
     1
 90
       50
176
     1
 90
       50
176
     1
 90
       50
176
     1
290
     0
176
     1
 90
       50
176
     1
 62
   256
176
     0
 40
1.0
176
     0
 90
        2
176
     1
  1
strokes_ogs.tif
176
     1
290
     0
176
     1
 40
1.0
176
     1
 40
1.0
176
     1
  0
VISUALSTYLE
  5
1F47
102
{ACAD_REACTORS
330
1F37
102
}
330
1F37
100
AcDbVisualStyle
  2
ColorChange
 70
    16
177
     3
291
     1
 70
    58
 90
        2
176
     1
 90
        2
176
     1
 90
        3
176
     1
 90
        0
176
     1
 40
0.6
176
     1
 40
30.0
176
     1
 62
     8
420
  8421504
176
     1
 90
        1
176
     1
 90
        4
176
     1
 62
     7
176
     1
 62
   257
176
     1
 90
        1
176
     1
 90
        1
176
     1
 40
1.0
176
     1
 90
        8
176
     1
 62
     8
420
  8421504
176
     1
 40
1.0
176
     1
 90
        1
176
     1
 90
        6
176
     1
 90
        2
176
     1
 62
     7
176
     1
 90
        5
176
     1
 90
        0
176
     1
 90
        0
176
     1
290
     0
176
     1
 90
        1
176
     1
 40
0.0
176
     1
 90
        0
176
     1
290
     0
176
     1
290
     1
176
     1
290
     1
176
     1
290
     0
176
     1
290
     0
176
     1
290
     0
176
     1
290
     0
176
     1
290
     0
176
     1
290
     0
176
     1
 90
       50
176
     1
 40
0.0
176
     1
 40
1.0
176
     1
 90
        0
176
     1
 62
    18
420
        0
176
     1
 90
       50
176
     1
 90
        3
176
     1
 62
     5
420
      255
176
     1
290
     0
176
     1
 90
       50
176
     1
 90
       50
176
     1
 90
       50
176
     1
290
     0
176
     1
 90
       50
176
     1
 62
   256
176
     0
 40
1.0
176
     0
 90
        2
176
     1
  1
strokes_ogs.tif
176
     1
290
     0
176
     1
 40
1.0
176
     1
 40
1.0
176
     1
  0
VISUALSTYLE
  5
1F40
102
{ACAD_REACTORS
330
1F37
102
}
330
1F37
100
AcDbVisualStyle
  2
Conceptual
 70
     9
177
     3
291
     0
 70
    58
 90
        3
176
     1
 90
        2
176
     1
 90
        0
176
     1
 90
        0
176
     1
 40
0.6
176
     1
 40
30.0
176
     1
 62
     7
420
 16777215
176
     1
 90
        2
176
     1
 90
        2
176
     1
 62
     7
176
     1
 62
   257
176
     1
 90
        1
176
     1
 90
        1
176
     1
 40
40.0
176
     1
 90
        8
176
     1
 62
     7
176
     1
 40
1.0
176
     1
 90
        1
176
     1
 90
        6
176
     1
 90
        2
176
     1
 62
     7
176
     1
 90
        3
176
     1
 90
        0
176
     1
 90
        0
176
     1
290
     0
176
     1
 90
        1
176
     1
 40
0.0
176
     1
 90
        0
176
     1
290
     0
176
     1
290
     1
176
     1
290
     1
176
     1
290
     0
176
     1
290
     0
176
     1
290
     0
176
     1
290
     0
176
     1
290
     0
176
     1
290
     0
176
     1
 90
       50
176
     1
 40
0.0
176
     1
 40
1.0
176
     1
 90
        0
176
     1
 62
    18
420
        0
176
     1
 90
       50
176
     1
 90
        3
176
     1
 62
     5
420
      255
176
     1
290
     0
176
     1
 90
       50
176
     1
 90
       50
176
     1
 90
       50
176
     1
290
     0
176
     1
 90
       50
176
     1
 62
   256
176
     0
 40
1.0
176
     0
 90
        2
176
     1
  1
strokes_ogs.tif
176
     1
290
     0
176
     1
 40
1.0
176
     1
 40
1.0
176
     1
  0
VISUALSTYLE
  5
1F42
102
{ACAD_REACTORS
330
1F37
102
}
330
1F37
100
AcDbVisualStyle
  2
Dim
 70
    11
177
     3
291
     1
 70
    58
 90
        2
176
     1
 90
        2
176
     1
 90
        0
176
     1
 90
        0
176
     1
 40
0.6
176
     1
 40
30.0
176
     1
 62
     7
420
 16777215
176
     1
 90
        1
176
     1
 90
        4
176
     1
 62
     7
176
     1
 62
   257
176
     1
 90
        1
176
     1
 90
        1
176
     1
 40
1.0
176
     1
 90
        8
176
     1
 62
     7
176
     1
 40
1.0
176
     1
 90
        1
176
     1
 90
        6
176
     1
 90
        2
176
     1
 62
     7
176
     1
 90
        5
176
     1
 90
        0
176
     1
 90
        0
176
     1
290
     0
176
     1
 90
        1
176
     1
 40
-50.0
176
     1
 90
        0
176
     1
290
     0
176
     1
290
     1
176
     1
290
     1
176
     1
290
     0
176
     1
290
     0
176
     1
290
     0
176
     1
290
     0
176
     1
290
     0
176
     1
290
     0
176
     1
 90
       50
176
     1
 40
0.0
176
     1
 40
1.0
176
     1
 90
        0
176
     1
 62
    18
420
        0
176
     1
 90
       50
176
     1
 90
        3
176
     1
 62
     5
420
      255
176
     1
290
     0
176
     1
 90
       50
176
     1
 90
       50
176
     1
 90
       50
176
     1
290
     0
176
     1
 90
       50
176
     1
 62
   256
176
     0
 40
1.0
176
     0
 90
        2
176
     1
  1
strokes_ogs.tif
176
     1
290
     0
176
     1
 40
1.0
176
     1
 40
1.0
176
     1
  0
VISUALSTYLE
  5
2CE3
102
{ACAD_REACTORS
330
1F37
102
}
330
1F37
100
AcDbVisualStyle
  2
EdgeColorOff
 70
    22
177
     3
291
     1
 70
    58
 90
        2
176
     0
 90
        2
176
     0
 90
        0
176
     0
 90
        0
176
     0
 40
0.6
176
     0
 40
30.0
176
     0
 62
     7
420
 16777215
176
     0
 90
        1
176
     0
 90
        4
176
     0
 62
     7
176
     0
 62
   257
176
     0
 90
        1
176
     0
 90
        1
176
     0
 40
1.0
176
     0
 90
        8
176
     2
 62
     7
176
     0
 40
1.0
176
     0
 90
        1
176
     0
 90
        6
176
     0
 90
        2
176
     0
 62
     7
176
     0
 90
        5
176
     0
 90
        0
176
     0
 90
        0
176
     0
290
     0
176
     0
 90
        1
176
     0
 40
0.0
176
     0
 90
        0
176
     0
290
     0
176
     0
290
     1
176
     0
290
     1
176
     0
290
     0
176
     0
290
     0
176
     0
290
     0
176
     0
290
     0
176
     0
290
     0
176
     0
290
     0
176
     0
 90
       50
176
     0
 40
0.0
176
     0
 40
1.0
176
     0
 90
        0
176
     0
 62
    18
420
        0
176
     0
 90
       50
176
     0
 90
        3
176
     0
 62
     5
420
      255
176
     0
290
     0
176
     0
 90
       50
176
     0
 90
       50
176
     0
 90
       50
176
     0
290
     0
176
     0
 90
       50
176
     0
 62
   256
176
     0
 40
1.0
176
     0
 90
        2
176
     0
  1
strokes_ogs.tif
176
     0
290
     0
176
     0
 40
1.0
176
     0
 40
1.0
176
     0
  0
VISUALSTYLE
  5
1F46
102
{ACAD_REACTORS
330
1F37
102
}
330
1F37
100
AcDbVisualStyle
  2
Facepattern
 70
    15
177
     3
291
     1
 70
    58
 90
        2
176
     1
 90
        2
176
     1
 90
        0
176
     1
 90
        0
176
     1
 40
0.6
176
     1
 40
30.0
176
     1
 62
     7
420
 16777215
176
     1
 90
        1
176
     1
 90
        4
176
     1
 62
     7
176
     1
 62
   257
176
     1
 90
        1
176
     1
 90
        1
176
     1
 40
1.0
176
     1
 90
        8
176
     1
 62
     7
176
     1
 40
1.0
176
     1
 90
        1
176
     1
 90
        6
176
     1
 90
        2
176
     1
 62
     7
176
     1
 90
        5
176
     1
 90
        0
176
     1
 90
        0
176
     1
290
     0
176
     1
 90
        1
176
     1
 40
0.0
176
     1
 90
        0
176
     1
290
     0
176
     1
290
     1
176
     1
290
     1
176
     1
290
     0
176
     1
290
     0
176
     1
290
     0
176
     1
290
     0
176
     1
290
     0
176
     1
290
     0
176
     1
 90
       50
176
     1
 40
0.0
176
     1
 40
1.0
176
     1
 90
        0
176
     1
 62
    18
420
        0
176
     1
 90
       50
176
     1
 90
        3
176
     1
 62
     5
420
      255
176
     1
290
     0
176
     1
 90
       50
176
     1
 90
       50
176
     1
 90
       50
176
     1
290
     0
176
     1
 90
       50
176
     1
 62
   256
176
     0
 40
1.0
176
     0
 90
        2
176
     1
  1
strokes_ogs.tif
176
     1
290
     0
176
     1
 40
1.0
176
     1
 40
1.0
176
     1
  0
VISUALSTYLE
  5
1F38
102
{ACAD_REACTORS
330
1F37
102
}
330
1F37
100
AcDbVisualStyle
  2
Flat
 70
     0
177
     3
291
     1
 70
    58
 90
        2
176
     1
 90
        1
176
     1
 90
        1
176
     1
 90
        2
176
     1
 40
0.6
176
     1
 40
30.0
176
     1
 62
     7
420
 16777215
176
     1
 90
        0
176
     1
 90
        4
176
     1
 62
     7
176
     1
 62
   257
176
     1
 90
        1
176
     1
 90
        1
176
     1
 40
1.0
176
     1
 90
        8
176
     1
 62
     7
176
     1
 40
1.0
176
     1
 90
        1
176
     1
 90
        6
176
     1
 90
        2
176
     1
 62
     7
176
     1
 90
        5
176
     1
 90
        0
176
     1
 90
        0
176
     1
290
     0
176
     1
 90
       13
176
     1
 40
0.0
176
     1
 90
        0
176
     1
290
     0
176
     1
290
     1
176
     1
290
     1
176
     1
290
     0
176
     1
290
     0
176
     1
290
     0
176
     1
290
     0
176
     1
290
     0
176
     1
290
     0
176
     1
 90
       50
176
     1
 40
0.0
176
     1
 40
1.0
176
     1
 90
        0
176
     1
 62
    18
420
        0
176
     1
 90
       50
176
     1
 90
        3
176
     1
 62
     5
420
      255
176
     1
290
     0
176
     1
 90
       50
176
     1
 90
       50
176
     1
 90
       50
176
     1
290
     0
176
     1
 90
       50
176
     1
 62
   256
176
     0
 40
1.0
176
     0
 90
        2
176
     1
  1
strokes_ogs.tif
176
     1
290
     0
176
     1
 40
1.0
176
     1
 40
1.0
176
     1
  0
VISUALSTYLE
  5
1F39
102
{ACAD_REACTORS
330
1F37
102
}
330
1F37
100
AcDbVisualStyle
  2
FlatWithEdges
 70
     1
177
     3
291
     1
 70
    58
 90
        2
176
     1
 90
        1
176
     1
 90
        1
176
     1
 90
        2
176
     1
 40
0.6
176
     1
 40
30.0
176
     1
 62
     7
420
 16777215
176
     1
 90
        1
176
     1
 90
        4
176
     1
 62
     7
176
     1
 62
   257
176
     1
 90
        1
176
     1
 90
        1
176
     1
 40
1.0
176
     1
 90
        0
176
     1
 62
   257
176
     1
 40
1.0
176
     1
 90
        1
176
     1
 90
        6
176
     1
 90
        2
176
     1
 62
     7
176
     1
 90
        5
176
     1
 90
        0
176
     1
 90
        0
176
     1
290
     0
176
     1
 90
       13
176
     1
 40
0.0
176
     1
 90
        0
176
     1
290
     0
176
     1
290
     1
176
     1
290
     1
176
     1
290
     0
176
     1
290
     0
176
     1
290
     0
176
     1
290
     0
176
     1
290
     0
176
     1
290
     0
176
     1
 90
       50
176
     1
 40
0.0
176
     1
 40
1.0
176
     1
 90
        0
176
     1
 62
    18
420
        0
176
     1
 90
       50
176
     1
 90
        3
176
     1
 62
     5
420
      255
176
     1
290
     0
176
     1
 90
       50
176
     1
 90
       50
176
     1
 90
       50
176
     1
290
     0
176
     1
 90
       50
176
     1
 62
   256
176
     0
 40
1.0
176
     0
 90
        2
176
     1
  1
strokes_ogs.tif
176
     1
290
     0
176
     1
 40
1.0
176
     1
 40
1.0
176
     1
  0
VISUALSTYLE
  5
1F3A
102
{ACAD_REACTORS
330
1F37
102
}
330
1F37
100
AcDbVisualStyle
  2
Gouraud
 70
     2
177
     3
291
     1
 70
    58
 90
        2
176
     1
 90
        2
176
     1
 90
        1
176
     1
 90
        2
176
     1
 40
0.6
176
     1
 40
30.0
176
     1
 62
     7
420
 16777215
176
     1
 90
        0
176
     1
 90
        4
176
     1
 62
     7
176
     1
 62
   257
176
     1
 90
        1
176
     1
 90
        1
176
     1
 40
1.0
176
     1
 90
        0
176
     1
 62
     7
176
     1
 40
1.0
176
     1
 90
        1
176
     1
 90
        6
176
     1
 90
        2
176
     1
 62
     7
176
     1
 90
        5
176
     1
 90
        0
176
     1
 90
        0
176
     1
290
     0
176
     1
 90
       13
176
     1
 40
0.0
176
     1
 90
        0
176
     1
290
     0
176
     1
290
     1
176
     1
290
     1
176
     1
290
     0
176
     1
290
     0
176
     1
290
     0
176
     1
290
     0
176
     1
290
     0
176
     1
290
     0
176
     1
 90
       50
176
     1
 40
0.0
176
     1
 40
1.0
176
     1
 90
        0
176
     1
 62
    18
420
        0
176
     1
 90
       50
176
     1
 90
        3
176
     1
 62
     5
420
      255
176
     1
290
     0
176
     1
 90
       50
176
     1
 90
       50
176
     1
 90
       50
176
     1
290
     0
176
     1
 90
       50
176
     1
 62
   256
176
     0
 40
1.0
176
     0
 90
        2
176
     1
  1
strokes_ogs.tif
176
     1
290
     0
176
     1
 40
1.0
176
     1
 40
1.0
176
     1
  0
VISUALSTYLE
  5
1F3B
102
{ACAD_REACTORS
330
1F37
102
}
330
1F37
100
AcDbVisualStyle
  2
GouraudWithEdges
 70
     3
177
     3
291
     1
 70
    58
 90
        2
176
     1
 90
        2
176
     1
 90
        1
176
     1
 90
        2
176
     1
 40
0.6
176
     1
 40
30.0
176
     1
 62
     7
420
 16777215
176
     1
 90
        1
176
     1
 90
        4
176
     1
 62
     7
176
     1
 62
   257
176
     1
 90
        1
176
     1
 90
        1
176
     1
 40
1.0
176
     1
 90
        0
176
     1
 62
   257
176
     1
 40
1.0
176
     1
 90
        1
176
     1
 90
        6
176
     1
 90
        2
176
     1
 62
     7
176
     1
 90
        5
176
     1
 90
        0
176
     1
 90
        0
176
     1
290
     0
176
     1
 90
       13
176
     1
 40
0.0
176
     1
 90
        0
176
     1
290
     0
176
     1
290
     1
176
     1
290
     1
176
     1
290
     0
176
     1
290
     0
176
     1
290
     0
176
     1
290
     0
176
     1
290
     0
176
     1
290
     0
176
     1
 90
       50
176
     1
 40
0.0
176
     1
 40
1.0
176
     1
 90
        0
176
     1
 62
    18
420
        0
176
     1
 90
       50
176
     1
 90
        3
176
     1
 62
     5
420
      255
176
     1
290
     0
176
     1
 90
       50
176
     1
 90
       50
176
     1
 90
       50
176
     1
290
     0
176
     1
 90
       50
176
     1
 62
   256
176
     0
 40
1.0
176
     0
 90
        2
176
     1
  1
strokes_ogs.tif
176
     1
290
     0
176
     1
 40
1.0
176
     1
 40
1.0
176
     1
  0
VISUALSTYLE
  5
2CDB
102
{ACAD_REACTORS
330
1F37
102
}
330
1F37
100
AcDbVisualStyle
  2
Hidden
 70
     6
177
     3
291
     0
 70
    58
 90
        1
176
     1
 90
        2
176
     1
 90
        2
176
     1
 90
        0
176
     1
 40
0.6
176
     1
 40
30.0
176
     1
 62
     7
420
 16777215
176
     1
 90
        2
176
     1
 90
        2
176
     1
 62
     7
176
     1
 62
   257
176
     1
 90
        2
176
     1
 90
        1
176
     1
 40
40.0
176
     1
 90
        0
176
     1
 62
   257
176
     1
 40
1.0
176
     1
 90
        1
176
     1
 90
        6
176
     1
 90
        2
176
     1
 62
     7
176
     1
 90
        3
176
     1
 90
        0
176
     1
 90
        0
176
     1
290
     0
176
     1
 90
        1
176
     1
 40
0.0
176
     1
 90
        0
176
     1
290
     0
176
     1
290
     1
176
     1
290
     1
176
     1
290
     0
176
     1
290
     0
176
     1
290
     0
176
     1
290
     0
176
     1
290
     0
176
     1
290
     0
176
     1
 90
       50
176
     1
 40
0.0
176
     1
 40
1.0
176
     1
 90
        0
176
     1
 62
    18
420
        0
176
     1
 90
       50
176
     1
 90
        3
176
     1
 62
     5
420
      255
176
     1
290
     0
176
     1
 90
       50
176
     1
 90
       50
176
     1
 90
       50
176
     1
290
     0
176
     1
 90
       50
176
     1
 62
   256
176
     0
 40
1.0
176
     0
 90
        2
176
     1
  1
strokes_ogs.tif
176
     1
290
     0
176
     1
 40
1.0
176
     1
 40
1.0
176
     1
  0
VISUALSTYLE
  5
2CE1
102
{ACAD_REACTORS
330
1F37
102
}
330
1F37
100
AcDbVisualStyle
  2
JitterOff
 70
    20
177
     3
291
     1
 70
    58
 90
        2
176
     0
 90
        2
176
     0
 90
        0
176
     0
 90
        0
176
     0
 40
0.6
176
     0
 40
30.0
176
     0
 62
     7
420
 16777215
176
     0
 90
        1
176
     0
 90
        4
176
     0
 62
     7
176
     0
 62
   257
176
     0
 90
        1
176
     0
 90
        1
176
     0
 40
1.0
176
     0
 90
       10
176
     2
 62
     7
176
     0
 40
1.0
176
     0
 90
        1
176
     0
 90
        6
176
     0
 90
        2
176
     0
 62
     7
176
     0
 90
        5
176
     0
 90
        0
176
     0
 90
        0
176
     0
290
     0
176
     0
 90
        1
176
     0
 40
0.0
176
     0
 90
        0
176
     0
290
     0
176
     0
290
     1
176
     0
290
     1
176
     0
290
     0
176
     0
290
     0
176
     0
290
     0
176
     0
290
     0
176
     0
290
     0
176
     0
290
     0
176
     0
 90
       50
176
     0
 40
0.0
176
     0
 40
1.0
176
     0
 90
        0
176
     0
 62
    18
420
        0
176
     0
 90
       50
176
     0
 90
        3
176
     0
 62
     5
420
      255
176
     0
290
     0
176
     0
 90
       50
176
     0
 90
       50
176
     0
 90
       50
176
     0
290
     0
176
     0
 90
       50
176
     0
 62
   256
176
     0
 40
1.0
176
     0
 90
        2
176
     0
  1
strokes_ogs.tif
176
     0
290
     0
176
     0
 40
1.0
176
     0
 40
1.0
176
     0
  0
VISUALSTYLE
  5
1F45
102
{ACAD_REACTORS
330
1F37
102
}
330
1F37
100
AcDbVisualStyle
  2
Linepattern
 70
    14
177
     3
291
     1
 70
    58
 90
        2
176
     1
 90
        2
176
     1
 90
        0
176
     1
 90
        0
176
     1
 40
0.6
176
     1
 40
30.0
176
     1
 62
     7
420
 16777215
176
     1
 90
        1
176
     1
 90
        4
176
     1
 62
     7
176
     1
 62
   257
176
     1
 90
        7
176
     1
 90
        7
176
     1
 40
1.0
176
     1
 90
        8
176
     1
 62
     7
176
     1
 40
1.0
176
     1
 90
        1
176
     1
 90
        6
176
     1
 90
        2
176
     1
 62
     7
176
     1
 90
        5
176
     1
 90
        0
176
     1
 90
        0
176
     1
290
     0
176
     1
 90
        1
176
     1
 40
0.0
176
     1
 90
        0
176
     1
290
     0
176
     1
290
     1
176
     1
290
     1
176
     1
290
     0
176
     1
290
     0
176
     1
290
     0
176
     1
290
     0
176
     1
290
     0
176
     1
290
     0
176
     1
 90
       50
176
     1
 40
0.0
176
     1
 40
1.0
176
     1
 90
        0
176
     1
 62
    18
420
        0
176
     1
 90
       50
176
     1
 90
        3
176
     1
 62
     5
420
      255
176
     1
290
     0
176
     1
 90
       50
176
     1
 90
       50
176
     1
 90
       50
176
     1
290
     0
176
     1
 90
       50
176
     1
 62
   256
176
     0
 40
1.0
176
     0
 90
        2
176
     1
  1
strokes_ogs.tif
176
     1
290
     0
176
     1
 40
1.0
176
     1
 40
1.0
176
     1
  0
VISUALSTYLE
  5
2CE2
102
{ACAD_REACTORS
330
1F37
102
}
330
1F37
100
AcDbVisualStyle
  2
OverhangOff
 70
    21
177
     3
291
     1
 70
    58
 90
        2
176
     0
 90
        2
176
     0
 90
        0
176
     0
 90
        0
176
     0
 40
0.6
176
     0
 40
30.0
176
     0
 62
     7
420
 16777215
176
     0
 90
        1
176
     0
 90
        4
176
     0
 62
     7
176
     0
 62
   257
176
     0
 90
        1
176
     0
 90
        1
176
     0
 40
1.0
176
     0
 90
        9
176
     2
 62
     7
176
     0
 40
1.0
176
     0
 90
        1
176
     0
 90
        6
176
     0
 90
        2
176
     0
 62
     7
176
     0
 90
        5
176
     0
 90
        0
176
     0
 90
        0
176
     0
290
     0
176
     0
 90
        1
176
     0
 40
0.0
176
     0
 90
        0
176
     0
290
     0
176
     0
290
     1
176
     0
290
     1
176
     0
290
     0
176
     0
290
     0
176
     0
290
     0
176
     0
290
     0
176
     0
290
     0
176
     0
290
     0
176
     0
 90
       50
176
     0
 40
0.0
176
     0
 40
1.0
176
     0
 90
        0
176
     0
 62
    18
420
        0
176
     0
 90
       50
176
     0
 90
        3
176
     0
 62
     5
420
      255
176
     0
290
     0
176
     0
 90
       50
176
     0
 90
       50
176
     0
 90
       50
176
     0
290
     0
176
     0
 90
       50
176
     0
 62
   256
176
     0
 40
1.0
176
     0
 90
        2
176
     0
  1
strokes_ogs.tif
176
     0
290
     0
176
     0
 40
1.0
176
     0
 40
1.0
176
     0
  0
VISUALSTYLE
  5
1F41
102
{ACAD_REACTORS
330
1F37
102
}
330
1F37
100
AcDbVisualStyle
  2
Realistic
 70
     8
177
     3
291
     0
 70
    58
 90
        2
176
     1
 90
        2
176
     1
 90
        0
176
     1
 90
        0
176
     1
 40
0.6
176
     1
 40
30.0
176
     1
 62
     7
420
 16777215
176
     1
 90
        1
176
     1
 90
        0
176
     1
 62
     7
176
     1
 62
   257
176
     1
 90
        1
176
     1
 90
        1
176
     1
 40
1.0
176
     1
 90
        8
176
     1
 62
     8
420
  7895160
176
     1
 40
1.0
176
     1
 90
        1
176
     1
 90
        6
176
     1
 90
        2
176
     1
 62
     7
176
     1
 90
        5
176
     1
 90
        0
176
     1
 90
        0
176
     1
290
     0
176
     1
 90
       13
176
     1
 40
0.0
176
     1
 90
        0
176
     1
290
     0
176
     1
290
     1
176
     1
290
     1
176
     1
290
     0
176
     1
290
     0
176
     1
290
     0
176
     1
290
     0
176
     1
290
     0
176
     1
290
     0
176
     1
 90
       50
176
     1
 40
0.0
176
     1
 40
1.0
176
     1
 90
        0
176
     1
 62
    18
420
        0
176
     1
 90
       50
176
     1
 90
        3
176
     1
 62
     5
420
      255
176
     1
290
     0
176
     1
 90
       50
176
     1
 90
       50
176
     1
 90
       50
176
     1
290
     0
176
     1
 90
       50
176
     1
 62
   256
176
     0
 40
1.0
176
     0
 90
        2
176
     1
  1
strokes_ogs.tif
176
     1
290
     0
176
     1
 40
1.0
176
     1
 40
1.0
176
     1
  0
VISUALSTYLE
  5
2CE0
102
{ACAD_REACTORS
330
1F37
102
}
330
1F37
100
AcDbVisualStyle
  2
Shaded
 70
    27
177
     3
291
     0
 70
    58
 90
        2
176
     1
 90
        2
176
     1
 90
        1
176
     1
 90
        2
176
     1
 40
0.6
176
     1
 40
30.0
176
     1
 62
     7
420
 16777215
176
     1
 90
        0
176
     1
 90
        4
176
     1
 62
     7
176
     1
 62
   257
176
     1
 90
        1
176
     1
 90
        1
176
     1
 40
1.0
176
     1
 90
        8
176
     1
 62
   257
176
     1
 40
1.0
176
     1
 90
        1
176
     1
 90
        6
176
     1
 90
        2
176
     1
 62
     8
420
  7895160
176
     1
 90
        3
176
     1
 90
        0
176
     1
 90
        0
176
     1
290
     0
176
     1
 90
        5
176
     1
 40
0.0
176
     1
 90
        0
176
     1
290
     0
176
     1
290
     1
176
     1
290
     1
176
     1
290
     0
176
     1
290
     0
176
     1
290
     0
176
     1
290
     0
176
     1
290
     0
176
     1
290
     0
176
     1
 90
       50
176
     1
 40
0.0
176
     1
 40
1.0
176
     1
 90
        0
176
     1
 62
    18
420
        0
176
     1
 90
       50
176
     1
 90
        3
176
     1
 62
     5
420
      255
176
     1
290
     0
176
     1
 90
       50
176
     1
 90
       50
176
     1
 90
       50
176
     1
290
     0
176
     1
 90
       50
176
     1
 62
   256
176
     0
 40
1.0
176
     0
 90
        2
176
     1
  1
strokes_ogs.tif
176
     1
290
     0
176
     1
 40
1.0
176
     1
 40
1.0
176
     1
  0
VISUALSTYLE
  5
2CDF
102
{ACAD_REACTORS
330
1F37
102
}
330
1F37
100
AcDbVisualStyle
  2
Shaded with edges
 70
    26
177
     3
291
     0
 70
    58
 90
        2
176
     1
 90
        2
176
     1
 90
        1
176
     1
 90
        2
176
     1
 40
0.6
176
     1
 40
30.0
176
     1
 62
     7
420
 16777215
176
     1
 90
        1
176
     1
 90
        2
176
     1
 62
     7
176
     1
 62
   257
176
     1
 90
        2
176
     1
 90
        1
176
     1
 40
1.0
176
     1
 90
        8
176
     1
 62
   257
176
     1
 40
1.0
176
     1
 90
        1
176
     1
 90
        6
176
     1
 90
        2
176
     1
 62
     7
176
     1
 90
        3
176
     1
 90
        0
176
     1
 90
        0
176
     1
290
     0
176
     1
 90
        5
176
     1
 40
0.0
176
     1
 90
        0
176
     1
290
     0
176
     1
290
     1
176
     1
290
     1
176
     1
290
     0
176
     1
290
     0
176
     1
290
     0
176
     1
290
     0
176
     1
290
     0
176
     1
290
     0
176
     1
 90
       50
176
     1
 40
0.0
176
     1
 40
1.0
176
     1
 90
        0
176
     1
 62
    18
420
        0
176
     1
 90
       50
176
     1
 90
        3
176
     1
 62
     5
420
      255
176
     1
290
     0
176
     1
 90
       50
176
     1
 90
       50
176
     1
 90
       50
176
     1
290
     0
176
     1
 90
       50
176
     1
 62
   256
176
     0
 40
1.0
176
     0
 90
        2
176
     1
  1
strokes_ogs.tif
176
     1
290
     0
176
     1
 40
1.0
176
     1
 40
1.0
176
     1
  0
VISUALSTYLE
  5
2CDC
102
{ACAD_REACTORS
330
1F37
102
}
330
1F37
100
AcDbVisualStyle
  2
Shades of Gray
 70
    23
177
     3
291
     0
 70
    58
 90
        2
176
     1
 90
        2
176
     1
 90
        3
176
     1
 90
        0
176
     1
 40
0.6
176
     1
 40
30.0
176
     1
 62
     7
420
 16777215
176
     1
 90
        2
176
     1
 90
        2
176
     1
 62
     7
176
     1
 62
     7
176
     1
 90
        1
176
     1
 90
        1
176
     1
 40
40.0
176
     1
 90
        8
176
     1
 62
     7
176
     1
 40
1.0
176
     1
 90
        1
176
     1
 90
        6
176
     1
 90
        2
176
     1
 62
     7
176
     1
 90
        3
176
     1
 90
        0
176
     1
 90
        0
176
     1
290
     0
176
     1
 90
        1
176
     1
 40
0.0
176
     1
 90
        0
176
     1
290
     0
176
     1
290
     1
176
     1
290
     1
176
     1
290
     0
176
     1
290
     0
176
     1
290
     0
176
     1
290
     0
176
     1
290
     0
176
     1
290
     0
176
     1
 90
       50
176
     1
 40
0.0
176
     1
 40
1.0
176
     1
 90
        0
176
     1
 62
    18
420
        0
176
     1
 90
       50
176
     1
 90
        3
176
     1
 62
     5
420
      255
176
     1
290
     0
176
     1
 90
       50
176
     1
 90
       50
176
     1
 90
       50
176
     1
290
     0
176
     1
 90
       50
176
     1
 62
   256
176
     0
 40
1.0
176
     0
 90
        2
176
     1
  1
strokes_ogs.tif
176
     1
290
     0
176
     1
 40
1.0
176
     1
 40
1.0
176
     1
  0
VISUALSTYLE
  5
2CDD
102
{ACAD_REACTORS
330
1F37
102
}
330
1F37
100
AcDbVisualStyle
  2
Sketchy
 70
    24
177
     3
291
     0
 70
    58
 90
        1
176
     1
 90
        2
176
     1
 90
        2
176
     1
 90
        0
176
     1
 40
0.6
176
     1
 40
30.0
176
     1
 62
     7
420
 16777215
176
     1
 90
        2
176
     1
 90
        2
176
     1
 62
     7
176
     1
 62
     7
176
     1
 90
        1
176
     1
 90
        1
176
     1
 40
40.0
176
     1
 90
       11
176
     1
 62
     7
176
     1
 40
1.0
176
     1
 90
        1
176
     1
 90
        6
176
     1
 90
        2
176
     1
 62
     7
176
     1
 90
        6
176
     1
 90
        0
176
     1
 90
        0
176
     1
290
     0
176
     1
 90
        1
176
     1
 40
0.0
176
     1
 90
        0
176
     1
290
     0
176
     1
290
     1
176
     1
290
     1
176
     1
290
     0
176
     1
290
     0
176
     1
290
     0
176
     1
290
     0
176
     1
290
     0
176
     1
290
     0
176
     1
 90
       50
176
     1
 40
0.0
176
     1
 40
1.0
176
     1
 90
        0
176
     1
 62
    18
420
        0
176
     1
 90
       50
176
     1
 90
        3
176
     1
 62
     5
420
      255
176
     1
290
     0
176
     1
 90
       50
176
     1
 90
       50
176
     1
 90
       50
176
     1
290
     0
176
     1
 90
       50
176
     1
 62
   256
176
     0
 40
1.0
176
     0
 90
        2
176
     1
  1
strokes_ogs.tif
176
     1
290
     0
176
     1
 40
1.0
176
     1
 40
1.0
176
     1
  0
VISUALSTYLE
  5
1F44
102
{ACAD_REACTORS
330
1F37
102
}
330
1F37
100
AcDbVisualStyle
  2
Thicken
 70
    13
177
     3
291
     1
 70
    58
 90
        2
176
     1
 90
        2
176
     1
 90
        0
176
     1
 90
        0
176
     1
 40
0.6
176
     1
 40
30.0
176
     1
 62
     7
420
 16777215
176
     1
 90
        1
176
     1
 90
        4
176
     1
 62
     7
176
     1
 62
   257
176
     1
 90
        1
176
     1
 90
        1
176
     1
 40
1.0
176
     1
 90
       12
176
     1
 62
     7
176
     1
 40
1.0
176
     1
 90
        1
176
     1
 90
        6
176
     1
 90
        2
176
     1
 62
     7
176
     1
 90
        5
176
     1
 90
        0
176
     1
 90
        0
176
     1
290
     0
176
     1
 90
        1
176
     1
 40
0.0
176
     1
 90
        0
176
     1
290
     0
176
     1
290
     1
176
     1
290
     1
176
     1
290
     0
176
     1
290
     0
176
     1
290
     0
176
     1
290
     0
176
     1
290
     0
176
     1
290
     0
176
     1
 90
       50
176
     1
 40
0.0
176
     1
 40
1.0
176
     1
 90
        0
176
     1
 62
    18
420
        0
176
     1
 90
       50
176
     1
 90
        3
176
     1
 62
     5
420
      255
176
     1
290
     0
176
     1
 90
       50
176
     1
 90
       50
176
     1
 90
       50
176
     1
290
     0
176
     1
 90
       50
176
     1
 62
   256
176
     0
 40
1.0
176
     0
 90
        2
176
     1
  1
strokes_ogs.tif
176
     1
290
     0
176
     1
 40
1.0
176
     1
 40
1.0
176
     1
  0
VISUALSTYLE
  5
2CDA
102
{ACAD_REACTORS
330
1F37
102
}
330
1F37
100
AcDbVisualStyle
  2
Wireframe
 70
     5
177
     3
291
     0
 70
    58
 90
        0
176
     1
 90
        2
176
     1
 90
        0
176
     1
 90
        0
176
     1
 40
0.6
176
     1
 40
30.0
176
     1
 62
     7
420
 16777215
176
     1
 90
        1
176
     1
 90
        4
176
     1
 62
     7
176
     1
 62
   257
176
     1
 90
        1
176
     1
 90
        1
176
     1
 40
1.0
176
     1
 90
        0
176
     1
 62
   257
176
     1
 40
1.0
176
     1
 90
        1
176
     1
 90
        6
176
     1
 90
        2
176
     1
 62
     7
176
     1
 90
        3
176
     1
 90
        0
176
     1
 90
        0
176
     1
290
     0
176
     1
 90
        1
176
     1
 40
0.0
176
     1
 90
        0
176
     1
290
     0
176
     1
290
     1
176
     1
290
     1
176
     1
290
     0
176
     1
290
     0
176
     1
290
     0
176
     1
290
     0
176
     1
290
     0
176
     1
290
     0
176
     1
 90
       50
176
     1
 40
0.0
176
     1
 40
1.0
176
     1
 90
        0
176
     1
 62
    18
420
        0
176
     1
 90
       50
176
     1
 90
        3
176
     1
 62
     5
420
      255
176
     1
290
     0
176
     1
 90
       50
176
     1
 90
       50
176
     1
 90
       50
176
     1
290
     0
176
     1
 90
       50
176
     1
 62
   256
176
     0
 40
1.0
176
     0
 90
        2
176
     1
  1
strokes_ogs.tif
176
     1
290
     0
176
     1
 40
1.0
176
     1
 40
1.0
176
     1
  0
VISUALSTYLE
  5
2CDE
102
{ACAD_REACTORS
330
1F37
102
}
330
1F37
100
AcDbVisualStyle
  2
X-Ray
 70
    25
177
     3
291
     0
 70
    58
 90
        2
176
     1
 90
        2
176
     1
 90
        1
176
     1
 90
        1
176
     1
 40
0.5
176
     1
 40
30.0
176
     1
 62
     7
420
 16777215
176
     1
 90
        1
176
     1
 90
        0
176
     1
 62
     7
176
     1
 62
   257
176
     1
 90
        1
176
     1
 90
        1
176
     1
 40
1.0
176
     1
 90
        8
176
     1
 62
     7
176
     1
 40
1.0
176
     1
 90
        1
176
     1
 90
        6
176
     1
 90
        2
176
     1
 62
     7
176
     1
 90
        3
176
     1
 90
        0
176
     1
 90
        0
176
     1
290
     0
176
     1
 90
       13
176
     1
 40
0.0
176
     1
 90
        0
176
     1
290
     0
176
     1
290
     1
176
     1
290
     1
176
     1
290
     0
176
     1
290
     0
176
     1
290
     0
176
     1
290
     0
176
     1
290
     0
176
     1
290
     0
176
     1
 90
       50
176
     1
 40
0.0
176
     1
 40
1.0
176
     1
 90
        0
176
     1
 62
    18
420
        0
176
     1
 90
       50
176
     1
 90
        3
176
     1
 62
     5
420
      255
176
     1
290
     0
176
     1
 90
       50
176
     1
 90
       50
176
     1
 90
       50
176
     1
290
     0
176
     1
 90
       50
176
     1
 62
   256
176
     0
 40
1.0
176
     0
 90
        2
176
     1
  1
strokes_ogs.tif
176
     1
290
     0
176
     1
 40
1.0
176
     1
 40
1.0
176
     1
  0
DICTIONARYVAR
  5
205E
102
{ACAD_REACTORS
330
1109
102
}
330
1109
100
DictionaryVariables
280
     0
  1
1:1
  0
DICTIONARYVAR
  5
205D
102
{ACAD_REACTORS
330
1109
102
}
330
1109
100
DictionaryVariables
280
     0
  1
STANDARD
  0
DICTIONARYVAR
  5
1CDC
102
{ACAD_REACTORS
330
1109
102
}
330
1109
100
DictionaryVariables
280
     0
  1
STANDARD
  0
DICTIONARYVAR
  5
2EAB
102
{ACAD_REACTORS
330
1109
102
}
330
1109
100
DictionaryVariables
280
     0
  1
DIN 6
  0
DICTIONARYVAR
  5
2EAC
102
{ACAD_REACTORS
330
1109
102
}
330
1109
100
DictionaryVariables
280
     0
  1
DIN ISO 128-40_2002-05
  0
DICTIONARYVAR
  5
2BC0
102
{ACAD_REACTORS
330
1109
102
}
330
1109
100
DictionaryVariables
280
     0
  1
1
  0
DICTIONARYVAR
  5
2BC1
102
{ACAD_REACTORS
330
1109
102
}
330
1109
100
DictionaryVariables
280
     0
  1
15
  0
DICTIONARYVAR
  5
2BBF
102
{ACAD_REACTORS
330
1109
102
}
330
1109
100
DictionaryVariables
280
     0
  1
0
  0
DICTIONARYVAR
  5
2BBE
102
{ACAD_REACTORS
330
1109
102
}
330
1109
100
DictionaryVariables
280
     0
  1
0
  0
DICTIONARYVAR
  5
110A
102
{ACAD_REACTORS
330
1109
102
}
330
1109
100
DictionaryVariables
280
     0
  1
96
  0
ACAD_PROXY_OBJECT
  5
30D7
102
{ACAD_REACTORS
330
2D23
102
}
330
2D23
100
AcDbProxyObject
 90
      499
 91
      539
 95
  8192031
 70
     0
162
                 0
161
                84
310
90100057356C1DCD406AAC
 94
        0
  0
DICTIONARY
  5
2D2A
102
{ACAD_REACTORS
330
2D23
102
}
330
2D23
100
AcDbDictionary
281
     1
  3
DIN
350
30DD
  0
ACAD_PROXY_OBJECT
  5
30BA
330
0
100
AcDbProxyObject
 90
      499
 91
      520
 95
  8192031
 70
     0
162
               234
311
43904010C01340114014C016401340108013C0130014C01240168011400C
161
                34
310
000101420C
330
30B7
 94
        0
  0
ACAD_PROXY_OBJECT
  5
30C6
330
0
100
AcDbProxyObject
 90
      499
 91
      531
 95
  8192031
 70
     0
162
               196
311
421040134010C01540148014C015001100103440049004E00C
161
                32
310
0001010100
330
30B7
 94
        0
  0
ACAD_PROXY_OBJECT
  5
30C9
330
0
100
AcDbProxyObject
 90
      499
 91
      531
 95
  8192031
 70
     0
162
               276
311
431040104010C013C0134014001100118013801040134011401044B004F004D005000C
161
                32
310
0001010100
330
30B7
 94
        0
  0
ACAD_PROXY_OBJECT
  5
30CA
330
0
100
AcDbProxyObject
 90
      499
 91
      531
 95
  8192031
 70
     0
162
               340
311
4390401040118013C013001100114014801100118013801040134011401064F00720064006E0065007200C
161
                32
310
0001010100
330
30B7
 94
        0
  0
ACAD_PROXY_OBJECT
  5
30CB
330
0
100
AcDbProxyObject
 90
      499
 91
      531
 95
  8192031
 70
     0
162
               260
311
431040104010401380138013C01100118013801040134011401035F0041005600C
161
                32
310
0001010100
330
30B7
 94
        0
  0
ACAD_PROXY_OBJECT
  5
30CC
330
0
100
AcDbProxyObject
 90
      499
 91
      531
 95
  8192031
 70
     0
162
               772
311
439040104010C013C01340140015801240114015C01300124014C015001214F00620065006E000A0056006F0072006E000A005200650063006800740073000A004C0069006E006B0073000A0055006E00740065006E000A004100750078003100C
161
                32
310
0001010100
330
30B7
 94
        0
  0
ACAD_PROXY_OBJECT
  5
30CD
330
0
100
AcDbProxyObject
 90
      499
 91
      520
 95
  8192031
 70
     0
162
               234
311
439040134014C014C0150014801040130015C01040164014C013C013800C
161
                26
310
0001018C
330
30B7
 94
        0
  0
ACAD_PROXY_OBJECT
  5
30D2
330
0
100
AcDbProxyObject
 90
      499
 91
      534
 95
  8192031
 70
     0
162
                 0
161
                32
310
0001000000
330
30B7
340
30CF
330
30D3
330
30CF
 94
        0
  0
ACAD_PROXY_OBJECT
  5
30D3
330
0
100
AcDbProxyObject
 90
      499
 91
      535
 95
  8192031
 70
     0
162
               474
311
4751400C400C400D000800080012C010800C400800148013800C8010C008001040108014C01140138012C01540138011C0080012C01540148016800C
161
                80
310
0001014140155005540000
330
30B7
330
30D2
330
0
 94
        0
  0
ACAD_PROXY_OBJECT
  5
30D4
330
0
100
AcDbProxyObject
 90
      499
 91
      536
 95
  8192031
 70
     0
162
                 0
161
               178
310
000100AAAAAA9A379770AB9758D22E24F41D60A91F208C
330
30B7
330
30D3
 94
        0
  0
ACAD_PROXY_OBJECT
  5
30D5
330
0
100
AcDbProxyObject
 90
      499
 91
      537
 95
  8192031
 70
     0
162
                 0
161
               108
310
000190140A000000000000AAAAAC
330
30B7
330
30D6
330
30D6
330
30D6
330
30D6
330
30D6
330
0
 94
        0
  0
ACAD_PROXY_OBJECT
  5
30D6
330
0
100
AcDbProxyObject
 90
      499
 91
      538
 95
  8192031
 70
     0
162
                 0
161
                51
310
00010000AAAA8C
330
30B7
330
30D5
330
30D3
 94
        0
  0
DICTIONARY
  5
30B3
102
{ACAD_REACTORS
330
2CF8
102
}
330
2CF8
100
AcDbDictionary
281
     1
  3
DWGSETTINGS
350
30B4
  3
Shaft
350
31D5
  3
TRANSSETTINGS
350
30B5
  0
ACAD_PROXY_OBJECT
  5
30EF
102
{ACAD_REACTORS
330
2CF8
102
}
330
2CF8
100
AcDbProxyObject
 90
      499
 91
      560
 95
  8192031
 70
     0
162
             15940
311
404C0010441004D005F0030009013100411040134017C00C402404C8010441004D005F0032009013300411040134017C00CC02404D0010441004D005F0034009013500411040134017C00D402404D8010441004D005F0036009013700411040134017C00DC02404E0010441004D005F0038009013900411040134017C00E40
311
2408C80104010541004D005F003100300090234004100415040134017C00C400C402409240140010541004D005F003100320090230004E00415040134017C00C0013802408C40138010541004D005F0031004E0090232004E00415040134017C00C8013802408CC0138010541004D005F0033004E0090234004E0041504013
311
4017C00D0013802408D40138010541004D005F0035004E0090236004E00415040134017C00D8013802408DC0138010541004D005F0037004E0090238004E00415040134017C00E0013802408E40138010541004D005F0039004E00903320041004E00419040134017C00C400C001380240CD001040138010641004D005F003
311
10031004E00903490050004E00419040134017C00C400C80138024112C013001240138010541004D005F0043004C0090449004E0046004F00421040134017C01400104014801140118024154801040120013400D4010641004D005F0042004F0052009045600490045005700421040134017C015801240114015C014C02419
311
0801140120012401380110010641004D005F0049004E00560090554005200410049004C00415040134017C015001480240D2001240110010641004D005F00480049004400903560049005300419040134017C01580124014C024194001040148011001240134010941004D005F00500041005200440049004D009065200450
311
04600440049004D00425040134017C01480114011801100124013402411080120013801580101390041508012001380158014C010642004500480049004E00440041108013C014800C801055200410048004D00350041108013C014800CC01055200410048004D00350041108013C014800D401055200410048004D0035004
311
110C0104013000C8010134004110C0104013000CC010134004110C0104013000D4010134004110C0104013000DC010134004110C011401380138010137004110C01140138015C010137004110C01300124013801044B004C0049004E004110C013C013800C4010130004110C013C013800C8010131004110C013C013800CC0
311
10132004110C013C013800D00101320041110011401500104010134004111001240104011C010135004111001240130012401013500411100124013401400106500041005200440049004D00411100124013401480106520045004600440049004D00411180114013401380101380041518011401340140013801013800415
311
1801140134014C01400102340041004151801140134014C015001023400410041518011401340158013801013200415180114013401580150010132004112001040150010C0101380041120012401100138010133004112001240110015C01013300411200130012401380101340041120013C010C01380101370041120013
311
C010C015C010137004112401380118013C010449004E0046004F00411300114010401100101350041938017C0108012001380158010239004E0041938017C010C013C013800C4010230004E0041938017C010C013C013800C8010231004E0041938017C010C013C013800CC010232004E0041938017C010C013C013800D001
311
0232004E0041938017C010C011401380138010237004E0041938017C010C01140138015C010237004E0041938017C0110012401300124010235004E0041938017C012001040150010C010238004E0041938017C0120012401100138010233004E0041938017C012001240110015C010233004E0041938017C0130011401040
311
110010235004E0041938017C0138011C012401400103490050004E0041938017C01400120010401380103340041004E0041938017C0150010C013C0138010230004E0041938017C0150012001300124010234004E0041938017C0150013001140138010230004E0041938017C01580140013001240103320041004E0041138
311
011C01240140010249005000411400104013000C801055200410048004D003500411400104013000CC01055200410048004D003500411400104013000D401055200410048004D0035004114001200104013801023400410041140013C014C01380101350041148010C011C01380101370041148010C011C015C01013700411
311
4C01080148012C010134004114C0114010C0150010134004114C0164010800CC0101350041134014C016401340101350041150010C013C0138010130004115001200130012401013400411500124015000C801055200410048004D003500411500124015000CC01055200410048004D003500411500124015000D401055200
311
410048004D0035004115001300114013801013000415500148010401240130010554005200410049004C004115001480130012401013400411500160015000C401013600411500160015000C801013600411500160015000CC01013600411500160015000D401013600411500160015000DC010136004115801240114015C0
311
10456004900450057004115801140110012001034800490044004115801140110015801035600490053004115801400130012401023200410041168012401680104010134004114C014001300124010232004100404FC02C
161
              8972
310
4250449201C00030C013244203800030C013244201400030C013244201800030C0119A00C00030C0119A00C00030C0119A00800030C0123A01000030C0119A00400030C0119A3F400030C0241201C00030C0132A00C00030C0119A01C00030C013240A01C00030C0132A03800030C0132A01400030C0132A01800030C0119A
310
00C00030C0119A00C00030C0119A00800030C0123A01000030C0119A00400030C0119A3F400030C0241201C00030C0132A00C00030C0119A01C00030C013240A00400030C011942601000030C011942E01C00030C013242600400030C011942E3F400030C0243600C00030C011942601C00030C011942601C00030C0132426
310
00C00030C011942601000030C0119425548000000C0003FFFFFFFE8000000C0003FFFFFFFE8010000C3004668020000C30048E8000000C0003FFFFFFFE8000000C0003FFFFFFFE8020000C30048E8070000C3004CA81E0000C30051A8000000C0003FFFFFFFE8000000C0003FFFFFFFE8000000C0003FFFFFFFE8000000C00
310
03FFFFFFFD038000000C0003FFFFFFFD038000000C0003FFFFFFFD038000000C0003FFFFFFFD038030000C3004668000000C0003FFFFFFFE8000000C0003FFFFFFFE8000000C0003FFFFFFFE8000000C0003FFFFFFFE8000000C0003FFFFFFFE8030000C3003FFFFFFFE8000000C0003FFFFFFFE8030000C3004668000000C
310
0003FFFFFFFE8030000C3004668000000C0003FFFFFFFD018000000C0003FFFFFFFD038000000C0003FFFFFFFD038000000C0003FFFFFFFD018000000C0003FFFFFFFE8000000C0003FFFFFFFE8000000C0003FFFFFFFE8000000C0003FFFFFFFE8000000C0003FFFFFFFE8000000C0003FFFFFFFD038000000C0003FFFFFF
310
FD038000000C0003FFFFFFFD038000000C0003FFFFFFFD038000000C0003FFFFFFFE8000000C0003FFFFFFFE8000000C0003FFFFFFFE8000000C0003FFFFFFFD018000000C0003FFFFFFFD038000000C0003FFFFFFFD038000000C0003FFFFFFFE8000000C0003FFFFFFFE8000000C0003FFFFFFFE8000000C0003FFFFFFFD
310
038000000C0003FFFFFFFD018000000C0003FFFFFFFD038000000C0003FFFFFFFE8000000C0003FFFFFFFE8010000C3003FFFFFFFE8020000C3003FFFFFFFE8070000C3003FFFFFFFE8000000C0003FFFFFFFE8000000C0003FFFFFFFE8000000C0003FFFFFFFE8000000C0003FFFFFFFE8000000C0003FFFFFFFD01800000
310
0C0003FFFFFFFD018020000C30048E8020000C3003FFFFFFFE8000000C0003FFFFFFFD038000000C0003FFFFFFFD018010000C3004668020000C30048E8000000C0003FFFFFFFE8000000C0003FFFFFFFD038000000C0003FFFFFFFE8000000C0003FFFFFFFD018030000C3004668030000C3004668000000C0003FFFFFFFE
310
8070000C3004CA81E0000C30051A8000000C0003FFFFFFFE8000000C0003FFFFFFFD028000000C0003FFFFFFFD028070000C3004CA8000000C0003FFFFFFFD018010000C3004CAAAA3F400030C010A4393241532409234794641D3241119405197F64191940D1980200C
340
14
340
14
340
14
340
30F9
340
14
340
14
340
14
340
30FA
340
14
340
14
340
30FA
340
30FB
340
14
340
14
340
14
340
14
340
30F9
340
14
340
14
340
14
340
30FA
340
14
340
14
340
30FA
340
30FB
340
14
340
30F3
340
14
340
14
340
14
340
14
340
14
340
30F9
340
14
340
14
340
14
340
13
340
13
340
13
340
13
340
13
340
13
340
13
340
13
340
13
340
30FC
340
13
340
13
340
13
340
13
340
13
340
13
340
14
340
13
340
13
340
13
340
13
340
13
340
13
340
14
340
13
340
13
340
13
340
13
340
30FD
340
13
340
13
340
30FC
340
13
340
13
340
13
340
13
340
13
340
13
340
13
340
13
340
30FC
340
13
340
13
340
13
340
30FD
340
13
340
13
340
13
340
13
340
13
340
13
340
13
340
13
340
13
340
14
340
14
340
14
340
13
340
13
340
30FC
340
13
340
13
340
13
340
13
340
13
340
13
340
13
340
13
340
13
340
13
340
13
340
13
340
13
340
13
340
13
340
13
340
13
340
13
340
13
340
13
340
13
340
30FA
340
30F8
340
30FA
 94
        0
  0
DICTIONARY
  5
3104
330
3103
100
AcDbDictionary
280
     1
281
     1
  3
ACAD_FIELD
360
3105
  3
ACAD_XREC_ROUNDTRIP
360
351E
  0
DICTIONARY
  5
3172
330
2CE8
100
AcDbDictionary
280
     1
281
     1
  3
ACAD_XREC_ROUNDTRIP
360
351B
  0
DICTIONARY
  5
3176
330
2DB6
100
AcDbDictionary
280
     1
281
     1
  3
ACAD_XREC_ROUNDTRIP
360
351D
  0
DICTIONARY
  5
1F28
330
1F27
100
AcDbDictionary
280
     1
281
     1
  3
BUMPTILE
360
1F2A
  3
DIFFUSETILE
360
1F29
  3
OPACITYTILE
360
1F2D
  3
REFLECTIONTILE
360
1F2C
  3
REFRACTIONTILE
360
1F2E
  3
SPECULARTILE
360
1F2B
  0
DICTIONARY
  5
1F20
330
1F1F
100
AcDbDictionary
280
     1
281
     1
  3
BUMPTILE
360
1F22
  3
DIFFUSETILE
360
1F21
  3
OPACITYTILE
360
1F25
  3
REFLECTIONTILE
360
1F24
  3
REFRACTIONTILE
360
1F26
  3
SPECULARTILE
360
1F23
  0
DICTIONARY
  5
1F30
330
1F2F
100
AcDbDictionary
280
     1
281
     1
  3
BUMPTILE
360
1F32
  3
DIFFUSETILE
360
1F31
  3
FBXASSET
360
3340
  3
OPACITYTILE
360
1F35
  3
REFLECTIONTILE
360
1F34
  3
REFRACTIONTILE
360
1F36
  3
SPECULARTILE
360
1F33
  0
DICTIONARY
  5
310F
330
310A
100
AcDbDictionary
280
     1
281
     1
  3
ACAD_FIELD
360
3110
  3
ACAD_XREC_ROUNDTRIP
360
351F
  0
DICTIONARY
  5
3170
330
2CE6
100
AcDbDictionary
280
     1
281
     1
  3
ACAD_XREC_ROUNDTRIP
360
351A
  0
DICTIONARY
  5
3174
330
2DB5
100
AcDbDictionary
280
     1
281
     1
  3
ACAD_XREC_ROUNDTRIP
360
351C
  0
DICTIONARY
  5
202A
330
1C9D
100
AcDbDictionary
280
     1
281
     1
  3
ACAD_ROUNDTRIP_2008_TABLESTYLE_CELLSTYLEMAP
360
3519
  0
ACAD_PROXY_OBJECT
  5
30DD
102
{ACAD_REACTORS
330
2D2A
102
}
330
2D2A
100
AcDbProxyObject
 90
      499
 91
      564
 95
  8192031
 70
     0
162
              3904
311
40D10012401380242D0401B4019001D001140190019C0194014C01D00190010E410063006D005300750072006600540065007800740053007400640042504018C01B40118010C0118014C01D00190010D410063006D00570065006C00640069006E00670053007400640042104018C01B401240190014C01D00190010B4100
311
63006D0044006100740075006D0053007400640042504018C01B40108013C0134014C01D00190011041006D0064007400440065007400610069006C00530079006D005300740064004450401B4019001D0014C0194018C01D001A401BC01B8014C01E401B4014C01D00190011141006D0064007400430065006E0074006500
311
72004C0069006E0065005300740064004450401B4019001D0015001A001C8019401840190013001A401B80194014C01D00190010B41006D00640074004E006F007400650053007400640042D04018C01B40150018401C0019401C8014C01D00190010D41006D006400740041006E00560069006500770053007400640042D0
311
4018C010401B4019C0130018401E4014C01D00190010B4100630041006D006700440069006D0053007400640044504018C010401B4019C012001BC01B00194010C01A0018401C801D0014C01D00190010D4100630041006D0067005400690074006C00650053007400640000
161
               737
310
7340000000000000C408000000C00040540600800030C02000000300000000000000000C40C95224812028120281202812028120281202812028120681206812028120281202812028120281202812028120281203204809FFFE7FFFCC
340
F
360
30DE
360
30DF
360
30E0
360
30E1
360
30E2
360
30E3
360
30E4
360
30E5
360
3101
360
3102
360
30E6
360
30FF
360
3100
360
30E7
360
30E8
360
30E9
360
30EA
360
30EB
360
30EC
360
30ED
360
30EE
360
30FE
340
2DAE
340
0
340
13
340
13
 94
        0
  0
ACAD_PROXY_OBJECT
  5
30B4
102
{ACAD_REACTORS
330
30B3
102
}
330
30B3
100
AcDbProxyObject
 90
      499
 91
      516
 95
  8192031
 70
     0
162
              4028
311
42D10015C011C014C01140150015001240138011C014C0109430041004E00470041005200520041005900420CC00C001F000D000D401F000D800C00106430045004E0041004E004700424D000D401F000E400C001F000C400CC00D40106430045004E0044004900410041D0C01140138011001240104014C0108310030007C
311
00320030007C003300300041D0C0114013801100124014C01500106430045004E004C0045004E004190C01140138013C01180118010E4300480041004D00460045005200440049004D004D004F00440045004550C0120010401340118011401480110012401340134013C01100114011001140118010401540130015001094
311
3004C0049004E0041005200520041005900420C400C001F000C800C001F000CC00C0010843004C0049004E004500540059005000415600130012401380114010944005700470055005300430041004C00450041D300104014C0150013C0108012801013000421340104012C0114015801240114015C0106500053004300410
311
04C00450041948011401580124014C0124010130004154C010C010401300114010531003A0033003000300042550012401340114014C01500104013401400107560045005200530049004F004E00414C400D400B800C000C001107B00440057004700530045005400540049004E004700530045004E0044007D00C
161
               572
310
40682A0A940000000000000488082A5000000000000004202500000000000001220250000000000000122027F27F20A82A50A0A9FA040C00800010541528388FBBCC44CE9CD0505C
 94
        0
  0
ACAD_PROXY_OBJECT
  5
31D5
102
{ACAD_REACTORS
330
30B3
102
}
330
30B3
100
AcDbProxyObject
 90
      499
 91
      516
 95
  8192031
 70
     0
162
               356
311
4154C01A00184019801D001107B00440057004700530045005400540049004E004700530045004E0044007D00C
161
                11
310
404C
 94
        0
  0
ACAD_PROXY_OBJECT
  5
30B5
102
{ACAD_REACTORS
330
30B3
102
}
330
30B3
100
AcDbProxyObject
 90
      499
 91
      516
 95
  8192031
 70
     0
162
              1382
311
43550014801040138014C014C01140150015001240138011C014C0112440052004100570049004E0047005400520041004E0053004C004100540049004F004E004353C01480124011C012401380104013001300164017C013C0138010A53004F0055005200430045004C0041004E00470040D1001140154010955005000520
311
0450053004500520056004500441EC0110015C011C014C01140150015001240138011C014C01140138011001F400
161
               126
310
4060C00800041801000020A0C0080000
 94
        0
  0
DICTIONARY
  5
3105
102
{ACAD_REACTORS
330
3104
102
}
330
3104
100
AcDbDictionary
280
     1
281
     1
  3
TEXT
360
3106
  0
XRECORD
  5
351E
102
{ACAD_REACTORS
330
3104
102
}
330
3104
100
AcDbXrecord
280
     1
102
DISPLAYNAME
  1
DIN 6
102
FLAGS
 90
        1
  0
XRECORD
  5
351B
102
{ACAD_REACTORS
330
3172
102
}
330
3172
100
AcDbXrecord
280
     1
102
DISPLAYNAME
  1
Imperial24
102
FLAGS
 90
        0
  0
XRECORD
  5
351D
102
{ACAD_REACTORS
330
3176
102
}
330
3176
100
AcDbXrecord
280
     1
102
DISPLAYNAME
  1
Metric50
102
FLAGS
 90
        0
  0
XRECORD
  5
1F2A
102
{ACAD_REACTORS
330
1F28
102
}
330
1F28
100
AcDbXrecord
280
     1
270
     1
271
     1
  0
XRECORD
  5
1F29
102
{ACAD_REACTORS
330
1F28
102
}
330
1F28
100
AcDbXrecord
280
     1
270
     1
271
     1
  0
XRECORD
  5
1F2D
102
{ACAD_REACTORS
330
1F28
102
}
330
1F28
100
AcDbXrecord
280
     1
270
     1
271
     1
  0
XRECORD
  5
1F2C
102
{ACAD_REACTORS
330
1F28
102
}
330
1F28
100
AcDbXrecord
280
     1
270
     1
271
     1
  0
XRECORD
  5
1F2E
102
{ACAD_REACTORS
330
1F28
102
}
330
1F28
100
AcDbXrecord
280
     1
270
     1
271
     1
  0
XRECORD
  5
1F2B
102
{ACAD_REACTORS
330
1F28
102
}
330
1F28
100
AcDbXrecord
280
     1
270
     1
271
     1
  0
XRECORD
  5
1F22
102
{ACAD_REACTORS
330
1F20
102
}
330
1F20
100
AcDbXrecord
280
     1
270
     1
271
     1
  0
XRECORD
  5
1F21
102
{ACAD_REACTORS
330
1F20
102
}
330
1F20
100
AcDbXrecord
280
     1
270
     1
271
     1
  0
XRECORD
  5
1F25
102
{ACAD_REACTORS
330
1F20
102
}
330
1F20
100
AcDbXrecord
280
     1
270
     1
271
     1
  0
XRECORD
  5
1F24
102
{ACAD_REACTORS
330
1F20
102
}
330
1F20
100
AcDbXrecord
280
     1
270
     1
271
     1
  0
XRECORD
  5
1F26
102
{ACAD_REACTORS
330
1F20
102
}
330
1F20
100
AcDbXrecord
280
     1
270
     1
271
     1
  0
XRECORD
  5
1F23
102
{ACAD_REACTORS
330
1F20
102
}
330
1F20
100
AcDbXrecord
280
     1
270
     1
271
     1
  0
XRECORD
  5
1F32
102
{ACAD_REACTORS
330
1F30
102
}
330
1F30
100
AcDbXrecord
280
     1
270
     1
271
     1
  0
XRECORD
  5
1F31
102
{ACAD_REACTORS
330
1F30
102
}
330
1F30
100
AcDbXrecord
280
     1
270
     1
271
     1
  0
XRECORD
  5
3340
102
{ACAD_REACTORS
330
1F30
102
}
330
1F30
100
AcDbXrecord
280
     1
 70
     1
 90
1959938040
 71
     1
  1
092C0BA3-E8EA-4DCB-87B2-C55277541374
311
504B03041400060808002A6113497B3BF5A9D9000000200100004F00000041324332313443302D453737322D344535412D393831392D3646344630343345434542342F4173736574446174612F446566696E6974696F6E4974657261746F7250726F706572746965732E62696E454E4D4FC240105D3D603C78F01F10EECB7E
311
480B6D009302F5A4173D7121C3768026DB9674DBC4A347FFB5CE440C93BC79F3F966BE85103F17A350DC10BEC83F10BF608D6DE9DEDD092B1003AEF8660FFEEEDABBA590D3351EA0F71D6FBD96C1A1F75063D387C7EBE8B0828EE4C08F79E99EF05F08AC70FC3BC6F7DF08FC123314E7F41942C06EA10EFB4F65CD6CFA3499
311
5A19672B2B27496E64B6D25AC6F9C644791465C966AD5A0C4DDF3A0CCA2ABDBB28EFCEF5B12C96F3AEAC705843858B916B917E2A464BAB4D2CF54C9AE4C3D85427A935DBB9E2C95F504B03041400060808002A611349B09097AE0E010000300200004500000041324332313443302D453737322D344535412D393831392D36
311
46344630343345434542342F4173736574446174612F496E7374616E636550726F706572746965732E62696E6D513B4EC43014341F8906D01E628BDDC292E34F1C0BA424760207D896264A222D052BB442A24D49C755B6A5E50C1C8023B8801A9E636F02CA3EE979DECC9BB1A5E40521F4130A467404DDC1790178DB6EDAED
311
7DBDAAD7ED43350781286A88CE192E9332C7BC301A2752536C84A0520A1E31C9CFC6A08BB0881725150A0BCE19E6318DB0BED1058E2423263646E5A5025BFF2E5ADEBDBE7F2F3E52C063D03AE83DEF1138944DBD1BA1598666BDD41FF36C9C0F4E10F4350C076D200E067B02AC830ED1CF80E7204DCB7DC771335C3231366F
311
D944FB274CA3EEEAC51F8F4D4F81B9BF7509BD7AAE9EEA35D6DB6AD3B48DDBD8E4EB0A003D0624B1E7E4DAE32E701B70B7F72DC35E06BF0A3CF3F80B504B03041400060808002A61134928BB58AF800100009E0500003D00000041324332313443302D453737322D344535412D393831392D3646344630343345434542342F
311
536368656D61732F436F6D6D6F6E536368656D612E786D6CBD544D4FC23018BEFB2B96DE15493C78601010A34B880709DEDFB52FD0D8B54BD70DF6EFED3AC0B12E6442E2716BFB3CEFF3D18E26FB440405EA8C2B1992E1C323095052C5B8DC842437EBFB673219DF8DA659866649B798C078B48AE6410122242F2A4994AC7F
311
93815DF85C049C8564CA0A901499DD886B2EB9B1E02448F358701A9235880C49A0119892A20C89D1B9FD768815CAD268CB5E0355B40B1E47F3E37A2020464BED06AA57CE8FCC20C3C3446D46761A2632A8C1283D07031EFF2AE7CCB1BFEEE916E406DFAC8E36FFD99A9D60A6944090EEDC3B670C7DC13DE86B6B2C5C240D6E
311
503BB85ACD579D513F1B9F9A69DC9CC22AFA80C426D40AF0B21EA168559156B6276F0F726A6BFF04DCD513A87A62CAD41FB24FCB2858B3952E3D852084DA25B9303C15687973CC8E8AAE11DF2836C38C6A9E765E8C1BA1BFB1DC29CDFE518C8B5A7655A4ED7E77291ABEB80DBD82EC866ADE1B8D05AF9E35CF09D7A061F38A
311
986D9EC412B8F0F65E5D81534D9B231D1E5A8FE577A241F3A5FD01504B03041400060808002A6113492CCEBD668A040000E01200003E00000041324332313443302D453737322D344535412D393831392D3646344630343345434542342F536368656D61732F47656E65726963536368656D612E786D6CD5586D6FDB380CFE
311
7EBF42F0F7A649B70E1B90744856B4970F450FCD7A5F05459613EDE4174872DADCAF3F522F8ED3B88D2F1D06AC4050DBA2493EE4438AF2F8EB73AEC8466823CB62928C06C384888297A92C5693A4B6D9D9E7E4EBD51FE3A931C22EF85AE4EC6AFC38BF261BA626C9AD288496DC3F4FCEAFC63366845F7A10452AF41DB320C0
311
D44EC26EAB20918735565582695670811A6A49643A49A6E9069FA4604A64B29016DC4B48552F95E4932463CA888468C1D2B250DB4962750DF7CE273069CE8363F1FF4EDB00E0A21999574AE4A2B00C353B93F3BD4777B8A61ED8F604ABFEDD79CE56A2B7BDFBDBC50996E0ADDE16FED26223C5D30956C29BDF4A55EA686E5E
311
58B112DA45CE67F76F4FA27EFA3FB672FD7372FC388FAECDCA5209E693CAD167BADCD272F943701B3812F8A3D852008B1D2E32DB927B2F833C6EA95879925356D254582695095A3CE982924720BE5774A3CB9CDCDB350427D2DF20DA1B5532EBE2D5D6288D75D4F7E4FD9890A0EF8E3D93EBB8F8BA4758158EF6FB90A6F952
311
0281C93DE7AAC6D24607DA296BB96018123F821A7D6A5C5884050C475DA4865442732C8B95684A50165CBB3A32F25F783A4A480ED59AD7F924B968AEA50131F46303223E6A397B0E52976030DC1DCA81D7E7C1EDEEA42C19FF27635C505E2BD5198A599020DF50A2330FCB3AAF28CB0124108429553EF1B228802E2265D8F7
311
CC2401042B155BCC7070F1E5C55F13B4A9577362CCCE46C32174E010C3C378C44841A4BDA00FE3A12006CE11EE6AEC59894D3526DDE1CD59D503ECC324017F8061B7F162162FA62EDD81AE3308617770796DCBDAD2B2625C5AE8A63DE20B2C8AA5E95E76E5730823955956E33E705425A2187C185D36489A1B44D3DCEC2172
311
F6BA2105C3546287A7194B2331768EBBE64F6E70A9930ABE0ADEA89E9E2C38523B810287AD67A54A039C1606EAFE68F8304610BB9093DBDDABC0B2AE4E290DCDA15376D7E39F72B556F0B32EAB5D3D498B4C41ABADEC3A1434C422D87E8025A84BDCB2B1417ED750FAE4DA8976863974C577C7F902D3F156AD354DEA3540DE
311
6BEAE2BEA52F7A2EB4CA43802ECE5BF2CE2EDC9347179FFB023CE412E60BE16DA0BE29B374988A553F561DC04615DD35F7D2C8979F60E5955CE93DF29DED8AFA1EE6642D53418086C03C47C377910F75F7E8F5EF665F70B60FFB22AEDF897D119E8423C773E819A3C1E55E550599EE6EDCA34D0C86FD72057DF2CD46F16A47
311
0682471C164E4346D5306BF12D7D12D82CFF673D41636C347443FEB51B50D72EA171A8E4A58623A4A16E0FA2B8B10A0D23268D87C33896EE8FB73305A74BF224EDBADFA0BD674AB354D63DB7BD5D83426761C077DE767728235446A552754EB93B755891C3C4CC6CADE37CF0E912A7BB38DBA010F9DE1282EDF470CA69A9CD
311
A482E334C4A6EA4107987980B17E72F31730EBF88BBD39E7C629F56797A3C0009C2C5AE7951D9A05A02773440F02EEB4DE396A3B6A570C72CCFBCD823B0B8ED3F1D5CEDDFED772FA70236C83FB7D86C385D570B87107535572A60A96035F8F7C6A7192F13007246BBE0521855E6AC46F3E27689CEE7D186A6FD679D98CDCAD
311
13333E04EBE7ED6F55FF01504B03041400060808002A6113496180134D5F0100006B0300004500000041324332313443302D453737322D344535412D393831392D3646344630343345434542342F536368656D61732F52656E6465724D6174657269616C536368656D612E786D6CA5934D6FC2300C86EFFB1551EEE343DBA4
311
1D1A103009551ADAD40EAE28A4A68D9426284961FCFBE5A340113B2071746D3F765EBF4DC6BFB5407BD0862B49F0B037C0082453059725C18DDD3EBFE3F1E829991803366715D474942CD30FB4A782E00C64017A412D684E454CE3FE28995203B162A6EA5AC94B66997D225E109CD63B0135484BAD1B3C07E9080CA35DB311
311
9C11BCA5C200461A68A1A438126C75E3E230D40FF81FB3F03C91D1E3A3A0AF79FE28E25BC39EC3E17E4C2A2D94A0833A51AF55BCCA7D88572FCBAC529C4140B020FC3AAFA886621DCED7EAD7664CC86024E806DC297DA1BB393E4156543457A4537DB8817349A70F8ACBF09B3EEE2CB2F33E91B65D60786E4E3B39B77E3FEE
311
EF5650424525DA657FB8B46BE6BF064646F0A0F7327C0BC1BC1B4CBBC1C419FA3CCB23500007872A2580CAAE5461865565294E4EDB4617B62FF579DF9A5B2F54E834076A597573A020912FED777F9B3F504B03041400060808002A6113495C3B26F251000000570000004700000041324332313443302D453737322D344535
311
412D393831392D3646344630343345434542342F4173736574446174612F41737365745461626C654F66436F6E74656E74732E62696E5361606030B0347236707234D675B57075D435717176D2B5307732D27536353532373735313436371102AACB4D2C492DCA4CCC492C28484D2C4ACC4B4E050A82012F90744FCD03CA26
311
072767A4E6260200504B03041400060808002A611349F865834058000000680000004500000041324332313443302D453737322D344535412D393831392D3646344630343345434542342F4173736574446174612F53747265616D56657273696F6E5461626C652E696E66558CBD0A80300C06F73E4B117FB66E451741D041
311
DC5BF98480A492E4FDD18EAEC7DD4555D89EF28DF51A0B1BD8340C4DE7DD848B988C0ACF0649566493F2408C508DDEBB99D5129FF8F1AF8CF5B9503E20FAE5A16B5AF702504B03041400060808002A611349B4831C5D340100009A0400003600000041324332313443302D453737322D344535412D393831392D3646344630
311
343345434542342F4173736574446174612F636E782E786D6CCD94314FC3301085FF4AE43D76D201B595E30AC1D209242A06B6AB7329561D3BB22F08FE3D769B0154C49421EBF9DDF9F993DFC9DD676F8B0F0CD178D7B09A57AC40A77D6BDCA9612375E59A153B2583F7F443C60A073D362C979992A7E0C7612AB5D8C16873
311
D51A779E8AF731221DE068F1A97BF08ED0516485B61063C3A27EC71E388CE45B8C67DE0201AF79C0E8C7A0314D22D3E334490704C296A95555DF95D5BAAC37877AB5AD36DB55FD2645562A79F4DE4E7A932E0B7E28F4F556A62A29F2B19263309326BF85A9BF3CF2A3715224A5929142623275D0D7903A6018ACD140099DF0
311
9A90CA2442E8A5B88A951499C12F128FD8196772CB3E1903F2E139D9C340061747E43FAFF393D9BB48E0342E97C7ADC3F929BC5C7ED0EB359097C42C2D27B70EB971DD0C29119735924293B78AFA06504B03041400060808002A6113499BF439E7070100004F0300003400000041324332313443302D453737322D34453541
311
2D393831392D3646344630343345434542342F536368656D61732F636E782E786D6CCD93BD52032114855F65873EB06CE1241996141656366A65877013990077871F47DF5E582992193B2DD2C1E11BE69CC3451C3EBD1B3E20268B61269C8E6480A0D1D8709A49C9C7CD960C07292262BEC0C810948799349948718A58962E
311
1938AAE29AEA6C3877F11EBDC7F0ACDFC12B3268A7529A495AB754958C06D2991A9515E53442C21235D41BB2F5D06FD011540643E434F2BBCDB8DDF0DD0B9FF6E36E3FF157C11A29C51BA2EBBC0D19222E83C6BA08D5CE28583B96A244DB999681C84B6FB4B6215825A44839D60E3A99BF964AAA657156AB5CAB622BF8C348
311
C15AD4ABC00F10205A7D9B89AFCCFD5BE4270806E2637DA56895BBCDE4BF79FC5B016C9DFD3A02ED2BC86F504B03041400060808002A611349410A3D5871000000A40000002C00000041324332313443302D453737322D344535412D393831392D3646344630343345434542342F636E782E786D6C55CC4D0E82301086E1AB
311
34B31774E7A22D31F1069E60020334B633A63FC6E34B0909B07DDE2F9FEE7EC1AB2FC5E4840DDC9A2B28E25E06C7938192C7CB1D54677514C9871928C640062A83D55394F2D968A0118BAFEA1DBF377CA444F98919176EAB9FEAAB9F2960DA5BBB1E2ED3FA6FFF504B03041400060808002A6113493EDE4FC77F000000A300
311
000007000000636E782E786D6C4D8CD10E822018465F85FDF71410A56E823386EFE1121D13A191B41E3F685E74F56D67DF396DF7D91C7A9BF8B2C10BA02702C8F84798AC5F04A47DC635A04EB63184FDEF06C88F9B115030C87689213D0F3499794CAE5067FD7AC09E2946B922585715C35C5F7BDCD4B4C1B7810F845FB4D2
311
779E8D7351F2FC7A794B5E7E01504B03041400060808002A61134916E99B5DA600000035010000130000005B436F6E74656E745F54797065735D2E786D6C9590410E82301045AFD2740F4517C6180A0BF5065E60AC53688469D30E066F6F91AD9AB89CF9FFFD3F99BA9DC7413C3026E749CB4D59498164FCCD51A7E5C4B6D8
311
4BD136F5E5193089ECA5A465CF1C0E4A25D3E308A9F401292BD6C711388FB15301CC1D3A54DBAADA29E38991B8E0254336F5092D4C038BF39CD76B6FC6A538AEBEA54A4B08617006389FA516557DE4AE8E7E70DE30729138228C5F021CD93F02D4FB0DCD0B504B03041400060808002A6113493DEE336E6400000079000000
311
1B0000006175746F6465736B2D64657369676E2D7061636B6167652E786D6C35CBC10E83200C00D05F21DCA56CA76D41FC96062B120735B69A7DBE268BB7777961F8D5AF396893C2ADB70FE7ADA196782C2DF776D7A97B5933C430F15651E5469C55D70F80A4992A3ADC954792C525AE70A1E4D6AD9816CC044FEFDF01FE3F
311
DE907802504B03041400060808002A6113498FA7D90AF8000000960100003700000041324332313443302D453737322D344535412D393831392D3646344630343345434542342F4173736574446174612F636F72652E786D6C8550CB6E833010FC15B4770386A4C29171441E7C414FBD59B643AD041BF951E5F36B072AB5A7
311
9E76353B33BB3BF4F89C1FC597725E5BD3032E6B289411566A33F510C30D75501C1975D6865F34280C9F550F1906462767E3B241C29AA04C468D956A03B9F72A40211EA9E9C18B4F35F392C79018FE5E2E5CDCF9A44A5CAE3C4663D472936A99DCF44D2B078C5CDBB1C3A445E74B43D00E8F27D49D488DC6EEBC1FDA616CAF
311
3B4CAB2C6634E8F967BB708A07258135357E4375873079C7CDA12687067FD02A3319F5C1A59FB7A5F93B6043BEFAC203A7D53AFDE31A17F9BF6BD426B4CDE6BA2A3CB07CE46BC06895534AE51561AA3951F60D504B03041400060808002A61134995708F22F6000000940100003500000041324332313443302D453737322D
311
344535412D393831392D3646344630343345434542342F536368656D61732F636F72652E786D6C8550CB6E833010FC15B4770386A4C2917194173FD09E7AB36C875A0936F2A3EAE7D7062AB5A79E76353B33BB3BF4F8353D8B4FE5BCB6A6075CD6502823ACD466EC21863BEAA03832EAAC0DBF6850183EA91E320C8C8ECEC6
311
7983843541998C1A2BD50672EF5580423C53D383171F6AE2258F2131FCA39CB978F05195B85C798CC6A8E526D532B9E9BB560E18B9B54387498B2ED786A01D1ECEA83B931A0DDD657F6A4F437BDB615A6531A3414F3FDB85533C2809ACA9F10BAA3B84C91B6E0E353934F89D5699C9A80F2EFDBC2DCDDF017B5DEEF4B45A67
311
7F3CE32CFFF78CDA84B6D93C578507964F5C068C5639A354960053CD79B26F504B03041400060808002A611349C29685B102010000D70100002D00000041324332313443302D453737322D344535412D393831392D3646344630343345434542342F636F72652E786D6C95914D6EC3201085AF82668F6D88F3E30813A59673
311
82AEBAA330715062B00CAE7AFCE2DA55DB5DBB023DBE37C39B11A7F7FE41DE700CD6BB1A58560041A7BDB1AEAB618A577A00729262F43EFEC08038D5630DB30C5274A39F8655D2DE4574B3EABCC15554216004A21FE95243D037EC55A6A6988870CF06A5EFAAC38C650B2745B4FD97558FA8221A90BC603B5A1C28AB9E193F
311
16D591B31791CFA414937571C3D766D8BFA2217E882912C8ADC897D7444DD6AC8C35E98FF66A710479E60D676553D076BFE7B46CB7675A1D58457797F252949BB6699FCA542499A508714C93598BCC33F8AB7D31FE4A360DE69FC9164700C9BE43E5F398A5C83F7790CE7925F203504B03041400060808002A611349118EC7
311
B707010000B201000008000000636F72652E786D6C8D50CB6EC32010FC15B4776CB0D3CA8E305192C65FD0536FD41017C5068B47D4FE7D2176A5F6D6D3A299D99D61D8E1739ED05D39AFADE980160490328395DA8C1DC470C50DA00367CEDAF04B06C88859759061E06C74362E1B34581394C9A8B1526DA0F05E0540C3941E
311
1DF8E143CDA210312485BF158B186E6254052D561D6741CF3FAB8353222809BC22F4199306D3F695567BD2EE2BFAC6CAACE42C462D372B2D93BBBE6AE580B797BA6F685BE3F34BD5E21DED4FB839B504F7CDF9E9581FFBFAB2A3ACCCCB9CF9E0D29FB7232967405EDCB32F2B578AB3776BA74D90424964CDF4059CB032137F
311
42C745FE23B436A1AEB683EB86079E033D88649C1B4CE3516F9AB96DFE0D504B010214001400060808002A6113497B3BF5A9D9000000200100004F000000000000000000000000000000000041324332313443302D453737322D344535412D393831392D3646344630343345434542342F4173736574446174612F44656669
311
6E6974696F6E4974657261746F7250726F706572746965732E62696E504B010214001400060808002A611349B09097AE0E0100003002000045000000000000000000000000004601000041324332313443302D453737322D344535412D393831392D3646344630343345434542342F4173736574446174612F496E7374616E
311
636550726F706572746965732E62696E504B010214001400060808002A61134928BB58AF800100009E0500003D00000000000000000000000000B702000041324332313443302D453737322D344535412D393831392D3646344630343345434542342F536368656D61732F436F6D6D6F6E536368656D612E786D6C504B0102
311
14001400060808002A6113492CCEBD668A040000E01200003E000000000000000000000000009204000041324332313443302D453737322D344535412D393831392D3646344630343345434542342F536368656D61732F47656E65726963536368656D612E786D6C504B010214001400060808002A6113496180134D5F0100
311
006B03000045000000000000000000000000007809000041324332313443302D453737322D344535412D393831392D3646344630343345434542342F536368656D61732F52656E6465724D6174657269616C536368656D612E786D6C504B010214001400060808002A6113495C3B26F2510000005700000047000000000000
311
000000000000003A0B000041324332313443302D453737322D344535412D393831392D3646344630343345434542342F4173736574446174612F41737365745461626C654F66436F6E74656E74732E62696E504B010214001400060808002A611349F865834058000000680000004500000000000000000000000000F00B00
311
0041324332313443302D453737322D344535412D393831392D3646344630343345434542342F4173736574446174612F53747265616D56657273696F6E5461626C652E696E66504B010214001400060808002A611349B4831C5D340100009A0400003600000000000000000000000000AB0C000041324332313443302D4537
311
37322D344535412D393831392D3646344630343345434542342F4173736574446174612F636E782E786D6C504B010214001400060808002A6113499BF439E7070100004F0300003400000000000000000000000000330E000041324332313443302D453737322D344535412D393831392D3646344630343345434542342F53
311
6368656D61732F636E782E786D6C504B010214001400060808002A611349410A3D5871000000A40000002C000000000000000000000000008C0F000041324332313443302D453737322D344535412D393831392D3646344630343345434542342F636E782E786D6C504B010214001400060808002A6113493EDE4FC77F0000
311
00A3000000070000000000000000000000000047100000636E782E786D6C504B010214001400060808002A61134916E99B5DA6000000350100001300000000000000000000000000EB1000005B436F6E74656E745F54797065735D2E786D6C504B010214001400060808002A6113493DEE336E64000000790000001B000000
311
00000000000000000000C21100006175746F6465736B2D64657369676E2D7061636B6167652E786D6C504B010214001400060808002A6113498FA7D90AF80000009601000037000000000000000000000000005F12000041324332313443302D453737322D344535412D393831392D3646344630343345434542342F417373
311
6574446174612F636F72652E786D6C504B010214001400060808002A61134995708F22F6000000940100003500000000000000000000000000AC13000041324332313443302D453737322D344535412D393831392D3646344630343345434542342F536368656D61732F636F72652E786D6C504B010214001400060808002A
311
611349C29685B102010000D70100002D00000000000000000000000000F514000041324332313443302D453737322D344535412D393831392D3646344630343345434542342F636F72652E786D6C504B010214001400060808002A611349118EC7B707010000B2010000080000000000000000000000000042160000636F72
311
652E786D6C504B050600000000110011005A0600006F1700000000
310
504B03041400060808002A611349000000000000000000000000370000006662782F43364641373730362D434641312D343342412D383033332D3544444446413744384637382F617474726962757465732E62696E504B03041400060808002A611349000000000000000000000000350000006662782F4336464137373036
310
2D434641312D343342412D383033332D3544444446413744384637382F76657274696365732E62696E504B03041400060808002A611349F270F1330600000004000000360000006662782F43364641373730362D434641312D343342412D383033332D3544444446413744384637382F747269616E676C65732E62696E6366
310
60600000504B03041400060808002A61134951464CB48900000043010000360000006662782F43364641373730362D434641312D343342412D383033332D3544444446413744384637382F6469726563746F72792E786D6C9D8F310EC2300C45AF127987122606C71DD918B841D4B851A43646695A717C52A85029031293A5
310
A76FBF6FACEF7DA7264E43906840EF0FA03836E242F406C6DCEE4EA06AC22492573150D1F66C60C640E8938CB705396EEDD86DE9B5042FE27813D640EA63BB001C722AF6E55CB61E4863F58284D5D3F53DD715CE1C3985E63FD7F1B7EBDD617E9F1E504B03041400060808002A611349E88473563F070000201C0000340000
310
006662782F43364641373730362D434641312D343342412D383033332D3544444446413744384637382F6F626A656374732E786D6CDD595B6FE23814FE2B56F665F721376E85116554A01DA15167468366B56F9109867AEB5CE4242DDD5FBFC78E1DE234403A1769B55482D4718ECFF9CEFD64FAFE1031F444784693F8DAF2
310
1DCF42240E932D8DF7D75691EFECB185DECFD09427495EDB67A11847E4DA12CBD66CBAE74991AAA52DD9E1823557EFE67FA12C2431B150C870965D5B59F84022ECE0224FB6247B74B638C7CE7E77707CA7DC6892DD739C3E348E4A3127710EACC27A0C541407BEF92F88E4CEA6AED8606CEB77DBD63BB3CD95829B8CD238CB
310
711CBEE2AA715CEF04578DE3FAFE6079DB1B4EECE160D0B707A39E6FCFEFE64BDBBFEA7B8BD16231B9B99D586836DD2409AB149092780B5A7CB166FED415772AF1150A6D7C87491C9350A1D9B6614B145D4AB2262606B0BE14ADA69052D6DA42BFA3F027B67502C560C9405B0BA77FEBD69B6CFE0610B22E56CA3322AC3CCB
310
39E85A615FFA833775CB55432F344311CE09A7982146371C7350106C2D15649011DE2248218199D4A2A657E7150CFBB22FB571B92B1813FE6BCDA4A705E08F24CF2467F41FC28FDCD74F039E40DA82C6F958099BBFA440623275E56279AFDF53374B20D18EE13D580B882936F57B0DBC162216AC96D6ECE3DDE6B016F1A1FD
310
F0942729E1B9B03CE9CCCAEFB4066BA605C6D70194125753774754BE02F49F00F98A173405CD717A181C065A768EE36C97F008B4833C647BF0E52171F9EA6AEA560FCF103262E5294CC16D7F12A68618C6D9354867D32730FA84F79570EB1033B0E97B1A0B3F0743412C812588F7BBCDC19AAD2098C2223C8519480F7F5357
310
5C22F829E940BC6968A82DFC7650947698A69F1D75F5016C86D3B0529521E3297C873F05DF9BE5FAE3BAE03B1C927BE5D84BB2A331CD2199B63364806EB8FCB7D527E9911F58B2C1ECF8B4B1298463F689881B2D6A592BB520A917E044A4E1523372E59E82B73386639214995A6F8B5361C2121E6C5E82D2855BCFFA53DB40
310
79983280D65806C93DE43415985833A5AD2A103A3541C1C2305716B82FB51A6C8A280D709414B108B5AF4DB1C907C4196189405552D386ADBD5693DDD2DDAEC82078B5925C18402A7FD6844B0B1F401C6BE397931DC790449338A09083C1595A4F300EA8C03BCF7346D82EA08C1551B0A30CF24810E1F404FD8E12D433D723
310
79794EF8B695A06959DA27B50D09C015B01A249DADCA98AF74CAC9131565A6CC673A1B183B541D6ACD0627D285C8142D806A639466EE4D7A0B6F7ED3B76FC7B737F660B998DBE3AB79CF5E0C87BDABABE1C0EF5F01796525128163B4AAE73B50A528730CFFCB1F8A681363CAE086A080B7E9BBF7327B5EBB101ADD9E3FBEEA
310
0FAE7AF668BEE8D983C91D546B0BCFB34777B7FEF06E389C4F6E972E275952F090646ECFF5026D9269BC3FC555154B45D602F9E15B410A65CDE564A7F5D514E67F1C439B39C150E27F358856B1ABA520EC1A44C5A3CD108AC34791A28210AABE56F76904D1261F6D71EE8D71D973FA9EFCF8FEA4070E3A9E8C2A633F1BA8E5
310
393F1CE7DA2408A1EF2CF220497148F3F684DAC0A5639C7E536E71FAFE10013AD57775C8F93CA30E096884F724D861D125B404C64B12B4E6B03D4BB28CC624935DDEABEAAF41D373A09832736E8B11D22C88488EBFC7FE64DBD0B06988CD2C807E341713818B554165D0AA0339455174BF90B8A5FC2F4186A394959DEE250C
310
FC9E8640F7386D16279816473C81BD05380FBC2D91838B4BD42BF6757DD0AAB526F5C977933F018FAE6B7E213CFA88EEA59333F427E23386A0321A426AD78AB884953E2A177D1C2BA0F30C5F826742F70F9D0ACD6E3AA9956C65519D9308DA589C17BC93BF8E86DEAB83545C683844EDA4371687B27FD31D1CA0271BB853E5
310
6DED18A843690C73AE4E82BC92A2D584A52EE44C4F8CAEDEE0D767955DA7FAC3F1F29757CC75E78BA0D0EB824355CEAAE863D4D4AD55B7510F65CF380F2190AEE5AF3D078FD892EDB13133C8B595E8BA3EBD543DAF44408D60628B459CBD1717EC2B065543F79CB91FCAA2CD2DD75722B139309C3EF261306DD2FAFC61DDA0
310
022B9D9FFE223022CF0D0A6A7521BAE133A4BEAD8E3D7F838292E8DBEACCE3FF898E422BB0D659C034384B1885A13CD9A23D49207BC3D8A143B7C12392C9AC7CEC52F41B810E4F3F9533D51C6F98EE71C2070C8369A67AB12284A12864CC6B4BADA3DF600C2A26917238E53C421BA66298850A4EAF2DB0D89C42B7E56C609C
310
258787927A635C098E8DE3BDC8F7E553D5FFC7C75E755FD59E2EB828C90C6782C23695EF09A0EA2B6FCCA6DF2FBA6607E11C2E37455E09735C384AA340D02F044AE160EAF7A8E03D4041715E2EDF917B8C86B4D364FEAC1D9454ED1CF3BD1CAFD76CF266F9C51593F1D56794B2622FD479AEFB3528D9A2EB664539859A8261
310
2831532C6AC8C53BF70B4FE0155384EE281801FAFD301EFDE12E92284AE272C9BD512FAAD0FA015E3B6D5D3DF28336DEF387AE9C02A8B17EB0C11971F0367B8405502DA762365A426C1840154D6B06A0352274018F19FB574BA46AA3DA84A41E76053C72A68FC091C4BB1CE136F50DB50124F80270256F1E2FF4C2D4E53004
310
9FFD0B504B03041400060808002A61134967D13D963E01000046050000300000006662782F43364641373730362D434641312D343342412D383033332D3544444446413744384637382F636E782E786D6CCD944D4EC3301085AF12799F1F7781DACA7125169C800562E738D360EA78227B8CE8EDB14B5A40A88845A576678D
310
DF48EF9B791AB1791F6DF1063E18742DE355C30A701A7BE3869645DA964B566CA4F088F44DC60AA74668592E3329068F719A4B3D6C55B4B96A8DDBCD4545E44D1709022BB45521B42CE8171855A522610F6157F58A54C52B0F01A3D790FAC98C30F76B0F8AA06772D1F0BBB259967CF5C817EB66B55EF0675167A5141DA29D
310
F5C611789C0A8DE9E1929946D4F95B8AE8CDACC9044C7E39AB3AE3449DFEA508C9AD1B661DEDA7AC9B266BB4A234A61A35019549046A14F5A7588A3AF3FEA07EB87F3A3A287AE34113FAFD9506C0CF0DE064AC4A49F81FFF41F8373676AF09F75ADB3E0B3BDBBA18EA31AD21C5F5F7FE538A941BECED85FE64ECF2994FA784
310
8CBE3DE4A3AF0B11D7879397969E2FA0FC00504B03041400060808002A611349B320BE1C7D000000A30000000B0000006662782F636E782E786D6C4D8C410EC2201444AF42FE1EA5410B0BA0C112EED158DA1029182CC6E30BA60B5793BC997962F86C01BD5D7EF91425742702C8C57B9A7D5C25947DC11CD0A0444E69FF9B
310
018AD3E624340C4AAC3995E78166B74C25341A7C7C1C70ECAD668CF478B4BAC3177AD398134AF1D518531BC32DE3F5716E971A3F5FCDA6575F504B03041400060808002A611349A6D797065F0000008200000007000000636E782E786D6C4DCB3B0E80201045D1AD90E9FD7516806B51190811670C8A61F982B1B0BAC9C97B
310
72CA7B1037C6D3332918DA1E04D2CAC69353902EDB8C20262D23F3F59B81A079470595414B17391D1F19B4730A5583A7ED43BBE4025D9592775E5ADFFA01504B03041400060808002A6113494FEB6A7CA0000000F4000000130000005B436F6E74656E745F54797065735D2E786D6C7D8F4B0EC2300C44AF1279DFA6B04008
310
35ED02B8011730C16D239A8F121795DB93D02D6269CFBC19BBED573B8B17C564BC53B0AB1B10E4B47F18372A5878A88E20FAAEBDBD032591BD2E299898C349CAA427B2986A1FC86565F0D122E7318E32A07EE24872DF3407A9BD63725C71C980AEBDD080CBCCE2BAE6F5D69B7110E7CD57AA146008B3D1C8F92C5954F993BB
310
1BF787F39A89ABC491D09600F9FDA2FB00504B03041400060808002A6113493DEE336E64000000790000001B0000006175746F6465736B2D64657369676E2D7061636B6167652E786D6C35CBC10E83200C00D05F21DCA56CA76D41FC96062B120735B69A7DBE268BB7777961F8D5AF396893C2ADB70FE7ADA196782C2DF776
310
D7A97B5933C430F15651E5469C55D70F80A4992A3ADC954792C525AE70A1E4D6AD9816CC044FEFDF01FE3FDE907802504B03041400060808002A61134930D0036CF7000000960100003B0000006662782F43364641373730362D434641312D343342412D383033332D3544444446413744384637382F7265736F7572636573
310
2F636F72652E786D6C8550CB6E833010FC15B47703B69300917124944FE8A937CB6CA89560477E54FDFCDA814AEDA9A75DCDCECCEE8EB87CAD8FEA137D30CE8E40EB162AB4DACDC62E23A478233D541729BC73F1170D2AAB561CA1C020C5E25D7AEE907636A22DA87533EEA00A012354FA919B1182FEC055D52AC5CC08F7FA
310
A9F45D2D58D37AE34991929977A999B39BB919F42027CE18E71323FC3A4CE430B10319F8E144FAAEEBF8B1BB1E5BDE8BA688A58866FDD9AE3DAA883348D6D213697B428737CACEED7066F45D34852945883EFFBC2F2DDF81F4185CF21A8368B6E91FD7F49CFF774DC646CE76D74D1140D27CE46B20455352CAE51561AE2551
310
F90D504B03041400060808002A6113494D9A65C6F2000000B1010000310000006662782F43364641373730362D434641312D343342412D383033332D3544444446413744384637382F636F72652E786D6C8D50CB6EC32010FC156BEFD860B78E1361223796BFA0A7DE10101725068B47D5CF2FC4AED4DE725A343BC3CC0E3D
310
7F2FF7E24B39AFADE98194180A658495DACC3DC470451D1467469DB5E10F0D0AC317D5438681D1D9D9B8EE90B02628935163A5DA41EEBD0A50887B7AF4E0C5A75A78C963480C7F2B572E6E7C562529371EA3412FBF52E1140F4A02AB316911EE1039BE93FA848FA79A7CD02A33198D51CBDD4ACBE4AEAF5A396097761A0E07
310
DCA2CB3410F4D2BC0DA8C34D835EC7714C9BB19B0E1DADB298511F5CBA79FF245FF7AC7C13FECB1C57F944666D4253EF869BC2032329CF63C168950B4CE3D16E9AB96CF603504B03041400060808002A611349E05A186A51010000DD0200000C0000006662782F636F72652E786D6C8D52DB8E832014FC15C33B5EC0566D90
310
26A69FB04FFB4691BAA40A06C1F4F3176F717DD8EEC604C99C7366CE4C20D757D706A33083D4AA044918834028AE6BA99A1238FB803908AE9418ADED8F361028D689124C30A0A431DAF52BC4B5B2424DA8D2B55841360CC28280B7FE5282817F898E85CC59DF313CC39EF1276B4498844B1F25CEC97A1D95B567930F290CA0
310
154608E30A417C2B2A98562885054ECF30CFB20C9FB2DB29C63989A6614AACEC36756E04B3A20614C5C919C6394C8A8F045DE2E282924F124D9D940CD678CFABE8E40ED0C7FD45A2053FF0B9BEFE9BCF4965315AF9968901D0C4AF37172889A67CFC6F0EEF98A117F6F959766F370B4F0F8D825B6D525FA9B5DB4B236B9DF0
310
D471307F245AAA9E7926F88D07BDE179CFE18362AAF1AB31EBAF776727F5E34EBD3070B4AF4069D3B1765F6E59713F77A183A56D9CEB569BFF4C6F56B730A3E961D26F504B03041400060808002A6113494D097D8D05010000B201000008000000636F72652E786D6C8D50416EC32010FC0ADA3BB60127B6234C242B4FE8A9
310
376A4882628305386A7F5F885DA9BDF5B468667667187EFE9C27F4D43E18677B20450548DBD129636F3DACF18A5B4067C1BD73F1970C9095B3EE21C320F8CDBB75D9A1D1D9A86D46AD537A0765083A021AA7F4E8218C773DCB42AE3129C2A358E4F890375D9062D3091ECDFCB33A7A2DA3562068458EB86A31E9DE083D55DD
310
8992775E66A5E0EB6AD46E6554723757A33D888151CAD84031BB7403AE075AE38ED547DC364DC30ECDE550B196977959F0107DFAF37E24E58C28C867F6E5E54609FEE1DCB40B5228859C9DBE4054BCCCC49FD0EBA2FE11DAD8C8E87E70DB0820480AF42292716E308D57BD69E6B6C537504B010214001400060808002A6113
310
490000000000000000000000003700000000000000000000000000000000006662782F43364641373730362D434641312D343342412D383033332D3544444446413744384637382F617474726962757465732E62696E504B010214001400060808002A61134900000000000000000000000035000000000000000000000000
310
00550000006662782F43364641373730362D434641312D343342412D383033332D3544444446413744384637382F76657274696365732E62696E504B010214001400060808002A611349F270F13306000000040000003600000000000000000000000000A80000006662782F43364641373730362D434641312D343342412D
310
383033332D3544444446413744384637382F747269616E676C65732E62696E504B010214001400060808002A61134951464CB489000000430100003600000000000000000000000000020100006662782F43364641373730362D434641312D343342412D383033332D3544444446413744384637382F6469726563746F7279
310
2E786D6C504B010214001400060808002A611349E88473563F070000201C00003400000000000000000000000000DF0100006662782F43364641373730362D434641312D343342412D383033332D3544444446413744384637382F6F626A656374732E786D6C504B010214001400060808002A61134967D13D963E01000046
310
0500003000000000000000000000000000700900006662782F43364641373730362D434641312D343342412D383033332D3544444446413744384637382F636E782E786D6C504B010214001400060808002A611349B320BE1C7D000000A30000000B00000000000000000000000000FC0A00006662782F636E782E786D6C50
310
4B010214001400060808002A611349A6D797065F000000820000000700000000000000000000000000A20B0000636E782E786D6C504B010214001400060808002A6113494FEB6A7CA0000000F40000001300000000000000000000000000260C00005B436F6E74656E745F54797065735D2E786D6C504B0102140014000608
310
08002A6113493DEE336E64000000790000001B00000000000000000000000000F70C00006175746F6465736B2D64657369676E2D7061636B6167652E786D6C504B010214001400060808002A61134930D0036CF7000000960100003B00000000000000000000000000940D00006662782F43364641373730362D434641312D
310
343342412D383033332D3544444446413744384637382F7265736F75726365732F636F72652E786D6C504B010214001400060808002A6113494D9A65C6F2000000B10100003100000000000000000000000000E40E00006662782F43364641373730362D434641312D343342412D383033332D354444444641374438463738
310
2F636F72652E786D6C504B010214001400060808002A611349E05A186A51010000DD0200000C00000000000000000000000000251000006662782F636F72652E786D6C504B010214001400060808002A6113494D097D8D05010000B20100000800000000000000000000000000A0110000636F72652E786D6C504B05060000
310
00000E000E0080040000CB1200000000
  0
XRECORD
  5
1F35
102
{ACAD_REACTORS
330
1F30
102
}
330
1F30
100
AcDbXrecord
280
     1
270
     1
271
     1
  0
XRECORD
  5
1F34
102
{ACAD_REACTORS
330
1F30
102
}
330
1F30
100
AcDbXrecord
280
     1
270
     1
271
     1
  0
XRECORD
  5
1F36
102
{ACAD_REACTORS
330
1F30
102
}
330
1F30
100
AcDbXrecord
280
     1
270
     1
271
     1
  0
XRECORD
  5
1F33
102
{ACAD_REACTORS
330
1F30
102
}
330
1F30
100
AcDbXrecord
280
     1
270
     1
271
     1
  0
DICTIONARY
  5
3110
102
{ACAD_REACTORS
330
310F
102
}
330
310F
100
AcDbDictionary
280
     1
281
     1
  3
TEXT
360
3111
  0
XRECORD
  5
351F
102
{ACAD_REACTORS
330
310F
102
}
330
310F
100
AcDbXrecord
280
     1
102
DISPLAYNAME
  1
DIN ISO 128-40:2002-05
102
FLAGS
 90
        1
  0
XRECORD
  5
351A
102
{ACAD_REACTORS
330
3170
102
}
330
3170
100
AcDbXrecord
280
     1
102
DISPLAYNAME
  1
Imperial24
102
FLAGS
 90
        0
  0
XRECORD
  5
351C
102
{ACAD_REACTORS
330
3174
102
}
330
3174
100
AcDbXrecord
280
     1
102
DISPLAYNAME
  1
Metric50
102
FLAGS
 90
        0
  0
CELLSTYLEMAP
  5
3519
102
{ACAD_REACTORS
330
202A
102
}
330
202A
100
AcDbCellStyleMap
 90
        3
300
CELLSTYLE
  1
TABLEFORMAT_BEGIN
 90
        5
170
     1
 91
        0
 92
    32768
 62
   257
 93
        1
300
CONTENTFORMAT
  1
CONTENTFORMAT_BEGIN
 90
        0
 91
        0
 92
        4
 93
        0
300

 40
0.0
140
1.0
 94
        5
 62
     0
340
F
144
0.25
309
CONTENTFORMAT_END
171
     0
 94
        6
 95
        1
302
GRIDFORMAT
  1
GRIDFORMAT_BEGIN
 90
        0
 91
        1
 62
     0
 92
       -2
340
0
 93
        0
 40
0.045
309
GRIDFORMAT_END
 95
        2
302
GRIDFORMAT
  1
GRIDFORMAT_BEGIN
 90
        0
 91
        1
 62
     0
 92
       -2
340
0
 93
        0
 40
0.045
309
GRIDFORMAT_END
 95
        4
302
GRIDFORMAT
  1
GRIDFORMAT_BEGIN
 90
        0
 91
        1
 62
     0
 92
       -2
340
0
 93
        0
 40
0.045
309
GRIDFORMAT_END
 95
        8
302
GRIDFORMAT
  1
GRIDFORMAT_BEGIN
 90
        0
 91
        1
 62
     0
 92
       -2
340
0
 93
        0
 40
0.045
309
GRIDFORMAT_END
 95
       16
302
GRIDFORMAT
  1
GRIDFORMAT_BEGIN
 90
        0
 91
        1
 62
     0
 92
       -2
340
0
 93
        0
 40
0.045
309
GRIDFORMAT_END
 95
       32
302
GRIDFORMAT
  1
GRIDFORMAT_BEGIN
 90
        0
 91
        1
 62
     0
 92
       -2
340
0
 93
        0
 40
0.045
309
GRIDFORMAT_END
309
TABLEFORMAT_END
  1
CELLSTYLE_BEGIN
 90
        1
 91
        1
300
_TITLE
309
CELLSTYLE_END
300
CELLSTYLE
  1
TABLEFORMAT_BEGIN
 90
        5
170
     1
 91
        0
 92
        0
 62
   257
 93
        1
300
CONTENTFORMAT
  1
CONTENTFORMAT_BEGIN
 90
        0
 91
        0
 92
        4
 93
        0
300

 40
0.0
140
1.0
 94
        5
 62
     0
340
F
144
0.18
309
CONTENTFORMAT_END
171
     0
 94
        6
 95
        1
302
GRIDFORMAT
  1
GRIDFORMAT_BEGIN
 90
        0
 91
        1
 62
     0
 92
       -2
340
0
 93
        0
 40
0.045
309
GRIDFORMAT_END
 95
        2
302
GRIDFORMAT
  1
GRIDFORMAT_BEGIN
 90
        0
 91
        1
 62
     0
 92
       -2
340
0
 93
        0
 40
0.045
309
GRIDFORMAT_END
 95
        4
302
GRIDFORMAT
  1
GRIDFORMAT_BEGIN
 90
        0
 91
        1
 62
     0
 92
       -2
340
0
 93
        0
 40
0.045
309
GRIDFORMAT_END
 95
        8
302
GRIDFORMAT
  1
GRIDFORMAT_BEGIN
 90
        0
 91
        1
 62
     0
 92
       -2
340
0
 93
        0
 40
0.045
309
GRIDFORMAT_END
 95
       16
302
GRIDFORMAT
  1
GRIDFORMAT_BEGIN
 90
        0
 91
        1
 62
     0
 92
       -2
340
0
 93
        0
 40
0.045
309
GRIDFORMAT_END
 95
       32
302
GRIDFORMAT
  1
GRIDFORMAT_BEGIN
 90
        0
 91
        1
 62
     0
 92
       -2
340
0
 93
        0
 40
0.045
309
GRIDFORMAT_END
309
TABLEFORMAT_END
  1
CELLSTYLE_BEGIN
 90
        2
 91
        1
300
_HEADER
309
CELLSTYLE_END
300
CELLSTYLE
  1
TABLEFORMAT_BEGIN
 90
        5
170
     1
 91
        0
 92
        0
 62
   257
 93
        1
300
CONTENTFORMAT
  1
CONTENTFORMAT_BEGIN
 90
        0
 91
        0
 92
        4
 93
        0
300

 40
0.0
140
1.0
 94
        2
 62
     0
340
F
144
0.18
309
CONTENTFORMAT_END
171
     0
 94
        6
 95
        1
302
GRIDFORMAT
  1
GRIDFORMAT_BEGIN
 90
        0
 91
        1
 62
     0
 92
       -2
340
0
 93
        0
 40
0.045
309
GRIDFORMAT_END
 95
        2
302
GRIDFORMAT
  1
GRIDFORMAT_BEGIN
 90
        0
 91
        1
 62
     0
 92
       -2
340
0
 93
        0
 40
0.045
309
GRIDFORMAT_END
 95
        4
302
GRIDFORMAT
  1
GRIDFORMAT_BEGIN
 90
        0
 91
        1
 62
     0
 92
       -2
340
0
 93
        0
 40
0.045
309
GRIDFORMAT_END
 95
        8
302
GRIDFORMAT
  1
GRIDFORMAT_BEGIN
 90
        0
 91
        1
 62
     0
 92
       -2
340
0
 93
        0
 40
0.045
309
GRIDFORMAT_END
 95
       16
302
GRIDFORMAT
  1
GRIDFORMAT_BEGIN
 90
        0
 91
        1
 62
     0
 92
       -2
340
0
 93
        0
 40
0.045
309
GRIDFORMAT_END
 95
       32
302
GRIDFORMAT
  1
GRIDFORMAT_BEGIN
 90
        0
 91
        1
 62
     0
 92
       -2
340
0
 93
        0
 40
0.045
309
GRIDFORMAT_END
309
TABLEFORMAT_END
  1
CELLSTYLE_BEGIN
 90
        3
 91
        2
300
_DATA
309
CELLSTYLE_END
  0
ACAD_PROXY_OBJECT
  5
30DE
330
30DD
100
AcDbProxyObject
 90
      499
 91
      565
 95
  8192031
 70
     0
162
                 0
161
               249
310
7340000000000000C400000000000000310200800030C02000000300012AFBCC
 94
        0
  0
ACAD_PROXY_OBJECT
  5
30DF
330
30DD
100
AcDbProxyObject
 90
      499
 91
      566
 95
  8192031
 70
     0
162
              2608
311
415480184008000D400C001055200610020003200350041D480184008000C400C800B000D4010652006100200036002C003300419480184008000CC00B000C8010652006100200031002C003600419480184008000C000B000E0010652006100200030002C003400419480184008000C000B000C8010652006100200030002
311
C00310041D480184008000C000B000C000D4010852006100200030002C00300032003500415480184008000D400C001055200610020003200350041D480184008000C400C800B000D4010652006100200036002C003300419480184008000CC00B000C8010652006100200031002C003600419480184008000C000B000E001
311
0652006100200030002C003400419480184008000C000B000C8010652006100200030002C00310041D480184008000C000B000C000D4010852006100200030002C00300032003500B9
161
               517
310
7340000000000000C400000000000000310200800030C02000000300012AFD41D01405014050140501E83C80A0481A0882A0C86219555400000000000006205214
 94
        0
  0
ACAD_PROXY_OBJECT
  5
30E0
330
30DD
100
AcDbProxyObject
 90
      499
 91
      567
 95
  8192031
 70
     0
162
                 0
161
               695
310
7340000000000000C400000000000000310200800030C02000000300012AFA1E80A0280A0280A0280A0280A0280A0280A0280A1A80A0280A0280A0280A0280A0280A028096000000000000002000000000000001881484
340
2DAD
 94
        0
  0
ACAD_PROXY_OBJECT
  5
30E1
330
30DD
100
AcDbProxyObject
 90
      499
 91
      568
 95
  8192031
 70
     0
162
                 0
161
               810
310
7340000000000000C400000000000000310200800030C02000000300012AFD0CCCCCCCCCCCF4CFC333333333333D33FA4680A0280A0280A0280A0280A0280A0280A0280A0280A0280A0280A0280A0280A0280A0280A0280A0280A028093373333333333C0FCC
340
2DAA
 94
        0
  0
ACAD_PROXY_OBJECT
  5
30E2
330
30DD
100
AcDbProxyObject
 90
      499
 91
      581
 95
  8192031
 70
     0
162
                 0
161
               323
310
7340000000000000C400000000000000310200800030C02000000300012AFA4200000000000003102C
340
2DAB
 94
        0
  0
ACAD_PROXY_OBJECT
  5
30E3
330
30DD
100
AcDbProxyObject
 90
      499
 91
      582
 95
  8192031
 70
     0
162
                 0
161
               493
310
7340000000000000C400000000000000310200800030C02000000300012AFC521D4454FB21E93F00000000000002102800000000000008408020000C300C
340
2DAC
340
2DAB
 94
        0
  0
ACAD_PROXY_OBJECT
  5
30E4
330
30DD
100
AcDbProxyObject
 90
      499
 91
      571
 95
  8192031
 70
     0
162
             24524
311
41124015001140134010450006F0073002E004CD1C01140138015001480104010C013C00B001100114015400B000C000B0014001BC01CC00B800B0011C011401380150014801040150016000B0009401CC00B000A0011C011401380134014C011C0080019C019401B8019001DC019C008000C800C800C800A4029035100540
311
0590040D0401B801E80132470045004E0054005200410043004F002C004400450055002C0030002C0041006E007A002C00470045004E00540052004100540058002C00250073002C002800470045004E004D00530047002000670065006E0064007700670020003200320033002900A4113801040134011401044E0061006D
311
0065004CD1C01140138015001480104010C013C00B001100114015400B000C000B00138018401B4019400B0011C011401380150014801040150016000B0009401CC00B000A0011C011401380134014C011C0080019C019401B8019001DC019C008000C800C800D800A4012C3D004900460028004900530042004C0041004E0
311
04B00280050004100520054003A004E0041004D00450029002C0042004C004F0043004B003A004E0041004D0045002C0050004100520054003A004E0041004D00450029009054400450053004300520043108019401CC018C01A001C8019401A4018801D401B8019C013B470045004E0054005200410043004F002C0044004
311
50055002C0030002C0042006500730063006800720065006900620075006E0067002C00470045004E00540052004100540058002C00250073002C002800470045004E004D00530047002000670065006E0064007700670020003200310037002900A4214C015001040138011001040148011001044E006F0072006D004CD1C
311
01140138015001480104010C013C00B001100114015400B000C000B0013801BC01C801B400B0011C011401380150014801040150016000B0009401CC00B000A0011C011401380134014C011C0080019C019401B8019001DC019C008000C800C400E000A4029084D004100540045005200490041004C004255C019401C801AC
311
01CC01D001BC019801980138470045004E0054005200410043004F002C004400450055002C0030002C005700650072006B00730074006F00660066002C00470045004E00540052004100540058002C00250073002C002800470045004E004D00530047002000670065006E0064007700670020003200320031002900A41138
311
013C015001140109420065006D00650072006B0075006E0067004E11C01140138015001480104010C013C00B001100114015400B000C000B00108019401B4019401C801AC01D401B8019C00B0011C011401380150014801040150016000B0009401CC00B000A0011C011401380134014C011C0080019C019401B8019001DC0
311
19C008000C800C800D400A402906560045004E0044004F0052004253001A401940198019401C8018401B801D00138470045004E0054005200410043004F002C004400450055002C0030002C004C006900650066006500720061006E0074002C00470045004E00540052004100540058002C00250073002C002800470045004
311
E004D00530047002000670065006E0064007700670020003200320034002900A419100114014C010C014800C8010E42006500730063006800720065006900620075006E006700200032004F11C01140138015001480104010C013C00B001100114015400B000C000B00108019401CC018C01A001C8019401A4018801D401B8
311
019C008000C800B0011C011401380150014801040150016000B0009401CC00B000A0011C011401380134014C011C0080019C019401B8019001DC019C008000CC00D800A4029095300540041004E00440041005200440032004193801BC01C801B4008000C80135470045004E0054005200410043004F002C00440045005500
311
2C0030002C004E006F0072006D00200032002C00470045004E00540052004100540058002C00250073002C002800470045004E004D00530047002000670065006E0064007700670020003200320030002900A42534010401500114014801240104013000C8010A4D006100740065007200690061006C00200032004E11C011
311
40138015001480104010C013C00B001100114015400B000C000B00134018401D0019401C801A4018401B0008000C800B0011C011401380150014801040150016000B0009401CC00B000A0011C011401380134014C011C0080019C019401B8019001DC019C008000D000C000A4029044D0041005300530041534018401CC01C
311
C01940133470045004E0054005200410043004F002C004400450055002C0030002C004D0061007300730065002C00470045004E00540052004100540058002C00250073002C002800470045004E004D00530047002000670065006E006400770067002000340032002900A4154001480124010C01140105500072006500690
311
073004CD1C01140138015001480104010C013C00B001100114015400B000C000B0014001C8019401A401CC00B0011C011401380150014801040150016000B0009401CC00B000A0011C011401380134014C011C0080019C019401B8019001DC019C008000D000CC00A402903440049004D0042D04018801B4019401CC01CC01
311
D401B8019C019401B80139470045004E0054005200410043004F002C004400450055002C0030002C00410062006D0065007300730075006E00670065006E002C00470045004E00540052004100540058002C00250073002C002800470045004E004D00530047002000670065006E006400770067002000340034002900A425
311
08013C0134017C0154013801240150014C0109450069006E00680065006900740065006E004E11C01140138015001480104010C013C00B001100114015400B000C000B0011401A401B801A0019401A401D0019401B800B0011C011401380150014801040150016000B0009401CC00B000A0011C011401380134014C011C008
311
0019C019401B8019001DC019C008000C800D000CC00A4029073D003C004900540045004D003E0041CF400F0012401500114013400F801073D003C004900540045004D003E0041CF400F0012401500114013400F801073D003C004900540045004D003E00418F400F001440150016400F801073D003C004900540045004D003
311
E0041CF400F0012401500114013400F8024294C01D003F0018C01AC01B001A401CC01D00194010541005200490041004C00415040148012401040130010541005200490041004C00A404C40242D9401840024019401840024012801940190019400280115730071006D000900730071006D000900510075006100640072006
311
10074006D0065007400650072000A00471CC01C4018C01B4002401CC01C4018C01B40024014401D40184019001C8018401D001E8019401B801D001A401B4019401D0019401C8002801157300710066007400090073007100660074000900510075006100640072006100740066007500DF000A00459CC01C401A401B800240
311
1CC01C401A401B80024014401D40184019001C8018401D001E801BC01B001B000280110670061006C000900670061006C000900470061006C006C006F006E0065000A00431C401D0002401C401D00024014401D4018401C801D0002801266C00710064005F006F007A0009006C00710064005F006F007A0009004F0075006E
311
00630065002000280046006C00FC0073007300690067006B0065006900740073006D006100DF0029000A00429B0002401B00024013001A401D0019401C8002801116D006C0009006D006C0009004D0069006C006C0069006C0069007400650072000A0042DE40190002401E4019000240164018401C801900028010A660074
311
00090066007400090046007500DF000A0042DA401B8002401A401B80024016801BC01B001B00028010A6D0009006D0009004D0065007400650072000A004458C01B40024018C01B400240168019401B801D001A401B4019401D0019401C8002801116D006D0009006D006D0009004D0069006C006C0069006D006500740065
311
0072000A00431B00188002401B0018800240140019801D401B801900028010C6F007A0009006F007A0009004F0075006E00630065000A004299C0024019C0024011C01C8018401B401B4002801116D00670009006D00670009004D0069006C006C0069006700720061006D006D000A004398801E00024018801E0002401440
311
1D40184019001C8018401D0002801012D00C
161
              6477
310
7340000000000000C400000000000000310200800030C02000000300012AFA1E80A0280A0280A0280D20200000000000012202032024050140501409014050140501901000000000000091010190120280A0280A3880C80C81500000000000009C8080C80901405014051D40640640E8000000000080514040640480A0280A
310
028EA03203209400000000000024A0203202405014050147501901905A1C4F42B5E8DC115010190120280A0280A3A80C80C83500000000000007C8080880901405014051D40640641E80000000000003E4040440480A0280A028EA03203211400000000004028A0202202405014050147501901909A0000000000001250101
310
10120280A0280A3A80C80C8550E27A15AF46E08A8080880901405014051D405024050242D034080000000000003E4040440480A0280A028EA028120281218812040000000000001F20202202405014050147501409014090D40D020000000000000F9010190120280A0280A3C80C80C87500000000000007C8080C80901405
310
0F4A9020000000000000510201C00030C00010180000000000003E400000000000000F901014060000000000000F9000000000000003E4040501800000000000034400000000000000D101014060000000000000D1000000000000003440405029010000000000000F9000000000000003E40405014060000000000000F900
310
0000000000003E4040501800000000000034400000000000000D10101404000000000000003E400000000000000F90290800000000000020810000001800169FFFE8220681A048120280A20852108820321480C8452028521485214814000000000000F0BF0000000000003C2FD018020000C3008070000C30026A66666666
310
67D4FC9A9999999999F53F26A6666666667D4FC333333333333F33F337333333333370FC333333333333F33F26A6666666667D4FC333333333333F33F337333333333370FC333333333333F33F0000000000000310080A028120B20281A0882A0340000000000000C408020000C3008020000C3008010000C300291440BF9F
310
FFE7FFF9FFFE4050140515405014050140501405014050140501405014050140501405014064068320481A0882A1A874
340
13
340
0
340
F
340
F
340
14
340
14
340
14
 94
        0
  0
ACAD_PROXY_OBJECT
  5
30E5
330
30DD
100
AcDbProxyObject
 90
      499
 91
      572
 95
  8192031
 70
     0
162
                 0
161
               279
310
73400000000000014400000000000000510201C00030C0200C00030C012AE9FE3E0000
340
3103
 94
        0
  0
ACAD_PROXY_OBJECT
  5
3101
330
30DD
100
AcDbProxyObject
 90
      499
 91
      584
 95
  8192031
 70
     0
162
                 0
161
               247
310
734B81E85EB51B8CE3F2E07A17AD46E338FE00000030002000000300012A04
340
2CE8
 94
        0
  0
ACAD_PROXY_OBJECT
  5
3102
330
30DD
100
AcDbProxyObject
 90
      499
 91
      584
 95
  8192031
 70
     0
162
                 0
161
               247
310
73400000000000014400000000000000510200000030002000000300012A04
340
2DB6
 94
        0
  0
ACAD_PROXY_OBJECT
  5
30E6
330
30DD
100
AcDbProxyObject
 90
      499
 91
      573
 95
  8192031
 70
     0
162
                 0
161
               279
310
73400000000000014400000000000000510201C00030C0201C00030C0112C9FE060000
340
310A
 94
        0
  0
ACAD_PROXY_OBJECT
  5
30FF
330
30DD
100
AcDbProxyObject
 90
      499
 91
      583
 95
  8192031
 70
     0
162
                 0
161
               247
310
734B81E85EB51B8CE3F2E07A17AD46E338FE00000030002000000300012A04
340
2CE6
 94
        0
  0
ACAD_PROXY_OBJECT
  5
3100
330
30DD
100
AcDbProxyObject
 90
      499
 91
      583
 95
  8192031
 70
     0
162
                 0
161
               247
310
73400000000000014400000000000000510200000030002000000300012A04
340
2DB5
 94
        0
  0
ACAD_PROXY_OBJECT
  5
30E7
330
30DD
100
AcDbProxyObject
 90
      499
 91
      574
 95
  8192031
 70
     0
162
                 0
161
               388
310
7340000000000000C400000000000000310200800030C02000000300012AFD000000000000010814333333333333F33F2C
 94
        0
  0
ACAD_PROXY_OBJECT
  5
30E8
330
30DD
100
AcDbProxyObject
 90
      499
 91
      575
 95
  8192031
 70
     0
162
                 0
161
               249
310
7340000000000000C400000000000000310200800030C02000000300012AFC4C
340
0
 94
        0
  0
ACAD_PROXY_OBJECT
  5
30E9
330
30DD
100
AcDbProxyObject
 90
      499
 91
      576
 95
  8192031
 70
     0
162
             18060
311
4255801BC01C801B00184019C0194008000C4000A013D002500250063003C0048006F006C0065003A00630074006400690061003E002000780020003C0048006F006C0065003A0063007400640065007000740068003E00200055005C0050003C0069006600280065007100750061006C00280048006F006C0065003A00740
311
0610070007000650064002C0022003000220029002C0022002500250063002200200048006F006C0065003A006400690061002C0048006F006C0065003A006E006F006D0069006E0061006C0029003E003C0069006600280065007100750061006C00280048006F006C0065003A007400610070007000650064002C0022003
311
100220029002C0022002000780020002200200048006F006C0065003A00540061007000440065007000740068002C002200220029003E003C0069006600280065007100750061006C00280048006F006C0065003A007400650072006D0069006E006100740069006F006E002C0022003000220029002C00690066002800650
311
07100750061006C00280048006F006C0065003A007400610070007000650064002C0022003000220029002C00220020007800200022002C00220020002F002000220029002C002200220029003E003C0069006600280065007100750061006C00280048006F006C0065003A007400650072006D0069006E006100740069006
311
F006E002C0022003000220029002C0048006F006C0065003A00640065007000740068002C002200220029003E004255801BC01C801B00184019C0194008000C4000B013D002500250063003C0048006F006C0065003A00630074006400690061003E002000780020003C0048006F006C0065003A006300740061006E006700
311
6C0065003E002500250064005C0050003C0069006600280065007100750061006C00280048006F006C0065003A007400610070007000650064002C0022003000220029002C0022002500250063002200200048006F006C0065003A006400690061002C0048006F006C0065003A006E006F006D0069006E0061006C0029003E
311
003C0069006600280065007100750061006C00280048006F006C0065003A007400610070007000650064002C0022003100220029002C0022002000780020002200200048006F006C0065003A00540061007000440065007000740068002C002200220029003E003C0069006600280065007100750061006C00280048006F00
311
6C0065003A007400650072006D0069006E006100740069006F006E002C0022003000220029002C0069006600280065007100750061006C00280048006F006C0065003A007400610070007000650064002C0022003000220029002C00220020007800200022002C00220020002F002000220029002C002200220029003E003C
311
0069006600280065007100750061006C00280048006F006C0065003A007400650072006D0069006E006100740069006F006E002C0022003000220029002C0048006F006C0065003A00640065007000740068002C002200220029003E004255801BC01C801B00184019C0194008000C401E63D003C006900660028006500710
311
0750061006C00280048006F006C0065003A007400610070007000650064002C0022003000220029002C0022002500250063002200200048006F006C0065003A006400690061002C0048006F006C0065003A006E006F006D0069006E0061006C0029003E003C0069006600280065007100750061006C00280048006F006C006
311
5003A007400610070007000650064002C0022003100220029002C0022002000780020002200200048006F006C0065003A00540061007000440065007000740068002C002200220029003E003C0069006600280065007100750061006C00280048006F006C0065003A007400650072006D0069006E006100740069006F006E0
311
02C0022003000220029002C0069006600280065007100750061006C00280048006F006C0065003A007400610070007000650064002C0022003000220029002C00220020007800200022002C00220020002F002000220029002C002200220029003E003C0069006600280065007100750061006C00280048006F006C0065003
311
A007400650072006D0069006E006100740069006F006E002C0022003000220029002C0048006F006C0065003A00640065007000740068002C002200220029003E004255801BC01C801B00184019C0194008000C401F73D002500250063003C0048006F006C0065003A00630074006400690061003E005C0050003C00690066
311
00280065007100750061006C00280048006F006C0065003A007400610070007000650064002C0022003000220029002C0022002500250063002200200048006F006C0065003A006400690061002C0048006F006C0065003A006E006F006D0069006E0061006C0029003E003C0069006600280065007100750061006C002800
311
48006F006C0065003A007400610070007000650064002C0022003100220029002C0022002000780020002200200048006F006C0065003A00540061007000440065007000740068002C002200220029003E003C0069006600280065007100750061006C00280048006F006C0065003A007400650072006D0069006E00610074
311
0069006F006E002C0022003000220029002C0069006600280065007100750061006C00280048006F006C0065003A007400610070007000650064002C0022003000220029002C00220020007800200022002C00220020002F002000220029002C002200220029003E003C0069006600280065007100750061006C0028004800
311
6F006C0065003A007400650072006D0069006E006100740069006F006E002C0022003000220029002C0048006F006C0065003A00640065007000740068002C002200220029003E004255801BC01C801B00184019C0194008000C801173D003C0053005400440050003A0044004500530043003E0020003C005300540044005
311
0003A005300540044003E004255801BC01C801B00184019C0194008000C4010C3D003C0053005400440050003A0044004500530043003E004255801BC01C801B00184019C0194008000CC010B3D003C0053005400440050003A005300540044003E00C
161
               732
310
7340000000000000C400000000000000310200800030C02000000300012AFA1280A17480A15480A0480A0280E9014050340501407480A0280A0280A03A4050141D0140501D20280A3C81A0280E901405480A02A40D01456AAB9B509C
360
3118
330
3118
360
3119
330
3119
360
3117
330
3117
360
311A
330
311A
360
3115
360
3114
360
3116
330
3115
330
3114
330
3116
 94
        0
  0
ACAD_PROXY_OBJECT
  5
30EA
330
30DD
100
AcDbProxyObject
 90
      499
 91
      577
 95
  8192031
 70
     0
162
                26
311
404E800C
161
               305
310
7340000000000000C400000000000000310200800030C02000000300012AFA175203480A03554C
 94
        0
  0
ACAD_PROXY_OBJECT
  5
30EB
330
30DD
100
AcDbProxyObject
 90
      499
 91
      578
 95
  8192031
 70
     0
162
              1066
311
508F400F0014C015001480154010C015000E8010C013C01340140017C013801040134011400F8008000F0014C015001480154010C015000E8015801240114015C017C013801040134011400F80080010401B801CC01A4018C01A001D0008000A000F0014C015001480154010C015000E8014C0158017C014C010C010401300
311
11400F800A400C
161
               332
310
73400000000000014400000000000000310201C00030C02000000300012AFA028100000000000006881C
340
F
 94
        0
  0
ACAD_PROXY_OBJECT
  5
30EC
330
30DD
100
AcDbProxyObject
 90
      499
 91
      558
 95
  8192031
 70
     0
162
                 0
161
               261
310
7340000000000000C400000000000000310200800030C02000000300012AFA0754
340
30EF
 94
        0
  0
ACAD_PROXY_OBJECT
  5
30ED
330
30DD
100
AcDbProxyObject
 90
      499
 91
      559
 95
  8192031
 70
     0
162
               126
311
408F000F801023C003E00409A000DC00
161
               408
310
7340000000000000C400000000000000310200800030C02000000300012AFA080000000000001420000000000000048807FFFC00
340
2DAE
340
0
340
0
340
2DAF
340
2DB0
340
2DB1
340
2DB2
340
2DB3
340
2DB4
340
0
340
2DB0
340
0
 94
        0
  0
ACAD_PROXY_OBJECT
  5
30EE
330
30DD
100
AcDbProxyObject
 90
      499
 91
      579
 95
  8192031
 70
     0
162
             22180
311
4412C01BC01BC01C8019001A401B8018401D0019401B801B001A401CC01D00194013F470045004E0054005200410043004F002C004400450055002C0030002C004B006F006F007200640069006E006100740065006E006C0069007300740065002C00470045004E00540052004100540058002C00250073002C00280047004
311
5004E004D00530047002000670065006E00640069006D007A00200033003000290043CF400F0011001940198018401D401B001D0015001A401D001B0019400F8011242006F006800720075006E006700730064006500660069006E006900740069006F006E005051C01140138015001480104010C013C00B00110011401540
311
0B000C000B0010801BC01A001C801D401B8019C01CC01900194019801A401B801A401D001A401BC01B800B0011C011401380150014801040150016000B0009401CC00B000A0011C011401380134014C011C0080019C019401B8019001A401B401E8008000CC00C400A4010F3D003C00440065006600610075006C007400540
311
0690074006C0065003E004215401C801CC01C001C801D401B8019C0136470045004E0054005200410043004F002C004400450055002C0030002C005500720073007000720075006E0067002C00470045004E00540052004100540058002C00250073002C002800470045004E004D00530047002000670065006E0064006900
311
6D007A002000310029004114001BC01CC00B80132470045004E0054005200410043004F002C004400450055002C0030002C0050006F0073002E002C00470045004E00540052004100540058002C00250073002C002800470045004E004D00530047002000670065006E00640069006D007A002000320029004FCF400F0013C
311
01C801A4019C01A401B800F800F00124011800A0013C014800A00124014C0108013001040138012C00A0013C01C801A4019C01A401B800A400B00124014C0108013001040138012C00A0012401B80190019401E000A400A400B00088008800B0008800B8008800A400F800F0012401B80190019401E000F8010158004BD1C0
311
1140138015001480104010C013C00B001100114015400B000C000B0016000B0011C011401380150014801040150016000B0009401CC00B000A0011C011401380134014C011C0080019C019401B8019001A401B401E8008000CC00A4010159004BD1C01140138015001480104010C013C00B001100114015400B000C000B001
311
6400B0011C011401380150014801040150016000B0009401CC00B000A0011C011401380134014C011C0080019C019401B8019001A401B401E8008000D000A4010172004BD1C01140138015001480104010C013C00B001100114015400B000C000B001C800B0011C011401380150014801040150016000B0009401CC00B000A
311
0011C011401380134014C011C0080019C019401B8019001A401B401E8008000D800A401187B005C006600530079006D0062006F006C007C00620030007C00690030007C00630032007C00700030003B006A007D005191C01140138015001480104010C013C00B001100114015400B000C000B001EC01700198014C01E401B4
311
018801BC01B001F0018800C001F001A400C001F0018C00C801F001C000C000EC01A801F400B0011C011401380150014801040150016000B0009401CC00B000A0011C011401380134014C011C0080019C019401B8019001A401B401E8008000DC00A401032500250063004C51C01140138015001480104010C013C00B001100
311
114015400B000C000B000940094018C00B0011C011401380150014801040150016000B0009401CC00B000A0011C011401380134014C011C0080019C019401B8019001A401B401E8008000E000A4010C42006500730063006800720065006900620075006E0067004ED1C01140138015001480104010C013C00B00110011401
311
5400B000C000B00108019401CC018C01A001C8019401A4018801D401B8019C00B0011C011401380150014801040150016000B0009401CC00B000A0011C011401380134014C011C0080019C019401B8019001A401B401E8008000C800C000A401044E006F0072006D004CD1C01140138015001480104010C013C00B00110011
311
4015400B000C000B0013801BC01C801B400B0011C011401380150014801040150016000B0009401CC00B000A0011C011401380134014C011C0080019C019401B8019001A401B401E8008000C800C400A401085500720073007000720075006E0067004D91C01140138015001480104010C013C00B001100114015400B000C0
311
00B0015401C801CC01C001C801D401B8019C00B0011C011401380150014801040150016000B0009401CC00B000A0011C011401380134014C011C0080019C019401B8019001A401B401E8008000C400A4010131004114001BC01CC00B80133470045004E0054005200410043004F002C004400450055002C0030002C0050006
311
F0073002E002C00470045004E00540052004100540058002C00250073002C002800470045004E004D00530047002000670065006E00640069006D007A0020003100340029004152401B80190019401E00134470045004E0054005200410043004F002C004400450055002C0030002C0049006E006400650078002C00470045
311
004E00540052004100540058002C00250073002C002800470045004E004D00530047002000670065006E00640069006D007A0020003100350029004390801BC01A001C801D401B8019C01CC01B801D401B401B4019401C8013D470045004E0054005200410043004F002C004400450055002C0030002C0042006F006800720
311
075006E00670073006E0075006D006D00650072002C00470045004E00540052004100540058002C00250073002C002800470045004E004D00530047002000670065006E00640069006D007A00200031003700290043D08019401B801D401D001E8019401C8019401B0019401B4019401B801D0013E470045004E0054005200
311
410043004F002C004400450055002C0030002C00420065006E00750074007A006500720065006C0065006D0065006E0074002C00470045004E00540052004100540058002C00250073002C002800470045004E004D00530047002000670065006E00640069006D007A00200032003200290041D0801BC01A001C801D401B80
311
19C0136470045004E0054005200410043004F002C004400450055002C0030002C0042006F006800720075006E0067002C00470045004E00540052004100540058002C00250073002C002800470045004E004D00530047002000670065006E00640069006D007A00200031003600290040D0401B801E80132470045004E0054
311
005200410043004F002C004400450055002C0030002C0041006E007A002C00470045004E00540052004100540058002C00250073002C002800470045004E004D00530047002000670065006E00640069006D007A0020003100390029004FCF400F0013C01C801A4019C01A401B800F800F00124011800A0013C014800A0012
311
4014C0108013001040138012C00A0013C01C801A4019C01A401B800A400B00124014C0108013001040138012C00A0012401B80190019401E000A400A400B00088008800B0008800B8008800A400F800F0012401B80190019401E000F801453D003C004F0072006900670069006E003E003C004900460028004F00520028004
311
900530042004C0041004E004B0028004F0072006900670069006E0029002C004900530042004C0041004E004B00280055007300650072004900740065006D00290029002C00220022002C0022002E00220029003E003C0055007300650072004900740065006D003E00C
161
              7153
310
7340000000000000C400000000000000310200800030C02000000300012AFA46307FFFFFFFA0606000600000000000006204010000618068181800180000000000001881004000186018080F02018000000000000000000000000000000020000000000000620401000061802000000000000062040100006180403F8080F0
310
2018000000000000000000000000000000020000000000000620401000061802000000000000062040100006180403FA1C88222812068220A83A1886A1E80A1C89A2A81A2483A28880000808000808200110A00010101010104002234000202000202000040A8000404000404000081D0000808000808000104A0001010001
310
01030020B4000202000202020041E80004040004001000865000080800080020010DA000101010101040021F40002020002020A01406800040400040414028750000808000808280113A000101000101050022B4000202000202080044A800040400040418008A5220000000000000001CA04FFFFFFFF030000000000000D1
310
027FFFFFFF80800000000000068813FFFFFFFC0400000000000034409FFFFFFFE040000000000001A204FFFFFFFF020000000000000D1027FFFFFFF81800000000000072813FFFFFFFC0C00000000000049409FFFFFFFE0600000000004028A04FFFFFFFF000000000000000D1027FFFFFFF80000000000000048813FFFFFF
310
FC0000000000000034409FFFFFFFE000000000000001A204FFFFFFFF000000000000000D1027FFFFFFF80000000000000068813FFFFFFFC0C00000000000028409FFFFFFFE8800000000000000072813FFFFFFFC0C00000000000034409FFFFFFFE060000000000001A204FFFFFFFF030000000000000D1027FFFFFFF81800
310
000000000068813FFFFFFFC0C00000000000034409FFFFFFFE060000000000001CA04FFFFFFFF03000000000000125027FFFFFFF818000000000100A2813FFFFFFFC0000000000000034409FFFFFFFE0000000000000012204FFFFFFFF000000000000000D1027FFFFFFF80000000000000068813FFFFFFFC0000000000000
310
034409FFFFFFFE060000000000001A204FFFFFFFF030000000000000A1027FFFFFFFA0E8800000021E000000810000002060000008200000020A00000083800000202890000001FFFFFFFE81202000283A2000000087800000204000000818000002080000008280000020E000000810000A068800000021E0000008A80000
310
01FFFFFFFF4C
340
0
340
0
340
0
340
0
340
F
340
F
 94
        0
  0
ACAD_PROXY_OBJECT
  5
30FE
330
30DD
100
AcDbProxyObject
 90
      499
 91
      562
 95
  8192031
 70
     0
162
              7496
311
40D10012401380106440049004E005F00410033004251001240138017C015001240150013001140113440049004E005F00420052005F005200650076006900730069006F006E006C006900730074004410400CC00C8008000A000C800E400DC01E000D400E400D0008001B401B400A40107440049004E005F0041003300320
311
04410400C0008000A000E000D000C401E000C400C400E000E4008001B401B400A40106440049004E005F00410030004450400CC00C0008000A000C800E400DC01E000C400C800CC00C0008001B401B400A40107440049004E005F004100330030004410400C800C4008000A000D000C800C001E000E000D000C4008001B401
311
B400A40107440049004E005F004100320031004450400C800C0008000A000D000C800C001E000C400C400E000E4008001B401B400A40107440049004E005F004100320030004410400CC00C4008000A000C800E400DC01E000E000D000C4008001B401B400A40107440049004E005F0041003300310043D0400CC008000A00
311
0C800E400DC01E000D000C800C0008001B401B400A40106440049004E005F004100330043D0400C8008000A000D000C800C001E000D400E400D0008001B401B400A40106440049004E005F004100320043D0400C4008000A000D400E400D001E000E000D000C4008001B401B400A40106440049004E005F004100310043D04
311
00D0008000A000C800E400DC01E000C800C400C0008001B401B400A40106440049004E005F004100340045934019401D001C801A401CC018C01A0019401CC0080014C018C01A001C801A4019801D00198019401B001900109440049004E005F005400490054004C00450045148019401D801A401CC01A401BC01B801CC01D8
311
019401C801B4019401C801AC017C01080130017C0113440049004E005F0042004C005F005200650076006900730069006F006E006C0069007300740045148019401D801A401CC01A401BC01B801CC01D8019401C801B4019401C801AC017C01500130017C0113440049004E005F0054004C005F00520065007600690073006
311
9006F006E006C0069007300740045148019401D801A401CC01A401BC01B801CC01D8019401C801B4019401C801AC017C01080148017C0113440049004E005F00420052005F005200650076006900730069006F006E006C0069007300740045148019401D801A401CC01A401BC01B801CC01D8019401C801B4019401C801AC0
311
17C01500148017C0113440049004E005F00540052005F005200650076006900730069006F006E006C00690073007400A00
161
               498
310
7340000000000000C400000000000000310200800030C02000000300012AFB2E8520282205400000000002015900000000000000324000000000000007100C
 94
        0
  0
FIELD
  5
3106
102
{ACAD_REACTORS
330
3105
102
}
330
3105
100
AcDbField
  1
_text
  2
%<\_FldIdx 0>% %<\_FldIdx 1>%
 90
        2
360
3107
360
3109
 97
        0
 91
       63
 92
        0
 94
        9
 95
        2
 96
        0
300

 93
        0
  7
ACFD_FIELD_VALUE
 93
        3
 90
        0
 94
        0
300

302

304
ACVALUE_END
301

 98
        0
  0
FIELD
  5
3111
102
{ACAD_REACTORS
330
3110
102
}
330
3110
100
AcDbField
  1
_text
  2
%<\_FldIdx 0>%-%<\_FldIdx 1>%
 90
        2
360
3112
360
3113
 97
        0
 91
       63
 92
        0
 94
        9
 95
        2
 96
        0
300

 93
        0
  7
ACFD_FIELD_VALUE
 93
        3
 90
        0
 94
        0
300

302

304
ACVALUE_END
301

 98
        0
  0
ACAD_PROXY_OBJECT
  5
3118
330
0
100
AcDbProxyObject
 90
      499
 91
      563
 95
  8192031
 70
     0
162
              4428
311
4255801BC01C801B00184019C0194008000C4000A013D002500250063003C0048006F006C0065003A00630074006400690061003E002000780020003C0048006F006C0065003A0063007400640065007000740068003E00200055005C0050003C0069006600280065007100750061006C00280048006F006C0065003A00740
311
0610070007000650064002C0022003000220029002C0022002500250063002200200048006F006C0065003A006400690061002C0048006F006C0065003A006E006F006D0069006E0061006C0029003E003C0069006600280065007100750061006C00280048006F006C0065003A007400610070007000650064002C0022003
311
100220029002C0022002000780020002200200048006F006C0065003A00540061007000440065007000740068002C002200220029003E003C0069006600280065007100750061006C00280048006F006C0065003A007400650072006D0069006E006100740069006F006E002C0022003000220029002C00690066002800650
311
07100750061006C00280048006F006C0065003A007400610070007000650064002C0022003000220029002C00220020007800200022002C00220020002F002000220029002C002200220029003E003C0069006600280065007100750061006C00280048006F006C0065003A007400650072006D0069006E006100740069006
311
F006E002C0022003000220029002C0048006F006C0065003A00640065007000740068002C002200220029003E00C
161
                29
310
7360101C
 94
        0
  0
ACAD_PROXY_OBJECT
  5
3119
330
0
100
AcDbProxyObject
 90
      499
 91
      563
 95
  8192031
 70
     0
162
              4444
311
4255801BC01C801B00184019C0194008000C4000B013D002500250063003C0048006F006C0065003A00630074006400690061003E002000780020003C0048006F006C0065003A006300740061006E0067006C0065003E002500250064005C0050003C0069006600280065007100750061006C00280048006F006C0065003A0
311
07400610070007000650064002C0022003000220029002C0022002500250063002200200048006F006C0065003A006400690061002C0048006F006C0065003A006E006F006D0069006E0061006C0029003E003C0069006600280065007100750061006C00280048006F006C0065003A007400610070007000650064002C002
311
2003100220029002C0022002000780020002200200048006F006C0065003A00540061007000440065007000740068002C002200220029003E003C0069006600280065007100750061006C00280048006F006C0065003A007400650072006D0069006E006100740069006F006E002C0022003000220029002C0069006600280
311
065007100750061006C00280048006F006C0065003A007400610070007000650064002C0022003000220029002C00220020007800200022002C00220020002F002000220029002C002200220029003E003C0069006600280065007100750061006C00280048006F006C0065003A007400650072006D0069006E00610074006
311
9006F006E002C0022003000220029002C0048006F006C0065003A00640065007000740068002C002200220029003E00C
161
                29
310
7360101C
 94
        0
  0
ACAD_PROXY_OBJECT
  5
3117
330
0
100
AcDbProxyObject
 90
      499
 91
      563
 95
  8192031
 70
     0
162
              3844
311
4255801BC01C801B00184019C0194008000C401E63D003C0069006600280065007100750061006C00280048006F006C0065003A007400610070007000650064002C0022003000220029002C0022002500250063002200200048006F006C0065003A006400690061002C0048006F006C0065003A006E006F006D0069006E006
311
1006C0029003E003C0069006600280065007100750061006C00280048006F006C0065003A007400610070007000650064002C0022003100220029002C0022002000780020002200200048006F006C0065003A00540061007000440065007000740068002C002200220029003E003C0069006600280065007100750061006C0
311
0280048006F006C0065003A007400650072006D0069006E006100740069006F006E002C0022003000220029002C0069006600280065007100750061006C00280048006F006C0065003A007400610070007000650064002C0022003000220029002C00220020007800200022002C00220020002F002000220029002C0022002
311
20029003E003C0069006600280065007100750061006C00280048006F006C0065003A007400650072006D0069006E006100740069006F006E002C0022003000220029002C0048006F006C0065003A00640065007000740068002C002200220029003E00C
161
                29
310
7360101C
 94
        0
  0
ACAD_PROXY_OBJECT
  5
311A
330
0
100
AcDbProxyObject
 90
      499
 91
      563
 95
  8192031
 70
     0
162
              4116
311
4255801BC01C801B00184019C0194008000C401F73D002500250063003C0048006F006C0065003A00630074006400690061003E005C0050003C0069006600280065007100750061006C00280048006F006C0065003A007400610070007000650064002C0022003000220029002C0022002500250063002200200048006F006
311
C0065003A006400690061002C0048006F006C0065003A006E006F006D0069006E0061006C0029003E003C0069006600280065007100750061006C00280048006F006C0065003A007400610070007000650064002C0022003100220029002C0022002000780020002200200048006F006C0065003A005400610070004400650
311
07000740068002C002200220029003E003C0069006600280065007100750061006C00280048006F006C0065003A007400650072006D0069006E006100740069006F006E002C0022003000220029002C0069006600280065007100750061006C00280048006F006C0065003A007400610070007000650064002C00220030002
311
20029002C00220020007800200022002C00220020002F002000220029002C002200220029003E003C0069006600280065007100750061006C00280048006F006C0065003A007400650072006D0069006E006100740069006F006E002C0022003000220029002C0048006F006C0065003A00640065007000740068002C00220
311
0220029003E00C
161
                29
310
7360101C
 94
        0
  0
ACAD_PROXY_OBJECT
  5
3115
330
0
100
AcDbProxyObject
 90
      499
 91
      563
 95
  8192031
 70
     0
162
               532
311
4255801BC01C801B00184019C0194008000C801173D003C0053005400440050003A0044004500530043003E0020003C0053005400440050003A005300540044003E00C
161
                29
310
73601014
 94
        0
  0
ACAD_PROXY_OBJECT
  5
3114
330
0
100
AcDbProxyObject
 90
      499
 91
      563
 95
  8192031
 70
     0
162
               356
311
4255801BC01C801B00184019C0194008000C4010C3D003C0053005400440050003A0044004500530043003E00C
161
                29
310
7360101C
 94
        0
  0
ACAD_PROXY_OBJECT
  5
3116
330
0
100
AcDbProxyObject
 90
      499
 91
      563
 95
  8192031
 70
     0
162
               340
311
4255801BC01C801B00184019C0194008000CC010B3D003C0053005400440050003A005300540044003E00C
161
                29
310
73601014
 94
        0
  0
FIELD
  5
3107
330
3106
100
AcDbField
  1
AcVar
  2
\AcVar ViewDetailId
 90
        0
 97
        0
 91
       63
 92
        0
 94
       43
 95
        2
 96
        0
300

 93
        1
  6
Variable
 93
        2
 90
        4
  1
ViewDetailId
 94
        0
300

302

304
ACVALUE_END
  7
ACFD_FIELD_VALUE
 93
        1
 90
        0
 94
        0
300

302

304
ACVALUE_END
301
----
 98
        4
  0
FIELD
  5
3109
330
3106
100
AcDbField
  1
AcVar
  2
\AcVar ViewScale \f "%sn"
 90
        0
 97
        0
 91
       63
 92
        0
 94
       43
 95
        2
 96
        0
300

 93
        1
  6
Variable
 93
        2
 90
        4
  1
ViewScale
 94
        0
300

302

304
ACVALUE_END
  7
ACFD_FIELD_VALUE
 93
        1
 90
        0
 94
        0
300
%sn
302

304
ACVALUE_END
301
----
 98
        4
  0
FIELD
  5
3112
330
3111
100
AcDbField
  1
AcVar
  2
\AcVar ViewSectionStartId
 90
        0
 97
        0
 91
       63
 92
        0
 94
       43
 95
        2
 96
        0
300

 93
        1
  6
Variable
 93
        2
 90
        4
  1
ViewSectionStartId
 94
        0
300

302

304
ACVALUE_END
  7
ACFD_FIELD_VALUE
 93
        1
 90
        0
 94
        0
300

302

304
ACVALUE_END
301
----
 98
        4
  0
FIELD
  5
3113
330
3111
100
AcDbField
  1
AcVar
  2
\AcVar ViewSectionEndId
 90
        0
 97
        0
 91
       63
 92
        0
 94
       43
 95
        2
 96
        0
300

 93
        1
  6
Variable
 93
        2
 90
        4
  1
ViewSectionEndId
 94
        0
300

302

304
ACVALUE_END
  7
ACFD_FIELD_VALUE
 93
        1
 90
        0
 94
        0
300

302

304
ACVALUE_END
301
----
 98
        4
  0
ENDSEC
  0
SECTION
  2
ACDSDATA
 70
     2
 71
     8
  0
ACDSSCHEMA
 90
        0
  1
AcDb_Thumbnail_Schema
  2
AcDbDs::ID
280
    10
 91
        8
  2
Thumbnail_Data
280
    15
 91
        0
101
ACDSRECORD
 95
        0
 90
        1
  2
AcDbDs::TreatedAsObjectData
280
     1
291
     1
101
ACDSRECORD
 95
        0
 90
        2
  2
AcDbDs::Legacy
280
     1
291
     1
101
ACDSRECORD
  1
AcDbDs::ID
 90
        3
  2
AcDs:Indexable
280
     1
291
     1
101
ACDSRECORD
  1
AcDbDs::ID
 90
        4
  2
AcDbDs::HandleAttribute
280
     7
282
     1
  0
ACDSSCHEMA
 90
        1
  1
AcDbDs::TreatedAsObjectDataSchema
  2
AcDbDs::TreatedAsObjectData
280
     1
 91
        0
  0
ACDSSCHEMA
 90
        2
  1
AcDbDs::LegacySchema
  2
AcDbDs::Legacy
280
     1
 91
        0
  0
ACDSSCHEMA
 90
        3
  1
AcDbDs::IndexedPropertySchema
  2
AcDs:Indexable
280
     1
 91
        0
  0
ACDSSCHEMA
 90
        4
  1
AcDbDs::HandleAttributeSchema
  2
AcDbDs::HandleAttribute
280
     7
 91
        1
284
     1
  0
ACDSRECORD
 90
        0
  2
AcDbDs::ID
280
    10
320
34B3
  2
Thumbnail_Data
280
    15
 94
     1794
310
89504E470D0A1A0A0000000D4948445200000100000000B5080300000087DCD12600000300504C5445FFFFFF000000C8C8C80000000000000000000000000000000000000000000000000000330000660000990000CC0000FF0033000033330033660033990033CC0033FF0066000066330066660066990066CC0066FF0099
310
000099330099660099990099CC0099FF00CC0000CC3300CC6600CC9900CCCC00CCFF00FF0000FF3300FF6600FF9900FFCC00FFFF3300003300333300663300993300CC3300FF3333003333333333663333993333CC3333FF3366003366333366663366993366CC3366FF3399003399333399663399993399CC3399FF33CC00
310
33CC3333CC6633CC9933CCCC33CCFF33FF0033FF3333FF6633FF9933FFCC33FFFF6600006600336600666600996600CC6600FF6633006633336633666633996633CC6633FF6666006666336666666666996666CC6666FF6699006699336699666699996699CC6699FF66CC0066CC3366CC6666CC9966CCCC66CCFF66FF0066
310
FF3366FF6666FF9966FFCC66FFFF9900009900339900669900999900CC9900FF9933009933339933669933999933CC9933FF9966009966339966669966999966CC9966FF9999009999339999669999999999CC9999FF99CC0099CC3399CC6699CC9999CCCC99CCFF99FF0099FF3399FF6699FF9999FFCC99FFFFCC0000CC00
310
33CC0066CC0099CC00CCCC00FFCC3300CC3333CC3366CC3399CC33CCCC33FFCC6600CC6633CC6666CC6699CC66CCCC66FFCC9900CC9933CC9966CC9999CC99CCCC99FFCCCC00CCCC33CCCC66CCCC99CCCCCCCCCCFFCCFF00CCFF33CCFF66CCFF99CCFFCCCCFFFFFF0000FF0033FF0066FF0099FF00CCFF00FFFF3300FF3333
310
FF3366FF3399FF33CCFF33FFFF6600FF6633FF6666FF6699FF66CCFF66FFFF9900FF9933FF9966FF9999FF99CCFF99FFFFCC00FFCC33FFCC66FFCC99FFCCCCFFCCFFFFFF00FFFF33FFFF66FFFF99FFFFCCFFFFFF0000000D0D0D1A1A1A2828283535354343435050505D5D5D6B6B6B787878868686939393A1A1A1AEAEAEBB
310
BBBBC9C9C9D6D6D6E4E4E4F1F1F1FFFFFF000000000000000000000000000000000000000000000000000000000000B0E2D235000003BD4944415478DAEDDD5B729C301005D05E4E16EA75F54AF8EACFD42CC2C34B080C424F504BB753658F2B66EC7B68094126037DFE775D1FFA50D70500008C0072A8936F1477E9DC6203
310
E873EF030000000000000000000000000000000000FA0620005CD4BF262A05A0851D5D1A207202715CB6A2BC3FD51902003900A2522401046D571CE09D523F04321CC2DA05F0D8CB0D000800BA07B84C780BD0C424D8FD51206DF20400000000000064031000004007C0604AA68FBC7D7DBD4A6A05608C49C4DF07DBD67CF2
310
6CE21D42F400CCE1BF81C71AC60FC2BB127B89DD18C02E7C6F00C7F066084C8F1B1F027FC32F5F0C7C528D015C861F77FAD401D46E0738C25F7780501B00B7E1AF3A40ACAB2C5A013CC2DFCF015A01BCC353830041E1D7B52FCFAB60B314D63A04C2C32F1BB37500B09F5315406CF81600D6AE8D0AAF1D608D23B1E13503D8
310
635E62C33B00AA5E08FD39AB9B9635FBF0EC135E23C0C96CCF67E1C927BC3680EB431DC785D704E03CABA3C8F07700B55C10712E72ACD11E1CFE6580E5BAEB8F29EBA1A9FBF0C476F89FD0E2EF9F5DC55C158EED004938AB237BF28FD8F31E1D40C5E78003B044855FD347AEA35F0338E930890BFF4DCF145DEF029C0C01F6
310
1DF3A6EF998853E2570530C7718727DA0FFA2400AE0A60FA17ABA0F01900CC0FC90240891D30E50C089F0AB012D400F03DAF9F9386845F26B1D449F03500B1E2130BB159D67A855F47716207E49C03C2B615B1E23309CF63C03B7CF8284EABCCAF113ABE62D33ABC79860F1FC555011CE631139F02C29B495039C030CFFE4C
310
F634E8BBB84F9B032AE980618B3FEDFB90339B160068BB8C377D0E3AB3796C0E2CFA42C9618B1F7162D700809903A2CF6B950350FDF10B030CC163BF318071F733F50C3030F50D4000E81B80BB07E026002405E0B9356D8D004F9ED7D70AF0E0795DBD003A87800000007926C1BE01EA2F0000000000000000000000000000
310
0000000000000000000000000000000000803B4C000000BD0310000000000000000000000000000000000000007EDB4A93009ED704536E9109000000A03A00C90220D5CF8B65011474053A201B80B50E30140A6685320064BDA552DCEFF5985C4E8093772E9DDE4D2A42E2B9B9A34807581AB4FDC7D1A0FBA26A0590932017
310
1DE0BE51ACCA2170F36BDF7440C2AD73538E3DC58680D730777540BC46D006EF0184354810888E0E48F270FFF58B00C5A62EF16A100EBF15B71600BF0E586EB7B77400FB7466B185505D5508A0894A0068BB000000000000000000000000000002000000D06901603E0A045F6C69650B74000000F0E9BCBA07F8054B9AC740
310
5D7342C50000000049454E44AE426082
  0
ACDSRECORD
 90
        0
  2
AcDbDs::ID
280
    10
320
1962
  2
Thumbnail_Data
280
    15
 94
     1262
310
89504E470D0A1A0A0000000D494844520000010000000062080300000088E7FDB100000300504C5445000000000000C8C8C80000000000000000000000000000000000000000000000000000330000660000990000CC0000FF0033000033330033660033990033CC0033FF0066000066330066660066990066CC0066FF0099
310
000099330099660099990099CC0099FF00CC0000CC3300CC6600CC9900CCCC00CCFF00FF0000FF3300FF6600FF9900FFCC00FFFF3300003300333300663300993300CC3300FF3333003333333333663333993333CC3333FF3366003366333366663366993366CC3366FF3399003399333399663399993399CC3399FF33CC00
310
33CC3333CC6633CC9933CCCC33CCFF33FF0033FF3333FF6633FF9933FFCC33FFFF6600006600336600666600996600CC6600FF6633006633336633666633996633CC6633FF6666006666336666666666996666CC6666FF6699006699336699666699996699CC6699FF66CC0066CC3366CC6666CC9966CCCC66CCFF66FF0066
310
FF3366FF6666FF9966FFCC66FFFF9900009900339900669900999900CC9900FF9933009933339933669933999933CC9933FF9966009966339966669966999966CC9966FF9999009999339999669999999999CC9999FF99CC0099CC3399CC6699CC9999CCCC99CCFF99FF0099FF3399FF6699FF9999FFCC99FFFFCC0000CC00
310
33CC0066CC0099CC00CCCC00FFCC3300CC3333CC3366CC3399CC33CCCC33FFCC6600CC6633CC6666CC6699CC66CCCC66FFCC9900CC9933CC9966CC9999CC99CCCC99FFCCCC00CCCC33CCCC66CCCC99CCCCCCCCCCFFCCFF00CCFF33CCFF66CCFF99CCFFCCCCFFFFFF0000FF0033FF0066FF0099FF00CCFF00FFFF3300FF3333
310
FF3366FF3399FF33CCFF33FFFF6600FF6633FF6666FF6699FF66CCFF66FFFF9900FF9933FF9966FF9999FF99CCFF99FFFFCC00FFCC33FFCC66FFCC99FFCCCCFFCCFFFFFF00FFFF33FFFF66FFFF99FFFFCCFFFFFF0000000D0D0D1A1A1A2828283535354343435050505D5D5D6B6B6B787878868686939393A1A1A1AEAEAEBB
310
BBBBC9C9C9D6D6D6E4E4E4F1F1F1FFFFFF00000000000000000000000000000000000000000000000000000000000008F1915C000001A94944415478DAED9C5DB282300C46BBFFC5B084ACA4DBC8BBB714909FB6A0E85C939EF32223CACC779AA6E0380D0100000000E02E7A723A71EF12BF2EE0031817F0FF57F8E529B03F
310
5F1A71E702F44C80F70A70DF03EEB778042000019D0A88198D51F281C5AEF8AE8014388848145199508B05F18E8039BC6401D2958075F8EE04ECC387D0918052F8520598BB31BC22A016BE0F018DF079F18BC9425E06BD091843B5C2E78FA513EB87271F02E6B2D7397B39BC4F01BB39DF0A7F10607E15D8373C6987F725E0
310
C591B72C203DB10C23D3CB90F20DEBEC9BF0430B91E9C0D2C390D6D7F97075E42B1560A4009E02A41A7E5CE3CFAE357FCDAC8025FE217CBC34BA62D1C02260BED12986CFEF9D5FCDAE8034F3352D74A17E8F23576A20589C0399CDFD6DA1DF999CE19791F366EF39FEDF14586ABFBAD2F91630FFA611BA25F61DDFE60AF671
310
03810AE85C40E70A10401344000000000000000000000000B84611D0777C4500029EC7DDF680FCBFF63E056CB67F90E67FFC9D0A5A62AD0454B6C5702EA056162FED1362B04AF4C569D2F6615180DEEB1B8706626CE304FD163C6400000000007C95076CA9FAF3724A17F80000000049454E44AE426082
  0
ENDSEC
  0
EOF
