  0
SECTION
  2
HEADER
  9
$ACADVER
  1
AC1018
  9
$ACADMAINTVER
 70
   104
  9
$DWGCODEPAGE
  3
ANSI_1252
  9
$LASTSAVEDBY
  1
V498957
  9
$INSBASE
 10
0.0
 20
0.0
 30
0.0
  9
$EXTMIN
 10
5374.151176334195
 20
-3561.326129659102
 30
0.0
  9
$EXTMAX
 10
9830.694263244858
 20
910.4771853516245
 30
0.0
  9
$LIMMIN
 10
-1091.180495341761
 20
-619.6501650024412
  9
$LIMMAX
 10
1056.97244419739
 20
951.0353648293053
  9
$ORTHOMODE
 70
     0
  9
$REGENMODE
 70
     1
  9
$FILLMODE
 70
     1
  9
$QTEXTMODE
 70
     0
  9
$MIRRTEXT
 70
     1
  9
$LTSCALE
 40
1.0
  9
$ATTMODE
 70
     1
  9
$TEXTSIZE
 40
100.0
  9
$TRACEWID
 40
0.05
  9
$TEXTSTYLE
  7
VOESTB
  9
$CLAYER
  8
70
  9
$CELTYPE
  6
BYLAYER
  9
$CECOLOR
 62
   256
  9
$CELTSCALE
 40
1.0
  9
$DISPSILH
 70
     0
  9
$DIMSCALE
 40
10.0
  9
$DIMASZ
 40
0.25
  9
$DIMEXO
 40
0.1
  9
$DIMDLI
 40
0.5
  9
$DIMRND
 40
0.0
  9
$DIMDLE
 40
0.0
  9
$DIMEXE
 40
0.25
  9
$DIMTP
 40
0.0
  9
$DIMTM
 40
0.0
  9
$DIMTXT
 40
0.25
  9
$DIMCEN
 40
0.0
  9
$DIMTSZ
 40
0.0
  9
$DIMTOL
 70
     0
  9
$DIMLIM
 70
     0
  9
$DIMTIH
 70
     0
  9
$DIMTOH
 70
     0
  9
$DIMSE1
 70
     0
  9
$DIMSE2
 70
     0
  9
$DIMTAD
 70
     0
  9
$DIMZIN
 70
     0
  9
$DIMBLK
  1

  9
$DIMASO
 70
     1
  9
$DIMSHO
 70
     1
  9
$DIMPOST
  1

  9
$DIMAPOST
  1

  9
$DIMALT
 70
     0
  9
$DIMALTD
 70
     2
  9
$DIMALTF
 40
25.4
  9
$DIMLFAC
 40
1.0
  9
$DIMTOFL
 70
     0
  9
$DIMTVP
 40
0.0
  9
$DIMTIX
 70
     0
  9
$DIMSOXD
 70
     0
  9
$DIMSAH
 70
     0
  9
$DIMBLK1
  1

  9
$DIMBLK2
  1

  9
$DIMSTYLE
  2
TYPENBLATT_M50
  9
$DIMCLRD
 70
     0
  9
$DIMCLRE
 70
     0
  9
$DIMCLRT
 70
     0
  9
$DIMTFAC
 40
1.0
  9
$DIMGAP
 40
0.075
  9
$DIMJUST
 70
     0
  9
$DIMSD1
 70
     0
  9
$DIMSD2
 70
     0
  9
$DIMTOLJ
 70
     1
  9
$DIMTZIN
 70
     0
  9
$DIMALTZ
 70
     0
  9
$DIMALTTZ
 70
     0
  9
$DIMUPT
 70
     0
  9
$DIMDEC
 70
     0
  9
$DIMTDEC
 70
     4
  9
$DIMALTU
 70
     2
  9
$DIMALTTD
 70
     2
  9
$DIMTXSTY
  7
VOEST
  9
$DIMAUNIT
 70
     0
  9
$DIMADEC
 70
     0
  9
$DIMALTRND
 40
0.0
  9
$DIMAZIN
 70
     0
  9
$DIMDSEP
 70
    46
  9
$DIMATFIT
 70
     3
  9
$DIMFRAC
 70
     0
  9
$DIMLDRBLK
  1

  9
$DIMLUNIT
 70
     2
  9
$DIMLWD
 70
    -2
  9
$DIMLWE
 70
    -2
  9
$DIMTMOVE
 70
     0
  9
$LUNITS
 70
     2
  9
$LUPREC
 70
     4
  9
$SKETCHINC
 40
0.1
  9
$FILLETRAD
 40
10.0
  9
$AUNITS
 70
     0
  9
$AUPREC
 70
     4
  9
$MENU
  1
acad
  9
$ELEVATION
 40
0.0
  9
$PELEVATION
 40
0.0
  9
$THICKNESS
 40
0.0
  9
$LIMCHECK
 70
     0
  9
$CHAMFERA
 40
0.0
  9
$CHAMFERB
 40
0.0
  9
$CHAMFERC
 40
1.0
  9
$CHAMFERD
 40
0.0
  9
$SKPOLY
 70
     0
  9
$TDCREATE
 40
2451353.459995197
  9
$TDUCREATE
 40
2451353.376661864
  9
$TDUPDATE
 40
2454656.412477790
  9
$TDUUPDATE
 40
2454656.329144456
  9
$TDINDWG
 40
2.3222104861
  9
$TDUSRTIMER
 40
2.3222104861
  9
$USRTIMER
 70
     1
  9
$ANGBASE
 50
0.0
  9
$ANGDIR
 70
     0
  9
$PDMODE
 70
     0
  9
$PDSIZE
 40
0.0
  9
$PLINEWID
 40
0.0
  9
$SPLFRAME
 70
     0
  9
$SPLINETYPE
 70
     6
  9
$SPLINESEGS
 70
     8
  9
$HANDSEED
  5
1E81
  9
$SURFTAB1
 70
     6
  9
$SURFTAB2
 70
     6
  9
$SURFTYPE
 70
     6
  9
$SURFU
 70
     6
  9
$SURFV
 70
     6
  9
$UCSBASE
  2

  9
$UCSNAME
  2

  9
$UCSORG
 10
0.0
 20
0.0
 30
0.0
  9
$UCSXDIR
 10
1.0
 20
0.0
 30
0.0
  9
$UCSYDIR
 10
0.0
 20
1.0
 30
0.0
  9
$UCSORTHOREF
  2

  9
$UCSORTHOVIEW
 70
     0
  9
$UCSORGTOP
 10
0.0
 20
0.0
 30
0.0
  9
$UCSORGBOTTOM
 10
0.0
 20
0.0
 30
0.0
  9
$UCSORGLEFT
 10
0.0
 20
0.0
 30
0.0
  9
$UCSORGRIGHT
 10
0.0
 20
0.0
 30
0.0
  9
$UCSORGFRONT
 10
0.0
 20
0.0
 30
0.0
  9
$UCSORGBACK
 10
0.0
 20
0.0
 30
0.0
  9
$PUCSBASE
  2

  9
$PUCSNAME
  2

  9
$PUCSORG
 10
0.0
 20
0.0
 30
0.0
  9
$PUCSXDIR
 10
1.0
 20
0.0
 30
0.0
  9
$PUCSYDIR
 10
0.0
 20
1.0
 30
0.0
  9
$PUCSORTHOREF
  2

  9
$PUCSORTHOVIEW
 70
     0
  9
$PUCSORGTOP
 10
0.0
 20
0.0
 30
0.0
  9
$PUCSORGBOTTOM
 10
0.0
 20
0.0
 30
0.0
  9
$PUCSORGLEFT
 10
0.0
 20
0.0
 30
0.0
  9
$PUCSORGRIGHT
 10
0.0
 20
0.0
 30
0.0
  9
$PUCSORGFRONT
 10
0.0
 20
0.0
 30
0.0
  9
$PUCSORGBACK
 10
0.0
 20
0.0
 30
0.0
  9
$USERI1
 70
     0
  9
$USERI2
 70
     0
  9
$USERI3
 70
     0
  9
$USERI4
 70
     0
  9
$USERI5
 70
     0
  9
$USERR1
 40
0.0
  9
$USERR2
 40
0.0
  9
$USERR3
 40
0.0
  9
$USERR4
 40
0.0
  9
$USERR5
 40
0.0
  9
$WORLDVIEW
 70
     1
  9
$SHADEDGE
 70
     3
  9
$SHADEDIF
 70
    70
  9
$TILEMODE
 70
     1
  9
$MAXACTVP
 70
    48
  9
$PINSBASE
 10
0.0
 20
0.0
 30
0.0
  9
$PLIMCHECK
 70
     0
  9
$PEXTMIN
 10
1.000000000000000E+20
 20
1.000000000000000E+20
 30
1.000000000000000E+20
  9
$PEXTMAX
 10
-1.000000000000000E+20
 20
-1.000000000000000E+20
 30
-1.000000000000000E+20
  9
$PLIMMIN
 10
-0.2810685767455632
 20
-0.2449951058284719
  9
$PLIMMAX
 10
7.997916254848838
 20
11.46242428561498
  9
$UNITMODE
 70
     0
  9
$VISRETAIN
 70
     1
  9
$PLINEGEN
 70
     0
  9
$PSLTSCALE
 70
     1
  9
$TREEDEPTH
 70
  3020
  9
$CMLSTYLE
  2
STANDARD
  9
$CMLJUST
 70
     0
  9
$CMLSCALE
 40
1.0
  9
$PROXYGRAPHICS
 70
     1
  9
$MEASUREMENT
 70
     0
  9
$CELWEIGHT
370
    -1
  9
$ENDCAPS
280
     0
  9
$JOINSTYLE
280
     0
  9
$LWDISPLAY
290
     0
  9
$INSUNITS
 70
     0
  9
$HYPERLINKBASE
  1

  9
$STYLESHEET
  1

  9
$XEDIT
290
     1
  9
$CEPSNTYPE
380
     0
  9
$PSTYLEMODE
290
     1
  9
$FINGERPRINTGUID
  2
{B7B02B73-C3B6-11D6-A697-000102FA756E}
  9
$VERSIONGUID
  2
{97D5ABA3-D4CF-432E-95A1-8D310EFA5D11}
  9
$EXTNAMES
290
     1
  9
$PSVPSCALE
 40
0.0
  9
$OLESTARTUP
290
     0
  9
$SORTENTS
280
    96
  9
$INDEXCTL
280
     0
  9
$HIDETEXT
280
     0
  9
$XCLIPFRAME
290
     0
  9
$HALOGAP
280
     0
  9
$OBSCOLOR
 70
   257
  9
$OBSLTYPE
280
     0
  9
$INTERSECTIONDISPLAY
280
     0
  9
$INTERSECTIONCOLOR
 70
   257
  9
$DIMASSOC
280
     1
  9
$PROJECTNAME
  1

  0
ENDSEC
  0
SECTION
  2
CLASSES
  0
CLASS
  1
DICTIONARYVAR
  2
AcDbDictionaryVar
  3
ObjectDBX Classes
 90
        0
 91
        4
280
     0
281
     0
  0
CLASS
  1
ACDBDICTIONARYWDFLT
  2
AcDbDictionaryWithDefault
  3
ObjectDBX Classes
 90
        0
 91
        1
280
     0
281
     0
  0
CLASS
  1
MATERIAL
  2
AcDbMaterial
  3
ObjectDBX Classes
 90
     1153
 91
        3
280
     0
281
     0
  0
CLASS
  1
VISUALSTYLE
  2
AcDbVisualStyle
  3
ObjectDBX Classes
 90
     4095
 91
       16
280
     0
281
     0
  0
CLASS
  1
TABLESTYLE
  2
AcDbTableStyle
  3
ObjectDBX Classes
 90
     4095
 91
        1
280
     0
281
     0
  0
ENDSEC
  0
SECTION
  2
TABLES
  0
TABLE
  2
VPORT
  5
8
330
0
100
AcDbSymbolTable
 70
     1
  0
VPORT
  5
1E47
330
8
100
AcDbSymbolTableRecord
100
AcDbViewportTableRecord
  2
*Active
 70
     0
 10
0.0
 20
0.0
 11
1.0
 21
1.0
 12
7930.364125064324
 22
-1427.316914054052
 13
0.0
 23
0.0
 14
0.5
 24
0.5
 15
0.5
 25
0.5
 16
0.0
 26
0.0
 36
1.0
 17
0.0
 27
0.0
 37
0.0
 40
5672.298633052742
 41
1.758658008658008
 42
50.0
 43
0.0
 44
0.0
 50
0.0
 51
0.0
 71
     0
 72
  5000
 73
     1
 74
     1
 75
     0
 76
     0
 77
     0
 78
     0
281
     0
 65
     1
110
0.0
120
0.0
130
0.0
111
1.0
121
0.0
131
0.0
112
0.0
122
1.0
132
0.0
 79
     0
146
0.0
  0
ENDTAB
  0
TABLE
  2
LTYPE
  5
5
330
0
100
AcDbSymbolTable
 70
     3
  0
LTYPE
  5
12
330
5
100
AcDbSymbolTableRecord
100
AcDbLinetypeTableRecord
  2
BYBLOCK
 70
     0
  3

 72
    65
 73
     0
 40
0.0
  0
LTYPE
  5
13
330
5
100
AcDbSymbolTableRecord
100
AcDbLinetypeTableRecord
  2
BYLAYER
 70
     0
  3

 72
    65
 73
     0
 40
0.0
  0
LTYPE
  5
14
330
5
100
AcDbSymbolTableRecord
100
AcDbLinetypeTableRecord
  2
CONTINUOUS
 70
     0
  3
Solid line
 72
    65
 73
     0
 40
0.0
  0
LTYPE
  5
222
330
5
100
AcDbSymbolTableRecord
100
AcDbLinetypeTableRecord
  2
STRICHPUNKT
 70
     0
  3
Strichpunkt __ . __ . __ . __ . __ . __ . __ . 
 72
    65
 73
     4
 40
25.4
 49
12.7
 74
     0
 49
-6.349999999999999
 74
     0
 49
0.0
 74
     0
 49
-6.349999999999999
 74
     0
  0
LTYPE
  5
223
330
5
100
AcDbSymbolTableRecord
100
AcDbLinetypeTableRecord
  2
STRICHLINIE
 70
     0
  3
Strichlinie __ __ __ __ __ __ __ __ __ __ __ __
 72
    65
 73
     2
 40
19.05
 49
12.7
 74
     0
 49
-6.349999999999999
 74
     0
  0
ENDTAB
  0
TABLE
  2
LAYER
  5
2
102
{ACAD_XDICTIONARY
360
1E72
102
}
330
0
100
AcDbSymbolTable
 70
    10
  0
LAYER
  5
E
330
2
100
AcDbSymbolTableRecord
100
AcDbLayerTableRecord
  2
0
 70
     0
 62
     7
  6
CONTINUOUS
370
    -3
390
1611
  0
LAYER
  5
12F
330
2
100
AcDbSymbolTableRecord
100
AcDbLayerTableRecord
  2
25
 70
     0
 62
     7
  6
CONTINUOUS
370
    -3
390
1611
  0
LAYER
  5
1DA
330
2
100
AcDbSymbolTableRecord
100
AcDbLayerTableRecord
  2
35
 70
     0
 62
     2
  6
CONTINUOUS
370
    -3
390
1611
  0
LAYER
  5
224
330
2
100
AcDbSymbolTableRecord
100
AcDbLayerTableRecord
  2
KOTIERUNG
 70
     0
 62
     7
  6
CONTINUOUS
370
    -3
390
1611
  0
LAYER
  5
225
330
2
100
AcDbSymbolTableRecord
100
AcDbLayerTableRecord
  2
DEFPOINTS
 70
     0
 62
     7
  6
CONTINUOUS
290
     0
370
    -3
390
1611
  0
LAYER
  5
226
330
2
100
AcDbSymbolTableRecord
100
AcDbLayerTableRecord
  2
18
 70
     0
 62
     1
  6
CONTINUOUS
370
    -3
390
1611
  0
LAYER
  5
425
330
2
100
AcDbSymbolTableRecord
100
AcDbLayerTableRecord
  2
50
 70
     0
 62
    33
  6
CONTINUOUS
370
    -3
390
1611
  0
LAYER
  5
14EF
330
2
100
AcDbSymbolTableRecord
100
AcDbLayerTableRecord
  2
TEXT
 70
     0
 62
     7
  6
CONTINUOUS
370
    -3
390
1611
  0
LAYER
  5
17DE
330
2
100
AcDbSymbolTableRecord
100
AcDbLayerTableRecord
  2
70
 70
     0
 62
     5
  6
CONTINUOUS
370
    -3
390
1611
  0
LAYER
  5
184B
330
2
100
AcDbSymbolTableRecord
100
AcDbLayerTableRecord
  2
ZUSATZTEXTE
 70
     0
 62
     7
  6
CONTINUOUS
370
    -3
390
1611
  0
ENDTAB
  0
TABLE
  2
STYLE
  5
3
330
0
100
AcDbSymbolTable
 70
     7
  0
STYLE
  5
F
330
3
100
AcDbSymbolTableRecord
100
AcDbTextStyleTableRecord
  2
STANDARD
 70
     0
 40
0.0
 41
1.0
 50
0.0
 71
     0
 42
25.0
  3
ARIALN.TTF
  4

1001
ACAD
1000
Arial Narrow
1071
       34
  0
STYLE
  5
428
330
3
100
AcDbSymbolTableRecord
100
AcDbTextStyleTableRecord
  2
VOEST
 70
     0
 40
0.0
 41
1.0
 50
0.0
 71
     0
 42
4.0
  3
ARIALN.TTF
  4

1001
ACAD
1000
Arial Narrow
1071
       34
  0
STYLE
  5
15F0
330
3
100
AcDbSymbolTableRecord
100
AcDbTextStyleTableRecord
  2
VOESTB
 70
     0
 40
0.0
 41
1.0
 50
0.0
 71
     0
 42
100.0
  3
ARIALNB.TTF
  4

1001
ACAD
1000
Arial Narrow
1071
 33554466
  0
STYLE
  5
184C
330
3
100
AcDbSymbolTableRecord
100
AcDbTextStyleTableRecord
  2
LOGO1
 70
     0
 40
0.0
 41
1.175
 50
0.0
 71
     0
 42
6.158564712355089
  3
swissb.ttf
  4

1001
ACAD
1000
Swis721 BT
1071
 33554466
  0
STYLE
  5
184D
330
3
100
AcDbSymbolTableRecord
100
AcDbTextStyleTableRecord
  2
LOGO3
 70
     0
 40
0.0
 41
1.175
 50
0.0
 71
     0
 42
6.158564712355089
  3
swissel.ttf
  4

1001
ACAD
1000
Swis721 LtEx BT
1071
       34
  0
STYLE
  5
184E
330
3
100
AcDbSymbolTableRecord
100
AcDbTextStyleTableRecord
  2
LOGO2
 70
     0
 40
0.0
 41
1.175
 50
0.0
 71
     0
 42
6.158564712355089
  3
swiss.ttf
  4

1001
ACAD
1000
Swis721 BT
1071
       34
  0
STYLE
  5
18A6
330
3
100
AcDbSymbolTableRecord
100
AcDbTextStyleTableRecord
  2
AN150
 70
     0
 40
0.0
 41
1.5
 50
0.0
 71
     0
 42
4.0
  3
ARIALN.TTF
  4

1001
ACAD
1000
Arial Narrow
1071
       34
  0
ENDTAB
  0
TABLE
  2
VIEW
  5
6
330
0
100
AcDbSymbolTable
 70
     1
  0
ENDTAB
  0
TABLE
  2
UCS
  5
7
330
0
100
AcDbSymbolTable
 70
     0
  0
ENDTAB
  0
TABLE
  2
APPID
  5
9
330
0
100
AcDbSymbolTable
 70
     5
  0
APPID
  5
10
330
9
100
AcDbSymbolTableRecord
100
AcDbRegAppTableRecord
  2
ACAD
 70
     0
  0
APPID
  5
24
330
9
100
AcDbSymbolTableRecord
100
AcDbRegAppTableRecord
  2
CONTENTTABDATA
 70
     0
  0
APPID
  5
25
330
9
100
AcDbSymbolTableRecord
100
AcDbRegAppTableRecord
  2
CONTENTCURRENTTAB
 70
     0
  0
APPID
  5
116
330
9
100
AcDbSymbolTableRecord
100
AcDbRegAppTableRecord
  2
CONTENTBLOCKICON
 70
     0
  0
APPID
  5
117
330
9
100
AcDbSymbolTableRecord
100
AcDbRegAppTableRecord
  2
CONTENTBLOCKDESCRIPTION
 70
     0
  0
ENDTAB
  0
TABLE
  2
DIMSTYLE
  5
A
330
0
100
AcDbSymbolTable
 70
     5
100
AcDbDimStyleTable
 71
     2
340
EFA
340
EF9
  0
DIMSTYLE
105
1D
330
A
100
AcDbSymbolTableRecord
100
AcDbDimStyleTableRecord
  2
STANDARD
 70
     0
340
F
  0
DIMSTYLE
105
B80
330
A
100
AcDbSymbolTableRecord
100
AcDbDimStyleTableRecord
  2
TYPENBLATT
 70
     0
 40
100.0
 41
0.25
 42
0.5
 43
0.5
 44
0.25
 73
     0
 74
     0
140
0.25
147
0.125
271
     0
340
428
  0
DIMSTYLE
105
EF9
102
{ACAD_REACTORS
330
170A
330
16E9
330
16E8
330
171C
330
172E
330
172F
330
19AF
330
19B0
330
19B1
102
}
330
A
100
AcDbSymbolTableRecord
100
AcDbDimStyleTableRecord
  2
TYPENBLATT_M10
 70
     0
 40
100.0
 41
0.25
 42
0.5
 43
0.5
 44
0.25
 73
     0
 74
     0
 77
     1
140
0.25
147
0.075
271
     0
340
428
  0
DIMSTYLE
105
EFA
330
A
100
AcDbSymbolTableRecord
100
AcDbDimStyleTableRecord
  2
TYPENBLATT_M50
 70
     0
 40
500.0
 41
0.25
 42
0.1
 43
0.5
 44
0.25
 73
     0
 74
     0
 77
     1
140
0.25
147
0.075
271
     0
340
428
  0
DIMSTYLE
105
10C6
330
A
100
AcDbSymbolTableRecord
100
AcDbDimStyleTableRecord
  2
TYPENBLATT_BESCHR
 70
     0
 40
100.0
 41
0.25
 42
0.5
 43
0.25
 44
0.25
 73
     0
 74
     0
140
0.25
141
0.0
147
0.075
271
     0
340
428
  0
ENDTAB
  0
TABLE
  2
BLOCK_RECORD
  5
1
330
0
100
AcDbSymbolTable
 70
    13
  0
BLOCK_RECORD
  5
18
330
1
100
AcDbSymbolTableRecord
100
AcDbBlockTableRecord
  2
*MODEL_SPACE
340
1614
  0
BLOCK_RECORD
  5
15
330
1
100
AcDbSymbolTableRecord
100
AcDbBlockTableRecord
  2
*PAPER_SPACE
340
1615
  0
BLOCK_RECORD
  5
175E
330
1
100
AcDbSymbolTableRecord
100
AcDbBlockTableRecord
  2
*D0
340
0
  0
BLOCK_RECORD
  5
176A
330
1
100
AcDbSymbolTableRecord
100
AcDbBlockTableRecord
  2
*D1
340
0
  0
BLOCK_RECORD
  5
1776
330
1
100
AcDbSymbolTableRecord
100
AcDbBlockTableRecord
  2
*D2
340
0
  0
BLOCK_RECORD
  5
1782
330
1
100
AcDbSymbolTableRecord
100
AcDbBlockTableRecord
  2
*D3
340
0
  0
BLOCK_RECORD
  5
178E
330
1
100
AcDbSymbolTableRecord
100
AcDbBlockTableRecord
  2
*D4
340
0
  0
BLOCK_RECORD
  5
179B
330
1
100
AcDbSymbolTableRecord
100
AcDbBlockTableRecord
  2
*D5
340
0
  0
BLOCK_RECORD
  5
1841
330
1
100
AcDbSymbolTableRecord
100
AcDbBlockTableRecord
  2
VOESTALPINE LOGO
340
0
310
2800000020000000200000000100080000000000000400000000000000000000000000000000000000000000000080000080000000808000800000008000800080800000C0C0C000C0DCC000F0CAA6000020400000206000002080000020A0000020C0000020E00000400000004020000040400000406000004080000040A0
310
000040C0000040E00000600000006020000060400000606000006080000060A0000060C0000060E00000800000008020000080400000806000008080000080A0000080C0000080E00000A0000000A0200000A0400000A0600000A0800000A0A00000A0C00000A0E00000C0000000C0200000C0400000C0600000C0800000C0
310
A00000C0C00000C0E00000E0000000E0200000E0400000E0600000E0800000E0A00000E0C00000E0E00040000000400020004000400040006000400080004000A0004000C0004000E00040200000402020004020400040206000402080004020A0004020C0004020E000404000004040200040404000404060004040800040
310
40A0004040C0004040E00040600000406020004060400040606000406080004060A0004060C0004060E00040800000408020004080400040806000408080004080A0004080C0004080E00040A0000040A0200040A0400040A0600040A0800040A0A00040A0C00040A0E00040C0000040C0200040C0400040C0600040C08000
310
40C0A00040C0C00040C0E00040E0000040E0200040E0400040E0600040E0800040E0A00040E0C00040E0E00080000000800020008000400080006000800080008000A0008000C0008000E00080200000802020008020400080206000802080008020A0008020C0008020E00080400000804020008040400080406000804080
310
008040A0008040C0008040E00080600000806020008060400080606000806080008060A0008060C0008060E00080800000808020008080400080806000808080008080A0008080C0008080E00080A0000080A0200080A0400080A0600080A0800080A0A00080A0C00080A0E00080C0000080C0200080C0400080C0600080C0
310
800080C0A00080C0C00080C0E00080E0000080E0200080E0400080E0600080E0800080E0A00080E0C00080E0E000C0000000C0002000C0004000C0006000C0008000C000A000C000C000C000E000C0200000C0202000C0204000C0206000C0208000C020A000C020C000C020E000C0400000C0402000C0404000C0406000C0
310
408000C040A000C040C000C040E000C0600000C0602000C0604000C0606000C0608000C060A000C060C000C060E000C0800000C0802000C0804000C0806000C0808000C080A000C080C000C080E000C0A00000C0A02000C0A04000C0A06000C0A08000C0A0A000C0A0C000C0A0E000C0C00000C0C02000C0C04000C0C06000
310
C0C08000C0C0A000F0FBFF00A4A0A000808080000000FF0000FF000000FFFF00FF000000FF00FF00FFFF0000FFFFFF0000000000000000000000000000000000000000000000000000000000000000000000000000000000000000000000000000000000000000000000000000000000000000000000000000000000000000
310
00000000000000000000000000000000000000000000000000000000000000000000000000000000000000000000000000000000000000000000000000000000000000000000000000000000000000000000000000000000000000000000000000000000000000000000000000000000000000000000000000000000000000
310
00000000000000000000000000000000000000000000000000000000000000000000000000000000000000000000000000000000000000000000000000000000000000000000000000000000000000000000000000000000000000000000000000000000000000000000000000000000000000000000000000000000000000
310
000000000000000000000000000000000000000000000000000000000000000000000000000000000000000000000000000000000000000000000000000000000000000000000000000000000000000000000000000000000000000000000000000000000000000000000000000000000000000000FFFFFFFFFFFFFFFFFFFF
310
FFFFFFFFFFFFFFFFFFFFFFFFFF000000000000000000FFFF00FF00FF00FF00FFA2A2A2A2A2A2A2A2A200000000000000000000000000FFFFFFFFFFFFFFFFFFFFA2A2A2A2A2A2A2A2A2A20000000000000000000000FFFFFFFFFFFFFFFFFFFFFFA2A2A2A2A2A2A2A2A2A2000000000000000000000000000000000000000000
310
00000000000000000000000000000000000000000000000000000000000000000000000000000000000000000000000000000000000000000000000000000000000000000000000000000000000000000000000000000000000000000000000000000000000000000000000000000000000000000000000000000000000000
310
00000000000000000000000000000000000000000000000000000000000000000000000000000000000000000000000000000000000000000000000000000000000000000000000000000000000000000000000000000000000000000000000000000000000000000000000000000000000000000000000000000000000000
310
00000000000000000000000000000000000000000000000000000000000000000000000000000000000000000000000000000000000000000000000000000000000000000000000000000000000000000000000000000000000000000000000000000000000000000000000000000000000000000000000000000000000000
310
0000000000000000000000000000000000000000000000000000000000000000000000000000000000000000000000000000000000000000
102
{BLKREFS
331
1848
102
}
1001
ACAD
1000
DesignCenter Data
1002
{
1070
     1
1070
     4
1002
}
  0
BLOCK_RECORD
  5
1847
330
1
100
AcDbSymbolTableRecord
100
AcDbBlockTableRecord
  2
LOGO ACAD
340
0
1001
ACAD
1000
DesignCenter Data
1002
{
1070
     1
1070
     4
1002
}
  0
BLOCK_RECORD
  5
1A35
330
1
100
AcDbSymbolTableRecord
100
AcDbBlockTableRecord
  2
*D10
340
0
  0
BLOCK_RECORD
  5
1A41
330
1
100
AcDbSymbolTableRecord
100
AcDbBlockTableRecord
  2
*D11
340
0
  0
BLOCK_RECORD
  5
1A4C
330
1
100
AcDbSymbolTableRecord
100
AcDbBlockTableRecord
  2
*D12
340
0
  0
ENDTAB
  0
ENDSEC
  0
SECTION
  2
BLOCKS
  0
BLOCK
  5
19
330
18
100
AcDbEntity
  8
0
100
AcDbBlockBegin
  2
*MODEL_SPACE
 70
     0
 10
0.0
 20
0.0
 30
0.0
  3
*MODEL_SPACE
  1

  0
ENDBLK
  5
1A
330
18
100
AcDbEntity
  8
0
100
AcDbBlockEnd
  0
BLOCK
  5
16
330
15
100
AcDbEntity
 67
     1
  8
0
100
AcDbBlockBegin
  2
*PAPER_SPACE
 70
     0
 10
0.0
 20
0.0
 30
0.0
  3
*PAPER_SPACE
  1

  0
ENDBLK
  5
17
330
15
100
AcDbEntity
 67
     1
  8
0
100
AcDbBlockEnd
  0
BLOCK
  5
1768
330
175E
100
AcDbEntity
  8
0
100
AcDbBlockBegin
  2
*D0
 70
     1
 10
0.0
 20
0.0
 30
0.0
  3
*D0
  1

  0
LINE
  5
1B58
330
175E
100
AcDbEntity
  8
KOTIERUNG
 62
     0
370
    -2
100
AcDbLine
 10
7260.294337249831
 20
287.7931702119299
 30
0.0
 11
7260.294337249831
 21
-42.97946240429701
 31
0.0
  0
LINE
  5
1B59
330
175E
100
AcDbEntity
  8
KOTIERUNG
 62
     0
370
    -2
100
AcDbLine
 10
7574.920922014918
 20
30.24460021978939
 30
0.0
 11
7574.920922014918
 21
-42.97946240429701
 31
0.0
  0
LINE
  5
1B5A
330
175E
100
AcDbEntity
  8
KOTIERUNG
 62
     0
370
    -2
100
AcDbLine
 10
7310.294337249832
 20
7.02053759570299
 30
0.0
 11
7524.920922014918
 21
7.02053759570299
 31
0.0
  0
SOLID
  5
1B5B
330
175E
100
AcDbEntity
  8
KOTIERUNG
 62
     0
100
AcDbTrace
 10
7310.294337249832
 20
15.35387092903632
 30
0.0
 11
7310.294337249832
 21
-1.312795737630342
 31
0.0
 12
7260.294337249831
 22
7.02053759570299
 32
0.0
 13
7260.294337249831
 23
7.02053759570299
 33
0.0
  0
SOLID
  5
1B5C
330
175E
100
AcDbEntity
  8
KOTIERUNG
 62
     0
100
AcDbTrace
 10
7524.920922014918
 20
15.35387092903632
 30
0.0
 11
7524.920922014918
 21
-1.312795737630342
 31
0.0
 12
7574.920922014918
 22
7.02053759570299
 32
0.0
 13
7574.920922014918
 23
7.02053759570299
 33
0.0
  0
MTEXT
  5
1B5D
330
175E
100
AcDbEntity
  8
KOTIERUNG
 62
     0
100
AcDbMText
 10
7417.607629632375
 20
47.54918698178758
 30
0.0
 40
50.0
 41
0.0
 71
     5
 72
     1
  1
\A1;315
  7
VOEST
 73
     1
 44
1.0
  0
POINT
  5
1B5E
330
175E
100
AcDbEntity
  8
DEFPOINTS
 62
     0
100
AcDbPoint
 10
7260.294337249831
 20
387.7931702119299
 30
0.0
  0
POINT
  5
1B5F
330
175E
100
AcDbEntity
  8
DEFPOINTS
 62
     0
100
AcDbPoint
 10
7574.920922014918
 20
130.2446002197894
 30
0.0
  0
POINT
  5
1B60
330
175E
100
AcDbEntity
  8
DEFPOINTS
 62
     0
100
AcDbPoint
 10
7574.920922014918
 20
7.02053759570299
 30
0.0
  0
ENDBLK
  5
1769
330
175E
100
AcDbEntity
  8
0
100
AcDbBlockEnd
  0
BLOCK
  5
1774
330
176A
100
AcDbEntity
  8
0
100
AcDbBlockBegin
  2
*D1
 70
     1
 10
0.0
 20
0.0
 30
0.0
  3
*D1
  1

  0
LINE
  5
1B4F
330
176A
100
AcDbEntity
  8
KOTIERUNG
 62
     0
370
    -2
100
AcDbLine
 10
7229.576530245393
 20
445.2446002197894
 30
0.0
 11
7120.566185576193
 21
445.2446002197894
 31
0.0
  0
LINE
  5
1B50
330
176A
100
AcDbEntity
  8
KOTIERUNG
 62
     0
370
    -2
100
AcDbLine
 10
7180.294337249832
 20
-424.7553997802105
 30
0.0
 11
7120.566185576193
 21
-424.7553997802105
 31
0.0
  0
LINE
  5
1B51
330
176A
100
AcDbEntity
  8
KOTIERUNG
 62
     0
370
    -2
100
AcDbLine
 10
7170.566185576193
 20
395.2446002197894
 30
0.0
 11
7170.566185576193
 21
-374.7553997802106
 31
0.0
  0
SOLID
  5
1B52
330
176A
100
AcDbEntity
  8
KOTIERUNG
 62
     0
100
AcDbTrace
 10
7162.23285224286
 20
395.2446002197894
 30
0.0
 11
7178.899518909528
 21
395.2446002197894
 31
0.0
 12
7170.566185576193
 22
445.2446002197894
 32
0.0
 13
7170.566185576193
 23
445.2446002197894
 33
0.0
  0
SOLID
  5
1B53
330
176A
100
AcDbEntity
  8
KOTIERUNG
 62
     0
100
AcDbTrace
 10
7162.23285224286
 20
-374.7553997802106
 30
0.0
 11
7178.899518909528
 21
-374.7553997802106
 31
0.0
 12
7170.566185576193
 22
-424.7553997802105
 32
0.0
 13
7170.566185576193
 23
-424.7553997802105
 33
0.0
  0
MTEXT
  5
1B54
330
176A
100
AcDbEntity
  8
KOTIERUNG
 62
     0
100
AcDbMText
 10
7130.037536190108
 20
10.24460021979057
 30
0.0
 40
50.0
 41
0.0
 71
     5
 72
     1
  1
\A1;870
  7
VOEST
 11
0.0000000000000001
 21
1.0
 31
0.0
 73
     1
 44
1.0
  0
POINT
  5
1B55
330
176A
100
AcDbEntity
  8
DEFPOINTS
 62
     0
100
AcDbPoint
 10
7329.576530245393
 20
445.2446002197894
 30
0.0
  0
POINT
  5
1B56
330
176A
100
AcDbEntity
  8
DEFPOINTS
 62
     0
100
AcDbPoint
 10
7280.294337249832
 20
-424.7553997802105
 30
0.0
  0
POINT
  5
1B57
330
176A
100
AcDbEntity
  8
DEFPOINTS
 62
     0
100
AcDbPoint
 10
7170.566185576193
 20
-424.7553997802105
 30
0.0
  0
ENDBLK
  5
1775
330
176A
100
AcDbEntity
  8
0
100
AcDbBlockEnd
  0
BLOCK
  5
1780
330
1776
100
AcDbEntity
  8
0
100
AcDbBlockBegin
  2
*D2
 70
     1
 10
0.0
 20
0.0
 30
0.0
  3
*D2
  1

  0
LINE
  5
1B46
330
1776
100
AcDbEntity
  8
KOTIERUNG
 62
     0
370
    -2
100
AcDbLine
 10
7398.831685015216
 20
-119.0830465953178
 30
0.0
 11
7210.294337249831
 21
-119.0830465953177
 31
0.0
  0
LINE
  5
1B47
330
1776
100
AcDbEntity
  8
KOTIERUNG
 62
     0
370
    -2
100
AcDbLine
 10
7398.831685015216
 20
-424.7553997802105
 30
0.0
 11
7210.294337249831
 21
-424.7553997802105
 31
0.0
  0
LINE
  5
1B48
330
1776
100
AcDbEntity
  8
KOTIERUNG
 62
     0
370
    -2
100
AcDbLine
 10
7260.294337249831
 20
-169.0830465953177
 30
0.0
 11
7260.294337249831
 21
-374.7553997802106
 31
0.0
  0
SOLID
  5
1B49
330
1776
100
AcDbEntity
  8
KOTIERUNG
 62
     0
100
AcDbTrace
 10
7251.961003916498
 20
-169.0830465953177
 30
0.0
 11
7268.627670583166
 21
-169.0830465953177
 31
0.0
 12
7260.294337249831
 22
-119.0830465953177
 32
0.0
 13
7260.294337249831
 23
-119.0830465953177
 33
0.0
  0
SOLID
  5
1B4A
330
1776
100
AcDbEntity
  8
KOTIERUNG
 62
     0
100
AcDbTrace
 10
7251.961003916498
 20
-374.7553997802106
 30
0.0
 11
7268.627670583166
 21
-374.7553997802106
 31
0.0
 12
7260.294337249831
 22
-424.7553997802105
 32
0.0
 13
7260.294337249831
 23
-424.7553997802105
 33
0.0
  0
MTEXT
  5
1B4B
330
1776
100
AcDbEntity
  8
KOTIERUNG
 62
     0
100
AcDbMText
 10
7219.765687863747
 20
-266.7132394717355
 30
0.0
 40
50.0
 41
0.0
 71
     5
 72
     1
  1
\A1;290
  7
VOEST
 11
0.0000000000000001
 21
1.0
 31
0.0
 73
     1
 44
1.0
  0
POINT
  5
1B4C
330
1776
100
AcDbEntity
  8
DEFPOINTS
 62
     0
100
AcDbPoint
 10
7498.831685015216
 20
-119.0830465953178
 30
0.0
  0
POINT
  5
1B4D
330
1776
100
AcDbEntity
  8
DEFPOINTS
 62
     0
100
AcDbPoint
 10
7498.831685015216
 20
-424.7553997802105
 30
0.0
  0
POINT
  5
1B4E
330
1776
100
AcDbEntity
  8
DEFPOINTS
 62
     0
100
AcDbPoint
 10
7260.294337249831
 20
-424.7553997802105
 30
0.0
  0
ENDBLK
  5
1781
330
1776
100
AcDbEntity
  8
0
100
AcDbBlockEnd
  0
BLOCK
  5
178C
330
1782
100
AcDbEntity
  8
0
100
AcDbBlockBegin
  2
*D3
 70
     1
 10
0.0
 20
0.0
 30
0.0
  3
*D3
  1

  0
LINE
  5
1B61
330
1782
100
AcDbEntity
  8
KOTIERUNG
 62
     0
370
    -2
100
AcDbLine
 10
7574.920922014918
 20
-19.75539978021061
 30
0.0
 11
7574.920922014918
 21
-42.97946240429701
 31
0.0
  0
LINE
  5
1B62
330
1782
100
AcDbEntity
  8
KOTIERUNG
 62
     0
370
    -2
100
AcDbLine
 10
7714.920922014918
 20
-19.75539978021061
 30
0.0
 11
7714.920922014918
 21
-42.97946240429701
 31
0.0
  0
LINE
  5
1B63
330
1782
100
AcDbEntity
  8
KOTIERUNG
 62
     0
370
    -2
100
AcDbLine
 10
7624.920922014919
 20
7.02053759570299
 30
0.0
 11
7664.920922014919
 21
7.02053759570299
 31
0.0
  0
SOLID
  5
1B64
330
1782
100
AcDbEntity
  8
KOTIERUNG
 62
     0
100
AcDbTrace
 10
7624.920922014919
 20
15.35387092903632
 30
0.0
 11
7624.920922014919
 21
-1.312795737630342
 31
0.0
 12
7574.920922014918
 22
7.02053759570299
 32
0.0
 13
7574.920922014918
 23
7.02053759570299
 33
0.0
  0
SOLID
  5
1B65
330
1782
100
AcDbEntity
  8
KOTIERUNG
 62
     0
100
AcDbTrace
 10
7664.920922014919
 20
15.35387092903632
 30
0.0
 11
7664.920922014919
 21
-1.312795737630342
 31
0.0
 12
7714.920922014918
 22
7.02053759570299
 32
0.0
 13
7714.920922014918
 23
7.02053759570299
 33
0.0
  0
MTEXT
  5
1B66
330
1782
100
AcDbEntity
  8
KOTIERUNG
 62
     0
100
AcDbMText
 10
7644.920922014918
 20
47.54918698178758
 30
0.0
 40
50.0
 41
0.0
 71
     5
 72
     1
  1
\A1;140
  7
VOEST
 73
     1
 44
1.0
  0
POINT
  5
1B67
330
1782
100
AcDbEntity
  8
DEFPOINTS
 62
     0
100
AcDbPoint
 10
7574.920922014918
 20
80.24460021978939
 30
0.0
  0
POINT
  5
1B68
330
1782
100
AcDbEntity
  8
DEFPOINTS
 62
     0
100
AcDbPoint
 10
7714.920922014918
 20
80.24460021978939
 30
0.0
  0
POINT
  5
1B69
330
1782
100
AcDbEntity
  8
DEFPOINTS
 62
     0
100
AcDbPoint
 10
7714.920922014918
 20
7.02053759570299
 30
0.0
  0
ENDBLK
  5
178D
330
1782
100
AcDbEntity
  8
0
100
AcDbBlockEnd
  0
BLOCK
  5
1799
330
178E
100
AcDbEntity
  8
0
100
AcDbBlockBegin
  2
*D4
 70
     1
 10
0.0
 20
0.0
 30
0.0
  3
*D4
  1

  0
LINE
  5
1B6A
330
178E
100
AcDbEntity
  8
KOTIERUNG
 62
     0
370
    -2
100
AcDbLine
 10
7674.920922014918
 20
395.2446002197894
 30
0.0
 11
7748.586261438621
 21
395.2446002197894
 31
0.0
  0
LINE
  5
1B6B
330
178E
100
AcDbEntity
  8
KOTIERUNG
 62
     0
370
    -2
100
AcDbLine
 10
7724.623069650978
 20
445.2446002197894
 30
0.0
 11
7748.586261438621
 21
445.2446002197894
 31
0.0
  0
LINE
  5
1B6C
330
178E
100
AcDbEntity
  8
KOTIERUNG
 62
     0
370
    -2
100
AcDbLine
 10
7698.58626143862
 20
345.2446002197894
 30
0.0
 11
7698.58626143862
 21
295.2446002197894
 31
0.0
  0
LINE
  5
1B6D
330
178E
100
AcDbEntity
  8
KOTIERUNG
 62
     0
370
    -2
100
AcDbLine
 10
7698.58626143862
 20
495.2446002197894
 30
0.0
 11
7698.58626143862
 21
633.8394160451644
 31
0.0
  0
SOLID
  5
1B6E
330
178E
100
AcDbEntity
  8
KOTIERUNG
 62
     0
100
AcDbTrace
 10
7690.252928105287
 20
345.2446002197894
 30
0.0
 11
7706.919594771953
 21
345.2446002197894
 31
0.0
 12
7698.58626143862
 22
395.2446002197894
 32
0.0
 13
7698.58626143862
 23
395.2446002197894
 33
0.0
  0
SOLID
  5
1B6F
330
178E
100
AcDbEntity
  8
KOTIERUNG
 62
     0
100
AcDbTrace
 10
7690.252928105287
 20
495.2446002197894
 30
0.0
 11
7706.919594771953
 21
495.2446002197894
 31
0.0
 12
7698.58626143862
 22
445.2446002197894
 32
0.0
 13
7698.58626143862
 23
445.2446002197894
 33
0.0
  0
MTEXT
  5
1B70
330
178E
100
AcDbEntity
  8
KOTIERUNG
 62
     0
100
AcDbMText
 10
7658.057612052536
 20
589.5420081324783
 30
0.0
 40
50.0
 41
0.0
 71
     5
 72
     1
  1
\A1;50
  7
VOEST
 11
0.0000000000000001
 21
1.0
 31
0.0
 73
     1
 44
1.0
  0
POINT
  5
1B71
330
178E
100
AcDbEntity
  8
DEFPOINTS
 62
     0
100
AcDbPoint
 10
7574.920922014918
 20
395.2446002197894
 30
0.0
  0
POINT
  5
1B72
330
178E
100
AcDbEntity
  8
DEFPOINTS
 62
     0
100
AcDbPoint
 10
7624.623069650978
 20
445.2446002197894
 30
0.0
  0
POINT
  5
1B73
330
178E
100
AcDbEntity
  8
DEFPOINTS
 62
     0
100
AcDbPoint
 10
7698.58626143862
 20
445.2446002197894
 30
0.0
  0
ENDBLK
  5
179A
330
178E
100
AcDbEntity
  8
0
100
AcDbBlockEnd
  0
BLOCK
  5
17A5
330
179B
100
AcDbEntity
  8
0
100
AcDbBlockBegin
  2
*D5
 70
     1
 10
0.0
 20
0.0
 30
0.0
  3
*D5
  1

  0
LINE
  5
1B74
330
179B
100
AcDbEntity
  8
KOTIERUNG
 62
     0
370
    -2
100
AcDbLine
 10
7814.920922014919
 20
325.2446002197893
 30
0.0
 11
7886.844410708782
 21
325.2446002197893
 31
0.0
  0
LINE
  5
1B75
330
179B
100
AcDbEntity
  8
KOTIERUNG
 62
     0
370
    -2
100
AcDbLine
 10
7429.576530245393
 20
445.2446002197894
 30
0.0
 11
7886.844410708782
 21
445.2446002197892
 31
0.0
  0
LINE
  5
1B76
330
179B
100
AcDbEntity
  8
KOTIERUNG
 62
     0
370
    -2
100
AcDbLine
 10
7836.844410708782
 20
275.2446002197893
 30
0.0
 11
7836.844410708782
 21
225.2446002197894
 31
0.0
  0
LINE
  5
1B77
330
179B
100
AcDbEntity
  8
KOTIERUNG
 62
     0
370
    -2
100
AcDbLine
 10
7836.844410708782
 20
495.2446002197892
 30
0.0
 11
7836.844410708782
 21
545.2446002197892
 31
0.0
  0
SOLID
  5
1B78
330
179B
100
AcDbEntity
  8
KOTIERUNG
 62
     0
100
AcDbTrace
 10
7828.511077375448
 20
275.2446002197893
 30
0.0
 11
7845.177744042115
 21
275.2446002197893
 31
0.0
 12
7836.844410708782
 22
325.2446002197893
 32
0.0
 13
7836.844410708782
 23
325.2446002197893
 33
0.0
  0
SOLID
  5
1B79
330
179B
100
AcDbEntity
  8
KOTIERUNG
 62
     0
100
AcDbTrace
 10
7828.511077375448
 20
495.2446002197892
 30
0.0
 11
7845.177744042115
 21
495.2446002197892
 31
0.0
 12
7836.844410708782
 22
445.2446002197892
 32
0.0
 13
7836.844410708782
 23
445.2446002197892
 33
0.0
  0
MTEXT
  5
1B7A
330
179B
100
AcDbEntity
  8
KOTIERUNG
 62
     0
100
AcDbMText
 10
7796.315761322697
 20
385.2446002197906
 30
0.0
 40
50.0
 41
0.0
 71
     5
 72
     1
  1
\A1;120
  7
VOEST
 11
0.0000000000000001
 21
1.0
 31
0.0
 73
     1
 44
1.0
  0
POINT
  5
1B7B
330
179B
100
AcDbEntity
  8
DEFPOINTS
 62
     0
100
AcDbPoint
 10
7714.920922014918
 20
325.2446002197894
 30
0.0
  0
POINT
  5
1B7C
330
179B
100
AcDbEntity
  8
DEFPOINTS
 62
     0
100
AcDbPoint
 10
7329.576530245393
 20
445.2446002197894
 30
0.0
  0
POINT
  5
1B7D
330
179B
100
AcDbEntity
  8
DEFPOINTS
 62
     0
100
AcDbPoint
 10
7836.844410708782
 20
445.2446002197892
 30
0.0
  0
ENDBLK
  5
17A6
330
179B
100
AcDbEntity
  8
0
100
AcDbBlockEnd
  0
BLOCK
  5
1845
330
1841
100
AcDbEntity
  8
0
100
AcDbBlockBegin
  2
VOESTALPINE LOGO
 70
     0
 10
0.0
 20
0.0
 30
0.0
  3
VOESTALPINE LOGO
  1

  0
TEXT
  5
1842
330
1841
100
AcDbEntity
  8
0
 62
   155
100
AcDbText
 10
-2.022376810040597
 20
1.345163130846486
 30
0.0
 40
4.761899999999999
  1
alpine
 41
1.29
  7
LOGO2
100
AcDbText
  0
TEXT
  5
1843
330
1841
100
AcDbEntity
  8
0
 62
     7
100
AcDbText
 10
-24.96332103124969
 20
-3.319987708589252
 30
0.0
 40
2.050802049214244
  1
KREMS FINALTECHNIK GMBH
 41
1.219999999999999
  7
LOGO3
100
AcDbText
  0
TEXT
  5
1844
330
1841
100
AcDbEntity
  8
0
 62
     7
100
AcDbText
 10
-25.59751279130563
 20
1.29203428188444
 30
0.0
 40
4.761899999999999
  1
voest
 41
1.379999999999999
  7
LOGO1
100
AcDbText
  0
ENDBLK
  5
1846
330
1841
100
AcDbEntity
  8
0
100
AcDbBlockEnd
  0
BLOCK
  5
1849
330
1847
100
AcDbEntity
  8
0
100
AcDbBlockBegin
  2
LOGO ACAD
 70
     0
 10
0.0
 20
0.0
 30
0.0
  3
LOGO ACAD
  1

  0
INSERT
  5
1848
330
1847
100
AcDbEntity
  8
0
100
AcDbBlockReference
  2
VOESTALPINE LOGO
 10
25.66052293085149
 20
-5.598002378525222
 30
0.0
  0
ENDBLK
  5
184A
330
1847
100
AcDbEntity
  8
0
100
AcDbBlockEnd
  0
BLOCK
  5
1A3F
330
1A35
100
AcDbEntity
  8
0
100
AcDbBlockBegin
  2
*D10
 70
     1
 10
0.0
 20
0.0
 30
0.0
  3
*D10
  1

  0
LINE
  5
1CED
330
1A35
100
AcDbEntity
  8
KOTIERUNG
 62
     0
370
    -2
100
AcDbLine
 10
5771.286258449497
 20
-2780.791577051828
 30
0.0
 11
5771.286258449497
 21
-2325.219027243894
 31
0.0
  0
LINE
  5
1CEE
330
1A35
100
AcDbEntity
  8
KOTIERUNG
 62
     0
370
    -2
100
AcDbLine
 10
9571.286258449498
 20
-2730.791577051828
 30
0.0
 11
9571.286258449498
 21
-2325.219027243894
 31
0.0
  0
LINE
  5
1CEF
330
1A35
100
AcDbEntity
  8
KOTIERUNG
 62
     0
370
    -2
100
AcDbLine
 10
5896.286258449497
 20
-2450.219027243895
 30
0.0
 11
9446.286258449498
 21
-2450.219027243895
 31
0.0
  0
SOLID
  5
1CF0
330
1A35
100
AcDbEntity
  8
KOTIERUNG
 62
     0
100
AcDbTrace
 10
5896.286258449497
 20
-2429.385693910561
 30
0.0
 11
5896.286258449497
 21
-2471.052360577228
 31
0.0
 12
5771.286258449497
 22
-2450.219027243895
 32
0.0
 13
5771.286258449497
 23
-2450.219027243895
 33
0.0
  0
SOLID
  5
1CF1
330
1A35
100
AcDbEntity
  8
KOTIERUNG
 62
     0
100
AcDbTrace
 10
9446.286258449498
 20
-2429.385693910561
 30
0.0
 11
9446.286258449498
 21
-2471.052360577228
 31
0.0
 12
9571.286258449498
 22
-2450.219027243895
 32
0.0
 13
9571.286258449498
 23
-2450.219027243895
 33
0.0
  0
MTEXT
  5
1CF2
330
1A35
100
AcDbEntity
  8
KOTIERUNG
 62
     0
100
AcDbMText
 10
7671.286258449498
 20
-2348.897403778683
 30
0.0
 40
125.0
 41
0.0
 71
     5
 72
     1
  1
\A1;3800
  7
VOEST
 73
     1
 44
1.0
  0
POINT
  5
1CF3
330
1A35
100
AcDbEntity
  8
DEFPOINTS
 62
     0
100
AcDbPoint
 10
5771.286258449497
 20
-3030.791577051828
 30
0.0
  0
POINT
  5
1CF4
330
1A35
100
AcDbEntity
  8
DEFPOINTS
 62
     0
100
AcDbPoint
 10
9571.286258449498
 20
-2980.791577051828
 30
0.0
  0
POINT
  5
1CF5
330
1A35
100
AcDbEntity
  8
DEFPOINTS
 62
     0
100
AcDbPoint
 10
9571.286258449498
 20
-2450.219027243895
 30
0.0
  0
ENDBLK
  5
1A40
330
1A35
100
AcDbEntity
  8
0
100
AcDbBlockEnd
  0
BLOCK
  5
1A4A
330
1A41
100
AcDbEntity
  8
0
100
AcDbBlockBegin
  2
*D11
 70
     1
 10
0.0
 20
0.0
 30
0.0
  3
*D11
  1

  0
LINE
  5
1CFF
330
1A41
100
AcDbEntity
  8
KOTIERUNG
 62
     0
370
    -2
100
AcDbLine
 10
7671.286258449498
 20
-2780.791577051828
 30
0.0
 11
7671.286258449498
 21
-2549.836823248324
 31
0.0
  0
LINE
  5
1D00
330
1A41
100
AcDbEntity
  8
KOTIERUNG
 62
     0
370
    -2
100
AcDbLine
 10
9571.286258449498
 20
-2780.791577051828
 30
0.0
 11
9571.286258449498
 21
-2549.836823248324
 31
0.0
  0
LINE
  5
1D01
330
1A41
100
AcDbEntity
  8
KOTIERUNG
 62
     0
370
    -2
100
AcDbLine
 10
7796.286258449498
 20
-2674.836823248324
 30
0.0
 11
9446.286258449498
 21
-2674.836823248324
 31
0.0
  0
SOLID
  5
1D02
330
1A41
100
AcDbEntity
  8
KOTIERUNG
 62
     0
100
AcDbTrace
 10
7796.286258449498
 20
-2654.00348991499
 30
0.0
 11
7796.286258449498
 21
-2695.670156581657
 31
0.0
 12
7671.286258449498
 22
-2674.836823248324
 32
0.0
 13
7671.286258449498
 23
-2674.836823248324
 33
0.0
  0
SOLID
  5
1D03
330
1A41
100
AcDbEntity
  8
KOTIERUNG
 62
     0
100
AcDbTrace
 10
9446.286258449498
 20
-2654.00348991499
 30
0.0
 11
9446.286258449498
 21
-2695.670156581657
 31
0.0
 12
9571.286258449498
 22
-2674.836823248324
 32
0.0
 13
9571.286258449498
 23
-2674.836823248324
 33
0.0
  0
MTEXT
  5
1D04
330
1A41
100
AcDbEntity
  8
KOTIERUNG
 62
     0
100
AcDbMText
 10
8621.286258449499
 20
-2573.515199783112
 30
0.0
 40
125.0
 41
0.0
 71
     5
 72
     1
  1
\A1;1900
  7
VOEST
 73
     1
 44
1.0
  0
POINT
  5
1D05
330
1A41
100
AcDbEntity
  8
DEFPOINTS
 62
     0
100
AcDbPoint
 10
7671.286258449498
 20
-3030.791577051828
 30
0.0
  0
POINT
  5
1D06
330
1A41
100
AcDbEntity
  8
DEFPOINTS
 62
     0
100
AcDbPoint
 10
9571.286258449498
 20
-3030.791577051828
 30
0.0
  0
POINT
  5
1D07
330
1A41
100
AcDbEntity
  8
DEFPOINTS
 62
     0
100
AcDbPoint
 10
9571.286258449498
 20
-2674.836823248324
 30
0.0
  0
ENDBLK
  5
1A4B
330
1A41
100
AcDbEntity
  8
0
100
AcDbBlockEnd
  0
BLOCK
  5
1A56
330
1A4C
100
AcDbEntity
  8
0
100
AcDbBlockBegin
  2
*D12
 70
     1
 10
0.0
 20
0.0
 30
0.0
  3
*D12
  1

  0
LINE
  5
1D1A
330
1A4C
100
AcDbEntity
  8
KOTIERUNG
 62
     0
370
    -2
100
AcDbLine
 10
5771.286258449497
 20
-2780.791577051828
 30
0.0
 11
5771.286258449497
 21
-2549.836823248324
 31
0.0
  0
LINE
  5
1D1B
330
1A4C
100
AcDbEntity
  8
KOTIERUNG
 62
     0
370
    -2
100
AcDbLine
 10
7671.286258449498
 20
-2780.791577051828
 30
0.0
 11
7671.286258449498
 21
-2549.836823248324
 31
0.0
  0
LINE
  5
1D1C
330
1A4C
100
AcDbEntity
  8
KOTIERUNG
 62
     0
370
    -2
100
AcDbLine
 10
5896.286258449497
 20
-2674.836823248324
 30
0.0
 11
7546.286258449498
 21
-2674.836823248324
 31
0.0
  0
SOLID
  5
1D1D
330
1A4C
100
AcDbEntity
  8
KOTIERUNG
 62
     0
100
AcDbTrace
 10
5896.286258449497
 20
-2654.00348991499
 30
0.0
 11
5896.286258449497
 21
-2695.670156581657
 31
0.0
 12
5771.286258449497
 22
-2674.836823248324
 32
0.0
 13
5771.286258449497
 23
-2674.836823248324
 33
0.0
  0
SOLID
  5
1D1E
330
1A4C
100
AcDbEntity
  8
KOTIERUNG
 62
     0
100
AcDbTrace
 10
7546.286258449498
 20
-2654.00348991499
 30
0.0
 11
7546.286258449498
 21
-2695.670156581657
 31
0.0
 12
7671.286258449498
 22
-2674.836823248324
 32
0.0
 13
7671.286258449498
 23
-2674.836823248324
 33
0.0
  0
MTEXT
  5
1D1F
330
1A4C
100
AcDbEntity
  8
KOTIERUNG
 62
     0
100
AcDbMText
 10
6721.286258449499
 20
-2573.515199783112
 30
0.0
 40
125.0
 41
0.0
 71
     5
 72
     1
  1
\A1;1900
  7
VOEST
 73
     1
 44
1.0
  0
POINT
  5
1D20
330
1A4C
100
AcDbEntity
  8
DEFPOINTS
 62
     0
100
AcDbPoint
 10
5771.286258449497
 20
-3030.791577051828
 30
0.0
  0
POINT
  5
1D21
330
1A4C
100
AcDbEntity
  8
DEFPOINTS
 62
     0
100
AcDbPoint
 10
7671.286258449498
 20
-3030.791577051828
 30
0.0
  0
POINT
  5
1D22
330
1A4C
100
AcDbEntity
  8
DEFPOINTS
 62
     0
100
AcDbPoint
 10
7671.286258449498
 20
-2674.836823248324
 30
0.0
  0
ENDBLK
  5
1A57
330
1A4C
100
AcDbEntity
  8
0
100
AcDbBlockEnd
  0
ENDSEC
  0
SECTION
  2
ENTITIES
  0
MTEXT
  5
10E0
330
18
100
AcDbEntity
  8
KOTIERUNG
100
AcDbMText
 10
7495.698312492914
 20
470.9395909145314
 30
0.0
 40
25.0
 41
0.0
 71
     4
 72
     1
  1
\A1;
  7
VOEST
 73
     1
 44
1.0
  0
TEXT
  5
1609
330
18
100
AcDbEntity
  8
TEXT
100
AcDbText
 10
6970.022479535725
 20
780.1906914907785
 30
0.0
 40
100.0
  1
KREMSBARRIER 1 RH2
  7
VOESTB
100
AcDbText
  0
SPLINE
  5
16E6
330
18
100
AcDbEntity
  8
25
100
AcDbSpline
210
0.0
220
0.0
230
1.0
 70
     8
 71
     3
 72
    16
 73
    12
 74
    10
 42
0.0000000001
 43
0.0000000001
 44
0.0000000001
 40
0.0
 40
0.0
 40
0.0
 40
0.0
 40
21.97415543732208
 40
39.14534728958732
 40
54.85153579535438
 40
71.42155665128417
 40
81.36281616062113
 40
101.0123245712992
 40
116.7185130770649
 40
131.5675161221148
 40
146.6570776682071
 40
146.6570776682071
 40
146.6570776682071
 40
146.6570776682071
 10
7574.920922014918
 20
-880.4007411642343
 30
0.0
 10
7582.295390434076
 20
-881.2221593302801
 30
0.0
 10
7595.432465402321
 20
-882.685455586264
 30
0.0
 10
7613.12531371918
 20
-870.6057713196198
 30
0.0
 10
7628.142260243365
 20
-886.2373923878116
 30
0.0
 10
7642.375488369376
 20
-869.9867282585636
 30
0.0
 10
7654.155142220719
 20
-886.3514861496522
 30
0.0
 10
7670.548361045165
 20
-871.1681163863143
 30
0.0
 10
7685.781876800978
 20
-886.9093604961889
 30
0.0
 10
7699.64161480579
 20
-874.4547905977421
 30
0.0
 10
7709.800610194456
 20
-876.0844761892206
 30
0.0
 10
7714.920922014918
 20
-876.9058663049204
 30
0.0
 11
7574.920922014918
 21
-880.4007411642343
 31
0.0
 11
7596.883495447556
 21
-879.6873861337171
 31
0.0
 11
7613.428692626894
 21
-875.0932289831453
 31
0.0
 11
7628.135538457591
 21
-880.6062175638343
 31
0.0
 11
7643.761559962604
 21
-875.0932289831453
 31
0.0
 11
7652.034141031482
 21
-880.6062175638343
 31
0.0
 11
7671.336865233778
 21
-876.9308918433763
 31
0.0
 11
7686.043711064474
 21
-882.4438804240617
 31
0.0
 11
7699.831381220855
 21
-876.9308918433763
 31
0.0
 11
7714.920922014918
 21
-876.9058663049204
 31
0.0
  0
DIMENSION
  5
16E8
330
18
100
AcDbEntity
  8
KOTIERUNG
100
AcDbDimension
  2
*D0
 10
7574.920922014918
 20
7.02053759570299
 30
0.0
 11
7417.607629632375
 21
47.54918698178758
 31
0.0
 70
    32
 71
     5
 42
314.6265847650866
  3
TYPENBLATT_M10
100
AcDbAlignedDimension
 13
7260.294337249831
 23
387.7931702119299
 33
0.0
 14
7574.920922014918
 24
130.2446002197894
 34
0.0
100
AcDbRotatedDimension
1001
ACAD
1000
DSTYLE
1002
{
1070
    40
1040
200.0
1002
}
  0
DIMENSION
  5
16E9
330
18
100
AcDbEntity
  8
KOTIERUNG
100
AcDbDimension
  2
*D1
 10
7170.566185576193
 20
-424.7553997802105
 30
0.0
 11
7130.037536190108
 21
10.24460021979057
 31
0.0
 70
    32
 71
     5
 42
870.0
  3
TYPENBLATT_M10
100
AcDbAlignedDimension
 13
7329.576530245393
 23
445.2446002197894
 33
0.0
 14
7280.294337249832
 24
-424.7553997802105
 34
0.0
 50
90.0
100
AcDbRotatedDimension
1001
ACAD
1000
DSTYLE
1002
{
1070
    40
1040
200.0
1002
}
  0
LINE
  5
16EA
330
18
100
AcDbEntity
  8
50
100
AcDbLine
 10
7574.920922014918
 20
395.2446002197894
 30
0.0
 11
7574.920922014918
 21
130.2446002197894
 31
0.0
  0
LINE
  5
16EC
330
18
100
AcDbEntity
  8
50
100
AcDbLine
 10
7350.420922014919
 20
350.2446002197894
 30
0.0
 11
7367.732713285334
 21
185.5339087176357
 31
0.0
  0
LINE
  5
16EE
330
18
100
AcDbEntity
  8
50
100
AcDbLine
 10
7574.920922014918
 20
-880.4007411642343
 30
0.0
 11
7574.920922014918
 21
325.2446002197894
 31
0.0
  0
LINE
  5
16EF
330
18
100
AcDbEntity
  8
50
100
AcDbLine
 10
7714.920922014918
 20
-876.9058663049204
 30
0.0
 11
7714.920922014918
 21
325.2446002197894
 31
0.0
  0
LINE
  5
16F0
330
18
100
AcDbEntity
  8
18
  6
STRICHLINIE
 48
0.3
100
AcDbLine
 10
7579.920922014919
 20
-880.2759242049731
 30
0.0
 11
7579.920922014919
 21
325.2446002197894
 31
0.0
  0
LINE
  5
16F1
330
18
100
AcDbEntity
  8
18
  6
STRICHLINIE
 48
0.3
100
AcDbLine
 10
7709.920922014919
 20
-877.0306832641816
 30
0.0
 11
7709.920922014919
 21
325.2446002197894
 31
0.0
  0
ARC
  5
16F2
330
18
100
AcDbEntity
  8
70
100
AcDbCircle
 10
7298.174769883981
 20
187.2262488123947
 30
0.0
 40
16.8
100
AcDbArc
 50
125.3725732018817
 51
185.9999999999965
  0
DIMENSION
  5
170A
330
18
100
AcDbEntity
  8
KOTIERUNG
100
AcDbDimension
  2
*D2
 10
7260.294337249831
 20
-424.7553997802105
 30
0.0
 11
7260.294337249831
 21
-266.7132394717355
 31
0.0
 70
   160
  1
290
 71
     5
 42
305.6723531848928
  3
TYPENBLATT_M10
100
AcDbAlignedDimension
 13
7498.831685015216
 23
-119.0830465953178
 33
0.0
 14
7498.831685015216
 24
-424.7553997802105
 34
0.0
 50
90.0
100
AcDbRotatedDimension
1001
ACAD
1000
DSTYLE
1002
{
1070
    40
1040
200.0
1002
}
  0
HATCH
  5
170F
330
18
100
AcDbEntity
  8
18
100
AcDbHatch
 10
0.0
 20
0.0
 30
0.0
210
0.0
220
0.0
230
1.0
  2
ANSI31
 70
     0
 71
     0
 91
        1
 92
        7
 72
     0
 73
     1
 93
        4
 10
7890.497753060069
 20
-424.7553997802107
 10
7127.817703712501
 20
-424.7553997802104
 10
7127.817703712501
 20
-462.3877924811622
 10
7890.497753060067
 20
-462.3877924811623
 97
        0
 75
     0
 76
     1
 52
0.0
 41
100.0
 77
     0
 78
     1
 53
45.0
 43
-57.8232982072841
 44
110.6132589471544
 45
-8.838834764831842
 46
8.838834764831844
 79
     0
 47
0.9188338305433763
 98
        1
 10
7545.409552560911
 20
-435.519851005085
  0
LINE
  5
1710
330
18
100
AcDbEntity
  8
50
100
AcDbLine
 10
7890.497753060067
 20
-424.7553997802105
 30
0.0
 11
7127.817703712501
 21
-424.7553997802105
 31
0.0
  0
LINE
  5
1711
330
18
100
AcDbEntity
  8
50
100
AcDbLine
 10
7280.294337249833
 20
-424.7553997802107
 30
0.0
 11
7280.294337249832
 21
-424.7553997802105
 31
0.0
  0
LINE
  5
1714
330
18
100
AcDbEntity
  8
50
100
AcDbLine
 10
7574.920922014918
 20
130.2446002197894
 30
0.0
 11
7367.732713285334
 21
185.5339087176357
 31
0.0
  0
ARC
  5
1716
330
18
100
AcDbEntity
  8
70
100
AcDbCircle
 10
7301.208881351482
 20
158.3586065158488
 30
0.0
 40
16.8
100
AcDbArc
 50
185.9999999999965
 51
246.8801387770838
  0
LINE
  5
1717
330
18
100
AcDbEntity
  8
70
100
AcDbLine
 10
7281.466802041794
 20
185.4701706294981
 30
0.0
 11
7284.500913509295
 21
156.6025283329522
 31
0.0
  0
LINE
  5
171B
330
18
100
AcDbEntity
  8
70
100
AcDbLine
 10
7294.612261502644
 20
142.9078911094375
 30
0.0
 11
7364.489036976789
 21
113.0742871667862
 31
0.0
  0
DIMENSION
  5
171C
330
18
100
AcDbEntity
  8
KOTIERUNG
100
AcDbDimension
  2
*D3
 10
7714.920922014918
 20
7.02053759570299
 30
0.0
 11
7644.920922014918
 21
47.54918698178758
 31
0.0
 70
    32
 71
     5
 42
140.0
  3
TYPENBLATT_M10
100
AcDbAlignedDimension
 13
7574.920922014918
 23
80.24460021978939
 33
0.0
 14
7714.920922014918
 24
80.24460021978939
 34
0.0
100
AcDbRotatedDimension
1001
ACAD
1000
DSTYLE
1002
{
1070
    40
1040
200.0
1002
}
  0
DIMENSION
  5
172E
330
18
100
AcDbEntity
  8
KOTIERUNG
100
AcDbDimension
  2
*D4
 10
7698.58626143862
 20
445.2446002197894
 30
0.0
 11
7658.057612052536
 21
589.5420081324783
 31
0.0
 70
    32
 71
     5
 42
50.0
  3
TYPENBLATT_M10
100
AcDbAlignedDimension
 13
7574.920922014918
 23
395.2446002197894
 33
0.0
 14
7624.623069650978
 24
445.2446002197894
 34
0.0
 50
90.0
100
AcDbRotatedDimension
1001
ACAD
1000
DSTYLE
1002
{
1070
    40
1040
200.0
1002
}
  0
DIMENSION
  5
172F
330
18
100
AcDbEntity
  8
KOTIERUNG
100
AcDbDimension
  2
*D5
 10
7836.844410708782
 20
445.2446002197892
 30
0.0
 11
7836.844410708782
 21
385.2446002197906
 31
0.0
 70
   160
 71
     5
 42
119.9999999999999
  3
TYPENBLATT_M10
100
AcDbAlignedDimension
 13
7714.920922014918
 23
325.2446002197894
 33
0.0
 14
7329.576530245393
 24
445.2446002197894
 34
0.0
 50
90.0
100
AcDbRotatedDimension
1001
ACAD
1000
DSTYLE
1002
{
1070
    40
1040
200.0
1002
}
  0
LINE
  5
1730
330
18
100
AcDbEntity
  8
50
100
AcDbLine
 10
7574.920922014918
 20
395.2446002197894
 30
0.0
 11
7345.691231427963
 21
395.2446002197894
 31
0.0
  0
LINE
  5
1731
330
18
100
AcDbEntity
  8
50
100
AcDbLine
 10
7350.420922014919
 20
350.2446002197894
 30
0.0
 11
7345.691231427963
 21
395.2446002197894
 31
0.0
  0
LINE
  5
1734
330
18
100
AcDbEntity
  8
70
100
AcDbLine
 10
7263.420480875146
 20
357.1694472669292
 30
0.0
 11
7260.386369407645
 21
386.0370895634751
 31
0.0
  0
LINE
  5
1736
330
18
100
AcDbEntity
  8
70
100
AcDbLine
 10
7349.817444918122
 20
279.452123390437
 30
0.0
 11
7353.197768117958
 21
247.2904964941254
 31
0.0
  0
LINE
  5
1739
330
18
100
AcDbEntity
  8
70
100
AcDbLine
 10
7344.24812230406
 20
278.8667639961381
 30
0.0
 11
7347.141206533248
 21
251.3409062428705
 31
0.0
  0
LINE
  5
173A
330
18
100
AcDbEntity
  8
70
100
AcDbLine
 10
7288.449402526237
 20
200.9250527659133
 30
0.0
 11
7341.322372796212
 21
238.4618377958582
 31
0.0
  0
LINE
  5
173D
330
18
100
AcDbEntity
  8
70
100
AcDbLine
 10
7293.34219736354
 20
194.2988293277656
 30
0.0
 11
7346.215167633515
 21
231.8356143577103
 31
0.0
  0
ARC
  5
173E
330
18
100
AcDbEntity
  8
70
100
AcDbCircle
 10
7336.489800275773
 20
245.5344183112288
 30
0.0
 40
16.8
100
AcDbArc
 50
305.3725732018817
 51
5.999999999996583
  0
ARC
  5
1742
330
18
100
AcDbEntity
  8
70
100
AcDbCircle
 10
7333.217899998093
 20
249.8775077571236
 30
0.0
 40
14.0
100
AcDbArc
 50
305.3725732018817
 51
5.999999999996583
  0
LINE
  5
1743
330
18
100
AcDbEntity
  8
70
100
AcDbLine
 10
7276.852291156089
 20
351.0112461587169
 30
0.0
 11
7336.374196612773
 21
325.2876385898034
 31
0.0
  0
LINE
  5
1745
330
18
100
AcDbEntity
  8
70
100
AcDbLine
 10
7273.463745462258
 20
343.5040556585966
 30
0.0
 11
7332.985650918944
 21
317.7804480896832
 31
0.0
  0
ARC
  5
1748
330
18
100
AcDbEntity
  8
70
100
AcDbCircle
 10
7280.128448717334
 20
358.9255254498257
 30
0.0
 40
16.8
100
AcDbArc
 50
185.9999999999965
 51
246.6274267980964
  0
LINE
  5
174B
330
18
100
AcDbEntity
  8
50
100
AcDbLine
 10
7349.895400838589
 20
355.2446002197894
 30
0.0
 11
7300.420922014919
 21
355.2446002197894
 31
0.0
  0
LINE
  5
174D
330
18
100
AcDbEntity
  8
70
100
AcDbLine
 10
7349.817444918122
 20
279.452123390437
 30
0.0
 11
7346.417461199886
 21
311.6222469814709
 31
0.0
  0
ARC
  5
174E
330
18
100
AcDbEntity
  8
70
100
AcDbCircle
 10
7329.709493357698
 20
309.8661687985741
 30
0.0
 40
16.8
100
AcDbArc
 50
5.999999999996583
 51
66.62742679809643
  0
ARC
  5
1752
330
18
100
AcDbEntity
  8
70
100
AcDbCircle
 10
7327.431731539715
 20
304.929223263659
 30
0.0
 40
14.0
100
AcDbArc
 50
5.999999999996583
 51
66.62742679809643
  0
LINE
  5
1754
330
18
100
AcDbEntity
  8
70
100
AcDbLine
 10
7344.24812230406
 20
278.8667639961381
 30
0.0
 11
7341.355038074872
 21
306.3926217494061
 31
0.0
  0
LINE
  5
1756
330
18
100
AcDbEntity
  8
70
100
AcDbLine
 10
7267.429485007247
 20
401.53473356432
 30
0.0
 11
7329.576530245393
 21
445.2446002197894
 31
0.0
  0
ARC
  5
1758
330
18
100
AcDbEntity
  8
70
100
AcDbCircle
 10
7277.094337249832
 20
387.7931677463717
 30
0.0
 40
16.8
100
AcDbArc
 50
125.1198612229077
 51
185.9999999999965
  0
LINE
  5
175A
330
18
100
AcDbEntity
  8
50
100
AcDbLine
 10
7714.920922014918
 20
325.2446002197894
 30
0.0
 11
7574.920922014918
 21
325.2446002197894
 31
0.0
  0
LINE
  5
17ED
330
18
100
AcDbEntity
  8
70
100
AcDbLine
 10
7714.920922014918
 20
-1067.777268967637
 30
0.0
 11
7714.920922014918
 21
-1086.88017620432
 31
0.0
  0
LINE
  5
17EE
330
18
100
AcDbEntity
  8
70
100
AcDbLine
 10
7574.920922014918
 20
-1075.303628724717
 30
0.0
 11
7574.920922014918
 21
-1045.277268967637
 31
0.0
  0
LINE
  5
17EF
330
18
100
AcDbEntity
  8
70
100
AcDbLine
 10
7584.846908568042
 20
-1086.251071125383
 30
0.0
 11
7702.846908568041
 21
-1097.827618604988
 31
0.0
  0
ARC
  5
17F0
330
18
100
AcDbEntity
  8
70
100
AcDbCircle
 10
7585.920922014918
 20
-1075.303628724716
 30
0.0
 40
11.0
100
AcDbArc
 50
180.0
 51
264.3968516704557
  0
ARC
  5
17F1
330
18
100
AcDbEntity
  8
70
100
AcDbCircle
 10
7703.920922014919
 20
-1086.88017620432
 30
0.0
 40
11.0
100
AcDbArc
 50
264.3968516704557
 51
0.0
  0
LINE
  5
17F2
330
18
100
AcDbEntity
  8
70
100
AcDbLine
 10
7574.920922014918
 20
-1015.250909210556
 30
0.0
 11
7574.920922014918
 21
-1045.277268967637
 31
0.0
  0
LINE
  5
17F3
330
18
100
AcDbEntity
  8
70
100
AcDbLine
 10
7584.846908568042
 20
-1004.30346680989
 30
0.0
 11
7702.846908568041
 21
-992.7269193302855
 31
0.0
  0
ARC
  5
17F4
330
18
100
AcDbEntity
  8
70
100
AcDbCircle
 10
7585.920922014918
 20
-1015.250909210556
 30
0.0
 40
11.0
100
AcDbArc
 50
95.60314832954436
 51
180.0
  0
ARC
  5
17F5
330
18
100
AcDbEntity
  8
70
100
AcDbCircle
 10
7703.920922014919
 20
-1003.674361730952
 30
0.0
 40
11.0
100
AcDbArc
 50
0.0
 51
95.60314832954436
  0
LINE
  5
17F6
330
18
100
AcDbEntity
  8
70
100
AcDbLine
 10
7714.920922014918
 20
-1022.777268967637
 30
0.0
 11
7714.920922014918
 21
-1003.674361730952
 31
0.0
  0
LINE
  5
1805
330
18
100
AcDbEntity
  8
70
100
AcDbLine
 10
7514.920922014917
 20
-75.00411108617379
 30
0.0
 11
7514.920922014917
 21
-164.506688474246
 31
0.0
  0
LINE
  5
1806
330
18
100
AcDbEntity
  8
70
100
AcDbLine
 10
7561.420922014919
 20
-196.5496284142701
 30
0.0
 11
7519.420922014919
 21
-172.300917108306
 31
0.0
  0
ARC
  5
1807
330
18
100
AcDbEntity
  8
70
100
AcDbCircle
 10
7523.920922014919
 20
-164.506688474246
 30
0.0
 40
9.0
100
AcDbArc
 50
180.0
 51
239.9999999999995
  0
LINE
  5
1808
330
18
100
AcDbEntity
  8
70
100
AcDbLine
 10
7574.920922014918
 20
-188.7553997802101
 30
0.0
 11
7574.920922014918
 21
-150.7553997802101
 31
0.0
  0
ARC
  5
1809
330
18
100
AcDbEntity
  8
70
100
AcDbCircle
 10
7565.920922014919
 20
-188.7553997802101
 30
0.0
 40
9.0
100
AcDbArc
 50
239.9999999999995
 51
0.0
  0
LINE
  5
180A
330
18
100
AcDbEntity
  8
70
100
AcDbLine
 10
7561.420922014919
 20
-42.96117114615026
 30
0.0
 11
7519.420922014919
 21
-67.20988245211379
 31
0.0
  0
ARC
  5
180B
330
18
100
AcDbEntity
  8
70
100
AcDbCircle
 10
7523.920922014919
 20
-75.00411108617379
 30
0.0
 40
9.0
100
AcDbArc
 50
120.0000000000005
 51
180.0
  0
LINE
  5
180C
330
18
100
AcDbEntity
  8
70
100
AcDbLine
 10
7574.920922014918
 20
-88.75539978021015
 30
0.0
 11
7574.920922014918
 21
-50.75539978021016
 31
0.0
  0
ARC
  5
180D
330
18
100
AcDbEntity
  8
70
100
AcDbCircle
 10
7565.920922014919
 20
-50.75539978021016
 30
0.0
 40
9.0
100
AcDbArc
 50
0.0
 51
120.0000000000005
  0
LINE
  5
1966
330
18
100
AcDbEntity
  8
25
100
AcDbLine
 10
9830.694263244854
 20
-3310.791577051828
 30
0.0
 11
5374.151176334196
 21
-3310.791577051828
 31
0.0
  0
LINE
  5
1967
330
18
100
AcDbEntity
  8
25
100
AcDbLine
 10
9830.694263244856
 20
-3250.791577051829
 30
0.0
 11
5374.151176334195
 21
-3250.791577051828
 31
0.0
  0
LINE
  5
1968
330
18
100
AcDbEntity
  8
25
100
AcDbLine
 10
9830.694263244858
 20
-3561.326129659102
 30
0.0
 11
5374.151176334195
 21
-3561.326129659102
 31
0.0
  0
LINE
  5
1969
330
18
100
AcDbEntity
  8
25
100
AcDbLine
 10
9830.694263244858
 20
-3490.525160114257
 30
0.0
 11
5374.151176334195
 21
-3490.525160114256
 31
0.0
  0
DIMENSION
  5
19AF
330
18
100
AcDbEntity
  8
KOTIERUNG
100
AcDbDimension
  2
*D10
 10
9571.286258449498
 20
-2450.219027243895
 30
0.0
 11
7671.286258449498
 21
-2348.897403778683
 31
0.0
 70
    32
 71
     5
 42
3800.000000000001
  3
TYPENBLATT_M10
100
AcDbAlignedDimension
 13
5771.286258449497
 23
-3030.791577051828
 33
0.0
 14
9571.286258449498
 24
-2980.791577051828
 34
0.0
100
AcDbRotatedDimension
1001
ACAD
1000
DSTYLE
1002
{
1070
    40
1040
500.0
1002
}
  0
DIMENSION
  5
19B0
330
18
100
AcDbEntity
  8
KOTIERUNG
100
AcDbDimension
  2
*D11
 10
9571.286258449498
 20
-2674.836823248324
 30
0.0
 11
8621.286258449499
 21
-2573.515199783112
 31
0.0
 70
    32
 71
     5
 42
1900.0
  3
TYPENBLATT_M10
100
AcDbAlignedDimension
 13
7671.286258449498
 23
-3030.791577051828
 33
0.0
 14
9571.286258449498
 24
-3030.791577051828
 34
0.0
100
AcDbRotatedDimension
1001
ACAD
1000
DSTYLE
1002
{
1070
    40
1040
500.0
1002
}
  0
DIMENSION
  5
19B1
330
18
100
AcDbEntity
  8
KOTIERUNG
100
AcDbDimension
  2
*D12
 10
7671.286258449498
 20
-2674.836823248324
 30
0.0
 11
6721.286258449499
 21
-2674.836823248324
 31
0.0
 70
   160
 71
     5
 42
1900.000000000001
  3
TYPENBLATT_M10
100
AcDbAlignedDimension
 13
5771.286258449497
 23
-3030.791577051828
 33
0.0
 14
7671.286258449498
 24
-3030.791577051828
 34
0.0
100
AcDbRotatedDimension
1001
ACAD
1000
DSTYLE
1002
{
1070
    40
1040
500.0
1002
}
  0
LINE
  5
19B8
330
18
100
AcDbEntity
  8
35
 48
0.2
100
AcDbLine
 10
5611.286258449497
 20
-3490.525160114257
 30
0.0
 11
5611.286258449497
 21
-3561.326129659102
 31
0.0
  0
LINE
  5
19BB
330
18
100
AcDbEntity
  8
18
  6
STRICHLINIE
 48
0.05
100
AcDbLine
 10
5931.286258449497
 20
-3490.525160114257
 30
0.0
 11
5931.286258449497
 21
-3561.326129659102
 31
0.0
  0
LINE
  5
19C6
330
18
100
AcDbEntity
  8
35
 48
0.2
100
AcDbLine
 10
5491.286258449497
 20
-3310.791577051828
 30
0.0
 11
5491.286258449497
 21
-3250.791577051828
 31
0.0
  0
LINE
  5
1A0A
330
18
100
AcDbEntity
  8
35
 48
0.2
100
AcDbLine
 10
9291.286258449497
 20
-3310.791577051828
 30
0.0
 11
9291.286258449497
 21
-3250.791577051828
 31
0.0
  0
LINE
  5
1C59
330
18
100
AcDbEntity
  8
18
  6
STRICHPUNKT
 48
0.5
100
AcDbLine
 10
7671.286258449497
 20
-3310.791577051828
 30
0.0
 11
7671.286258449497
 21
-3030.791577051827
 31
0.0
  0
LINE
  5
1C5A
330
18
100
AcDbEntity
  8
70
100
AcDbLine
 10
7712.260060607244
 20
-3240.865590498704
 30
0.0
 11
7723.836608086848
 21
-3122.865590498705
 31
0.0
  0
LINE
  5
1C5B
330
18
100
AcDbEntity
  8
70
100
AcDbLine
 10
7630.312456291751
 20
-3240.865590498704
 30
0.0
 11
7618.735908812145
 21
-3122.865590498705
 31
0.0
  0
ARC
  5
1C5C
330
18
100
AcDbEntity
  8
70
100
AcDbCircle
 10
7629.683351212811
 20
-3121.791577051828
 30
0.0
 40
11.0
100
AcDbArc
 50
90.0
 51
185.6031483295443
  0
ARC
  5
1C5D
330
18
100
AcDbEntity
  8
70
100
AcDbCircle
 10
7712.889165686181
 20
-3121.791577051828
 30
0.0
 40
11.0
100
AcDbArc
 50
354.3968516704556
 51
90.0
  0
ARC
  5
1C5E
330
18
100
AcDbEntity
  8
70
100
AcDbCircle
 10
7671.286258449498
 20
-3362.291577051828
 30
0.0
 40
117.85
100
AcDbArc
 50
108.8942349104337
 51
247.6539647909126
  0
ARC
  5
1C5F
330
18
100
AcDbEntity
  8
70
100
AcDbCircle
 10
7671.286258449498
 20
-3362.291577051828
 30
0.0
 40
117.85
100
AcDbArc
 50
292.3460352090874
 51
71.10576508956625
  0
LINE
  5
1C60
330
18
100
AcDbEntity
  8
70
100
AcDbLine
 10
7626.479757805059
 20
-3471.291577051828
 30
0.0
 11
7716.092759093935
 21
-3471.291577051828
 31
0.0
  0
LINE
  5
1C61
330
18
100
AcDbEntity
  8
70
100
AcDbLine
 10
7639.286258449498
 20
-3471.291577051828
 30
0.0
 11
7639.286258449498
 21
-3490.525160114257
 31
0.0
  0
LINE
  5
1C62
330
18
100
AcDbEntity
  8
70
100
AcDbLine
 10
7671.286258449498
 20
-3471.291577051828
 30
0.0
 11
7671.286258449498
 21
-3490.525160114257
 31
0.0
  0
LINE
  5
1C63
330
18
100
AcDbEntity
  8
70
100
AcDbLine
 10
7703.286258449498
 20
-3471.291577051828
 30
0.0
 11
7703.286258449496
 21
-3490.525160114257
 31
0.0
  0
ARC
  5
1C64
330
18
100
AcDbEntity
  8
70
100
AcDbCircle
 10
7701.312618206576
 20
-3239.791577051828
 30
0.0
 40
11.0
100
AcDbArc
 50
270.0
 51
354.3968516704556
  0
ARC
  5
1C65
330
18
100
AcDbEntity
  8
70
100
AcDbCircle
 10
7641.259898692417
 20
-3239.791577051828
 30
0.0
 40
11.0
100
AcDbArc
 50
185.6031483295443
 51
270.0
  0
LINE
  5
1C68
330
18
100
AcDbEntity
  8
70
100
AcDbLine
 10
7641.259898692417
 20
-3250.791577051828
 30
0.0
 11
7671.286258449497
 21
-3250.791577051828
 31
0.0
  0
LINE
  5
1C6B
330
18
100
AcDbEntity
  8
70
100
AcDbLine
 10
7671.286258449497
 20
-3250.791577051828
 30
0.0
 11
7701.312618206576
 21
-3250.791577051828
 31
0.0
  0
ARC
  5
1C6C
330
18
100
AcDbEntity
  8
70
100
AcDbCircle
 10
5771.286258449498
 20
-3362.291577051828
 30
0.0
 40
117.85
100
AcDbArc
 50
292.3460352090874
 51
71.10576508956625
  0
ARC
  5
1C6D
330
18
100
AcDbEntity
  8
70
100
AcDbCircle
 10
5771.286258449498
 20
-3362.291577051828
 30
0.0
 40
117.85
100
AcDbArc
 50
108.8942349104337
 51
247.6539647909126
  0
LINE
  5
1C6E
330
18
100
AcDbEntity
  8
70
100
AcDbLine
 10
5726.479757805059
 20
-3471.291577051828
 30
0.0
 11
5816.092759093936
 21
-3471.291577051828
 31
0.0
  0
LINE
  5
1C6F
330
18
100
AcDbEntity
  8
70
100
AcDbLine
 10
5739.286258449498
 20
-3471.291577051828
 30
0.0
 11
5739.286258449498
 21
-3490.525160114257
 31
0.0
  0
LINE
  5
1C70
330
18
100
AcDbEntity
  8
70
100
AcDbLine
 10
5803.286258449498
 20
-3471.291577051828
 30
0.0
 11
5803.286258449497
 21
-3490.525160114257
 31
0.0
  0
LINE
  5
1C71
330
18
100
AcDbEntity
  8
70
100
AcDbLine
 10
5771.286258449498
 20
-3471.291577051828
 30
0.0
 11
5771.286258449498
 21
-3490.525160114257
 31
0.0
  0
LINE
  5
1C72
330
18
100
AcDbEntity
  8
18
  6
STRICHPUNKT
 48
0.5
100
AcDbLine
 10
5771.286258449497
 20
-3310.791577051828
 30
0.0
 11
5771.286258449497
 21
-3030.791577051827
 31
0.0
  0
ARC
  5
1C73
330
18
100
AcDbEntity
  8
70
100
AcDbCircle
 10
5741.259898692415
 20
-3239.791577051828
 30
0.0
 40
11.0
100
AcDbArc
 50
185.6031483295443
 51
270.0
  0
ARC
  5
1C74
330
18
100
AcDbEntity
  8
70
100
AcDbCircle
 10
5801.312618206576
 20
-3239.791577051828
 30
0.0
 40
11.0
100
AcDbArc
 50
270.0
 51
354.3968516704556
  0
LINE
  5
1C75
330
18
100
AcDbEntity
  8
70
100
AcDbLine
 10
5741.259898692416
 20
-3250.791577051828
 30
0.0
 11
5771.286258449497
 21
-3250.791577051828
 31
0.0
  0
LINE
  5
1C76
330
18
100
AcDbEntity
  8
70
100
AcDbLine
 10
5771.286258449497
 20
-3250.791577051828
 30
0.0
 11
5801.312618206576
 21
-3250.791577051828
 31
0.0
  0
LINE
  5
1C77
330
18
100
AcDbEntity
  8
70
100
AcDbLine
 10
5730.31245629175
 20
-3240.865590498704
 30
0.0
 11
5718.735908812146
 21
-3122.865590498705
 31
0.0
  0
LINE
  5
1C78
330
18
100
AcDbEntity
  8
70
100
AcDbLine
 10
5812.260060607243
 20
-3240.865590498704
 30
0.0
 11
5823.836608086848
 21
-3122.865590498705
 31
0.0
  0
ARC
  5
1C79
330
18
100
AcDbEntity
  8
70
100
AcDbCircle
 10
5729.683351212812
 20
-3121.791577051828
 30
0.0
 40
11.0
100
AcDbArc
 50
90.0
 51
185.6031483295443
  0
ARC
  5
1C7A
330
18
100
AcDbEntity
  8
70
100
AcDbCircle
 10
5812.889165686181
 20
-3121.791577051828
 30
0.0
 40
11.0
100
AcDbArc
 50
354.3968516704556
 51
90.0
  0
ARC
  5
1C8A
330
18
100
AcDbEntity
  8
70
100
AcDbCircle
 10
9571.286258449498
 20
-3362.291577051828
 30
0.0
 40
117.85
100
AcDbArc
 50
108.8942349104337
 51
247.6539647909126
  0
ARC
  5
1C8B
330
18
100
AcDbEntity
  8
70
100
AcDbCircle
 10
9571.286258449498
 20
-3362.291577051828
 30
0.0
 40
117.85
100
AcDbArc
 50
292.3460352090874
 51
71.10576508956625
  0
LINE
  5
1C8C
330
18
100
AcDbEntity
  8
35
 48
0.2
100
AcDbLine
 10
9411.286258449498
 20
-3490.525160114257
 30
0.0
 11
9411.286258449498
 21
-3561.326129659102
 31
0.0
  0
LINE
  5
1C8D
330
18
100
AcDbEntity
  8
70
100
AcDbLine
 10
9526.479757805061
 20
-3471.291577051828
 30
0.0
 11
9616.092759093936
 21
-3471.291577051828
 31
0.0
  0
LINE
  5
1C8E
330
18
100
AcDbEntity
  8
70
100
AcDbLine
 10
9571.286258449498
 20
-3471.291577051828
 30
0.0
 11
9571.286258449498
 21
-3490.525160114257
 31
0.0
  0
LINE
  5
1C8F
330
18
100
AcDbEntity
  8
70
100
AcDbLine
 10
9539.286258449498
 20
-3471.291577051828
 30
0.0
 11
9539.286258449498
 21
-3490.525160114257
 31
0.0
  0
LINE
  5
1C90
330
18
100
AcDbEntity
  8
70
100
AcDbLine
 10
9603.286258449498
 20
-3471.291577051828
 30
0.0
 11
9603.286258449498
 21
-3490.525160114257
 31
0.0
  0
LINE
  5
1C91
330
18
100
AcDbEntity
  8
18
  6
STRICHLINIE
 48
0.05
100
AcDbLine
 10
9731.286258449499
 20
-3490.525160114257
 30
0.0
 11
9731.286258449499
 21
-3561.326129659102
 31
0.0
  0
LINE
  5
1C92
330
18
100
AcDbEntity
  8
18
  6
STRICHPUNKT
 48
0.5
100
AcDbLine
 10
9571.286258449498
 20
-3310.791577051828
 30
0.0
 11
9571.286258449498
 21
-3030.791577051827
 31
0.0
  0
ARC
  5
1C93
330
18
100
AcDbEntity
  8
70
100
AcDbCircle
 10
9601.312618206577
 20
-3239.791577051828
 30
0.0
 40
11.0
100
AcDbArc
 50
270.0
 51
354.3968516704556
  0
ARC
  5
1C94
330
18
100
AcDbEntity
  8
70
100
AcDbCircle
 10
9541.259898692416
 20
-3239.791577051828
 30
0.0
 40
11.0
100
AcDbArc
 50
185.6031483295443
 51
270.0
  0
LINE
  5
1C95
330
18
100
AcDbEntity
  8
70
100
AcDbLine
 10
9571.286258449498
 20
-3250.791577051828
 30
0.0
 11
9601.312618206577
 21
-3250.791577051828
 31
0.0
  0
LINE
  5
1C96
330
18
100
AcDbEntity
  8
70
100
AcDbLine
 10
9541.259898692416
 20
-3250.791577051828
 30
0.0
 11
9571.286258449498
 21
-3250.791577051828
 31
0.0
  0
LINE
  5
1C97
330
18
100
AcDbEntity
  8
70
100
AcDbLine
 10
9612.260060607246
 20
-3240.865590498704
 30
0.0
 11
9623.836608086847
 21
-3122.865590498705
 31
0.0
  0
LINE
  5
1C98
330
18
100
AcDbEntity
  8
70
100
AcDbLine
 10
9530.312456291751
 20
-3240.865590498704
 30
0.0
 11
9518.735908812145
 21
-3122.865590498705
 31
0.0
  0
ARC
  5
1C99
330
18
100
AcDbEntity
  8
70
100
AcDbCircle
 10
9529.68335121281
 20
-3121.791577051828
 30
0.0
 40
11.0
100
AcDbArc
 50
90.0
 51
185.6031483295443
  0
ARC
  5
1C9A
330
18
100
AcDbEntity
  8
70
100
AcDbCircle
 10
9612.889165686182
 20
-3121.791577051828
 30
0.0
 40
11.0
100
AcDbArc
 50
354.3968516704556
 51
90.0
  0
VIEWPORT
  5
1DF
330
15
100
AcDbEntity
 67
     1
  8
0
100
AcDbViewport
 10
6.847415837430217
 20
5.608714589893256
 30
0.0
 40
21.78352899214195
 41
12.38644971614718
 68
     1
 69
     1
 12
6.847415837430217
 22
5.608714589893256
 13
0.0
 23
0.0
 14
0.5
 24
0.5
 15
0.5
 25
0.5
 16
0.0
 26
0.0
 36
1.0
 17
0.0
 27
0.0
 37
0.0
 42
50.0
 43
0.0
 44
0.0
 45
12.38644971614718
 50
0.0
 51
0.0
 72
   100
 90
    32800
  1

281
     0
 71
     1
 74
     0
110
0.0
120
0.0
130
0.0
111
1.0
121
0.0
131
0.0
112
0.0
122
1.0
132
0.0
 79
     0
146
0.0
170
     0
  0
MTEXT
  5
13A5
330
15
100
AcDbEntity
 67
     1
  8
KOTIERUNG
100
AcDbMText
 10
334.574239722046
 20
33.70865160095127
 30
0.0
 40
2.5
 41
0.0
 71
     4
 72
     1
  1
\A1;
  7
VOEST
 73
     1
 44
1.0
  0
MTEXT
  5
1505
330
15
100
AcDbEntity
 67
     1
  8
TEXT
100
AcDbMText
 10
170.1309310268098
 20
188.4899274501241
 30
0.0
 40
125.0
 41
0.0
 71
     4
 72
     1
  1
\A1;
  7
VOEST
 73
     1
 44
1.0
  0
MTEXT
  5
1509
330
15
100
AcDbEntity
 67
     1
  8
TEXT
100
AcDbMText
 10
122.2170016261258
 20
214.8213238210264
 30
0.0
 40
2.5
 41
0.0
 71
     4
 72
     1
  1
\A1;
  7
VOEST
 73
     1
 44
1.0
  0
MTEXT
  5
150D
330
15
100
AcDbEntity
 67
     1
  8
TEXT
100
AcDbMText
 10
122.2170016261258
 20
214.9995195096872
 30
0.0
 40
2.5
 41
0.0
 71
     4
 72
     1
  1
\A1;
  7
VOEST
 73
     1
 44
1.0
  0
MTEXT
  5
150F
330
15
100
AcDbEntity
 67
     1
  8
TEXT
100
AcDbMText
 10
122.2170016261258
 20
214.9995195096872
 30
0.0
 40
2.5
 41
0.0
 71
     4
 72
     1
  1
\A1;
  7
VOEST
 73
     1
 44
1.0
  0
MTEXT
  5
1513
330
15
100
AcDbEntity
 67
     1
  8
TEXT
100
AcDbMText
 10
130.9001099666395
 20
219.6788439368279
 30
0.0
 40
2.5
 41
0.0
 71
     4
 72
     1
  1
\A1;
  7
VOEST
 73
     1
 44
1.0
  0
ENDSEC
  0
SECTION
  2
OBJECTS
  0
DICTIONARY
  5
C
330
0
100
AcDbDictionary
281
     1
  3
ACAD_COLOR
350
1D26
  3
ACAD_GROUP
350
D
  3
ACAD_LAYOUT
350
1612
  3
ACAD_MATERIAL
350
1D25
  3
ACAD_MLINESTYLE
350
1B
  3
ACAD_PLOTSETTINGS
350
1613
  3
ACAD_PLOTSTYLENAME
350
1610
  3
ACAD_TABLESTYLE
350
1E66
  3
ACAD_VISUALSTYLE
350
1E55
  3
ACDBVARIABLEDICTIONARY
350
1109
  3
CONTENTDICTIONARY
350
23
  0
DICTIONARY
  5
1E72
330
2
100
AcDbDictionary
280
     1
281
     1
  3
ACAD_LAYERSTATES
360
1E73
  0
DICTIONARY
  5
1D26
102
{ACAD_REACTORS
330
C
102
}
330
C
100
AcDbDictionary
281
     1
  0
DICTIONARY
  5
D
102
{ACAD_REACTORS
330
C
102
}
330
C
100
AcDbDictionary
281
     1
  3
*A1
350
1B1
  3
*A10
350
95C
  3
*A2
350
95D
  3
*A3
350
1B2
  3
*A4
350
1C3
  3
*A5
350
1D2
  3
*A6
350
46A
  3
*A7
350
46B
  3
*A8
350
95A
  3
*A9
350
95B
  0
DICTIONARY
  5
1612
102
{ACAD_REACTORS
330
C
102
}
330
C
100
AcDbDictionary
281
     1
  3
Layout1
350
1615
  3
Model
350
1614
  0
DICTIONARY
  5
1D25
102
{ACAD_REACTORS
330
C
102
}
330
C
100
AcDbDictionary
281
     1
  3
ByBlock
350
1E53
  3
ByLayer
350
1E52
  3
Global
350
1E54
  0
DICTIONARY
  5
1B
102
{ACAD_REACTORS
330
C
102
}
330
C
100
AcDbDictionary
281
     1
  3
STANDARD
350
1C
  0
DICTIONARY
  5
1613
102
{ACAD_REACTORS
330
C
102
}
330
C
100
AcDbDictionary
281
     1
  0
ACDBDICTIONARYWDFLT
  5
1610
102
{ACAD_REACTORS
330
C
102
}
330
C
100
AcDbDictionary
281
     1
  3
Normal
350
1611
100
AcDbDictionaryWithDefault
340
1611
  0
DICTIONARY
  5
1E66
102
{ACAD_REACTORS
330
C
102
}
330
C
100
AcDbDictionary
281
     1
  3
Standard
350
1E67
  0
DICTIONARY
  5
1E55
102
{ACAD_REACTORS
330
C
102
}
330
C
100
AcDbDictionary
281
     1
  3
2dWireframe
350
1E5B
  3
3D Hidden
350
1E5D
  3
3dWireframe
350
1E5C
  3
Basic
350
1E5A
  3
Brighten
350
1E61
  3
ColorChange
350
1E65
  3
Conceptual
350
1E5E
  3
Dim
350
1E60
  3
Facepattern
350
1E64
  3
Flat
350
1E56
  3
FlatWithEdges
350
1E57
  3
Gouraud
350
1E58
  3
GouraudWithEdges
350
1E59
  3
Linepattern
350
1E63
  3
Realistic
350
1E5F
  3
Thicken
350
1E62
  0
DICTIONARY
  5
1109
102
{ACAD_REACTORS
330
C
102
}
330
C
100
AcDbDictionary
281
     1
  3
CTABLESTYLE
350
1E78
  3
DIMASSOC
350
1E1B
  3
PROJECTNAME
350
1E1C
  3
SORTENTS
350
110A
  0
DICTIONARY
  5
23
102
{ACAD_REACTORS
330
C
102
}
330
C
100
AcDbDictionary
281
     1
  0
DICTIONARY
  5
1E73
102
{ACAD_REACTORS
330
1E72
102
}
330
1E72
100
AcDbDictionary
281
     1
  0
GROUP
  5
1B1
102
{ACAD_REACTORS
330
D
102
}
330
D
100
AcDbGroup
300

 70
     1
 71
     1
  0
GROUP
  5
95C
102
{ACAD_REACTORS
330
D
102
}
330
D
100
AcDbGroup
300

 70
     1
 71
     1
  0
GROUP
  5
95D
102
{ACAD_REACTORS
330
D
102
}
330
D
100
AcDbGroup
300

 70
     1
 71
     1
  0
GROUP
  5
1B2
102
{ACAD_REACTORS
330
D
102
}
330
D
100
AcDbGroup
300

 70
     1
 71
     1
  0
GROUP
  5
1C3
102
{ACAD_REACTORS
330
D
102
}
330
D
100
AcDbGroup
300

 70
     1
 71
     1
  0
GROUP
  5
1D2
102
{ACAD_REACTORS
330
D
102
}
330
D
100
AcDbGroup
300

 70
     1
 71
     1
  0
GROUP
  5
46A
102
{ACAD_REACTORS
330
D
102
}
330
D
100
AcDbGroup
300

 70
     1
 71
     1
  0
GROUP
  5
46B
102
{ACAD_REACTORS
330
D
102
}
330
D
100
AcDbGroup
300

 70
     1
 71
     1
  0
GROUP
  5
95A
102
{ACAD_REACTORS
330
D
102
}
330
D
100
AcDbGroup
300

 70
     1
 71
     1
  0
GROUP
  5
95B
102
{ACAD_REACTORS
330
D
102
}
330
D
100
AcDbGroup
300

 70
     1
 71
     1
  0
LAYOUT
  5
1615
102
{ACAD_XDICTIONARY
360
1E75
102
}
102
{ACAD_REACTORS
330
1612
102
}
330
1612
100
AcDbPlotSettings
  1

  2
\\VAKF11\Lexmark Optra E312 lex15
  4
A4
  6

 40
6.805083274841308
 41
5.535083293914794
 42
6.974411010742187
 43
7.14373779296875
 44
209.9733276367187
 45
296.9259948730469
 46
0.0
 47
0.0
 48
-0.0127526823210005
 49
-0.0267537170402008
140
7.71916396974359
141
11.18075566848852
142
1.0
143
0.0394287451876656
 70
   690
 72
     1
 73
     0
 74
     4
  7
monochrome.ctb
 75
     0
147
25.36220707101854
 76
     1
 77
     2
 78
   150
148
0.0127526823210005
149
0.0267537170402008
100
AcDbLayout
  1
Layout1
 70
     1
 71
     1
 10
-0.2810685767455632
 20
-0.2449951058284719
 11
7.997916254848838
 21
11.46242428561498
 12
0.0
 22
0.0
 32
0.0
 14
1.000000000000000E+20
 24
1.000000000000000E+20
 34
1.000000000000000E+20
 15
-1.000000000000000E+20
 25
-1.000000000000000E+20
 35
-1.000000000000000E+20
146
0.0
 13
0.0
 23
0.0
 33
0.0
 16
1.0
 26
0.0
 36
0.0
 17
0.0
 27
1.0
 37
0.0
 76
     0
330
15
331
1DF
  0
LAYOUT
  5
1614
102
{ACAD_REACTORS
330
1612
102
}
330
1612
100
AcDbPlotSettings
  1

  2
\\VAKF11\Lexmark Optra E312 lex15
  4

  6

 40
0.0
 41
0.0
 42
0.0
 43
0.0
 44
0.0
 45
0.0
 46
0.0
 47
0.0
 48
0.0
 49
0.0
140
0.0
141
0.0
142
1.0
143
1.0
 70
  1712
 72
     0
 73
     0
 74
     0
  7

 75
     0
147
1.0
 76
     0
 77
     2
 78
   300
148
0.0
149
0.0
100
AcDbLayout
  1
Model
 70
     1
 71
     0
 10
0.0
 20
0.0
 11
12.0
 21
9.0
 12
0.0
 22
0.0
 32
0.0
 14
0.0
 24
0.0
 34
0.0
 15
0.0
 25
0.0
 35
0.0
146
0.0
 13
0.0
 23
0.0
 33
0.0
 16
1.0
 26
0.0
 36
0.0
 17
0.0
 27
1.0
 37
0.0
 76
     0
330
18
331
1E47
  0
MATERIAL
  5
1E53
102
{ACAD_XDICTIONARY
360
1E7B
102
}
102
{ACAD_REACTORS
330
1D25
102
}
330
1D25
100
AcDbMaterial
  1
ByBlock
  0
MATERIAL
  5
1E52
102
{ACAD_XDICTIONARY
360
1E79
102
}
102
{ACAD_REACTORS
330
1D25
102
}
330
1D25
100
AcDbMaterial
  1
ByLayer
  0
MATERIAL
  5
1E54
102
{ACAD_XDICTIONARY
360
1E7D
102
}
102
{ACAD_REACTORS
330
1D25
102
}
330
1D25
100
AcDbMaterial
  1
Global
  0
MLINESTYLE
  5
1C
102
{ACAD_REACTORS
330
1B
102
}
330
1B
100
AcDbMlineStyle
  2
STANDARD
 70
     0
  3

 62
   256
 51
90.0
 52
90.0
 71
     2
 49
0.5
 62
   256
  6
BYLAYER
 49
-0.5
 62
   256
  6
BYLAYER
  0
ACDBPLACEHOLDER
  5
1611
102
{ACAD_REACTORS
330
1610
102
}
330
1610
  0
TABLESTYLE
  5
1E67
102
{ACAD_XDICTIONARY
360
1E7F
102
}
102
{ACAD_REACTORS
330
1E66
102
}
330
1E66
100
AcDbTableStyle
  3
Standard
 70
     0
 71
     0
 40
0.06
 41
0.06
280
     0
281
     0
  7
STANDARD
140
0.18
170
     2
 62
     0
 63
     7
283
     0
274
    -2
284
     1
 64
     0
275
    -2
285
     1
 65
     0
276
    -2
286
     1
 66
     0
277
    -2
287
     1
 67
     0
278
    -2
288
     1
 68
     0
279
    -2
289
     1
 69
     0
  7
STANDARD
140
0.25
170
     5
 62
     0
 63
     7
283
     0
274
    -2
284
     1
 64
     0
275
    -2
285
     1
 65
     0
276
    -2
286
     1
 66
     0
277
    -2
287
     1
 67
     0
278
    -2
288
     1
 68
     0
279
    -2
289
     1
 69
     0
  7
STANDARD
140
0.18
170
     5
 62
     0
 63
     7
283
     0
274
    -2
284
     1
 64
     0
275
    -2
285
     1
 65
     0
276
    -2
286
     1
 66
     0
277
    -2
287
     1
 67
     0
278
    -2
288
     1
 68
     0
279
    -2
289
     1
 69
     0
  0
VISUALSTYLE
  5
1E5B
102
{ACAD_REACTORS
330
1E55
102
}
330
1E55
100
AcDbVisualStyle
  2
2dWireframe
 70
     4
 71
     0
 72
     2
 73
     0
 90
        0
 40
-0.6
 41
-30.0
 62
     5
 63
     7
421
 16777215
 74
     1
 91
        4
 64
     7
 65
   257
 75
     1
175
     1
 42
1.0
 92
        0
 66
   257
 43
1.0
 76
     1
 77
     6
 78
     2
 67
     7
 79
     5
170
     0
171
     0
290
     0
174
     0
 93
        1
 44
0.0
173
     0
291
     0
 45
0.0
1001
ACAD
1000
AcDbSavedByObjectVersion
1070
     0
  0
VISUALSTYLE
  5
1E5D
102
{ACAD_REACTORS
330
1E55
102
}
330
1E55
100
AcDbVisualStyle
  2
3D Hidden
 70
     6
 71
     1
 72
     2
 73
     2
 90
        0
 40
-0.6
 41
-30.0
 62
     5
 63
     7
421
 16777215
 74
     2
 91
        2
 64
     7
 65
   257
 75
     2
175
     1
 42
40.0
 92
        0
 66
   257
 43
1.0
 76
     1
 77
     6
 78
     2
 67
     7
 79
     3
170
     0
171
     0
290
     0
174
     0
 93
        1
 44
0.0
173
     0
291
     0
 45
0.0
1001
ACAD
1000
AcDbSavedByObjectVersion
1070
     0
  0
VISUALSTYLE
  5
1E5C
102
{ACAD_REACTORS
330
1E55
102
}
330
1E55
100
AcDbVisualStyle
  2
3dWireframe
 70
     5
 71
     0
 72
     2
 73
     0
 90
        0
 40
-0.6
 41
-30.0
 62
     5
 63
     7
421
 16777215
 74
     1
 91
        4
 64
     7
 65
   257
 75
     1
175
     1
 42
1.0
 92
        0
 66
   257
 43
1.0
 76
     1
 77
     6
 78
     2
 67
     7
 79
     5
170
     0
171
     0
290
     0
174
     0
 93
        1
 44
0.0
173
     0
291
     0
 45
0.0
1001
ACAD
1000
AcDbSavedByObjectVersion
1070
     0
  0
VISUALSTYLE
  5
1E5A
102
{ACAD_REACTORS
330
1E55
102
}
330
1E55
100
AcDbVisualStyle
  2
Basic
 70
     7
 71
     1
 72
     0
 73
     1
 90
        0
 40
-0.6
 41
-30.0
 62
     5
 63
     7
421
 16777215
 74
     0
 91
        4
 64
     7
 65
   257
 75
     1
175
     1
 42
1.0
 92
        8
 66
     7
 43
1.0
 76
     1
 77
     6
 78
     2
 67
     7
 79
     5
170
     0
171
     0
290
     0
174
     0
 93
        1
 44
0.0
173
     0
291
     1
 45
0.0
1001
ACAD
1000
AcDbSavedByObjectVersion
1070
     0
  0
VISUALSTYLE
  5
1E61
102
{ACAD_REACTORS
330
1E55
102
}
330
1E55
100
AcDbVisualStyle
  2
Brighten
 70
    12
 71
     2
 72
     2
 73
     0
 90
        0
 40
-0.6
 41
-30.0
 62
     5
 63
     7
421
 16777215
 74
     1
 91
        4
 64
     7
 65
   257
 75
     1
175
     1
 42
1.0
 92
        8
 66
     7
 43
1.0
 76
     1
 77
     6
 78
     2
 67
     7
 79
     5
170
     0
171
     0
290
     0
174
     0
 93
        1
 44
50.0
173
     0
291
     1
 45
0.0
1001
ACAD
1000
AcDbSavedByObjectVersion
1070
     0
  0
VISUALSTYLE
  5
1E65
102
{ACAD_REACTORS
330
1E55
102
}
330
1E55
100
AcDbVisualStyle
  2
ColorChange
 70
    16
 71
     2
 72
     2
 73
     3
 90
        0
 40
-0.6
 41
-30.0
 62
     5
 63
     8
421
  8421504
 74
     1
 91
        4
 64
     7
 65
   257
 75
     1
175
     1
 42
1.0
 92
        8
 66
     8
424
  8421504
 43
1.0
 76
     1
 77
     6
 78
     2
 67
     7
 79
     5
170
     0
171
     0
290
     0
174
     0
 93
        1
 44
0.0
173
     0
291
     1
 45
0.0
1001
ACAD
1000
AcDbSavedByObjectVersion
1070
     0
  0
VISUALSTYLE
  5
1E5E
102
{ACAD_REACTORS
330
1E55
102
}
330
1E55
100
AcDbVisualStyle
  2
Conceptual
 70
     9
 71
     3
 72
     2
 73
     0
 90
        0
 40
-0.6
 41
-30.0
 62
     5
 63
     7
421
 16777215
 74
     2
 91
        2
 64
     7
 65
   257
 75
     1
175
     1
 42
40.0
 92
        8
 66
     7
 43
1.0
 76
     1
 77
     6
 78
     2
 67
     7
 79
     3
170
     0
171
     0
290
     0
174
     0
 93
        1
 44
0.0
173
     0
291
     0
 45
0.0
1001
ACAD
1000
AcDbSavedByObjectVersion
1070
     0
  0
VISUALSTYLE
  5
1E60
102
{ACAD_REACTORS
330
1E55
102
}
330
1E55
100
AcDbVisualStyle
  2
Dim
 70
    11
 71
     2
 72
     2
 73
     0
 90
        0
 40
-0.6
 41
-30.0
 62
     5
 63
     7
421
 16777215
 74
     1
 91
        4
 64
     7
 65
   257
 75
     1
175
     1
 42
1.0
 92
        8
 66
     7
 43
1.0
 76
     1
 77
     6
 78
     2
 67
     7
 79
     5
170
     0
171
     0
290
     0
174
     0
 93
        1
 44
-50.0
173
     0
291
     1
 45
0.0
1001
ACAD
1000
AcDbSavedByObjectVersion
1070
     0
  0
VISUALSTYLE
  5
1E64
102
{ACAD_REACTORS
330
1E55
102
}
330
1E55
100
AcDbVisualStyle
  2
Facepattern
 70
    15
 71
     2
 72
     2
 73
     0
 90
        0
 40
-0.6
 41
-30.0
 62
     5
 63
     7
421
 16777215
 74
     1
 91
        4
 64
     7
 65
   257
 75
     1
175
     1
 42
1.0
 92
        8
 66
     7
 43
1.0
 76
     1
 77
     6
 78
     2
 67
     7
 79
     5
170
     0
171
     0
290
     0
174
     0
 93
        1
 44
0.0
173
     0
291
     1
 45
0.0
1001
ACAD
1000
AcDbSavedByObjectVersion
1070
     0
  0
VISUALSTYLE
  5
1E56
102
{ACAD_REACTORS
330
1E55
102
}
330
1E55
100
AcDbVisualStyle
  2
Flat
 70
     0
 71
     2
 72
     1
 73
     1
 90
        2
 40
-0.6
 41
30.0
 62
     5
 63
     7
421
 16777215
 74
     0
 91
        4
 64
     7
 65
   257
 75
     1
175
     1
 42
1.0
 92
        8
 66
     7
 43
1.0
 76
     1
 77
     6
 78
     2
 67
     7
 79
     5
170
     0
171
     0
290
     0
174
     0
 93
       13
 44
0.0
173
     0
291
     1
 45
0.0
1001
ACAD
1000
AcDbSavedByObjectVersion
1070
     0
  0
VISUALSTYLE
  5
1E57
102
{ACAD_REACTORS
330
1E55
102
}
330
1E55
100
AcDbVisualStyle
  2
FlatWithEdges
 70
     1
 71
     2
 72
     1
 73
     1
 90
        2
 40
-0.6
 41
30.0
 62
     5
 63
     7
421
 16777215
 74
     1
 91
        4
 64
     7
 65
   257
 75
     1
175
     1
 42
1.0
 92
        0
 66
   257
 43
1.0
 76
     1
 77
     6
 78
     2
 67
     7
 79
     5
170
     0
171
     0
290
     0
174
     0
 93
       13
 44
0.0
173
     0
291
     1
 45
0.0
1001
ACAD
1000
AcDbSavedByObjectVersion
1070
     0
  0
VISUALSTYLE
  5
1E58
102
{ACAD_REACTORS
330
1E55
102
}
330
1E55
100
AcDbVisualStyle
  2
Gouraud
 70
     2
 71
     2
 72
     2
 73
     1
 90
        2
 40
-0.6
 41
30.0
 62
     5
 63
     7
421
 16777215
 74
     0
 91
        4
 64
     7
 65
   257
 75
     1
175
     1
 42
1.0
 92
        0
 66
     7
 43
1.0
 76
     1
 77
     6
 78
     2
 67
     7
 79
     5
170
     0
171
     0
290
     0
174
     0
 93
       13
 44
0.0
173
     0
291
     1
 45
0.0
1001
ACAD
1000
AcDbSavedByObjectVersion
1070
     0
  0
VISUALSTYLE
  5
1E59
102
{ACAD_REACTORS
330
1E55
102
}
330
1E55
100
AcDbVisualStyle
  2
GouraudWithEdges
 70
     3
 71
     2
 72
     2
 73
     1
 90
        2
 40
-0.6
 41
30.0
 62
     5
 63
     7
421
 16777215
 74
     1
 91
        4
 64
     7
 65
   257
 75
     1
175
     1
 42
1.0
 92
        0
 66
   257
 43
1.0
 76
     1
 77
     6
 78
     2
 67
     7
 79
     5
170
     0
171
     0
290
     0
174
     0
 93
       13
 44
0.0
173
     0
291
     1
 45
0.0
1001
ACAD
1000
AcDbSavedByObjectVersion
1070
     0
  0
VISUALSTYLE
  5
1E63
102
{ACAD_REACTORS
330
1E55
102
}
330
1E55
100
AcDbVisualStyle
  2
Linepattern
 70
    14
 71
     2
 72
     2
 73
     0
 90
        0
 40
-0.6
 41
-30.0
 62
     5
 63
     7
421
 16777215
 74
     1
 91
        4
 64
     7
 65
   257
 75
     7
175
     7
 42
1.0
 92
        8
 66
     7
 43
1.0
 76
     1
 77
     6
 78
     2
 67
     7
 79
     5
170
     0
171
     0
290
     0
174
     0
 93
        1
 44
0.0
173
     0
291
     1
 45
0.0
1001
ACAD
1000
AcDbSavedByObjectVersion
1070
     0
  0
VISUALSTYLE
  5
1E5F
102
{ACAD_REACTORS
330
1E55
102
}
330
1E55
100
AcDbVisualStyle
  2
Realistic
 70
     8
 71
     2
 72
     2
 73
     0
 90
        0
 40
-0.6
 41
-30.0
 62
     5
 63
     7
421
 16777215
 74
     1
 91
        0
 64
     7
 65
   257
 75
     1
175
     1
 42
1.0
 92
        8
 66
     8
424
  7895160
 43
1.0
 76
     1
 77
     6
 78
     2
 67
     7
 79
     5
170
     0
171
     0
290
     0
174
     0
 93
       13
 44
0.0
173
     0
291
     0
 45
0.0
1001
ACAD
1000
AcDbSavedByObjectVersion
1070
     0
  0
VISUALSTYLE
  5
1E62
102
{ACAD_REACTORS
330
1E55
102
}
330
1E55
100
AcDbVisualStyle
  2
Thicken
 70
    13
 71
     2
 72
     2
 73
     0
 90
        0
 40
-0.6
 41
-30.0
 62
     5
 63
     7
421
 16777215
 74
     1
 91
        4
 64
     7
 65
   257
 75
     1
175
     1
 42
1.0
 92
       12
 66
     7
 43
1.0
 76
     1
 77
     6
 78
     2
 67
     7
 79
     5
170
     0
171
     0
290
     0
174
     0
 93
        1
 44
0.0
173
     0
291
     1
 45
0.0
1001
ACAD
1000
AcDbSavedByObjectVersion
1070
     0
  0
DICTIONARYVAR
  5
1E78
102
{ACAD_REACTORS
330
1109
102
}
330
1109
100
DictionaryVariables
280
     0
  1
STANDARD
  0
DICTIONARYVAR
  5
1E1B
102
{ACAD_REACTORS
330
1109
102
}
330
1109
100
DictionaryVariables
280
     0
  1
1
  0
DICTIONARYVAR
  5
1E1C
102
{ACAD_REACTORS
330
1109
102
}
330
1109
100
DictionaryVariables
280
     0
  1

  0
DICTIONARYVAR
  5
110A
102
{ACAD_REACTORS
330
1109
102
}
330
1109
100
DictionaryVariables
280
     0
  1
96
  0
DICTIONARY
  5
1E75
330
1615
100
AcDbDictionary
280
     1
281
     1
  3
ADSK_XREC_LAYOUTTHUMBNAIL
360
1E76
  0
DICTIONARY
  5
1E7B
330
1E53
100
AcDbDictionary
280
     1
281
     1
  3
ACAD_XREC_ROUNDTRIP
360
1E7C
  0
DICTIONARY
  5
1E79
330
1E52
100
AcDbDictionary
280
     1
281
     1
  3
ACAD_XREC_ROUNDTRIP
360
1E7A
  0
DICTIONARY
  5
1E7D
330
1E54
100
AcDbDictionary
280
     1
281
     1
  3
ACAD_XREC_ROUNDTRIP
360
1E7E
  0
DICTIONARY
  5
1E7F
330
1E67
100
AcDbDictionary
280
     1
281
     1
  3
ACAD_XREC_ROUNDTRIP
360
1E80
  0
XRECORD
  5
1E76
102
{ACAD_REACTORS
330
1E75
102
}
330
1E75
100
AcDbXrecord
280
     1
310
28000000620000008C0000000100080000000000B036000000000000000000000001000000000000FFFFFF0000000000FFFFFF000000000000000000000000000000000000000000000000000000000000000000330000006600000099000000CC000000FF00000000330000333300006633000099330000CC330000FF3300
310
0000660000336600006666000099660000CC660000FF66000000990000339900006699000099990000CC990000FF99000000CC000033CC000066CC000099CC0000CCCC0000FFCC000000FF000033FF000066FF000099FF0000CCFF0000FFFF000000003300330033006600330099003300CC003300FF003300003333003333
310
33006633330099333300CC333300FF33330000663300336633006666330099663300CC663300FF66330000993300339933006699330099993300CC993300FF99330000CC330033CC330066CC330099CC3300CCCC3300FFCC330000FF330033FF330066FF330099FF3300CCFF3300FFFF330000006600330066006600660099
310
006600CC006600FF00660000336600333366006633660099336600CC336600FF33660000666600336666006666660099666600CC666600FF66660000996600339966006699660099996600CC996600FF99660000CC660033CC660066CC660099CC6600CCCC6600FFCC660000FF660033FF660066FF660099FF6600CCFF6600
310
FFFF660000009900330099006600990099009900CC009900FF00990000339900333399006633990099339900CC339900FF33990000669900336699006666990099669900CC669900FF66990000999900339999006699990099999900CC999900FF99990000CC990033CC990066CC990099CC9900CCCC9900FFCC990000FF99
310
0033FF990066FF990099FF9900CCFF9900FFFF99000000CC003300CC006600CC009900CC00CC00CC00FF00CC000033CC003333CC006633CC009933CC00CC33CC00FF33CC000066CC003366CC006666CC009966CC00CC66CC00FF66CC000099CC003399CC006699CC009999CC00CC99CC00FF99CC0000CCCC0033CCCC0066CC
310
CC0099CCCC00CCCCCC00FFCCCC0000FFCC0033FFCC0066FFCC0099FFCC00CCFFCC00FFFFCC000000FF003300FF006600FF009900FF00CC00FF00FF00FF000033FF003333FF006633FF009933FF00CC33FF00FF33FF000066FF003366FF006666FF009966FF00CC66FF00FF66FF000099FF003399FF006699FF009999FF00CC
310
99FF00FF99FF0000CCFF0033CCFF0066CCFF0099CCFF00CCCCFF00FFCCFF0000FFFF0033FFFF0066FFFF0099FFFF00CCFFFF00FFFFFF00000000000D0D0D001A1A1A00282828003535350043434300505050005D5D5D006B6B6B00787878008686860093939300A1A1A100AEAEAE00BBBBBB00C9C9C900D6D6D600E4E4E400
310
F1F1F100FFFFFF0000000000000000000000000000000000000000000000000000000000000000000000000000000000E2E2E2E2E2E2E2E2E2E2E2E2E2E2E2E2E2E2E2E2E2E2E2E2E2E2E2E2E2E2E2E2E2E2E2E2E2E2E2E2E2E2E2E2E2E2E2E2E2E2E2E2E2E2E2E2E2E2E2E2E2E2E2E2E2E2E2E2E2E2E2E2E2E2E2E2E2E2E2
310
E2E2E2E2E2E2E2E2E2E2E2E2E2E2E2E2E2E2E20533E2F5F5F5F5F5F5F5F5F5F5F5F5F5F5F5F5F5F5F5F5F5F5F5F5F5F5F5F5F5F5F5F5F5F5F5F5F5F5F5F5F5F5F5F5F5F5F5F5F5F5F5F5F5F5F5F5F5F5F5F5F5F5F5F5F5F5F5F5F5F5F5F5F5F5F5F5F5F5F5F5F5F5F5F5F5F5F5F5F5F5F5F5F5F5F5F5E20000E2F5F5F5F5F5
310
F5F5F5F5F5F5F5F5F5F5F5F5F5F5F5F5F5F5F5F5F5F5F5F5F5F5F5F5F5F5F5F5F5F5F5F5F5F5F5F5F5F5F5F5F5F5F5F5F5F5F5F5F5F5F5F5F5F5F5F5F5F5F5F5F5F5F5F5F5F5F5F5F5F5F5F5F5F5F5F5F5F5F5F5F5F5F5F5F5F5F5E20000E2F5F5E2E2E2E2E2E2E2E2F5F5F5F5F5F5F5F5E2E2E2E2E2E2E2E2E2E2E2E2E2E2
310
E2F5F5F5F5F5F5F5F5E2E2E2E2E2E2E2E2E2E2E2E2E2E2F5F5F5F5F5F5F5F5E2E2E2E2E2E2E2E2E2E2E2E2E2E2E2F5F5F5F5F5F5F5F5E2E2E2E2E2E2E2E2F5F5E2F806E2F5F5E2F5F5F5F5F5F5F5F5F5F5F5F5F5F5F5F5F5F5F5F5F5F5F5F5F5F5F5F5F5F5F5F5F5F5F5F5F5F5F5F5F5F5F5F5F5F5F5F5F5F5F5F5F5F5F5F5
310
F5F5F5F5F5F5F5F5F5F5F5F5F5F5F5F5F5F5F5F5F5F5F5F5F5F5F5F5F5F5F5F5F5F5E2F5F5E20833E2F5F5E2F5F5F5F5F5F5F5F5F5F5F5F5F5F5F5F5F5F5F5F5F5F5F5F5F5F5F5F5F5F5F5F5F5F5F5F5F5F5F5F5F5F5F5F5F5F5F5F5F5F5F5F5F5F5F5F5F5F5F5F5F5F5F5F5F5F5F5F5F5F5F5F5F5F5F5F5F5F5F5F5F5F5F5
310
F5F5F5F5F5F5F5E2F5F5E20000E2F5F5E2F5F5F5F5F5F5F5F5F5F5F5F5F5F5F5F5F5F5F5F5F5F5F5F5F5F5F5F5F5F5F5F5F5F5F5F5F5F5F5F5F5F5F5F5F5F5F5F5F5F5F5F5F5F5F5F5F5F5F5F5F5F5F5F5F5F5F5F5F5F5F5F5F5F5F5F5F5F5F5F5F5F5F5F5F5F5F5F5F5F5E2F5F5E20000E2F5F5E2F5F5F5F5F5F5F5F5F5F5
310
F5F5F5F5F5F5F5F5F5F5F5F5F5F5F5F5F5F5F5F5F5F5F5F5F5F5F5F5F5F5F5F5F5F5F5F5F5F5F5F5F5F5F5F5F5F5F5F5F5F5F5F5F5F5F5F5F5F5F5F5F5F5F5F5F5F5F5F5F5F5F5F5F5F5F5F5F5F5F5F5E2F5F5E2F806E2F5F5E2F5F5F5F5F5F5F5F5F5F5F5F5F5F5F5F5F5F5F5F5F5F5F5F5F5F5F5F5F5F5F5F5F5F5F5F5F5
310
F5F5F5F5F5F5F5F5F5F5F5F5F5F5F5F5F5F5F5F5F5F5F5F5F5F5F5F5F5F5F5F5F5F5F5F5F5F5F5F5F5F5F5F5F5F5F5F5F5F5F5F5F5E2F5F5E20000E2F5F5E2F5F5F5F5F5F5F5F5F5F5F5F5F5F5F5F5F5F5F5F5F5F5F5F5F5F5F5F5F5F5F5F5F5F5F5F5F5F5F5F5F5F5F5F5F5F5F5F5F5F5F5F5F5F5F5F5F5F5F5F5F5F5F5F5
310
F5F5F5F5F5F5F5F5F5F5F5F5F5F5F5F5F5F5F5F5F5F5F5F5F5F5E2F5F5E2587EE2F5F5E2F5F5F5F5F5F5F5F5F5F5F5F5F5F5F5F5F5F5F5F5F5F5F5F5F5F5F5F5F5F5F5F5F5F5F5F5F5F5F5F5F5F5F5F5F5F5F5F5F5F5F5F5F5F5F5F5F5F5F5F5F5F5F5F5F5F5F5F5F5F5F5F5F5F5F5F5F5F5F5F5F5F5F5F5F5F5F5F5F5F5E2
310
F5F5E20000E2F5F5E2F5F5F5F5F5F5F5F5F5F5F5F5F5F5F5F5F5F5F5F5F5F5F5F5F5F5F5F5F5F5F5F5F5F5F5F5F5F5F5F5F5F5F5F5F5F5F5F5F5F5F5F5F5F5F5F5F5F5F5F5F5F5F5F5F5F5F5F5F5F5F5F5F5F5F5F5F5F5F5F5F5F5F5F5F5F5F5F5F5F5E2F5F5E26033E2F5F5F5F5F5F5F5F5F5F5F5F5F5F5F5F5F5F5F5F5F5
310
F5F5F5F5F5F5F5F5F5F5F5F5F5F5F5F5F5F5F5F5F5F5F5F5F5F5F5F5F5F5F5F5F5F5F5F5F5F5F5F5F5F5F5F5F5F5F5F5F5F5F5F5F5F5F5F5F5F5F5F5F5F5F5F5F5F5F5F5F5F5F5F5F5F5F5E2FF00E2F5F5F5F5F5F5F5F5F5F5F5F5F5F5F5F5F5F5F5F5F5F5F5F5F5F5F5F5F5F5F5F5F5F5F5F5F5F5F5F5F5F5F5F5F5F5F5F5
310
F5F5F5F5F5F5F5F5F5F5F5F5F5F5F5F5F5F5F5F5F5F5F5F5F5F5F5F5F5F5F5F5F5F5F5F5F5F5F5F5F5F5F5F5F5F5F5F5E20000E2F5F5F5F5F5F5F5F5F5F5F5F5F5F5F5F5F5F5F5F5F5F5F5F5F5F5F5F5F5F5F5F5F5F5F5F5F5F5F5F5F5F5F5F5F5F5F5F5F5F5F5F5F5F5F5F5F5F5F5F5F5F5F5F5F5F5F5F5F5F5F5F5F5F5F5
310
F5F5F5F5F5F5F5F5F5F5F5F5F5F5F5F5F5F5F5F5F5E23300E2F5F5F5F5F5F5F5F5F5F5F5F5F5F5F5F5F5F5F5F5F5F5F5F5F5F5F5F5F5F5F5F5F5F5F5F5F5F5F5F5F5F5F5F5F5F5F5F5F5F5F5F5F5F5F5F5F5F5F5F5F5F5F5F5F5F5F5F5F5F5F5F5F5F5F5F5F5F5F5F5F5F5F5F5F5F5F5F5F5F5F5F5F5F5F5F5E23300E2F5F5
310
F5F5F5F5F5F5F5F5F5F5F5F5F5F5F5F5F5F5F5F5F5F5F5F5F5F5F5F5F5F5F5F5F5F5F5F5F5F5F5F5F5F5F5F5F5F5F5F5F5F5F5F5F5F5F5F5F5F5F5F5F5F5F5F5F5F5F5F5F5F5F5F5F5F5F5F5F5F5F5F5F5F5F5F5F5F5F5F5F5F5F5F5F5F5E26600E2F5F5F5F5F5F5F5F5F5F5F5F5F5F5F5F5F5F5F5F5F5F5F5F5F5F5F5F5F5
310
F5F5F5F5F5F5F5F5F5F5F5F5F5F5F5F5F5F5F5F5F5F5F5F5F5F5F5F5F5F5F5F5F5F5F5F5F5F5F5F5F5F5F5F5F5F5F5F5F5F5F5F5F5F5F5F5F5F5F5F5F5F5F5F5F5F5F5E29900E2F5F5F5F5F5F5F5F5F5F5F5F5F5F5F5F5F5F5F5F5F5F5F5F5F5F5F5F5F5F5F5F5F5F5F5F5F5F5F5F5F5F5F5F5F5F5F5F5F5F5F5F5F5F5F5F5
310
F5F5F5F5F5F5F5F5F5F5F5F5F5F5F5F5F5F5F5F5F5F5F5F5F5F5F5F5F5F5F5F5F5F5F5F5F5F5F5F5E29900E2F5F5F5F5F5F5F5F5F5F5F5F5F5F5F5F5F5F5F5F5F5F5F5F5F5F5F5F5F5F5F5F5F5F5F5F5F5F5F5F5F5F5F5F5F5F5F5F5F5F5F5F5F5F5F5F5F5F5F5F5F5F5F5F5F5F5F5F5F5F5F5F5F5F5F5F5F5F5F5F5F5F5F5
310
F5F5F5F5F5F5F5F5F5F5F5F5F5E2CC00E2F5F5F5F5F5F5F5F5F5F5F5F5F5F5F5F5F5F5F5F5F5F5F5F5F5F5F5F5F5F5F5F5F5F5F5F5F5F5F5F5F5F5F5F5F5F5F5F5F5F5F5F5F5F5F5F5F5F5F5F5F5F5F5F5F5F5F5F5F5F5F5F5F5F5F5F5F5F5F5F5F5F5F5F5F5F5F5F5F5F5F5F5F5F5F5F5E2FF00E2F5F5E2F5F5F5F5F5F5F5
310
F5F5F5F5F5F5F5F5F5F5F5F5F5F5F5F5F5F5F5F5F5F5F5F5F5F5F5F5F5F5F5F5F5F5F5F5F5F5F5F5F5F5F5F5F5F5F5F5F5F5F5F5F5F5F5F5F5F5F5F5F5F5F5F5F5F5F5F5F5F5F5F5F5F5F5F5F5F5F5F5F5F5F5E2F5F5E2FF00E2F5F5E2F5F5F5F5F5F5F5F5F5F5F5F5F5F5F5F5F5F5F5F5F5F5F5F5F5F5F5F5F5F5F5F5F5F5
310
F5F5F5F5F5F5F5F5F5F5F5F5F5F5F5F5F5F5F5F5F5F5F5F5F5F5F5F5F5F5F5F5F5F5F5F5F5F5F5F5F5F5F5F5F5F5F5F5F5F5F5F5F5F5F5F5E2F5F5E20000E2F5F5E2F5F5F5F5F5F5F5F5F5F5F5F5F5F5F5F5F5F5F5F5F5F5F5F5F5F5F5F5F5F5F5F5F5F5F5F5F5F5F5F5F5F5F5F5F5F5F5F5F5F5F5F5F5F5F5F5F5F5F5F5F5
310
F5F5F5F5F5F5F5F5F5F5F5F5F5F5F5F5F5F5F5F5F5F5F5F5F5F5F5F5F5E2F5F5E201BCE2F5F5E2F5F5F5F5F5F5F5F5F5F5F5F5F5F5F5F5F5F5F5F5F5F5F5F5F5F5F5F5F5F5F5F5F5F5F5F5F5F5F5F5F5F5F5F5F5F5F5F5F5F5F5F5F5F5F5F5F5F5F5F5F5F5F5F5F5F5F5F5F5F5F5F5F5F5F5F5F5F5F5F5F5F5F5F5F5F5F5F5
310
F5F5E2F5F5E20000E2F5F5E2F5F5F5F5F5F5F5F5F5F5F5F5F5F5F5F5F5F5F5F5F5F5F5F5F5F5F5F5F5F5F5F5F5F5F5F5F5F5F5F5F5F5F5F5F5F5F5F5F5F5F5F5F5F5F5F5F5F5F5F5F5F5F5F5F5F5F5F5F5F5F5F5F5F5F5F5F5F5F5F5F5F5F5F5F5F5F5F5F5F5E2F5F5E20000E2F5F5E2F5F5F5F5F5F5F5F5F5F5F5F5F5F5F5
310
F5F5F5F5F5F5F5F5F5F5F5F5F5F5F5F5F5F5F5F5F5F5F5F5F5F5F5F5F5F5F5F5F5F5F5F5F5F5F5F5F5F5F5F5F5F5F5F5F5F5F5F5F5F5F5F5F5F5F5F5F5F5F5F5F5F5F5F5F5F5F5F5F5F5F5E2F5F5E200FFE2F5F5E2F5F5F5F5F5F5F5F5F5F5F5F5F5F5F5F5F5F5F5F5F5F5F5F5F5F5F5F5F5F5F5F5F5F5F5F5F5F5F5F5F5F5
310
F5F5F5F5F5F5F5F5F5F5F5F5F5F5F5F5F5F5F5F5F5F5F5F5F5F5F5F5F5F5F5F5F5F5F5F5F5F5F5F5F5F5F5F5F5F5F5F5E2F5F5E20000E2F5F5E2F5F5F5F5F5F5F5F5F5F5F5F5F5F5F5F5F5F5F5F5F5F5F5F5F5F5F5F5F5F5F5F5F5F5F5F5F5F5F5F5F5F5F5F5F5F5F5F5F5F5F5F5F5F5F5F5F5F5F5F5F5F5F5F5F5F5F5F5F5
310
F5F5F5F5F5F5F5F5F5F5F5F5F5F5F5F5F5F5F5F5F5E2F5F5E200FFE2F5F5E2F5F5F5F5F5F5F5F5F5F5F5F5F5F5F5F5F5F5F5F5F5F5F5F5F5F5F5F5F5F5F5F5F5F5F5F5F5F5F5F5F5F5F5F5F5F5F5F5F5F5F5F5F5F5F5F5F5F5F5F5F5F5F5F5F5F5F5F5F5F5F5F5F5F5F5F5F5F5F5F5F5F5F5F5F5F5F5F5F5F5E2F5F5E20000
310
E2F5F5E2F5F5F5F5F5F5F5F5F5F5F5F5F5F5F5F5F5F5F5F5F5F5F5F5F5F5F5F5F5F5F5F5F5F5F5F5F5F5F5F5F5F5F5F5F5F5F5F5F5F5F5F5F5F5F5F5F5F5F5F5F5F5F5F5F5F5F5F5F5F5F5F5F5F5F5F5F5F5F5F5F5F5F5F5F5F5F5F5F5F5E2F5F5E233FFE2F5F5E2F5F5F5F5F5F5F5F5F5F5F5F5F5F5F5F5F5F5F5F5F5F5F5
310
F5F5F5F5F5F5F5F5F5F5F5F5F5F5F5F5F5F5F5F5F5F5F5F5F5F5F5F5F5F5F5F5F5F5F5F5F5F5F5F5F5F5F5F5F5F5F5F5F5F5F5F5F5F5F5F5F5F5F5F5F5F5F5F5F5F5F5E2F5F5E20000E2F5F5E2F5F5F5F5F5F5F5F5F5F5F5F5F5F5F5F5F5F5F5F5F5F5F5F5F5F5F5F5F5F5F5F5F5F5F5F5F5F5F5F5F5F5F5F5F5F5F5F5F5F5
310
F5F5F5F5F5F5F5F5F5F5F5F5F5F5F5F5F5F5F5F5F5F5F5F5F5F5F5F5F5F5F5F5F5F5F5F5F5F5F5F5E2F5F5E266FFE2F5F5E2F5F5F5F5F5F5F5F5F5F5F5F5F5F5F5F5F5F5F5F5F5F5F5F5F5F5F5F5F5F5F5F5F5F5F5F5F5F5F5F5F5F5F5F5F5F5F5F5F5F5F5F5F5F5F5F5F5F5F5F5F5F5F5F5F5F5F5F5F5F5F5F5F5F5F5F5F5
310
F5F5F5F5F5F5F5F5F5F5F5F5F5E2F5F5E20000E2F5F5E2F5F5F5F5F5F5F5F5F5F5F5F5F5F5F5F5F5F5F5F5F5F5F5F5F5F5F5F5F5F5F5F5F5F5F5F5F5F5F5F5F5F5F5F5F5F5F5F5F5F5F5F5F5F5F5F5F5F5F5F5F5F5F5F5F5F5F5F5F5F5F5F5F5F5F5F5F5F5F5F5F5F5F5F5F5F5F5F5F5F5E2F5F5E299FFE2F5F5E2F5F5F5F5
310
F5F5F5F5F5F5F5F5F5F5F5F5F5F5F5F5F5F5F5F5F5F5F5F5F5F5F5F5F5F5F5F5F5F5F5F5F5F5F5F5F5F5F5F5F5F5F5F5F5F5F5F5F5F5F5F5F5F5F5F5F5F5F5F5F5F5F5F5F5F5F5F5F5F5F5F5F5F5F5F5F5F5F5F5F5F5E2F5F5E20000E2F5F5E2F5F5F5F5F5F5F5F5F5F5F5F5F5F5F5F5F5F5F5F5F5F5F5F5F5F5F5F5F5F5F5
310
F5F5F5F5F5F5F5F5F5F5F5F5F5F5F5F5F5F5F5F5F5F5F5F5F5F5F5F5F5F5F5F5F5F5F5F5F5F5F5F5F5F5F5F5F5F5F5F5F5F5F5F5F5F5F5F5F5F5F5E2F5F5E299FFE2F5F5E2F5F5F5F5F5F5F5F5F5F5F5F5F5F5F5F5F5F5F5F5F5F5F5F5F5F5F5F5F5F5F5F5F5F5F5F5F5F5F5F5F5F5F5F5F5F5F5F5F5F5F5F5F5F5F5F5F5F5
310
F5F5F5F5F5F5F5F5F5F5F5F5F5F5F5F5F5F5F5F5F5F5F5F5F5F5F5F5F5F5F5F5E2F5F5E20000E2F5F5F5F5F5F5F5F5F5F5F5F5F5F5F5F5F5F5F5F5F5F5F5F5F5F5F5F5F5F5F5F5F5F5F5F5F5F5F5F5F5F5F5F5F5F5F5F5F5F5F5F5F5F5F5F5F5F5F5F5F5F5F5F5F5F5F5F5F5F5F5F5F5F5F5F5F5F5F5F5F5F5F5F5F5F5F5F5
310
F5F5F5F5F5F5F5F5E2CCFFE2F5F5F5F5F5F5F5F5F5F5F5F5F5F5F5F5F5F5F5F5F5F5F5F5F5F5F5F5F5F5F5F5F5F5F5F5F5F5F5F5F5F5F5F5F5F5F5F5F5F5F5F5F5F5F5F5F5F5F5F5F5F5F5F5F5F5F5F5F5F5F5F5F5F5F5F5F5F5F5F5F5F5F5F5F5F5F5F5F5F5F5F5F5F5F5F5E20000E2F5F5F5F5F5F5F5F5F5F5F5F5F5F5F5
310
F5F5F5F5F5F5F5F5F5F5F5F5F5F5F5F5F5F5F5F5F5F5F5F5F5F5F5F5F5F5F5F5F5F5F5F5F5F5F5F5F5F5F5F5F5F5F5F5F5F5F5F5F5F5F5F5F5F5F5F5F5F5F5F5F5F5F5F5F5F5F5F5F5F5F5F5F5F5F5F5F5E2FFFFE2F5F5F5F5F5F5F5F5F5F5F5F5F5F5F5F5F5F5F5F5F5F5F5F5F5F5F5F5F5F5F5F5F5F5F5F5F5F5F5F5F5F5
310
F5F5F5F5F5F5F5F5F5F5F5F5F5F5F5F5F5F5F5F5F5F5F5F5F5F5F5F5F5F5F5F5F5F5F5F5F5F5F5F5F5F5F5F5F5F5F5F5F5F5F5F5F5F5E20000E2F5F5F5F5F5F5F5F5F5F5F5F5F5F5F5F5F5F5F5F5F5F5F5F5F5F5F5F5F5F5F5F5F5F5F5F5F5F5F5F5F5F5F5F5F5F5F5F5F5F5F5F5F5F5F5F5F5F5F5F5F5F5F5F5F5F5F5F5F5
310
F5F5F5F5F5F5F5F5F5F5F5F5F5F5F5F5F5F5F5F5F5F5F5F5F5F5F5E2FFFFE2F5F5F5F5F5F5F5F5F5F5F5F5F5F5F5F5F5F5F5F5F5F5F5F5F5F5F5F5F5F5F5F5F5F5F5F5F5F5F5F5F5F5F5F5F5F5F5F5F5F5F5F5F5F5F5F5F5F5F5F5F5F5F5F5F5F5F5F5F5F5F5F5F5F5F5F5F5F5F5F5F5F5F5F5F5F5F5F5F5F5F5F5F5F5F5F5
310
E20000E2F5F5F5F5F5F5F5F5F5F5F5F5F5F5F5F5F5F5F5F5F5F5F5F5F5F5F5F5F5F5F5F5F5F5F5F5F5F5F5F5F5F5F5F5F5F5F5F5F5F5F5F5F5F5F5F5F5F5F5F5F5F5F5F5F5F5F5F5F5F5F5F5F5F5F5F5F5F5F5F5F5F5F5F5F5F5F5F5F5F5F5F5F5F5F5F5E2F1FFE2F5F5F5F5F5F5F5F5F5F5F5F5F5F5F5F5F5F5F5F5F5F5F5
310
F5F5F5F5F5F5F5F5F5F5F5F5F5F5F5F5F5F5F5F5F5F5F5F5F5F5F5F5F5F5F5F5F5F5F5F5F5F5F5F5F5F5F5F5F5F5F5F5F5F5F5F5F5F5F5F5F5F5F5F5F5F5F5F5F5F5F5F5F5F5F5F5F5E25D7EE2F5F5F5F5F5F5F5F5F5F5F5F5F5F5F5F5F5F5F5F5F5F5F5F5F5F5F5F5F5F5F5F5F5F5F5F5F5F5F5F5F5F5F5F5F5F5F5F5F5F5
310
F5F5F5F5F5F5F5F5F5F5F5F5F5F5F5F5F5F5F5F5F5F5F5F5F5F5F5F5F5F5F5F5F5F5F5F5F5F5F5F5F5F5F5F5F5F5E20000E2F5F5F5F5F5F5F5F5F5F5F5F5F5F5F5F5F5F5F5F5F5F5F5F5F5F5F5F5F5F5F5F5F5F5F5F5F5F5F5F5F5F5F5F5F5F5F5F5F5F5F5F5F5F5F5F5F5F5F5F5F5F5F5F5F5F5F5F5F5F5F5F5F5F5F5F5F5
310
F5F5F5F5F5F5F5F5F5F5F5F5F5F5F5F5F5F5F5E2F806E2F5F5E2F5F5F5F5F5F5F5F5F5F5F5F5F5F5F5F5F5F5F5F5F5F5F5F5F5F5F5F5F5F5F5F5F5F5F5F5F5F5F5F5F5F5F5F5F5F5F5F5F5F5F5F5F5F5F5F5F5F5F5F5F5F5F5F5F5F5F5F5F5F5F5F5F5F5F5F5F5F5F5F5F5F5F5F5F5F5F5F5F5F5E2F5F5E20833E2F5F5E2F5
310
F5F5F5F5F5F5F5F5F5F5F5F5F5F5F5F5F5F5F5F5F5F5F5F5F5F5F5F5F5F5F5F5F5F5F5F5F5F5F5F5F5F5F5F5F5F5F5F5F5F5F5F5F5F5F5F5F5F5F5F5F5F5F5F5F5F5F5F5F5F5F5F5F5F5F5F5F5F5F5F5F5F5F5F5F5F5F5F5F5E2F5F5E20000E2F5F5E2F5F5F5F5F5F5F5F5F5F5F5F5F5F5F5F5F5F5F5F5F5F5F5F5F5F5F5F5
310
F5F5F5F5F5F5F5F5F5F5F5F5F5F5F5F5F5F5F5F5F5F5F5F5F5F5F5F5F5F5F5F5F5F5F5F5F5F5F5F5F5F5F5F5F5F5F5F5F5F5F5F5F5F5F5F5F5F5F5F5F5F5E2F5F5E20000E2F5F5E2F5F5F5F5F5F5F5F5F5F5F5F5F5F5F5F5F5F5F5F5F5F5F5F5F5F5F5F5F5F5F5F5F5F5F5F5F5F5F5F5F5F5F5F5F5F5F5F5F5F5F5F5F5F5F5
310
F5F5F5F5F5F5F5F5F5F5F5F5F5F5F5F5F5F5F5F5F5F5F5F5F5F5F5F5F5F5F5F5F5F5F5E2F5F5E2F806E2F5F5E2F5F5F5F5F5F5F5F5F5F5F5F5F5F5F5F5F5F5F5F5F5F5F5F5F5F5F5F5F5F5F5F5F5F5F5F5F5F5F5F5F5F5F5F5F5F5F5F5F5F5F5F5F5F5F5F5F5F5F5F5F5F5F5F5F5F5F5F5F5F5F5F5F5F5F5F5F5F5F5F5F5F5
310
F5F5F5F5F5F5F5F5E2F5F5E20233E2F5F5E2F5F5F5F5F5F5F5F5F5F5F5F5F5F5F5F5F5F5F5F5F5F5F5F5F5F5F5F5F5F5F5F5F5F5F5F5F5F5F5F5F5F5F5F5F5F5F5F5F5F5F5F5F5F5F5F5F5F5F5F5F5F5F5F5F5F5F5F5F5F5F5F5F5F5F5F5F5F5F5F5F5F5F5F5F5F5F5F5F5F5E2F5F5E20000E2F5F5E2F5F5F5F5F5F5F5F5F5
310
F5F5F5F5F5F5F5F5F5F5F5F5F5F5F5F5F5F5F5F5F5F5F5F5F5F5F5F5F5F5F5F5F5F5F5F5F5F5F5F5F5F5F5F5F5F5F5F5F5F5F5F5F5F5F5F5F5F5F5F5F5F5F5F5F5F5F5F5F5F5F5F5F5F5F5F5F5F5F5F5F5E2F5F5E20000E2F5F5E2F5F5F5F5F5F5F5F5F5F5F5F5F5F5F5F5F5F5F5F5F5F5F5F5F5F5F5F5F5F5F5F5F5F5F5F5
310
F5F5F5F5F5F5F5F5F5F5F5F5F5F5F5F5F5F5F5F5F5F5F5F5F5F5F5F5F5F5F5F5F5F5F5F5F5F5F5F5F5F5F5F5F5F5F5F5F5F5F5F5F5F5E2F5F5E2F806E2F5F5E2F5F5F5F5F5F5F5F5F5F5F5F5F5F5F5F5F5F5F5F5F5F5F5F5F5F5F5F5F5F5F5F5F5F5F5F5F5F5F5F5F5F5F5F5F5F5F5F5F5F5F5F5F5F5F5F5F5F5F5F5F5F5F5
310
F5F5F5F5F5F5F5F5F5F5F5F5F5F5F5F5F5F5F5F5F5F5F5F5F5F5F5E2F5F5E20D33E2F5F5E2F5F5F5F5F5F5F5F5F5F5F5F5F5F5F5F5F5F5F5F5F5F5F5F5F5F5F5F5F5F5F5F5F5F5F5F5F5F5F5F5F5F5F5F5F5F5F5F5F5F5F5F5F5F5F5F5F5F5F5F5F5F5F5F5F5F5F5F5F5F5F5F5F5F5F5F5F5F5F5F5F5F5F5F5F5F5F5F5F5F5
310
E2F5F5E20000E2F5F5E2F5F5F5F5F5F5F5F5F5F5F5F5F5F5F5F5F5F5F5F5F5F5F5F5F5F5F5F5F5F5F5F5F5F5F5F5F5F5F5F5F5F5F5F5F5F5F5F5F5F5F5F5F5F5F5F5F5F5F5F5F5F5F5F5F5F5F5F5F5F5F5F5F5F5F5F5F5F5F5F5F5F5F5F5F5F5F5F5F5F5E2F5F5E20000E2F5F5E2F5F5F5F5F5F5F5F5F5F5F5F5F5F5F5F5F5
310
F5F5F5F5F5F5F5F5F5F5F5F5F5F5F5F5F5F5F5F5F5F5F5F5F5F5F5F5F5F5F5F5F5F5F5F5F5F5F5F5F5F5F5F5F5F5F5F5F5F5F5F5F5F5F5F5F5F5F5F5F5F5F5F5F5F5F5F5F5F5F5F5F5E2F5F5E2F806E2F5F5E2F5F5F5F5F5F5F5F5F5F5F5F5F5F5F5F5F5F5F5F5F5F5F5F5F5F5F5F5F5F5F5F5F5F5F5F5F5F5F5F5F5F5F5F5
310
F5F5F5F5F5F5F5F5F5F5F5F5F5F5F5F5F5F5F5F5F5F5F5F5F5F5F5F5F5F5F5F5F5F5F5F5F5F5F5F5F5F5F5F5F5F5E2F5F5E20133E2F5F5E2F5F5F5F5F5F5F5F5F5F5F5F5F5F5F5F5F5F5F5F5F5F5F5F5F5F5F5F5F5F5F5F5F5F5F5F5F5F5F5F5F5F5F5F5F5F5F5F5F5F5F5F5F5F5F5F5F5F5F5F5F5F5F5F5F5F5F5F5F5F5F5
310
F5F5F5F5F5F5F5F5F5F5F5F5F5F5F5F5F5F5F5E2F5F5E20000E2F5F5E2F5F5F5F5F5F5F5F5F5F5F5F5F5F5F5F5F5F5F5F5F5F5F5F5F5F5F5F5F5F5F5F5F5F5F5F5F5F5F5F5F5F5F5F5F5F5F5F5F5F5F5F5F5F5F5F5F5F5F5F5F5F5F5F5F5F5F5F5F5F5F5F5F5F5F5F5F5F5F5F5F5F5F5F5F5F5F5F5F5F5E2F5F5E20000E2F5
310
F5E2F5F5F5F5F5F5F5F5F5F5F5F5F5F5F5F5F5F5F5F5F5F5F5F5F5F5F5F5F5F5F5F5F5F5F5F5F5F5F5F5F5F5F5F5F5F5F5F5F5F5F5F5F5F5F5F5F5F5F5F5F5F5F5F5F5F5F5F5F5F5F5F5F5F5F5F5F5F5F5F5F5F5F5F5F5F5F5F5F5F5E2F5F5E2F806E2F5F5F5F5F5F5F5F5F5F5F5F5F5F5F5F5F5F5F5F5F5F5F5F5F5F5F5F5
310
F5F5F5F5F5F5F5F5F5F5F5F5F5F5F5F5F5F5F5F5F5F5F5F5F5F5F5F5F5F5F5F5F5F5F5F5F5F5F5F5F5F5F5F5F5F5F5F5F5F5F5F5F5F5F5F5F5F5F5F5F5F5F5F5F5F5F5F5E20633E2F5F5F5F5F5F5F5F5F5F5F5F5F5F5F5F5F5F5F5F5F5F5F5F5F5F5F5F5F5F5F5F5F5F5F5F5F5F5F5F5F5F5F5F5F5F5F5F5F5F5F5F5F5F5F5
310
F5F5F5F5F5F5F5F5F5F5F5F5F5F5F5F5F5F5F5F5F5F5F5F5F5F5F5F5F5F5F5F5F5F5F5F5F5F5F5F5F5E20000E2F5F5F5F5F5F5F5F5F5F5F5F5F5F5F5F5F5F5F5F5F5F5F5F5F5F5F5F5F5F5F5F5F5F5F5F5F5F5F5F5F5F5F5F5F5F5F5F5F5F5F5F5F5F5F5F5F5F5F5F5F5F5F5F5F5F5F5F5F5F5F5F5F5F5F5F5F5F5F5F5F5F5
310
F5F5F5F5F5F5F5F5F5F5F5F5F5F5E2587EE2F5F5F5F5F5F5F5F5F5F5F5F5F5F5F5F5F5F5F5F5F5F5F5F5F5F5F5F5F5F5F5F5F5F5F5F5F5F5F5F5F5F5F5F5F5F5F5F5F5F5F5F5F5F5F5F5F5F5F5F5F5F5F5F5F5F5F5F5F5F5F5F5F5F5F5F5F5F5F5F5F5F5F5F5F5F5F5F5F5F5F5F5F5F5F5F5E2FFFFE2F5F5F5F5F5F5F5F5F5
310
F5F5F5F5F5F5F5F5F5F5F5F5F5F5F5F5F5F5F5F5F5F5F5F5F5F5F5F5F5F5F5F5F5F5F5F5F5F5F5F5F5F5F5F5F5F5F5F5F5F5F5F5F5F5F5F5F5F5F5F5F5F5F5F5F5F5F5F5F5F5F5F5F5F5F5F5F5F5F5F5F5F5F5F5F5F5F5E20000E2F5F5F5F5F5F5F5F5F5F5F5F5F5F5F5F5F5F5F5F5F5F5F5F5F5F5F5F5F5F5F5F5F5F5F5F5
310
F5F5F5F5F5F5F5F5F5F5F5F5F5F5F5F5F5F5F5F5F5F5F5F5F5F5F5F5F5F5F5F5F5F5F5F5F5F5F5F5F5F5F5F5F5F5F5F5F5F5F5F5F5F5F5F5F5F5F5F5E20000E2F5F5F5F5F5F5F5F5F5F5F5F5F5F5F5F5F5F5F5F5F5F5F5F5F5F5F5F5F5F5F5F5F5F5F5F5F5F5F5F5F5F5F5F5F5F5F5F5F5F5F5F5F5F5F5F5F5F5F5F5F5F5F5
310
F5F5F5F5F5F5F5F5F5F5F5F5F5F5F5F5F5F5F5F5F5F5F5F5F5F5F5F5F5F5F5F5F5E23300E2F5F5F5F5F5F5F5F5F5F5F5F5F5F5F5F5F5F5F5F5F5F5F5F5F5F5F5F5F5F5F5F5F5F5F5F5F5F5F5F5F5F5F5F5F5F5F5F5F5F5F5F5F5F5F5F5F5F5F5F5F5F5F5F5F5F5F5F5F5F5F5F5F5F5F5F5F5F5F5F5F5F5F5F5F5F5F5F5F5F5
310
F5F5F5F5F5F5E26600E2F5F5F5F5F5F5F5F5F5F5F5F5F5F5F5F5F5F5F5F5F5F5F5F5F5F5F5F5F5F5F5F5F5F5F5F5F5F5F5F5F5F5F5F5F5F5F5F5F5F5F5F5F5F5F5F5F5F5F5F5F5F5F5F5F5F5F5F5F5F5F5F5F5F5F5F5F5F5F5F5F5F5F5F5F5F5F5F5F5F5F5F5F5F5F5F5E26600E2F5F5F5F5F5F5F5F5F5F5F5F5F5F5F5F5F5
310
F5F5F5F5F5F5F5F5F5F5F5F5F5F5F5F5F5F5F5F5F5F5F5F5F5F5F5F5F5F5F5F5F5F5F5F5F5F5F5F5F5F5F5F5F5F5F5F5F5F5F5F5F5F5F5F5F5F5F5F5F5F5F5F5F5F5F5F5F5F5F5F5F5F5F5F5F5F5F5E29900E2F5F5E2F5F5F5F5F5F5F5F5F5F5F5F5F5F5F5F5F5F5F5F5F5F5F5F5F5F5F5F5F5F5F5F5F5F5F5F5F5F5F5F5F5
310
F5F5F5F5F5F5F5F5F5F5F5F5F5F5F5F5F5F5F5F5F5F5F5F5F5F5F5F5F5F5F5F5F5F5F5F5F5F5F5F5F5F5F5F5F5F5F5F5F5E2F5F5E2CC00E2F5F5E2F5F5F5F5F5F5F5F5F5F5F5F5F5F5F5F5F5F5F5F5F5F5F5F5F5F5F5F5F5F5F5F5F5F5F5F5F5F5F5F5F5F5F5F5F5F5F5F5F5F5F5F5F5F5F5F5F5F5F5F5F5F5F5F5F5F5F5F5
310
F5F5F5F5F5F5F5F5F5F5F5F5F5F5F5F5F5F5F5F5F5F5E2F5F5E2CC00E2F5F5E2F5F5F5F5F5F5F5F5F5F5F5F5F5F5F5F5F5F5F5F5F5F5F5F5F5F5F5F5F5F5F5F5F5F5F5F5F5F5F5F5F5F5F5F5F5F5F5F5F5F5F5F5F5F5F5F5F5F5F5F5F5F5F5F5F5F5F5F5F5F5F5F5F5F5F5F5F5F5F5F5F5F5F5F5F5F5F5F5F5F5E2F5F5E2FF
310
00E2F5F5E2F5F5F5F5F5F5F5F5F5F5F5F5F5F5F5F5F5F5F5F5F5F5F5F5F5F5F5F5F5F5F5F5F5F5F5F5F5F5F5F5F5F5F5F5F5F5F5F5F5F5F5F5F5F5F5F5F5F5F5F5F5F5F5F5F5F5F5F5F5F5F5F5F5F5F5F5F5F5F5F5F5F5F5F5F5F5F5F5F5F5E2F5F5E27800E2F5F5E2F5F5F5F5F5F5F5F5F5F5F5F5F5F5F5F5F5F5F5F5F5F5
310
F5F5F5F5F5F5F5F5F5F5F5F5F5F5F5F5F5F5F5F5F5F5F5F5F5F5F5F5F5F5F5F5F5F5F5F5F5F5F5F5F5F5F5F5F5F5F5F5F5F5F5F5F5F5F5F5F5F5F5F5F5F5F5F5F5F5F5F5E2F5F5E20000E2F5F5E2F5F5F5F5F5F5F5F5F5F5F5F5F5F5F5F5F5F5F5F5F5F5F5F5F5F5F5F5F5F5F5F5F5F5F5F5F5F5F5F5F5F5F5F5F5F5F5F5F5
310
F5F5F5F5F5F5F5F5F5F5F5F5F5F5F5F5F5F5F5F5F5F5F5F5F5F5F5F5F5F5F5F5F5F5F5F5F5F5F5F5F5E2F5F5E20000E2F5F5E2F5F5F5F5F5F5F5F5F5F5F5F5F5F5F5F5F5F5F5F5F5F5F5F5F5F5F5F5F5F5F5F5F5F5F5F5F5F5F5F5F5F5F5F5F5F5F5F5F5F5F5F5F5F5F5F5F5F5F5F5F5F5F5F5F5F5F5F5F5F5F5F5F5F5F5F5
310
F5F5F5F5F5F5F5F5F5F5F5F5F5F5E2F5F5E2CDCDE2F5F5E2F5F5F5F5F5F5F5F5F5F5F5F5F5F5F5F5F5F5F5F5F5F5F5F5F5F5F5F5F5F5F5F5F5F5F5F5F5F5F5F5F5F5F5F5F5F5F5F5F5F5F5F5F5F5F5F5F5F5F5F5F5F5F5F5F5F5F5F5F5F5F5F5F5F5F5F5F5F5F5F5F5F5F5F5F5F5F5F5F5F5E2F5F5E20000E2F5F5E2F5F5F5
310
F5F5F5F5F5F5F5F5F5F5F5F5F5F5F5F5F5F5F5F5F5F5F5F5F5F5F5F5F5F5F5F5F5F5F5F5F5F5F5F5F5F5F5F5F5F5F5F5F5F5F5F5F5F5F5F5F5F5F5F5F5F5F5F5F5F5F5F5F5F5F5F5F5F5F5F5F5F5F5F5F5F5F5F5F5F5F5E2F5F5E2CDCDE2F5F5E2F5F5F5F5F5F5F5F5F5F5F5F5F5F5F5F5F5F5F5F5F5F5F5F5F5F5F5F5F5F5
310
F5F5F5F5F5F5F5F5F5F5F5F5F5F5F5F5F5F5F5F5F5F5F5F5F5F5F5F5F5F5F5F5F5F5F5F5F5F5F5F5F5F5F5F5F5F5F5F5F5F5F5F5F5F5F5F5F5F5F5F5E2F5F5E20000E2F5F5E2F5F5F5F5F5F5F5F5F5F5F5F5F5F5F5F5F5F5F5F5F5F5F5F5F5F5F5F5F5F5F5F5F5F5F5F5F5F5F5F5F5F5F5F5F5F5F5F5F5F5F5F5F5F5F5F5F5
310
F5F5F5F5F5F5F5F5F5F5F5F5F5F5F5F5F5F5F5F5F5F5F5F5F5F5F5F5F5F5F5F5F5E2F5F5E2CDCDE2F5F5E2F5F5F5F5F5F5F5F5F5F5F5F5F5F5F5F5F5F5F5F5F5F5F5F5F5F5F5F5F5F5F5F5F5F5F5F5F5F5F5F5F5F5F5F5F5F5F5F5F5F5F5F5F5F5F5F5F5F5F5F5F5F5F5F5F5F5F5F5F5F5F5F5F5F5F5F5F5F5F5F5F5F5F5F5
310
F5F5F5F5F5F5E2F5F5E20000E2F5F5E2F5F5F5F5F5F5F5F5F5F5F5F5F5F5F5F5F5F5F5F5F5F5F5F5F5F5F5F5F5F5F5F5F5F5F5F5F5F5F5F5F5F5F5F5F5F5F5F5F5F5F5F5F5F5F5F5F5F5F5F5F5F5F5F5F5F5F5F5F5F5F5F5F5F5F5F5F5F5F5F5F5F5F5F5F5F5F5F5F5F5E2F5F5E2CDCDE2F5F5E2F5F5F5F5F5F5F5F5F5F5F5
310
F5F5F5F5F5F5F5F5F5F5F5F5F5F5F5F5F5F5F5F5F5F5F5F5F5F5F5F5F5F5F5F5F5F5F5F5F5F5F5F5F5F5F5F5F5F5F5F5F5F5F5F5F5F5F5F5F5F5F5F5F5F5F5F5F5F5F5F5F5F5F5F5F5F5F5F5F5F5F5E2F5F5E20000E2F5F5E2F5F5F5F5F5F5F5F5F5F5F5F5F5F5F5F5F5F5F5F5F5F5F5F5F5F5F5F5F5F5F5F5F5F5F5F5F5F5
310
F5F5F5F5F5F5F5F5F5F5F5F5F5F5F5F5F5F5F5F5F5F5F5F5F5F5F5F5F5F5F5F5F5F5F5F5F5F5F5F5F5F5F5F5F5F5F5F5F5F5F5F5E2F5F5E2CDCDE2F5F5E2F5F5F5F5F5F5F5F5F5F5F5F5F5F5F5F5F5F5F5F5F5F5F5F5F5F5F5F5F5F5F5F5F5F5F5F5F5F5F5F5F5F5F5F5F5F5F5F5F5F5F5F5F5F5F5F5F5F5F5F5F5F5F5F5F5
310
F5F5F5F5F5F5F5F5F5F5F5F5F5F5F5F5F5F5F5F5F5F5F5F5F5E2F5F5E20000E2F5F5F5F5F5F5F5F5F5F5F5F5F5F5F5F5F5F5F5F5F5F5F5F5F5F5F5F5F5F5F5F5F5F5F5F5F5F5F5F5F5F5F5F5F5F5F5F5F5F5F5F5F5F5F5F5F5F5F5F5F5F5F5F5F5F5F5F5F5F5F5F5F5F5F5F5F5F5F5F5F5F5F5F5F5F5F5F5F5F5F5F5F5F5F5
310
F5E2CDCDE2F5F5F5F5F5F5F5F5F5F5F5F5F5F5F5F5F5F5F5F5F5F5F5F5F5F5F5F5F5F5F5F5F5F5F5F5F5F5F5F5F5F5F5F5F5F5F5F5F5F5F5F5F5F5F5F5F5F5F5F5F5F5F5F5F5F5F5F5F5F5F5F5F5F5F5F5F5F5F5F5F5F5F5F5F5F5F5F5F5F5F5F5F5F5F5F5E20000E2F5F5F5F5F5F5F5F5F5F5F5F5F5F5F5F5F5F5F5F5F5F5
310
F5F5F5F5F5F5F5F5F5F5F5F5F5F5F5F5F5F5F5F5F5F5F5F5F5F5F5F5F5F5F5F5F5F5F5F5F5F5F5F5F5F5F5F5F5F5F5F5F5F5F5F5F5F5F5F5F5F5F5F5F5F5F5F5F5F5F5F5F5F5F5F5F5F5E2CDCDE2F5F5F5F5F5F5F5F5F5F5F5F5F5F5F5F5F5F5F5F5F5F5F5F5F5F5F5F5F5F5F5F5F5F5F5F5F5F5F5F5F5F5F5F5F5F5F5F5F5
310
F5F5F5F5F5F5F5F5F5F5F5F5F5F5F5F5F5F5F5F5F5F5F5F5F5F5F5F5F5F5F5F5F5F5F5F5F5F5F5F5F5F5F5F5F5F5F5E20000E2F5F5F5F5F5F5F5F5F5F5F5F5F5F5F5F5F5F5F5F5F5F5F5F5F5F5F5F5F5F5F5F5F5F5F5F5F5F5F5F5F5F5F5F5F5F5F5F5F5F5F5F5F5F5F5F5F5F5F5F5F5F5F5F5F5F5F5F5F5F5F5F5F5F5F5F5
310
F5F5F5F5F5F5F5F5F5F5F5F5F5F5F5F5F5F5F5F5E2CDCDE2F5F5F5F5F5F5F5F5F5F5F5F5F5F5F5F5F5F5F5F5F5F5F5F5F5F5F5F5F5F5F5F5F5F5F5F5F5F5F5F5F5F5F5F5F5F5F5F5F5F5F5F5F5F5F5F5F5F5F5F5F5F5F5F5F5F5F5F5F5F5F5F5F5F5F5F5F5F5F5F5F5F5F5F5F5F5F5F5F5F5F5F5F5F5F5F5E20000E2F5F5F5
310
F5F5F5F5F5F5F5F5F5F5F5F5F5F5F5F5F5F5F5F5F5F5F5F5F5F5F5F5F5F5F5F5F5F5F5F5F5F5F5F5F5F5F5F5F5F5F5F5F5F5F5F5F5F5F5F5F5F5F5F5F5F5F5F5F5F5F5F5F5F5F5F5F5F5F5F5F5F5F5F5F5F5F5F5F5F5F5F5F5F5F5F5F5E2CDCDE2F5F5F5F5F5F5F5F5F5F5F5F5F5F5F5F5F5F5F5F5F5F5F5F5F5F5F5F5F5F5
310
F5F5F5F5F5F5F5F5F5F5F5F5F5F5F5F5F5F5F5F5F5F5F5F5F5F5F5F5F5F5F5F5F5F5F5F5F5F5F5F5F5F5F5F5F5F5F5F5F5F5F5F5F5F5F5F5F5F5F5F5F5F5F5F5F5F5E20000E2F5F5F5F5F5F5F5F5F5F5F5F5F5F5F5F5F5F5F5F5F5F5F5F5F5F5F5F5F5F5F5F5F5F5F5F5F5F5F5F5F5F5F5F5F5F5F5F5F5F5F5F5F5F5F5F5F5
310
F5F5F5F5F5F5F5F5F5F5F5F5F5F5F5F5F5F5F5F5F5F5F5F5F5F5F5F5F5F5F5F5F5F5F5F5F5F5F5E2CDCDE2F5F5F5F5F5F5F5F5F5F5F5F5F5F5F5F5F5F5F5F5F5F5F5F5F5F5F5F5F5F5F5F5F5F5F5F5F5F5F5F5F5F5F5F5F5F5F5F5F5F5F5F5F5F5F5F5F5F5F5F5F5F5F5F5F5F5F5F5F5F5F5F5F5F5F5F5F5F5F5F5F5F5F5F5
310
F5F5F5F5F5F5F5F5F5F5F5F5E20000E2F5F5E2F5F5F5F5F5F5F5F5F5F5F5F5F5F5F5F5F5F5F5F5F5F5F5F5F5F5F5F5F5F5F5F5F5F5F5F5F5F5F5F5F5F5F5F5F5F5F5F5F5F5F5F5F5F5F5F5F5F5F5F5F5F5F5F5F5F5F5F5F5F5F5F5F5F5F5F5F5F5F5F5F5F5F5F5F5F5F5F5F5F5E2F5F5E2CDCDE2F5F5E2F5F5F5F5F5F5F5F5
310
F5F5F5F5F5F5F5F5F5F5F5F5F5F5F5F5F5F5F5F5F5F5F5F5F5F5F5F5F5F5F5F5F5F5F5F5F5F5F5F5F5F5F5F5F5F5F5F5F5F5F5F5F5F5F5F5F5F5F5F5F5F5F5F5F5F5F5F5F5F5F5F5F5F5F5F5F5F5F5F5F5F5E2F5F5E20802E2F5F5E2F5F5F5F5F5F5F5F5F5F5F5F5F5F5F5F5F5F5F5F5F5F5F5F5F5F5F5F5F5F5F5F5F5F5F5
310
F5F5F5F5F5F5F5F5F5F5F5F5F5F5F5F5F5F5F5F5F5F5F5F5F5F5F5F5F5F5F5F5F5F5F5F5F5F5F5F5F5F5F5F5F5F5F5F5F5F5F5F5F5F5F5E2F5F5E2CDCDE2F5F5E2F5F5F5F5F5F5F5F5F5F5F5F5F5F5F5F5F5F5F5F5F5F5F5F5F5F5F5F5F5F5F5F5F5F5F5F5F5F5F5F5F5F5F5F5F5F5F5F5F5F5F5F5F5F5F5F5F5F5F5F5F5F5
310
F5F5F5F5F5F5F5F5F5F5F5F5F5F5F5F5F5F5F5F5F5F5F5F5F5F5F5F5E2F5F5E20000E2F5F5E2F5F5F5F5F5F5F5F5F5F5F5F5F5F5F5F5F5F5F5F5F5F5F5F5F5F5F5F5F5F5F5F5F5F5F5F5F5F5F5F5F5F5F5F5F5F5F5F5F5F5F5F5F5F5F5F5F5F5F5F5F5F5F5F5F5F5F5F5F5F5F5F5F5F5F5F5F5F5F5F5F5F5F5F5F5F5F5F5F5
310
F5E2F5F5E2CDCDE2F5F5E2F5F5F5F5F5F5F5F5F5F5F5F5F5F5F5F5F5F5F5F5F5F5F5F5F5F5F5F5F5F5F5F5F5F5F5F5F5F5F5F5F5F5F5F5F5F5F5F5F5F5F5F5F5F5F5F5F5F5F5F5F5F5F5F5F5F5F5F5F5F5F5F5F5F5F5F5F5F5F5F5F5F5F5F5F5F5F5F5F5F5E2F5F5E20000E2F5F5E2F5F5F5F5F5F5F5F5F5F5F5F5F5F5F5F5
310
F5F5F5F5F5F5F5F5F5F5F5F5F5F5F5F5F5F5F5F5F5F5F5F5F5F5F5F5F5F5F5F5F5F5F5F5F5F5F5F5F5F5F5F5F5F5F5F5F5F5F5F5F5F5F5F5F5F5F5F5F5F5F5F5F5F5F5F5F5F5F5F5F5F5E2F5F5E2CDCDE2F5F5E2F5F5F5F5F5F5F5F5F5F5F5F5F5F5F5F5F5F5F5F5F5F5F5F5F5F5F5F5F5F5F5F5F5F5F5F5F5F5F5F5F5F5F5
310
F5F5F5F5F5F5F5F5F5F5F5F5F5F5F5F5F5F5F5F5F5F5F5F5F5F5F5F5F5F5F5F5F5F5F5F5F5F5F5F5F5F5F5F5F5F5F5E2F5F5E20000E2F5F5E2F5F5F5F5F5F5F5F5F5F5F5F5F5F5F5F5F5F5F5F5F5F5F5F5F5F5F5F5F5F5F5F5F5F5F5F5F5F5F5F5F5F5F5F5F5F5F5F5F5F5F5F5F5F5F5F5F5F5F5F5F5F5F5F5F5F5F5F5F5F5
310
F5F5F5F5F5F5F5F5F5F5F5F5F5F5F5F5F5F5F5F5E2F5F5E2CDCDE2F5F5E2F5F5F5F5F5F5F5F5F5F5F5F5F5F5F5F5F5F5F5F5F5F5F5F5F5F5F5F5F5F5F5F5F5F5F5F5F5F5F5F5F5F5F5F5F5F5F5F5F5F5F5F5F5F5F5F5F5F5F5F5F5F5F5F5F5F5F5F5F5F5F5F5F5F5F5F5F5F5F5F5F5F5F5F5F5F5F5F5F5F5E2F5F5E20000E2
310
F5F5E2F5F5F5F5F5F5F5F5F5F5F5F5F5F5F5F5F5F5F5F5F5F5F5F5F5F5F5F5F5F5F5F5F5F5F5F5F5F5F5F5F5F5F5F5F5F5F5F5F5F5F5F5F5F5F5F5F5F5F5F5F5F5F5F5F5F5F5F5F5F5F5F5F5F5F5F5F5F5F5F5F5F5F5F5F5F5F5F5F5F5E2F5F5E2CDCDE2F5F5E2F5F5F5F5F5F5F5F5F5F5F5F5F5F5F5F5F5F5F5F5F5F5F5F5
310
F5F5F5F5F5F5F5F5F5F5F5F5F5F5F5F5F5F5F5F5F5F5F5F5F5F5F5F5F5F5F5F5F5F5F5F5F5F5F5F5F5F5F5F5F5F5F5F5F5F5F5F5F5F5F5F5F5F5F5F5F5F5F5F5F5F5E2F5F5E20000E2F5F5E2F5F5F5F5F5F5F5F5F5F5F5F5F5F5F5F5F5F5F5F5F5F5F5F5F5F5F5F5F5F5F5F5F5F5F5F5F5F5F5F5F5F5F5F5F5F5F5F5F5F5F5
310
F5F5F5F5F5F5F5F5F5F5F5F5F5F5F5F5F5F5F5F5F5F5F5F5F5F5F5F5F5F5F5F5F5F5F5F5F5F5F5E2F5F5E2CDCDE2F5F5E2F5F5F5F5F5F5F5F5F5F5F5F5F5F5F5F5F5F5F5F5F5F5F5F5F5F5F5F5F5F5F5F5F5F5F5F5F5F5F5F5F5F5F5F5F5F5F5F5F5F5F5F5F5F5F5F5F5F5F5F5F5F5F5F5F5F5F5F5F5F5F5F5F5F5F5F5F5F5
310
F5F5F5F5F5F5F5F5F5F5F5F5E2F5F5E20000E2F5F5E2F5F5F5F5F5F5F5F5F5F5F5F5F5F5F5F5F5F5F5F5F5F5F5F5F5F5F5F5F5F5F5F5F5F5F5F5F5F5F5F5F5F5F5F5F5F5F5F5F5F5F5F5F5F5F5F5F5F5F5F5F5F5F5F5F5F5F5F5F5F5F5F5F5F5F5F5F5F5F5F5F5F5F5F5F5F5F5F5F5F5E2F5F5E2CDCDE2F5F5E2F5F5F5F5F5
310
F5F5F5F5F5F5F5F5F5F5F5F5F5F5F5F5F5F5F5F5F5F5F5F5F5F5F5F5F5F5F5F5F5F5F5F5F5F5F5F5F5F5F5F5F5F5F5F5F5F5F5F5F5F5F5F5F5F5F5F5F5F5F5F5F5F5F5F5F5F5F5F5F5F5F5F5F5F5F5F5F5F5F5F5F5E2F5F5E20000E2F5F5E2F5F5F5F5F5F5F5F5F5F5F5F5F5F5F5F5F5F5F5F5F5F5F5F5F5F5F5F5F5F5F5F5
310
F5F5F5F5F5F5F5F5F5F5F5F5F5F5F5F5F5F5F5F5F5F5F5F5F5F5F5F5F5F5F5F5F5F5F5F5F5F5F5F5F5F5F5F5F5F5F5F5F5F5F5F5F5F5F5F5F5F5E2F5F5E2CDCDE2F5F5F5F5F5F5F5F5F5F5F5F5F5F5F5F5F5F5F5F5F5F5F5F5F5F5F5F5F5F5F5F5F5F5F5F5F5F5F5F5F5F5F5F5F5F5F5F5F5F5F5F5F5F5F5F5F5F5F5F5F5F5
310
F5F5F5F5F5F5F5F5F5F5F5F5F5F5F5F5F5F5F5F5F5F5F5F5F5F5F5F5F5F5F5F5F5F5E20000E2F5F5F5F5F5F5F5F5F5F5F5F5F5F5F5F5F5F5F5F5F5F5F5F5F5F5F5F5F5F5F5F5F5F5F5F5F5F5F5F5F5F5F5F5F5F5F5F5F5F5F5F5F5F5F5F5F5F5F5F5F5F5F5F5F5F5F5F5F5F5F5F5F5F5F5F5F5F5F5F5F5F5F5F5F5F5F5F5F5
310
F5F5F5F5F5F5F5E2CDCDE2F5F5F5F5F5F5F5F5F5F5F5F5F5F5F5F5F5F5F5F5F5F5F5F5F5F5F5F5F5F5F5F5F5F5F5F5F5F5F5F5F5F5F5F5F5F5F5F5F5F5F5F5F5F5F5F5F5F5F5F5F5F5F5F5F5F5F5F5F5F5F5F5F5F5F5F5F5F5F5F5F5F5F5F5F5F5F5F5F5F5F5F5F5F5F5F5E20000E2F5F5F5F5F5F5F5F5F5F5F5F5F5F5F5F5
310
F5F5F5F5F5F5F5F5F5F5F5F5F5F5F5F5F5F5F5F5F5F5F5F5F5F5F5F5F5F5F5F5F5F5F5F5F5F5F5F5F5F5F5F5F5F5F5F5F5F5F5F5F5F5F5F5F5F5F5F5F5F5F5F5F5F5F5F5F5F5F5F5F5F5F5F5F5F5F5F5E2CDCDE2F5F5F5F5F5F5F5F5F5F5F5F5F5F5F5F5F5F5F5F5F5F5F5F5F5F5F5F5F5F5F5F5F5F5F5F5F5F5F5F5F5F5F5
310
F5F5F5F5F5F5F5F5F5F5F5F5F5F5F5F5F5F5F5F5F5F5F5F5F5F5F5F5F5F5F5F5F5F5F5F5F5F5F5F5F5F5F5F5F5F5F5F5F5F5F5F5F5E20000E2F5F5F5F5F5F5F5F5F5F5F5F5F5F5F5F5F5F5F5F5F5F5F5F5F5F5F5F5F5F5F5F5F5F5F5F5F5F5F5F5F5F5F5F5F5F5F5F5F5F5F5F5F5F5F5F5F5F5F5F5F5F5F5F5F5F5F5F5F5F5
310
F5F5F5F5F5F5F5F5F5F5F5F5F5F5F5F5F5F5F5F5F5F5F5F5F5F5E2CDCDE2F5F5F5F5F5F5F5F5F5F5F5F5F5F5F5F5F5F5F5F5F5F5F5F5F5F5F5F5F5F5F5F5F5F5F5F5F5F5F5F5F5F5F5F5F5F5F5F5F5F5F5F5F5F5F5F5F5F5F5F5F5F5F5F5F5F5F5F5F5F5F5F5F5F5F5F5F5F5F5F5F5F5F5F5F5F5F5F5F5F5F5F5F5F5F5F5E2
310
0000E2F5F5F5F5F5F5F5F5F5F5F5F5F5F5F5F5F5F5F5F5F5F5F5F5F5F5F5F5F5F5F5F5F5F5F5F5F5F5F5F5F5F5F5F5F5F5F5F5F5F5F5F5F5F5F5F5F5F5F5F5F5F5F5F5F5F5F5F5F5F5F5F5F5F5F5F5F5F5F5F5F5F5F5F5F5F5F5F5F5F5F5F5F5F5F5F5E2CDCDE2F5F5F5F5F5F5F5F5F5F5F5F5F5F5F5F5F5F5F5F5F5F5F5F5
310
F5F5F5F5F5F5F5F5F5F5F5F5F5F5F5F5F5F5F5F5F5F5F5F5F5F5F5F5F5F5F5F5F5F5F5F5F5F5F5F5F5F5F5F5F5F5F5F5F5F5F5F5F5F5F5F5F5F5F5F5F5F5F5F5F5F5F5F5F5F5F5F5E20000E2F5F5E2F5F5F5F5F5F5F5F5F5F5F5F5F5F5F5F5F5F5F5F5F5F5F5F5F5F5F5F5F5F5F5F5F5F5F5F5F5F5F5F5F5F5F5F5F5F5F5F5
310
F5F5F5F5F5F5F5F5F5F5F5F5F5F5F5F5F5F5F5F5F5F5F5F5F5F5F5F5F5F5F5F5F5F5F5F5F5F5F5F5F5F5E2F5F5E2CDCDE2F5F5E2F5F5F5F5F5F5F5F5F5F5F5F5F5F5F5F5F5F5F5F5F5F5F5F5F5F5F5F5F5F5F5F5F5F5F5F5F5F5F5F5F5F5F5F5F5F5F5F5F5F5F5F5F5F5F5F5F5F5F5F5F5F5F5F5F5F5F5F5F5F5F5F5F5F5F5
310
F5F5F5F5F5F5F5F5F5F5F5F5F5F5F5E2F5F5E20000E2F5F5E2F5F5F5F5F5F5F5F5F5F5F5F5F5F5F5F5F5F5F5F5F5F5F5F5F5F5F5F5F5F5F5F5F5F5F5F5F5F5F5F5F5F5F5F5F5F5F5F5F5F5F5F5F5F5F5F5F5F5F5F5F5F5F5F5F5F5F5F5F5F5F5F5F5F5F5F5F5F5F5F5F5F5F5F5F5F5F5F5F5F5E2F5F5E2CDCDE2F5F5E2F5F5
310
F5F5F5F5F5F5F5F5F5F5F5F5F5F5F5F5F5F5F5F5F5F5F5F5F5F5F5F5F5F5F5F5F5F5F5F5F5F5F5F5F5F5F5F5F5F5F5F5F5F5F5F5F5F5F5F5F5F5F5F5F5F5F5F5F5F5F5F5F5F5F5F5F5F5F5F5F5F5F5F5F5F5F5F5F5F5F5F5E2F5F5E20000E2F5F5E2F5F5F5F5F5F5F5F5F5F5F5F5F5F5F5F5F5F5F5F5F5F5F5F5F5F5F5F5F5
310
F5F5F5F5F5F5F5F5F5F5F5F5F5F5F5F5F5F5F5F5F5F5F5F5F5F5F5F5F5F5F5F5F5F5F5F5F5F5F5F5F5F5F5F5F5F5F5F5F5F5F5F5F5F5F5F5F5F5F5F5F5E2F5F5E2CDCDE2F5F5E2F5F5F5F5F5F5F5F5F5F5F5F5F5F5F5F5F5F5F5F5F5F5F5F5F5F5F5F5F5F5F5F5F5F5F5F5F5F5F5F5F5F5F5F5F5F5F5F5F5F5F5F5F5F5F5F5
310
F5F5F5F5F5F5F5F5F5F5F5F5F5F5F5F5F5F5F5F5F5F5F5F5F5F5F5F5F5F5F5F5F5F5E2F5F5E20000E2F5F5E2F5F5F5F5F5F5F5F5F5F5F5F5F5F5F5F5F5F5F5F5F5F5F5F5F5F5F5F5F5F5F5F5F5F5F5F5F5F5F5F5F5F5F5F5F5F5F5F5F5F5F5F5F5F5F5F5F5F5F5F5F5F5F5F5F5F5F5F5F5F5F5F5F5F5F5F5F5F5F5F5F5F5F5
310
F5F5F5F5F5F5F5E2F5F5E2CDCDE2F5F5E2F5F5F5F5F5F5F5F5F5F5F5F5F5F5F5F5F5F5F5F5F5F5F5F5F5F5F5F5F5F5F5F5F5F5F5F5F5F5F5F5F5F5F5F5F5F5F5F5F5F5F5F5F5F5F5F5F5F5F5F5F5F5F5F5F5F5F5F5F5F5F5F5F5F5F5F5F5F5F5F5F5F5F5F5F5F5F5F5F5F5E2F5F5E20000E2F5F5E2E2E2E2E2E2E2E2F5F5F5
310
F5F5F5F5F5E2E2E2E2E2E2E2E2E2E2E2E2E2E2E2F5F5F5F5F5F5F5F5E2E2E2E2E2E2E2E2E2E2E2E2E2E2F5F5F5F5F5F5F5F5E2E2E2E2E2E2E2E2E2E2E2E2E2E2E2F5F5F5F5F5F5F5F5E2E2E2E2E2E2E2E2F5F5E2CDCDE2F5F5F5F5F5F5F5F5F5F5F5F5F5F5F5F5F5F5F5F5F5F5F5F5F5F5F5F5F5F5F5F5F5F5F5F5F5F5F5F5
310
F5F5F5F5F5F5F5F5F5F5F5F5F5F5F5F5F5F5F5F5F5F5F5F5F5F5F5F5F5F5F5F5F5F5F5F5F5F5F5F5F5F5F5F5F5F5F5F5F5F5F5F5F5F5F5F5E20000E2F5F5F5F5F5F5F5F5F5F5F5F5F5F5F5F5F5F5F5F5F5F5F5F5F5F5F5F5F5F5F5F5F5F5F5F5F5F5F5F5F5F5F5F5F5F5F5F5F5F5F5F5F5F5F5F5F5F5F5F5F5F5F5F5F5F5F5
310
F5F5F5F5F5F5F5F5F5F5F5F5F5F5F5F5F5F5F5F5F5F5F5F5F5F5F5F5F5E2CDCDE2F5F5F5F5F5F5F5F5F5F5F5F5F5F5F5F5F5F5F5F5F5F5F5F5F5F5F5F5F5F5F5F5F5F5F5F5F5F5F5F5F5F5F5F5F5F5F5F5F5F5F5F5F5F5F5F5F5F5F5F5F5F5F5F5F5F5F5F5F5F5F5F5F5F5F5F5F5F5F5F5F5F5F5F5F5F5F5F5F5F5F5F5F5F5
310
F5F5E20000E2E2E2E2E2E2E2E2E2E2E2E2E2E2E2E2E2E2E2E2E2E2E2E2E2E2E2E2E2E2E2E2E2E2E2E2E2E2E2E2E2E2E2E2E2E2E2E2E2E2E2E2E2E2E2E2E2E2E2E2E2E2E2E2E2E2E2E2E2E2E2E2E2E2E2E2E2E2E2E2E2E2E2E2E2E2E2E2E2E2E2E2E2E2E2E2E2E2CDCDEFEFEFEFEFEFEFEFEFEFEFEFEFEFEFEFEFEFEFEFEFEF
310
EFEFEFEFEFEFEFEFEFEFEFEFEFEFEFEFEFEFEFEFEFEFEFEFEFEFEFEFEFEFEFEFEFEFEFEFEFEFEFEFEFEFEFEFEFEFEFEFEFEFEFEFEFEFEFEFEFEFEFEFEFEFEFEFEFEFEFEFEFEFEFEFEFEFEFEF0000
  0
XRECORD
  5
1E7C
102
{ACAD_REACTORS
330
1E7B
102
}
330
1E7B
100
AcDbXrecord
280
     1
102
MATERIAL
148
0.0
149
0.0
149
0.0
 93
        0
 94
       63
282
     0
 72
     1
 77
     1
171
     1
175
     1
179
     1
273
     0
  0
XRECORD
  5
1E7A
102
{ACAD_REACTORS
330
1E79
102
}
330
1E79
100
AcDbXrecord
280
     1
102
MATERIAL
148
0.0
149
0.0
149
0.0
 93
        0
 94
       63
282
     0
 72
     1
 77
     1
171
     1
175
     1
179
     1
273
     0
  0
XRECORD
  5
1E7E
102
{ACAD_REACTORS
330
1E7D
102
}
330
1E7D
100
AcDbXrecord
280
     1
102
MATERIAL
148
0.0
149
0.0
149
0.0
 93
        0
 94
       63
282
     0
 72
     1
 77
     1
171
     1
175
     1
179
     1
273
     0
  0
XRECORD
  5
1E80
102
{ACAD_REACTORS
330
1E7F
102
}
330
1E7F
100
AcDbXrecord
280
     1
102
ACAD_ROUNDTRIP_PRE2007_TABLESTYLE
 90
      512
 91
        0
  1

 92
      512
 93
        0
  2

 94
      512
 95
        0
  3

  0
ENDSEC
  0
EOF
