  0
SECTION
  2
HEADER
  9
$ACADVER
  1
AC1015
  9
$ACADMAINTVER
 70
    20
  9
$DWGCODEPAGE
  3
ANSI_1252
  9
$INSBASE
 10
0.0
 20
0.0
 30
0.0
  9
$EXTMIN
 10
-1305.757453090024
 20
-3709.247926711394
 30
0.0
  9
$EXTMAX
 10
3403.56621637803
 20
469.3351884759099
 30
0.0
  9
$LIMMIN
 10
-1091.180495341761
 20
-619.6501650024412
  9
$LIMMAX
 10
1056.97244419739
 20
951.0353648293053
  9
$ORTHOMODE
 70
     0
  9
$REGENMODE
 70
     1
  9
$FILLMODE
 70
     1
  9
$QTEXTMODE
 70
     0
  9
$MIRRTEXT
 70
     1
  9
$LTSCALE
 40
1.0
  9
$ATTMODE
 70
     1
  9
$TEXTSIZE
 40
4.0
  9
$TRACEWID
 40
0.05
  9
$TEXTSTYLE
  7
VOESTB
  9
$CLAYER
  8
KOTIERUNG
  9
$CELTYPE
  6
BYLAYER
  9
$CECOLOR
 62
   256
  9
$CELTSCALE
 40
1.0
  9
$DISPSILH
 70
     0
  9
$DIMSCALE
 40
142.85
  9
$DIMASZ
 40
0.25
  9
$DIMEXO
 40
0.5
  9
$DIMDLI
 40
0.5
  9
$DIMRND
 40
0.0
  9
$DIMDLE
 40
0.0
  9
$DIMEXE
 40
0.25
  9
$DIMTP
 40
0.0
  9
$DIMTM
 40
0.0
  9
$DIMTXT
 40
0.25
  9
$DIMCEN
 40
0.09
  9
$DIMTSZ
 40
0.0
  9
$DIMTOL
 70
     0
  9
$DIMLIM
 70
     0
  9
$DIMTIH
 70
     0
  9
$DIMTOH
 70
     0
  9
$DIMSE1
 70
     0
  9
$DIMSE2
 70
     0
  9
$DIMTAD
 70
     1
  9
$DIMZIN
 70
     0
  9
$DIMBLK
  1

  9
$DIMASO
 70
     1
  9
$DIMSHO
 70
     1
  9
$DIMPOST
  1

  9
$DIMAPOST
  1

  9
$DIMALT
 70
     0
  9
$DIMALTD
 70
     2
  9
$DIMALTF
 40
25.4
  9
$DIMLFAC
 40
1.0
  9
$DIMTOFL
 70
     0
  9
$DIMTVP
 40
0.0
  9
$DIMTIX
 70
     0
  9
$DIMSOXD
 70
     0
  9
$DIMSAH
 70
     0
  9
$DIMBLK1
  1

  9
$DIMBLK2
  1

  9
$DIMSTYLE
  2
TYPENBLATT_M10
  9
$DIMCLRD
 70
     0
  9
$DIMCLRE
 70
     0
  9
$DIMCLRT
 70
     0
  9
$DIMTFAC
 40
1.0
  9
$DIMGAP
 40
0.075
  9
$DIMJUST
 70
     0
  9
$DIMSD1
 70
     0
  9
$DIMSD2
 70
     0
  9
$DIMTOLJ
 70
     1
  9
$DIMTZIN
 70
     0
  9
$DIMALTZ
 70
     0
  9
$DIMALTTZ
 70
     0
  9
$DIMUPT
 70
     0
  9
$DIMDEC
 70
     0
  9
$DIMTDEC
 70
     0
  9
$DIMALTU
 70
     2
  9
$DIMALTTD
 70
     2
  9
$DIMTXSTY
  7
VOEST
  9
$DIMAUNIT
 70
     0
  9
$DIMADEC
 70
     0
  9
$DIMALTRND
 40
0.0
  9
$DIMAZIN
 70
     0
  9
$DIMDSEP
 70
    46
  9
$DIMATFIT
 70
     3
  9
$DIMFRAC
 70
     0
  9
$DIMLDRBLK
  1

  9
$DIMLUNIT
 70
     2
  9
$DIMLWD
 70
    -2
  9
$DIMLWE
 70
    -2
  9
$DIMTMOVE
 70
     0
  9
$LUNITS
 70
     2
  9
$LUPREC
 70
     4
  9
$SKETCHINC
 40
0.1
  9
$FILLETRAD
 40
10.0
  9
$AUNITS
 70
     0
  9
$AUPREC
 70
     4
  9
$MENU
  1
acad
  9
$ELEVATION
 40
0.0
  9
$PELEVATION
 40
0.0
  9
$THICKNESS
 40
0.0
  9
$LIMCHECK
 70
     0
  9
$CHAMFERA
 40
0.0
  9
$CHAMFERB
 40
0.0
  9
$CHAMFERC
 40
1.0
  9
$CHAMFERD
 40
0.0
  9
$SKPOLY
 70
     0
  9
$TDCREATE
 40
2451353.418328530
  9
$TDUCREATE
 40
2451353.376661864
  9
$TDUPDATE
 40
2453710.453790799
  9
$TDUUPDATE
 40
2453710.412124132
  9
$TDINDWG
 40
2.5687671065
  9
$TDUSRTIMER
 40
2.5687671065
  9
$USRTIMER
 70
     1
  9
$ANGBASE
 50
0.0
  9
$ANGDIR
 70
     0
  9
$PDMODE
 70
     0
  9
$PDSIZE
 40
0.0
  9
$PLINEWID
 40
0.0
  9
$SPLFRAME
 70
     0
  9
$SPLINETYPE
 70
     6
  9
$SPLINESEGS
 70
   110
  9
$HANDSEED
  5
1FD3
  9
$SURFTAB1
 70
     6
  9
$SURFTAB2
 70
     6
  9
$SURFTYPE
 70
     6
  9
$SURFU
 70
     6
  9
$SURFV
 70
     6
  9
$UCSBASE
  2

  9
$UCSNAME
  2

  9
$UCSORG
 10
0.0
 20
0.0
 30
0.0
  9
$UCSXDIR
 10
1.0
 20
0.0
 30
0.0
  9
$UCSYDIR
 10
0.0
 20
1.0
 30
0.0
  9
$UCSORTHOREF
  2

  9
$UCSORTHOVIEW
 70
     0
  9
$UCSORGTOP
 10
0.0
 20
0.0
 30
0.0
  9
$UCSORGBOTTOM
 10
0.0
 20
0.0
 30
0.0
  9
$UCSORGLEFT
 10
0.0
 20
0.0
 30
0.0
  9
$UCSORGRIGHT
 10
0.0
 20
0.0
 30
0.0
  9
$UCSORGFRONT
 10
0.0
 20
0.0
 30
0.0
  9
$UCSORGBACK
 10
0.0
 20
0.0
 30
0.0
  9
$PUCSBASE
  2

  9
$PUCSNAME
  2

  9
$PUCSORG
 10
0.0
 20
0.0
 30
0.0
  9
$PUCSXDIR
 10
1.0
 20
0.0
 30
0.0
  9
$PUCSYDIR
 10
0.0
 20
1.0
 30
0.0
  9
$PUCSORTHOREF
  2

  9
$PUCSORTHOVIEW
 70
     0
  9
$PUCSORGTOP
 10
0.0
 20
0.0
 30
0.0
  9
$PUCSORGBOTTOM
 10
0.0
 20
0.0
 30
0.0
  9
$PUCSORGLEFT
 10
0.0
 20
0.0
 30
0.0
  9
$PUCSORGRIGHT
 10
0.0
 20
0.0
 30
0.0
  9
$PUCSORGFRONT
 10
0.0
 20
0.0
 30
0.0
  9
$PUCSORGBACK
 10
0.0
 20
0.0
 30
0.0
  9
$USERI1
 70
     0
  9
$USERI2
 70
     0
  9
$USERI3
 70
     0
  9
$USERI4
 70
     0
  9
$USERI5
 70
     0
  9
$USERR1
 40
0.0
  9
$USERR2
 40
0.0
  9
$USERR3
 40
0.0
  9
$USERR4
 40
0.0
  9
$USERR5
 40
0.0
  9
$WORLDVIEW
 70
     1
  9
$SHADEDGE
 70
     3
  9
$SHADEDIF
 70
    70
  9
$TILEMODE
 70
     1
  9
$MAXACTVP
 70
    48
  9
$PINSBASE
 10
0.0
 20
0.0
 30
0.0
  9
$PLIMCHECK
 70
     0
  9
$PEXTMIN
 10
144.2549534229397
 20
112.0353546305189
 30
0.0
  9
$PEXTMAX
 10
145.0513381432671
 20
115.9899931025516
 30
0.0
  9
$PLIMMIN
 10
-28.8959541988969
 20
2.819245198056933
  9
$PLIMMAX
 10
181.0773734378218
 20
299.7452400711038
  9
$UNITMODE
 70
     0
  9
$VISRETAIN
 70
     1
  9
$PLINEGEN
 70
     0
  9
$PSLTSCALE
 70
     1
  9
$TREEDEPTH
 70
  3020
  9
$CMLSTYLE
  2
STANDARD
  9
$CMLJUST
 70
     0
  9
$CMLSCALE
 40
1.0
  9
$PROXYGRAPHICS
 70
     1
  9
$MEASUREMENT
 70
     0
  9
$CELWEIGHT
370
    -1
  9
$ENDCAPS
280
     0
  9
$JOINSTYLE
280
     0
  9
$LWDISPLAY
290
     1
  9
$INSUNITS
 70
     0
  9
$HYPERLINKBASE
  1

  9
$STYLESHEET
  1

  9
$XEDIT
290
     1
  9
$CEPSNTYPE
380
     0
  9
$PSTYLEMODE
290
     1
  9
$FINGERPRINTGUID
  2
{77F2E389-4F59-11D5-95D4-08002BF18828}
  9
$VERSIONGUID
  2
{1FE7AE89-6441-4C8B-AF88-8C4376F45703}
  9
$EXTNAMES
290
     1
  9
$PSVPSCALE
 40
0.0
  9
$OLESTARTUP
290
     0
  0
ENDSEC
  0
SECTION
  2
CLASSES
  0
CLASS
  1
DICTIONARYVAR
  2
AcDbDictionaryVar
  3
ObjectDBX Classes
 90
        0
280
     0
281
     0
  0
CLASS
  1
ACDBDICTIONARYWDFLT
  2
AcDbDictionaryWithDefault
  3
ObjectDBX Classes
 90
        0
280
     0
281
     0
  0
CLASS
  1
ACDBPLACEHOLDER
  2
AcDbPlaceHolder
  3
ObjectDBX Classes
 90
        0
280
     0
281
     0
  0
CLASS
  1
LAYOUT
  2
AcDbLayout
  3
ObjectDBX Classes
 90
        0
280
     0
281
     0
  0
CLASS
  1
RASTERVARIABLES
  2
AcDbRasterVariables
  3
ISM
 90
        0
280
     0
281
     0
  0
CLASS
  1
IMAGEDEF
  2
AcDbRasterImageDef
  3
ISM
 90
        0
280
     0
281
     0
  0
CLASS
  1
IMAGEDEF_REACTOR
  2
AcDbRasterImageDefReactor
  3
ISM
 90
    32769
280
     0
281
     0
  0
CLASS
  1
IMAGE
  2
AcDbRasterImage
  3
ISM
 90
    32895
280
     0
281
     1
  0
CLASS
  1
TABLESTYLE
  2
AcDbTableStyle
  3
ObjectDBX Classes
 90
     2047
280
     0
281
     0
  0
ENDSEC
  0
SECTION
  2
TABLES
  0
TABLE
  2
VPORT
  5
8
330
0
100
AcDbSymbolTable
 70
     2
  0
VPORT
  5
1FCA
330
8
100
AcDbSymbolTableRecord
100
AcDbViewportTableRecord
  2
*Active
 70
     0
 10
0.0
 20
0.0
 11
1.0
 21
1.0
 12
1073.11626638765
 22
-1774.891874042246
 13
0.0
 23
0.0
 14
0.5
 24
0.5
 15
0.5
 25
0.5
 16
0.0
 26
0.0
 36
1.0
 17
0.0
 27
0.0
 37
0.0
 40
4576.647572873366
 41
1.289855072463768
 42
50.0
 43
0.0
 44
0.0
 50
0.0
 51
0.0
 71
     0
 72
   100
 73
     1
 74
     1
 75
     0
 76
     0
 77
     0
 78
     0
281
     0
 65
     1
110
0.0
120
0.0
130
0.0
111
1.0
121
0.0
131
0.0
112
0.0
122
1.0
132
0.0
 79
     0
146
0.0
  0
ENDTAB
  0
TABLE
  2
LTYPE
  5
5
330
0
100
AcDbSymbolTable
 70
     3
  0
LTYPE
  5
12
330
5
100
AcDbSymbolTableRecord
100
AcDbLinetypeTableRecord
  2
BYBLOCK
 70
     0
  3

 72
    65
 73
     0
 40
0.0
  0
LTYPE
  5
13
330
5
100
AcDbSymbolTableRecord
100
AcDbLinetypeTableRecord
  2
BYLAYER
 70
     0
  3

 72
    65
 73
     0
 40
0.0
  0
LTYPE
  5
14
330
5
100
AcDbSymbolTableRecord
100
AcDbLinetypeTableRecord
  2
CONTINUOUS
 70
     0
  3
Solid line
 72
    65
 73
     0
 40
0.0
  0
LTYPE
  5
222
330
5
100
AcDbSymbolTableRecord
100
AcDbLinetypeTableRecord
  2
STRICHPUNKT
 70
     0
  3
Strichpunkt __ . __ . __ . __ . __ . __ . __ . 
 72
    65
 73
     4
 40
25.4
 49
12.7
 74
     0
 49
-6.349999999999999
 74
     0
 49
0.0
 74
     0
 49
-6.349999999999999
 74
     0
  0
LTYPE
  5
223
330
5
100
AcDbSymbolTableRecord
100
AcDbLinetypeTableRecord
  2
STRICHLINIE
 70
     0
  3
Strichlinie __ __ __ __ __ __ __ __ __ __ __ __
 72
    65
 73
     2
 40
19.05
 49
12.7
 74
     0
 49
-6.349999999999999
 74
     0
  0
ENDTAB
  0
TABLE
  2
LAYER
  5
2
330
0
100
AcDbSymbolTable
 70
    14
  0
LAYER
  5
E
330
2
100
AcDbSymbolTableRecord
100
AcDbLayerTableRecord
  2
0
 70
     0
 62
     7
  6
CONTINUOUS
370
    -3
390
170F
  0
LAYER
  5
4A
330
2
100
AcDbSymbolTableRecord
100
AcDbLayerTableRecord
  2
HILFSLINIEN
 70
     0
 62
     3
  6
CONTINUOUS
370
    -3
390
170F
  0
LAYER
  5
12F
330
2
100
AcDbSymbolTableRecord
100
AcDbLayerTableRecord
  2
25
 70
     0
 62
     7
  6
CONTINUOUS
370
    -3
390
170F
  0
LAYER
  5
1DA
330
2
100
AcDbSymbolTableRecord
100
AcDbLayerTableRecord
  2
35
 70
     0
 62
     2
  6
CONTINUOUS
370
    -3
390
170F
  0
LAYER
  5
224
330
2
100
AcDbSymbolTableRecord
100
AcDbLayerTableRecord
  2
KOTIERUNG
 70
     0
 62
     7
  6
CONTINUOUS
370
    -3
390
170F
  0
LAYER
  5
225
330
2
100
AcDbSymbolTableRecord
100
AcDbLayerTableRecord
  2
DEFPOINTS
 70
     0
 62
     7
  6
CONTINUOUS
290
     0
370
    -3
390
170F
  0
LAYER
  5
226
330
2
100
AcDbSymbolTableRecord
100
AcDbLayerTableRecord
  2
18
 70
     0
 62
     1
  6
CONTINUOUS
370
    -3
390
170F
  0
LAYER
  5
425
330
2
100
AcDbSymbolTableRecord
100
AcDbLayerTableRecord
  2
50
 70
     0
 62
    33
  6
CONTINUOUS
370
    -3
390
170F
  0
LAYER
  5
471
330
2
100
AcDbSymbolTableRecord
100
AcDbLayerTableRecord
  2
FENSTER
 70
     0
 62
     4
  6
CONTINUOUS
370
    -3
390
170F
  0
LAYER
  5
474
330
2
100
AcDbSymbolTableRecord
100
AcDbLayerTableRecord
  2
A4-BLATT
 70
     0
 62
     6
  6
CONTINUOUS
370
    -3
390
170F
  0
LAYER
  5
12F9
330
2
100
AcDbSymbolTableRecord
100
AcDbLayerTableRecord
  2
BLATTHILFSLINIEN
 70
     0
 62
   252
  6
CONTINUOUS
370
    -3
390
170F
  0
LAYER
  5
14E1
330
2
100
AcDbSymbolTableRecord
100
AcDbLayerTableRecord
  2
BESCHRIFTUNGM
 70
     0
 62
     7
  6
CONTINUOUS
370
    -3
390
170F
  0
LAYER
  5
14EF
330
2
100
AcDbSymbolTableRecord
100
AcDbLayerTableRecord
  2
BLATTTEXT
 70
     0
 62
     7
  6
CONTINUOUS
370
    -3
390
170F
  0
LAYER
  5
1A0E
330
2
100
AcDbSymbolTableRecord
100
AcDbLayerTableRecord
  2
70
 70
     0
 62
     5
  6
CONTINUOUS
370
    -3
390
170F
  0
ENDTAB
  0
TABLE
  2
STYLE
  5
3
330
0
100
AcDbSymbolTable
 70
     8
  0
STYLE
  5
F
330
3
100
AcDbSymbolTableRecord
100
AcDbTextStyleTableRecord
  2
STANDARD
 70
     0
 40
0.0
 41
1.0
 50
0.0
 71
     0
 42
25.0
  3
ARIALN.TTF
  4

1001
ACAD
1000
Arial Narrow
1071
       34
  0
STYLE
  5
428
330
3
100
AcDbSymbolTableRecord
100
AcDbTextStyleTableRecord
  2
VOEST
 70
     0
 40
0.0
 41
1.0
 50
0.0
 71
     0
 42
4.0
  3
ARIALN.TTF
  4

1001
ACAD
1000
Arial Narrow
1071
       34
  0
STYLE
  5
14E5
330
3
100
AcDbSymbolTableRecord
100
AcDbTextStyleTableRecord
  2
ARIALFETT
 70
     0
 40
0.0
 41
1.0
 50
0.0
 71
     0
 42
4.0
  3
ARIALN.TTF
  4

1001
ACAD
1000
Arial Narrow
1071
       34
  0
STYLE
  5
16FD
330
3
100
AcDbSymbolTableRecord
100
AcDbTextStyleTableRecord
  2
VOESTB
 70
     0
 40
0.0
 41
1.0
 50
0.0
 71
     0
 42
4.0
  3
ARIALNB.TTF
  4

1001
ACAD
1000
Arial Narrow
1071
 33554466
  0
STYLE
  5
1BD8
330
3
100
AcDbSymbolTableRecord
100
AcDbTextStyleTableRecord
  2
LOGO1
 70
     0
 40
0.0
 41
1.175
 50
0.0
 71
     0
 42
6.158564712355089
  3
swissb.ttf
  4

1001
ACAD
1000
Swis721 BT
1071
 33554466
  0
STYLE
  5
1BD9
330
3
100
AcDbSymbolTableRecord
100
AcDbTextStyleTableRecord
  2
LOGO3
 70
     0
 40
0.0
 41
1.175
 50
0.0
 71
     0
 42
6.158564712355089
  3
swissel.ttf
  4

1001
ACAD
1000
Swis721 LtEx BT
1071
       34
  0
STYLE
  5
1BDA
330
3
100
AcDbSymbolTableRecord
100
AcDbTextStyleTableRecord
  2
LOGO2
 70
     0
 40
0.0
 41
1.175
 50
0.0
 71
     0
 42
6.158564712355089
  3
swiss.ttf
  4

1001
ACAD
1000
Swis721 BT
1071
       34
  0
STYLE
  5
1F0D
330
3
100
AcDbSymbolTableRecord
100
AcDbTextStyleTableRecord
  2
AN150
 70
     0
 40
0.0
 41
1.5
 50
0.0
 71
     0
 42
4.0
  3
ARIALN.TTF
  4

1001
ACAD
1000
Arial Narrow
1071
       34
  0
ENDTAB
  0
TABLE
  2
VIEW
  5
6
330
0
100
AcDbSymbolTable
 70
     0
  0
ENDTAB
  0
TABLE
  2
UCS
  5
7
330
0
100
AcDbSymbolTable
 70
     0
  0
ENDTAB
  0
TABLE
  2
APPID
  5
9
330
0
100
AcDbSymbolTable
 70
     5
  0
APPID
  5
10
330
9
100
AcDbSymbolTableRecord
100
AcDbRegAppTableRecord
  2
ACAD
 70
     0
  0
APPID
  5
24
330
9
100
AcDbSymbolTableRecord
100
AcDbRegAppTableRecord
  2
CONTENTTABDATA
 70
     0
  0
APPID
  5
25
330
9
100
AcDbSymbolTableRecord
100
AcDbRegAppTableRecord
  2
CONTENTCURRENTTAB
 70
     0
  0
APPID
  5
116
330
9
100
AcDbSymbolTableRecord
100
AcDbRegAppTableRecord
  2
CONTENTBLOCKICON
 70
     0
  0
APPID
  5
117
330
9
100
AcDbSymbolTableRecord
100
AcDbRegAppTableRecord
  2
CONTENTBLOCKDESCRIPTION
 70
     0
  0
ENDTAB
  0
TABLE
  2
DIMSTYLE
  5
A
330
0
100
AcDbSymbolTable
 70
     6
100
AcDbDimStyleTable
 71
     1
340
EF9
  0
DIMSTYLE
105
1D
102
{ACAD_REACTORS
330
B2B
102
}
330
A
100
AcDbSymbolTableRecord
100
AcDbDimStyleTableRecord
  2
STANDARD
 70
     0
340
F
  0
DIMSTYLE
105
B80
330
A
100
AcDbSymbolTableRecord
100
AcDbDimStyleTableRecord
  2
TYPENBLATT
 70
     0
 40
100.0
 41
0.25
 42
0.5
 43
0.5
 44
0.25
 73
     0
 74
     0
140
0.25
147
0.125
271
     0
340
428
  0
DIMSTYLE
105
EF9
102
{ACAD_REACTORS
330
B2B
330
BE4
330
EC8
330
CB5
330
B9A
330
16E4
102
}
330
A
100
AcDbSymbolTableRecord
100
AcDbDimStyleTableRecord
  2
TYPENBLATT_M10
 70
     0
 40
142.85
 41
0.25
 42
0.5
 43
0.5
 44
0.25
 73
     0
 74
     0
 77
     1
140
0.25
147
0.075
271
     0
272
     0
340
428
  0
DIMSTYLE
105
EFA
102
{ACAD_REACTORS
330
F3F
330
F4B
330
FD8
102
}
330
A
100
AcDbSymbolTableRecord
100
AcDbDimStyleTableRecord
  2
TYPENBLATT_M50
 70
     0
 40
500.0
 41
0.25
 42
0.1
 43
0.5
 44
0.25
 73
     0
 74
     0
 77
     1
140
0.25
147
0.075
271
     0
340
428
  0
DIMSTYLE
105
10C6
330
A
100
AcDbSymbolTableRecord
100
AcDbDimStyleTableRecord
  2
TYPENBLATT_BESCHR
 70
     0
 40
100.0
 41
0.25
 42
0.5
 43
0.25
 44
0.25
 73
     0
 74
     0
140
0.25
141
0.0
147
0.075
271
     0
340
428
  0
DIMSTYLE
105
1BDB
330
A
100
AcDbSymbolTableRecord
100
AcDbDimStyleTableRecord
  2
STIL2.5
 70
     0
 40
2.5
 41
5.0
 42
1.0
 43
1.0
 44
1.0
 73
     0
 74
     0
140
3.5
147
1.0
271
     0
272
     0
340
428
341
1BCA
  0
ENDTAB
  0
TABLE
  2
BLOCK_RECORD
  5
1
330
0
100
AcDbSymbolTable
 70
    25
  0
BLOCK_RECORD
  5
18
330
1
100
AcDbSymbolTableRecord
100
AcDbBlockTableRecord
  2
*MODEL_SPACE
340
1712
  0
BLOCK_RECORD
  5
1A5D
330
1
100
AcDbSymbolTableRecord
100
AcDbBlockTableRecord
  2
*PAPER_SPACE
340
1AB7
  0
BLOCK_RECORD
  5
B1E
330
1
100
AcDbSymbolTableRecord
100
AcDbBlockTableRecord
  2
*D0
340
0
  0
BLOCK_RECORD
  5
B8D
330
1
100
AcDbSymbolTableRecord
100
AcDbBlockTableRecord
  2
*D1
340
0
  0
BLOCK_RECORD
  5
BD7
330
1
100
AcDbSymbolTableRecord
100
AcDbBlockTableRecord
  2
*D2
340
0
  0
BLOCK_RECORD
  5
CA8
330
1
100
AcDbSymbolTableRecord
100
AcDbBlockTableRecord
  2
*D3
340
0
  0
BLOCK_RECORD
  5
EBC
330
1
100
AcDbSymbolTableRecord
100
AcDbBlockTableRecord
  2
*D4
340
0
  0
BLOCK_RECORD
  5
F34
330
1
100
AcDbSymbolTableRecord
100
AcDbBlockTableRecord
  2
*D5
340
0
  0
BLOCK_RECORD
  5
F40
330
1
100
AcDbSymbolTableRecord
100
AcDbBlockTableRecord
  2
*D6
340
0
  0
BLOCK_RECORD
  5
FCC
330
1
100
AcDbSymbolTableRecord
100
AcDbBlockTableRecord
  2
*D7
340
0
  0
BLOCK_RECORD
  5
16D8
330
1
100
AcDbSymbolTableRecord
100
AcDbBlockTableRecord
  2
*D10
340
0
  0
BLOCK_RECORD
  5
16F0
330
1
100
AcDbSymbolTableRecord
100
AcDbBlockTableRecord
  2
A$C64D16811
340
0
  0
BLOCK_RECORD
  5
1BCA
330
1
100
AcDbSymbolTableRecord
100
AcDbBlockTableRecord
  2
_DotSmall
340
0
  0
BLOCK_RECORD
  5
1BCE
330
1
100
AcDbSymbolTableRecord
100
AcDbBlockTableRecord
  2
VOESTALPINE LOGO
340
0
310
2800000020000000200000000100080000000000000400000000000000000000000000000000000000000000000080000080000000808000800000008000800080800000C0C0C000C0DCC000F0CAA6000020400000206000002080000020A0000020C0000020E00000400000004020000040400000406000004080000040A0
310
000040C0000040E00000600000006020000060400000606000006080000060A0000060C0000060E00000800000008020000080400000806000008080000080A0000080C0000080E00000A0000000A0200000A0400000A0600000A0800000A0A00000A0C00000A0E00000C0000000C0200000C0400000C0600000C0800000C0
310
A00000C0C00000C0E00000E0000000E0200000E0400000E0600000E0800000E0A00000E0C00000E0E00040000000400020004000400040006000400080004000A0004000C0004000E00040200000402020004020400040206000402080004020A0004020C0004020E000404000004040200040404000404060004040800040
310
40A0004040C0004040E00040600000406020004060400040606000406080004060A0004060C0004060E00040800000408020004080400040806000408080004080A0004080C0004080E00040A0000040A0200040A0400040A0600040A0800040A0A00040A0C00040A0E00040C0000040C0200040C0400040C0600040C08000
310
40C0A00040C0C00040C0E00040E0000040E0200040E0400040E0600040E0800040E0A00040E0C00040E0E00080000000800020008000400080006000800080008000A0008000C0008000E00080200000802020008020400080206000802080008020A0008020C0008020E00080400000804020008040400080406000804080
310
008040A0008040C0008040E00080600000806020008060400080606000806080008060A0008060C0008060E00080800000808020008080400080806000808080008080A0008080C0008080E00080A0000080A0200080A0400080A0600080A0800080A0A00080A0C00080A0E00080C0000080C0200080C0400080C0600080C0
310
800080C0A00080C0C00080C0E00080E0000080E0200080E0400080E0600080E0800080E0A00080E0C00080E0E000C0000000C0002000C0004000C0006000C0008000C000A000C000C000C000E000C0200000C0202000C0204000C0206000C0208000C020A000C020C000C020E000C0400000C0402000C0404000C0406000C0
310
408000C040A000C040C000C040E000C0600000C0602000C0604000C0606000C0608000C060A000C060C000C060E000C0800000C0802000C0804000C0806000C0808000C080A000C080C000C080E000C0A00000C0A02000C0A04000C0A06000C0A08000C0A0A000C0A0C000C0A0E000C0C00000C0C02000C0C04000C0C06000
310
C0C08000C0C0A000F0FBFF00A4A0A000808080000000FF0000FF000000FFFF00FF000000FF00FF00FFFF0000FFFFFF0000000000000000000000000000000000000000000000000000000000000000000000000000000000000000000000000000000000000000000000000000000000000000000000000000000000000000
310
00000000000000000000000000000000000000000000000000000000000000000000000000000000000000000000000000000000000000000000000000000000000000000000000000000000000000000000000000000000000000000000000000000000000000000000000000000000000000000000000000000000000000
310
00000000000000000000000000000000000000000000000000000000000000000000000000000000000000000000000000000000000000000000000000000000000000000000000000000000000000000000000000000000000000000000000000000000000000000000000000000000000000000000000000000000000000
310
000000000000000000000000000000000000000000000000000000000000000000000000000000000000000000000000000000000000000000000000000000000000000000000000000000000000000000000000000000000000000000000000000000000000000000000000000000000000000000FFFFFFFFFFFFFFFFFFFF
310
FFFFFFFFFFFFFFFFFFFFFFFFFF000000000000000000FFFF00FF00FF00FF00FFA2A2A2A2A2A2A2A2A200000000000000000000000000FFFFFFFFFFFFFFFFFFFFA2A2A2A2A2A2A2A2A2A20000000000000000000000FFFFFFFFFFFFFFFFFFFFFFA2A2A2A2A2A2A2A2A2A2000000000000000000000000000000000000000000
310
00000000000000000000000000000000000000000000000000000000000000000000000000000000000000000000000000000000000000000000000000000000000000000000000000000000000000000000000000000000000000000000000000000000000000000000000000000000000000000000000000000000000000
310
00000000000000000000000000000000000000000000000000000000000000000000000000000000000000000000000000000000000000000000000000000000000000000000000000000000000000000000000000000000000000000000000000000000000000000000000000000000000000000000000000000000000000
310
00000000000000000000000000000000000000000000000000000000000000000000000000000000000000000000000000000000000000000000000000000000000000000000000000000000000000000000000000000000000000000000000000000000000000000000000000000000000000000000000000000000000000
310
0000000000000000000000000000000000000000000000000000000000000000000000000000000000000000000000000000000000000000
102
{BLKREFS
331
1BD6
102
}
1001
ACAD
1000
DesignCenter Data
1002
{
1070
     1
1070
     4
1002
}
  0
BLOCK_RECORD
  5
1BD4
330
1
100
AcDbSymbolTableRecord
100
AcDbBlockTableRecord
  2
LOGO ACAD
340
0
1001
ACAD
1000
DesignCenter Data
1002
{
1070
     1
1070
     4
1002
}
  0
BLOCK_RECORD
  5
1F0E
330
1
100
AcDbSymbolTableRecord
100
AcDbBlockTableRecord
  2
A$C29004DEE
340
0
  0
ENDTAB
  0
ENDSEC
  0
SECTION
  2
BLOCKS
  0
BLOCK
  5
19
330
18
100
AcDbEntity
  8
0
100
AcDbBlockBegin
  2
*MODEL_SPACE
 70
     0
 10
0.0
 20
0.0
 30
0.0
  3
*MODEL_SPACE
  1

  0
ENDBLK
  5
1A
330
18
100
AcDbEntity
  8
0
100
AcDbBlockEnd
  0
BLOCK
  5
1A5E
330
1A5D
100
AcDbEntity
 67
     1
  8
0
100
AcDbBlockBegin
  2
*PAPER_SPACE
 70
     0
 10
0.0
 20
0.0
 30
0.0
  3
*PAPER_SPACE
  1

  0
ENDBLK
  5
1AB6
330
1A5D
100
AcDbEntity
 67
     1
  8
0
100
AcDbBlockEnd
  0
BLOCK
  5
1607
330
B1E
100
AcDbEntity
  8
0
100
AcDbBlockBegin
  2
*D0
 70
     1
 10
0.0
 20
0.0
 30
0.0
  3
*D0
  1

  0
LINE
  5
1F8B
330
B1E
100
AcDbEntity
  8
KOTIERUNG
 62
     0
370
    -2
100
AcDbLine
 10
455.0354279273006
 20
334.6313412726358
 30
0.0
 11
343.9837915142205
 21
334.6313412726359
 31
0.0
  0
LINE
  5
1F8C
330
B1E
100
AcDbEntity
  8
KOTIERUNG
 62
     0
370
    -2
100
AcDbLine
 10
407.258606717881
 20
-535.3686587273642
 30
0.0
 11
343.9837915142204
 21
-535.3686587273642
 31
0.0
  0
LINE
  5
1F8D
330
B1E
100
AcDbEntity
  8
KOTIERUNG
 62
     0
370
    -2
100
AcDbLine
 10
379.6962915142205
 20
298.9188412726359
 30
0.0
 11
379.6962915142203
 21
-499.6561587273642
 31
0.0
  0
SOLID
  5
1F8E
330
B1E
100
AcDbEntity
  8
KOTIERUNG
 62
     0
100
AcDbTrace
 10
373.7442081808871
 20
298.9188412726359
 30
0.0
 11
385.6483748475538
 21
298.9188412726359
 31
0.0
 12
379.6962915142205
 22
334.6313412726359
 32
0.0
 13
379.6962915142205
 23
334.6313412726359
 33
0.0
  0
SOLID
  5
1F8F
330
B1E
100
AcDbEntity
  8
KOTIERUNG
 62
     0
100
AcDbTrace
 10
373.744208180887
 20
-499.6561587273642
 30
0.0
 11
385.6483748475537
 21
-499.6561587273642
 31
0.0
 12
379.6962915142203
 22
-535.3686587273642
 32
0.0
 13
379.6962915142203
 23
-535.3686587273642
 33
0.0
  0
MTEXT
  5
1F90
330
B1E
100
AcDbEntity
  8
KOTIERUNG
 62
     0
100
AcDbMText
 10
350.7487036902095
 20
-100.3686587273641
 30
0.0
 40
35.7125
 41
0.0
 71
     5
 72
     1
  1
\A1;870±40
  7
VOEST
 11
0.0000000000000001
 21
1.0
 31
0.0
 73
     1
 44
1.0
1001
ACAD
1000
MTEXTBEGIN
1070
    73
1070
     1
1070
    44
1040
1.0
1070
    74
1070
     0
1000
MTEXTEND
  0
POINT
  5
1F91
330
B1E
100
AcDbEntity
  8
DEFPOINTS
 62
     0
100
AcDbPoint
 10
526.4604279273007
 20
334.6313412726358
 30
0.0
  0
POINT
  5
1F92
330
B1E
100
AcDbEntity
  8
DEFPOINTS
 62
     0
100
AcDbPoint
 10
478.683606717881
 20
-535.3686587273642
 30
0.0
  0
POINT
  5
1F93
330
B1E
100
AcDbEntity
  8
DEFPOINTS
 62
     0
100
AcDbPoint
 10
379.6962915142203
 20
-535.3686587273642
 30
0.0
  0
ENDBLK
  5
1611
330
B1E
100
AcDbEntity
  8
0
100
AcDbBlockEnd
  0
BLOCK
  5
1612
330
B8D
100
AcDbEntity
  8
0
100
AcDbBlockBegin
  2
*D1
 70
     1
 10
0.0
 20
0.0
 30
0.0
  3
*D1
  1

  0
LINE
  5
1F82
330
B8D
100
AcDbEntity
  8
KOTIERUNG
 62
     0
370
    -2
100
AcDbLine
 10
964.7351914829675
 20
214.6313412726358
 30
0.0
 11
1075.291628636802
 21
214.6313412726358
 31
0.0
  0
LINE
  5
1F83
330
B8D
100
AcDbEntity
  8
KOTIERUNG
 62
     0
370
    -2
100
AcDbLine
 10
597.8854279273007
 20
334.6313412726358
 30
0.0
 11
1075.291628636802
 21
334.6313412726356
 31
0.0
  0
LINE
  5
1F84
330
B8D
100
AcDbEntity
  8
KOTIERUNG
 62
     0
370
    -2
100
AcDbLine
 10
1039.579128636802
 20
250.3438412726358
 30
0.0
 11
1039.579128636802
 21
298.9188412726357
 31
0.0
  0
SOLID
  5
1F85
330
B8D
100
AcDbEntity
  8
KOTIERUNG
 62
     0
100
AcDbTrace
 10
1033.627045303469
 20
250.3438412726358
 30
0.0
 11
1045.531211970135
 21
250.3438412726358
 31
0.0
 12
1039.579128636802
 22
214.6313412726358
 32
0.0
 13
1039.579128636802
 23
214.6313412726358
 33
0.0
  0
SOLID
  5
1F86
330
B8D
100
AcDbEntity
  8
KOTIERUNG
 62
     0
100
AcDbTrace
 10
1033.627045303469
 20
298.9188412726357
 30
0.0
 11
1045.531211970135
 21
298.9188412726357
 31
0.0
 12
1039.579128636802
 22
334.6313412726356
 32
0.0
 13
1039.579128636802
 23
334.6313412726356
 33
0.0
  0
MTEXT
  5
1F87
330
B8D
100
AcDbEntity
  8
KOTIERUNG
 62
     0
100
AcDbMText
 10
1010.631540812791
 20
273.5877987636858
 30
0.0
 40
35.7125
 41
0.0
 71
     5
 72
     1
  1
\A1;120
  7
VOEST
 11
0.0000000000000001
 21
1.0
 31
0.0
 73
     1
 44
1.0
1001
ACAD
1000
MTEXTBEGIN
1070
    73
1070
     1
1070
    44
1040
1.0
1070
    74
1070
     0
1000
MTEXTEND
  0
POINT
  5
1F88
330
B8D
100
AcDbEntity
  8
DEFPOINTS
 62
     0
100
AcDbPoint
 10
893.3101914829675
 20
214.6313412726358
 30
0.0
  0
POINT
  5
1F89
330
B8D
100
AcDbEntity
  8
DEFPOINTS
 62
     0
100
AcDbPoint
 10
526.4604279273007
 20
334.6313412726358
 30
0.0
  0
POINT
  5
1F8A
330
B8D
100
AcDbEntity
  8
DEFPOINTS
 62
     0
100
AcDbPoint
 10
1039.579128636802
 20
334.6313412726356
 30
0.0
  0
ENDBLK
  5
161C
330
B8D
100
AcDbEntity
  8
0
100
AcDbBlockEnd
  0
BLOCK
  5
13D8
330
BD7
100
AcDbEntity
  8
0
100
AcDbBlockBegin
  2
*D2
 70
     1
 10
0.0
 20
0.0
 30
0.0
  3
*D2
  1

  0
LINE
  5
1F63
330
BD7
100
AcDbEntity
  8
KOTIERUNG
 62
     0
370
    -2
100
AcDbLine
 10
458.683606717881
 20
205.7549112647762
 30
0.0
 11
458.683606717881
 21
-139.3052213514506
 31
0.0
  0
LINE
  5
1F64
330
BD7
100
AcDbEntity
  8
KOTIERUNG
 62
     0
370
    -2
100
AcDbLine
 10
773.3101914829676
 20
-51.79365872736423
 30
0.0
 11
773.3101914829676
 21
-139.3052213514506
 31
0.0
  0
LINE
  5
1F65
330
BD7
100
AcDbEntity
  8
KOTIERUNG
 62
     0
370
    -2
100
AcDbLine
 10
494.396106717881
 20
-103.5927213514506
 30
0.0
 11
737.5976914829676
 21
-103.5927213514506
 31
0.0
  0
SOLID
  5
1F66
330
BD7
100
AcDbEntity
  8
KOTIERUNG
 62
     0
100
AcDbTrace
 10
494.396106717881
 20
-97.6406380181173
 30
0.0
 11
494.396106717881
 21
-109.544804684784
 31
0.0
 12
458.683606717881
 22
-103.5927213514506
 32
0.0
 13
458.683606717881
 23
-103.5927213514506
 33
0.0
  0
SOLID
  5
1F67
330
BD7
100
AcDbEntity
  8
KOTIERUNG
 62
     0
100
AcDbTrace
 10
737.5976914829676
 20
-97.6406380181173
 30
0.0
 11
737.5976914829676
 21
-109.544804684784
 31
0.0
 12
773.3101914829676
 22
-103.5927213514506
 32
0.0
 13
773.3101914829676
 23
-103.5927213514506
 33
0.0
  0
MTEXT
  5
1F68
330
BD7
100
AcDbEntity
  8
KOTIERUNG
 62
     0
100
AcDbMText
 10
615.9968991004243
 20
-74.64513352743972
 30
0.0
 40
35.7125
 41
0.0
 71
     5
 72
     1
  1
\A1;315
  7
VOEST
 73
     1
 44
1.0
1001
ACAD
1000
MTEXTBEGIN
1070
    73
1070
     1
1070
    44
1040
1.0
1070
    74
1070
     0
1000
MTEXTEND
  0
POINT
  5
1F69
330
BD7
100
AcDbEntity
  8
DEFPOINTS
 62
     0
100
AcDbPoint
 10
458.683606717881
 20
277.1799112647762
 30
0.0
  0
POINT
  5
1F6A
330
BD7
100
AcDbEntity
  8
DEFPOINTS
 62
     0
100
AcDbPoint
 10
773.3101914829676
 20
19.63134127263576
 30
0.0
  0
POINT
  5
1F6B
330
BD7
100
AcDbEntity
  8
DEFPOINTS
 62
     0
100
AcDbPoint
 10
773.3101914829676
 20
-103.5927213514506
 30
0.0
  0
ENDBLK
  5
13E2
330
BD7
100
AcDbEntity
  8
0
100
AcDbBlockEnd
  0
BLOCK
  5
13EF
330
CA8
100
AcDbEntity
  8
0
100
AcDbBlockBegin
  2
*D3
 70
     1
 10
0.0
 20
0.0
 30
0.0
  3
*D3
  1

  0
LINE
  5
1F47
330
CA8
100
AcDbEntity
  8
KOTIERUNG
 62
     0
370
    -2
100
AcDbLine
 10
844.7351914829676
 20
284.6313412726358
 30
0.0
 11
912.6880309066695
 21
284.6313412726357
 31
0.0
  0
LINE
  5
1F48
330
CA8
100
AcDbEntity
  8
KOTIERUNG
 62
     0
370
    -2
100
AcDbLine
 10
894.4373391190271
 20
334.6313412726357
 30
0.0
 11
912.6880309066695
 21
334.6313412726356
 31
0.0
  0
LINE
  5
1F49
330
CA8
100
AcDbEntity
  8
KOTIERUNG
 62
     0
370
    -2
100
AcDbLine
 10
876.9755309066693
 20
248.9188412726357
 30
0.0
 11
876.9755309066693
 21
213.2063412726358
 31
0.0
  0
LINE
  5
1F4A
330
CA8
100
AcDbEntity
  8
KOTIERUNG
 62
     0
370
    -2
100
AcDbLine
 10
876.9755309066695
 20
370.3438412726357
 30
0.0
 11
876.9755309066695
 21
469.3351884759099
 31
0.0
  0
SOLID
  5
1F4B
330
CA8
100
AcDbEntity
  8
KOTIERUNG
 62
     0
100
AcDbTrace
 10
871.023447573336
 20
248.9188412726357
 30
0.0
 11
882.9276142400027
 21
248.9188412726357
 31
0.0
 12
876.9755309066695
 22
284.6313412726358
 32
0.0
 13
876.9755309066695
 23
284.6313412726358
 33
0.0
  0
SOLID
  5
1F4C
330
CA8
100
AcDbEntity
  8
KOTIERUNG
 62
     0
100
AcDbTrace
 10
871.0234475733361
 20
370.3438412726357
 30
0.0
 11
882.9276142400029
 21
370.3438412726357
 31
0.0
 12
876.9755309066695
 22
334.6313412726357
 32
0.0
 13
876.9755309066695
 23
334.6313412726357
 33
0.0
  0
MTEXT
  5
1F4D
330
CA8
100
AcDbEntity
  8
KOTIERUNG
 62
     0
100
AcDbMText
 10
848.0279430826584
 20
437.6957648742729
 30
0.0
 40
35.7125
 41
0.0
 71
     5
 72
     1
  1
\A1;50
  7
VOEST
 11
0.0000000000000001
 21
1.0
 31
0.0
 73
     1
 44
1.0
1001
ACAD
1000
MTEXTBEGIN
1070
    73
1070
     1
1070
    44
1040
1.0
1070
    74
1070
     0
1000
MTEXTEND
  0
POINT
  5
1F4E
330
CA8
100
AcDbEntity
  8
DEFPOINTS
 62
     0
100
AcDbPoint
 10
773.3101914829676
 20
284.6313412726358
 30
0.0
  0
POINT
  5
1F4F
330
CA8
100
AcDbEntity
  8
DEFPOINTS
 62
     0
100
AcDbPoint
 10
823.0123391190272
 20
334.6313412726357
 30
0.0
  0
POINT
  5
1F50
330
CA8
100
AcDbEntity
  8
DEFPOINTS
 62
     0
100
AcDbPoint
 10
876.9755309066695
 20
334.6313412726357
 30
0.0
  0
ENDBLK
  5
13FA
330
CA8
100
AcDbEntity
  8
0
100
AcDbBlockEnd
  0
BLOCK
  5
16B7
330
EBC
100
AcDbEntity
  8
0
100
AcDbBlockBegin
  2
*D4
 70
     1
 10
0.0
 20
0.0
 30
0.0
  3
*D4
  1

  0
LINE
  5
1F5A
330
EBC
100
AcDbEntity
  8
KOTIERUNG
 62
     0
370
    -2
100
AcDbLine
 10
773.3101914829676
 20
-101.7936587273642
 30
0.0
 11
773.3101914829676
 21
-139.3052213514506
 31
0.0
  0
LINE
  5
1F5B
330
EBC
100
AcDbEntity
  8
KOTIERUNG
 62
     0
370
    -2
100
AcDbLine
 10
913.3101914829676
 20
-101.7936587273642
 30
0.0
 11
913.3101914829676
 21
-139.3052213514506
 31
0.0
  0
LINE
  5
1F5C
330
EBC
100
AcDbEntity
  8
KOTIERUNG
 62
     0
370
    -2
100
AcDbLine
 10
809.0226914829676
 20
-103.5927213514506
 30
0.0
 11
877.5976914829676
 21
-103.5927213514506
 31
0.0
  0
SOLID
  5
1F5D
330
EBC
100
AcDbEntity
  8
KOTIERUNG
 62
     0
100
AcDbTrace
 10
809.0226914829676
 20
-97.6406380181173
 30
0.0
 11
809.0226914829676
 21
-109.544804684784
 31
0.0
 12
773.3101914829676
 22
-103.5927213514506
 32
0.0
 13
773.3101914829676
 23
-103.5927213514506
 33
0.0
  0
SOLID
  5
1F5E
330
EBC
100
AcDbEntity
  8
KOTIERUNG
 62
     0
100
AcDbTrace
 10
877.5976914829676
 20
-97.6406380181173
 30
0.0
 11
877.5976914829676
 21
-109.544804684784
 31
0.0
 12
913.3101914829676
 22
-103.5927213514506
 32
0.0
 13
913.3101914829676
 23
-103.5927213514506
 33
0.0
  0
MTEXT
  5
1F5F
330
EBC
100
AcDbEntity
  8
KOTIERUNG
 62
     0
100
AcDbMText
 10
843.3101914829675
 20
-74.64513352743972
 30
0.0
 40
35.7125
 41
0.0
 71
     5
 72
     1
  1
\A1;140
  7
VOEST
 73
     1
 44
1.0
1001
ACAD
1000
MTEXTBEGIN
1070
    73
1070
     1
1070
    44
1040
1.0
1070
    74
1070
     0
1000
MTEXTEND
  0
POINT
  5
1F60
330
EBC
100
AcDbEntity
  8
DEFPOINTS
 62
     0
100
AcDbPoint
 10
773.3101914829676
 20
-30.36865872736424
 30
0.0
  0
POINT
  5
1F61
330
EBC
100
AcDbEntity
  8
DEFPOINTS
 62
     0
100
AcDbPoint
 10
913.3101914829676
 20
-30.36865872736424
 30
0.0
  0
POINT
  5
1F62
330
EBC
100
AcDbEntity
  8
DEFPOINTS
 62
     0
100
AcDbPoint
 10
913.3101914829676
 20
-103.5927213514506
 30
0.0
  0
ENDBLK
  5
16C1
330
EBC
100
AcDbEntity
  8
0
100
AcDbBlockEnd
  0
BLOCK
  5
1665
330
F34
100
AcDbEntity
  8
0
100
AcDbBlockBegin
  2
*D5
 70
     1
 10
0.0
 20
0.0
 30
0.0
  3
*D5
  1

  0
LINE
  5
1666
330
F34
100
AcDbEntity
  8
0
  6
ByBlock
 62
     0
100
AcDbLine
 10
1001.125161098965
 20
-3128.71337410412
 30
0.0
 11
1001.125161098965
 21
-2610.150138132893
 31
0.0
  0
LINE
  5
1667
330
F34
100
AcDbEntity
  8
0
  6
ByBlock
 62
     0
100
AcDbLine
 10
-773.8748389010352
 20
-2735.150138132893
 30
0.0
 11
876.1251610989647
 21
-2735.150138132893
 31
0.0
  0
SOLID
  5
1668
330
F34
100
AcDbEntity
  8
0
  6
ByBlock
 62
     0
100
AcDbTrace
 10
-773.8748389010352
 20
-2714.316804799559
 30
0.0
 11
-773.8748389010352
 21
-2755.983471466227
 31
0.0
 12
-898.8748389010352
 22
-2735.150138132893
 32
0.0
 13
-898.8748389010352
 23
-2735.150138132893
 33
0.0
  0
SOLID
  5
1669
330
F34
100
AcDbEntity
  8
0
  6
ByBlock
 62
     0
100
AcDbTrace
 10
876.1251610989647
 20
-2714.316804799559
 30
0.0
 11
876.1251610989647
 21
-2755.983471466227
 31
0.0
 12
1001.125161098965
 22
-2735.150138132893
 32
0.0
 13
1001.125161098965
 23
-2735.150138132893
 33
0.0
  0
MTEXT
  5
166A
330
F34
100
AcDbEntity
  8
0
  6
ByBlock
 62
     0
100
AcDbMText
 10
51.12516109896478
 20
-2633.828514667682
 30
0.0
 40
125.0
 41
0.0
 71
     5
 72
     1
  1
\A1;1900
  7
VOEST
 73
     1
 44
1.0
1001
ACAD
1000
MTEXTBEGIN
1070
    73
1070
     1
1070
    44
1040
1.0
1070
    74
1070
     0
1000
MTEXTEND
  0
POINT
  5
166B
330
F34
100
AcDbEntity
  8
DEFPOINTS
  6
ByBlock
 62
     0
100
AcDbPoint
 10
-898.8748389010352
 20
-3178.71337410412
 30
0.0
  0
POINT
  5
166C
330
F34
100
AcDbEntity
  8
DEFPOINTS
  6
ByBlock
 62
     0
100
AcDbPoint
 10
1001.125161098965
 20
-3178.71337410412
 30
0.0
  0
POINT
  5
166D
330
F34
100
AcDbEntity
  8
DEFPOINTS
  6
ByBlock
 62
     0
100
AcDbPoint
 10
1001.125161098965
 20
-2735.150138132893
 30
0.0
  0
ENDBLK
  5
166E
330
F34
100
AcDbEntity
  8
0
100
AcDbBlockEnd
  0
BLOCK
  5
165B
330
F40
100
AcDbEntity
  8
0
100
AcDbBlockBegin
  2
*D6
 70
     1
 10
0.0
 20
0.0
 30
0.0
  3
*D6
  1

  0
LINE
  5
165C
330
F40
100
AcDbEntity
  8
0
  6
ByBlock
 62
     0
100
AcDbLine
 10
2901.125161098965
 20
-3128.71337410412
 30
0.0
 11
2901.125161098965
 21
-2610.150138132893
 31
0.0
  0
LINE
  5
165D
330
F40
100
AcDbEntity
  8
0
  6
ByBlock
 62
     0
100
AcDbLine
 10
1126.125161098965
 20
-2735.150138132893
 30
0.0
 11
2776.125161098965
 21
-2735.150138132893
 31
0.0
  0
SOLID
  5
165E
330
F40
100
AcDbEntity
  8
0
  6
ByBlock
 62
     0
100
AcDbTrace
 10
1126.125161098965
 20
-2714.316804799559
 30
0.0
 11
1126.125161098965
 21
-2755.983471466227
 31
0.0
 12
1001.125161098965
 22
-2735.150138132893
 32
0.0
 13
1001.125161098965
 23
-2735.150138132893
 33
0.0
  0
SOLID
  5
165F
330
F40
100
AcDbEntity
  8
0
  6
ByBlock
 62
     0
100
AcDbTrace
 10
2776.125161098965
 20
-2714.316804799559
 30
0.0
 11
2776.125161098965
 21
-2755.983471466227
 31
0.0
 12
2901.125161098965
 22
-2735.150138132893
 32
0.0
 13
2901.125161098965
 23
-2735.150138132893
 33
0.0
  0
MTEXT
  5
1660
330
F40
100
AcDbEntity
  8
0
  6
ByBlock
 62
     0
100
AcDbMText
 10
1951.125161098965
 20
-2633.828514667682
 30
0.0
 40
125.0
 41
0.0
 71
     5
 72
     1
  1
\A1;1900
  7
VOEST
 73
     1
 44
1.0
1001
ACAD
1000
MTEXTBEGIN
1070
    73
1070
     1
1070
    44
1040
1.0
1070
    74
1070
     0
1000
MTEXTEND
  0
POINT
  5
1661
330
F40
100
AcDbEntity
  8
DEFPOINTS
  6
ByBlock
 62
     0
100
AcDbPoint
 10
1001.125161098965
 20
-3178.71337410412
 30
0.0
  0
POINT
  5
1662
330
F40
100
AcDbEntity
  8
DEFPOINTS
  6
ByBlock
 62
     0
100
AcDbPoint
 10
2901.125161098965
 20
-3178.71337410412
 30
0.0
  0
POINT
  5
1663
330
F40
100
AcDbEntity
  8
DEFPOINTS
  6
ByBlock
 62
     0
100
AcDbPoint
 10
2901.125161098965
 20
-2735.150138132893
 30
0.0
  0
ENDBLK
  5
1664
330
F40
100
AcDbEntity
  8
0
100
AcDbBlockEnd
  0
BLOCK
  5
FCD
330
FCC
100
AcDbEntity
  8
0
100
AcDbBlockBegin
  2
*D7
 70
     1
 10
0.0
 20
0.0
 30
0.0
  3
*D7
  1

  0
LINE
  5
1C61
330
FCC
100
AcDbEntity
  8
KOTIERUNG
 62
     0
370
    -2
100
AcDbLine
 10
-898.8748389010352
 20
-3128.71337410412
 30
0.0
 11
-898.8748389010352
 21
-2360.150138132893
 31
0.0
  0
LINE
  5
1C62
330
FCC
100
AcDbEntity
  8
KOTIERUNG
 62
     0
370
    -2
100
AcDbLine
 10
2901.125161098965
 20
-3078.71337410412
 30
0.0
 11
2901.125161098965
 21
-2360.150138132893
 31
0.0
  0
LINE
  5
1C63
330
FCC
100
AcDbEntity
  8
KOTIERUNG
 62
     0
370
    -2
100
AcDbLine
 10
-773.8748389010352
 20
-2485.150138132893
 30
0.0
 11
2776.125161098965
 21
-2485.150138132893
 31
0.0
  0
SOLID
  5
1C64
330
FCC
100
AcDbEntity
  8
KOTIERUNG
 62
     0
100
AcDbTrace
 10
-773.8748389010352
 20
-2464.316804799559
 30
0.0
 11
-773.8748389010352
 21
-2505.983471466227
 31
0.0
 12
-898.8748389010352
 22
-2485.150138132893
 32
0.0
 13
-898.8748389010352
 23
-2485.150138132893
 33
0.0
  0
SOLID
  5
1C65
330
FCC
100
AcDbEntity
  8
KOTIERUNG
 62
     0
100
AcDbTrace
 10
2776.125161098965
 20
-2464.316804799559
 30
0.0
 11
2776.125161098965
 21
-2505.983471466227
 31
0.0
 12
2901.125161098965
 22
-2485.150138132893
 32
0.0
 13
2901.125161098965
 23
-2485.150138132893
 33
0.0
  0
MTEXT
  5
1C66
330
FCC
100
AcDbEntity
  8
KOTIERUNG
 62
     0
100
AcDbMText
 10
1001.125161098965
 20
-2383.828514667682
 30
0.0
 40
125.0
 41
0.0
 71
     5
 72
     1
  1
\A1;3800±9
  7
VOEST
 73
     1
 44
1.0
1001
ACAD
1000
MTEXTBEGIN
1070
    73
1070
     1
1070
    44
1040
1.0
1070
    74
1070
     0
1000
MTEXTEND
  0
POINT
  5
1C67
330
FCC
100
AcDbEntity
  8
DEFPOINTS
 62
     0
100
AcDbPoint
 10
-898.8748389010352
 20
-3178.71337410412
 30
0.0
  0
POINT
  5
1C68
330
FCC
100
AcDbEntity
  8
DEFPOINTS
 62
     0
100
AcDbPoint
 10
2901.125161098965
 20
-3128.71337410412
 30
0.0
  0
POINT
  5
1C69
330
FCC
100
AcDbEntity
  8
DEFPOINTS
 62
     0
100
AcDbPoint
 10
2901.125161098965
 20
-2485.150138132893
 30
0.0
  0
ENDBLK
  5
FD7
330
FCC
100
AcDbEntity
  8
0
100
AcDbBlockEnd
  0
BLOCK
  5
16E5
330
16D8
100
AcDbEntity
  8
0
100
AcDbBlockBegin
  2
*D10
 70
     1
 10
0.0
 20
0.0
 30
0.0
  3
*D10
  1

  0
LINE
  5
1F75
330
16D8
100
AcDbEntity
  8
KOTIERUNG
 62
     0
370
    -2
100
AcDbLine
 10
641.8851914829676
 20
-245.3686587273644
 30
0.0
 11
422.971106717881
 21
-245.3686587273643
 31
0.0
  0
LINE
  5
1F76
330
16D8
100
AcDbEntity
  8
KOTIERUNG
 62
     0
370
    -2
100
AcDbLine
 10
701.8851914829676
 20
-535.3686587273641
 30
0.0
 11
422.971106717881
 21
-535.3686587273641
 31
0.0
  0
LINE
  5
1F77
330
16D8
100
AcDbEntity
  8
KOTIERUNG
 62
     0
370
    -2
100
AcDbLine
 10
458.683606717881
 20
-281.0811587273644
 30
0.0
 11
458.683606717881
 21
-499.6561587273641
 31
0.0
  0
SOLID
  5
1F78
330
16D8
100
AcDbEntity
  8
KOTIERUNG
 62
     0
100
AcDbTrace
 10
452.7315233845477
 20
-281.0811587273644
 30
0.0
 11
464.6356900512144
 21
-281.0811587273644
 31
0.0
 12
458.683606717881
 22
-245.3686587273644
 32
0.0
 13
458.683606717881
 23
-245.3686587273644
 33
0.0
  0
SOLID
  5
1F79
330
16D8
100
AcDbEntity
  8
KOTIERUNG
 62
     0
100
AcDbTrace
 10
452.7315233845476
 20
-499.6561587273641
 30
0.0
 11
464.6356900512143
 21
-499.6561587273641
 31
0.0
 12
458.683606717881
 22
-535.3686587273641
 32
0.0
 13
458.683606717881
 23
-535.3686587273641
 33
0.0
  0
MTEXT
  5
1F7A
330
16D8
100
AcDbEntity
  8
KOTIERUNG
 62
     0
100
AcDbMText
 10
429.7360188938703
 20
-390.3686587273642
 30
0.0
 40
35.7125
 41
0.0
 71
     5
 72
     1
  1
\A1;290±40
  7
VOEST
 11
0.0000000000000001
 21
1.0
 31
0.0
 73
     1
 44
1.0
1001
ACAD
1000
MTEXTBEGIN
1070
    73
1070
     1
1070
    44
1040
1.0
1070
    74
1070
     0
1000
MTEXTEND
  0
POINT
  5
1F7B
330
16D8
100
AcDbEntity
  8
DEFPOINTS
 62
     0
100
AcDbPoint
 10
713.3101914829676
 20
-245.3686587273645
 30
0.0
  0
POINT
  5
1F7C
330
16D8
100
AcDbEntity
  8
DEFPOINTS
 62
     0
100
AcDbPoint
 10
773.3101914829676
 20
-535.3686587273642
 30
0.0
  0
POINT
  5
1F7D
330
16D8
100
AcDbEntity
  8
DEFPOINTS
 62
     0
100
AcDbPoint
 10
458.683606717881
 20
-535.3686587273641
 30
0.0
  0
ENDBLK
  5
16EF
330
16D8
100
AcDbEntity
  8
0
100
AcDbBlockEnd
  0
BLOCK
  5
16F4
330
16F0
100
AcDbEntity
  8
0
100
AcDbBlockBegin
  2
A$C64D16811
 70
     0
 10
0.0
 20
0.0
 30
0.0
  3
A$C64D16811
  1

  0
LEADER
  5
16F1
330
16F0
100
AcDbEntity
  8
BLATTTEXT
100
AcDbLeader
  3
TYPENBLATT_M50
 40
2.5
 76
     3
 10
40.44886172929832
 20
15.0127945715665
 30
0.0
 10
33.12552607174712
 20
4.280854680769294
 30
0.0
 10
10.33593026077728
 20
4.280854680769294
 30
0.0
211
-1.0
221
0.0
231
0.0
213
-1.316891659486273
223
-3.098934282733154
233
0.0
1001
ACAD
1000
DSTYLE
1002
{
1070
    77
1070
     0
1070
    40
1040
10.0
1070
   141
1040
0.0
1002
}
  0
TEXT
  5
16F2
330
16F0
100
AcDbEntity
  8
BLATTTEXT
 62
     7
100
AcDbText
 10
0.4999998602260121
 20
4.889447952792011
 30
0.0
 40
2.5
  1
Bezugsniveau nach
  7
VOEST
100
AcDbText
  0
TEXT
  5
16F3
330
16F0
100
AcDbEntity
  8
BLATTTEXT
 62
     7
100
AcDbText
 10
0.4999998602260121
 20
1.03972736950746
 30
0.0
 40
2.5
  1
RVS 5.232 Pkt. 2
  7
VOEST
100
AcDbText
  0
ENDBLK
  5
16F5
330
16F0
100
AcDbEntity
  8
0
100
AcDbBlockEnd
  0
BLOCK
  5
1BCB
330
1BCA
100
AcDbEntity
  8
0
100
AcDbBlockBegin
  2
_DotSmall
 70
     0
 10
0.0
 20
0.0
 30
0.0
  3
_DotSmall
  1

  0
LWPOLYLINE
  5
1BCC
330
1BCA
100
AcDbEntity
  8
0
 62
     0
100
AcDbPolyline
 90
        2
 70
     1
 43
0.5
 10
-0.0625
 20
0.0
 42
1.0
 10
0.0625
 20
0.0
 42
1.0
  0
ENDBLK
  5
1BCD
330
1BCA
100
AcDbEntity
  8
0
100
AcDbBlockEnd
  0
BLOCK
  5
1BCF
330
1BCE
100
AcDbEntity
  8
0
100
AcDbBlockBegin
  2
VOESTALPINE LOGO
 70
     0
 10
0.0
 20
0.0
 30
0.0
  3
VOESTALPINE LOGO
  1

  0
TEXT
  5
1BD0
330
1BCE
100
AcDbEntity
  8
0
 62
   155
100
AcDbText
 10
-2.022376810040597
 20
1.345163130846486
 30
0.0
 40
4.761899999999999
  1
alpine
 41
1.29
  7
LOGO2
100
AcDbText
  0
TEXT
  5
1BD1
330
1BCE
100
AcDbEntity
  8
0
 62
     7
100
AcDbText
 10
-24.96332103124969
 20
-3.319987708589252
 30
0.0
 40
2.050802049214244
  1
KREMS FINALTECHNIK GMBH
 41
1.219999999999999
  7
LOGO3
100
AcDbText
  0
TEXT
  5
1BD2
330
1BCE
100
AcDbEntity
  8
0
 62
     7
100
AcDbText
 10
-25.59751279130563
 20
1.29203428188444
 30
0.0
 40
4.761899999999999
  1
voest
 41
1.379999999999999
  7
LOGO1
100
AcDbText
  0
ENDBLK
  5
1BD3
330
1BCE
100
AcDbEntity
  8
0
100
AcDbBlockEnd
  0
BLOCK
  5
1BD5
330
1BD4
100
AcDbEntity
  8
0
100
AcDbBlockBegin
  2
LOGO ACAD
 70
     0
 10
0.0
 20
0.0
 30
0.0
  3
LOGO ACAD
  1

  0
INSERT
  5
1BD6
330
1BD4
100
AcDbEntity
  8
0
100
AcDbBlockReference
  2
VOESTALPINE LOGO
 10
25.66052293085149
 20
-5.598002378525222
 30
0.0
  0
ENDBLK
  5
1BD7
330
1BD4
100
AcDbEntity
  8
0
100
AcDbBlockEnd
  0
BLOCK
  5
1F11
330
1F0E
100
AcDbEntity
  8
0
100
AcDbBlockBegin
  2
A$C29004DEE
 70
     0
 10
0.0
 20
0.0
 30
0.0
  3
A$C29004DEE
  1

  0
MTEXT
  5
1F0F
330
1F0E
100
AcDbEntity
  8
BLATTTEXT
100
AcDbMText
 10
0.8444200687176817
 20
5.379394851938172
 30
0.0
 40
3.0
 41
103.0141795713472
 71
     1
 72
     5
  1
prejazdu pre pôdy {\fArial Narrow|b1|i0|c238|p34;s vhodn\U+00e9 k zat\U+013akaniu st\U+013apikov }
  7
VOESTB
 73
     1
 44
1.0
1001
ACAD
1000
MTEXTBEGIN
1070
    73
1070
     1
1070
    44
1040
1.0
1070
    74
1070
     0
1000
MTEXTEND
  0
MTEXT
  5
1F10
330
1F0E
100
AcDbEntity
  8
BLATTTEXT
100
AcDbMText
 10
0.7596080376893042
 20
10.03327364132872
 30
0.0
 40
3.0
 41
132.9806915268435
 71
     1
 72
     5
  1
Záchy{\fArial Narrow|b1|i0|c238|p34;tn\U+00fd bezpe\U+010dnostn\U+00fd syst\U+00e9m }so spodnou ochranou proti 
  7
VOESTB
 73
     1
 44
1.0
1001
ACAD
1000
MTEXTBEGIN
1070
    73
1070
     1
1070
    44
1040
1.0
1070
    74
1070
     0
1000
MTEXTEND
  0
ENDBLK
  5
1F12
330
1F0E
100
AcDbEntity
  8
0
100
AcDbBlockEnd
  0
ENDSEC
  0
SECTION
  2
ENTITIES
  0
LINE
  5
155
102
{ACAD_REACTORS
330
1B1
102
}
330
18
100
AcDbEntity
  8
35
100
AcDbLine
 10
541.1320199859674
 20
168.2535050489845
 30
0.0
 11
544.0251042151567
 21
140.7276472957168
 31
0.0
  0
ARC
  5
157
102
{ACAD_REACTORS
330
1B1
102
}
330
18
100
AcDbEntity
  8
35
100
AcDbCircle
 10
498.0927790333899
 20
47.7453475686952
 30
0.0
 40
16.8
100
AcDbArc
 50
186.0
 51
246.8801387770752
  0
LINE
  5
159
102
{ACAD_REACTORS
330
1B1
102
}
330
18
100
AcDbEntity
  8
35
100
AcDbLine
 10
491.4961591845521
 20
32.29463216228392
 30
0.0
 11
561.3729346586969
 21
2.461028219632638
 31
0.0
  0
LINE
  5
15D
102
{ACAD_REACTORS
330
1B1
102
}
330
18
100
AcDbEntity
  8
35
100
AcDbLine
 10
485.3333002081454
 20
90.31179381875968
 30
0.0
 11
538.2062704781201
 21
127.8485788487045
 31
0.0
  0
LINE
  5
15F
102
{ACAD_REACTORS
330
1B1
102
}
330
18
100
AcDbEntity
  8
35
100
AcDbLine
 10
478.3506997237018
 20
74.85691168234457
 30
0.0
 11
481.3848111912029
 21
45.98926938579866
 31
0.0
  0
ARC
  5
161
102
{ACAD_REACTORS
330
1B1
102
}
330
18
100
AcDbEntity
  8
35
100
AcDbCircle
 10
495.0586675658887
 20
76.61298986524112
 30
0.0
 40
16.8
100
AcDbArc
 50
125.3725732019014
 51
186.0
  0
ARC
  5
162
102
{ACAD_REACTORS
330
1B1
102
}
330
18
100
AcDbEntity
  8
35
100
AcDbCircle
 10
530.1017976800003
 20
139.2642488099699
 30
0.0
 40
14.0
100
AcDbArc
 50
305.3725732019014
 51
5.999999999999898
  0
ARC
  5
164
102
{ACAD_REACTORS
330
1B1
102
}
330
18
100
AcDbEntity
  8
35
100
AcDbCircle
 10
473.9782349317401
 20
277.1799087992181
 30
0.0
 40
16.8
100
AcDbArc
 50
125.1198612229247
 51
186.0
  0
LINE
  5
167
102
{ACAD_REACTORS
330
1B1
102
}
330
18
100
AcDbEntity
  8
35
100
AcDbLine
 10
470.3476431441668
 20
232.890796711443
 30
0.0
 11
529.8695486008519
 21
207.1671891425296
 31
0.0
  0
LINE
  5
168
102
{ACAD_REACTORS
330
1B1
102
}
330
18
100
AcDbEntity
  8
35
100
AcDbLine
 10
541.1320199859674
 20
168.2535050489845
 30
0.0
 11
538.238935756779
 21
195.7793628022525
 31
0.0
  0
ARC
  5
16A
102
{ACAD_REACTORS
330
1B1
102
}
330
18
100
AcDbEntity
  8
35
100
AcDbCircle
 10
524.3156292216226
 20
194.3159643165053
 30
0.0
 40
14.0
100
AcDbArc
 50
6.000000000000031
 51
66.62742679809852
  0
LINE
  5
16C
102
{ACAD_REACTORS
330
1B1
102
}
330
18
100
AcDbEntity
  8
35
100
AcDbLine
 10
460.3043785570544
 20
246.5561883197756
 30
0.0
 11
457.2702670895532
 21
275.4238306163216
 31
0.0
  0
ARC
  5
16F
102
{ACAD_REACTORS
330
1B1
102
}
330
18
100
AcDbEntity
  8
35
100
AcDbCircle
 10
477.0123463992422
 20
248.3122665026721
 30
0.0
 40
16.8
100
AcDbArc
 50
186.0
 51
246.6274267980986
  0
LINE
  5
170
102
{ACAD_REACTORS
330
1B1
102
}
330
18
100
AcDbEntity
  8
35
100
AcDbLine
 10
464.3133826891553
 20
290.9214746171665
 30
0.0
 11
526.4604279273007
 21
334.6313412726358
 31
0.0
  0
LINE
  5
240
330
18
100
AcDbEntity
  8
25
100
AcDbLine
 10
913.3101914829676
 20
-987.5191252520739
 30
0.0
 11
913.3101914829676
 21
213.502433869345
 31
0.0
  0
LINE
  5
241
330
18
100
AcDbEntity
  8
25
100
AcDbLine
 10
773.3101914829676
 20
-991.014000111388
 30
0.0
 11
773.3101914829676
 21
213.5024338693451
 31
0.0
  0
LINE
  5
247
330
18
100
AcDbEntity
  8
18
  6
STRICHPUNKT
 48
0.1
100
AcDbLine
 10
792.3994284826695
 20
-195.3686587273643
 30
0.0
 11
754.2209544832658
 21
-195.3686587273643
 31
0.0
  0
LINE
  5
248
330
18
100
AcDbEntity
  8
25
100
AcDbLine
 10
913.3101914829676
 20
213.502433869345
 30
0.0
 11
773.3101914829676
 21
213.5024338693451
 31
0.0
  0
LINE
  5
249
330
18
100
AcDbEntity
  8
18
  6
STRICHPUNKT
 48
0.1
100
AcDbLine
 10
791.3994284826694
 20
78.5024338693455
 30
0.0
 11
753.2209544832658
 21
78.5024338693455
 31
0.0
  0
LINE
  5
24A
330
18
100
AcDbEntity
  8
18
  6
STRICHPUNKT
 48
0.1
100
AcDbLine
 10
791.3994284826694
 20
148.502433869345
 30
0.0
 11
753.2209544832658
 21
148.502433869345
 31
0.0
  0
LINE
  5
401
330
18
100
AcDbEntity
  8
25
100
AcDbLine
 10
773.3101914829676
 20
18.50243386934504
 30
0.0
 11
553.8757744972635
 21
73.79174236719141
 31
0.0
  0
LINE
  5
402
330
18
100
AcDbEntity
  8
25
100
AcDbLine
 10
773.3101914829676
 20
283.502433869345
 30
0.0
 11
531.8342926398936
 21
283.502433869345
 31
0.0
  0
ARC
  5
403
330
18
100
AcDbEntity
  8
25
100
AcDbCircle
 10
2901.125161098966
 20
-3510.21337410412
 30
0.0
 40
117.85
100
AcDbArc
 50
292.3460352090898
 51
71.1057650895456
  0
ARC
  5
405
330
18
100
AcDbEntity
  8
25
100
AcDbCircle
 10
2901.125161098966
 20
-3510.21337410412
 30
0.0
 40
117.85
100
AcDbArc
 50
108.8942349104544
 51
247.6539647909103
  0
LINE
  5
408
330
18
100
AcDbEntity
  8
25
100
AcDbLine
 10
536.0384620505201
 20
243.502433869345
 30
0.0
 11
486.5639832268489
 21
243.502433869345
 31
0.0
  0
LINE
  5
40B
330
18
100
AcDbEntity
  8
25
100
AcDbLine
 10
536.5639832268489
 20
238.5024338693451
 30
0.0
 11
553.8757744972635
 21
73.79174236719141
 31
0.0
  0
LINE
  5
40D
330
18
100
AcDbEntity
  8
25
100
AcDbLine
 10
536.5639832268489
 20
238.5024338693451
 30
0.0
 11
531.8342926398936
 21
283.502433869345
 31
0.0
  0
LINE
  5
40E
330
18
100
AcDbEntity
  8
25
100
AcDbLine
 10
2933.125161098966
 20
-3619.21337410412
 30
0.0
 11
2933.125161098966
 21
-3638.446957166549
 31
0.0
  0
LINE
  5
40F
330
18
100
AcDbEntity
  8
25
100
AcDbLine
 10
2869.125161098966
 20
-3619.21337410412
 30
0.0
 11
2869.125161098966
 21
-3638.446957166549
 31
0.0
  0
LINE
  5
412
330
18
100
AcDbEntity
  8
25
100
AcDbLine
 10
2856.318660454527
 20
-3619.21337410412
 30
0.0
 11
2945.931661743403
 21
-3619.21337410412
 31
0.0
  0
LINE
  5
415
330
18
100
AcDbEntity
  8
25
100
AcDbLine
 10
773.3101914829676
 20
283.502433869345
 30
0.0
 11
773.3101914829676
 21
18.50243386934504
 31
0.0
  0
LINE
  5
423
330
18
100
AcDbEntity
  8
50
100
AcDbLine
 10
478.6836067178819
 20
-535.3686587273643
 30
0.0
 11
478.683606717881
 21
-535.3686587273642
 31
0.0
  0
LINE
  5
424
330
18
100
AcDbEntity
  8
50
100
AcDbLine
 10
1088.887022528116
 20
-535.3686587273642
 30
0.0
 11
326.2069731805504
 21
-535.3686587273642
 31
0.0
  0
ARC
  5
44C
102
{ACAD_REACTORS
330
46A
330
46B
102
}
330
18
100
AcDbEntity
  8
35
100
AcDbCircle
 10
764.3101914829676
 20
-314.3686587273643
 30
0.0
 40
9.0
100
AcDbArc
 50
240.0000000000007
 51
0.0
  0
LINE
  5
44E
102
{ACAD_REACTORS
330
46A
330
46B
102
}
330
18
100
AcDbEntity
  8
35
100
AcDbLine
 10
759.8101914829676
 20
-322.1628873614242
 30
0.0
 11
717.8101914829676
 21
-297.9141760554607
 31
0.0
  0
LINE
  5
451
102
{ACAD_REACTORS
330
46A
330
46B
102
}
330
18
100
AcDbEntity
  8
35
100
AcDbLine
 10
759.8101914829676
 20
-168.5744300933042
 30
0.0
 11
717.8101914829676
 21
-192.8231413992684
 31
0.0
  0
ARC
  5
455
102
{ACAD_REACTORS
330
46A
330
46B
102
}
330
18
100
AcDbEntity
  8
35
100
AcDbCircle
 10
764.3101914829676
 20
-176.3686587273643
 30
0.0
 40
9.0
100
AcDbArc
 50
0.0
 51
120.0000000000003
  0
LINE
  5
457
102
{ACAD_REACTORS
330
46A
330
46B
102
}
330
18
100
AcDbEntity
  8
35
100
AcDbLine
 10
773.3101914829676
 20
-176.3686587273643
 30
0.0
 11
773.3101914829676
 21
-214.3686587273643
 31
0.0
  0
LINE
  5
45D
102
{ACAD_REACTORS
330
46A
330
46B
102
}
330
18
100
AcDbEntity
  8
35
100
AcDbLine
 10
773.3101914829676
 20
-276.3686587273643
 30
0.0
 11
773.3101914829676
 21
-314.3686587273643
 31
0.0
  0
LINE
  5
460
102
{ACAD_REACTORS
330
46A
330
46B
102
}
330
18
100
AcDbEntity
  8
35
100
AcDbLine
 10
713.3101914829676
 20
-290.1199474214006
 30
0.0
 11
713.3101914829676
 21
-200.6173700333283
 31
0.0
  0
ARC
  5
464
102
{ACAD_REACTORS
330
46A
330
46B
102
}
330
18
100
AcDbEntity
  8
35
100
AcDbCircle
 10
722.3101914829676
 20
-200.6173700333286
 30
0.0
 40
9.0
100
AcDbArc
 50
119.9999999999999
 51
180.0
  0
ARC
  5
468
102
{ACAD_REACTORS
330
46A
330
46B
102
}
330
18
100
AcDbEntity
  8
35
100
AcDbCircle
 10
722.3101914829676
 20
-290.1199474214006
 30
0.0
 40
9.0
100
AcDbArc
 50
180.0
 51
240.0000000000001
  0
LINE
  5
647
330
18
100
AcDbEntity
  8
18
  6
STRICHPUNKT
 48
0.5
100
AcDbLine
 10
2901.125161098965
 20
-3458.71337410412
 30
0.0
 11
2901.125161098965
 21
-3178.71337410412
 31
0.0
  0
LINE
  5
994
330
18
100
AcDbEntity
  8
25
100
AcDbLine
 10
3403.566216378029
 20
-3638.446957166549
 30
0.0
 11
-1305.757453090024
 21
-3638.446957166549
 31
0.0
  0
LINE
  5
995
330
18
100
AcDbEntity
  8
25
100
AcDbLine
 10
3403.56621637803
 20
-3709.247926711394
 30
0.0
 11
-1305.757453090024
 21
-3709.247926711393
 31
0.0
  0
LINE
  5
99A
330
18
100
AcDbEntity
  8
18
  6
STRICHPUNKT
 48
0.5
100
AcDbLine
 10
1001.125161098965
 20
-3458.71337410412
 30
0.0
 11
1001.125161098965
 21
-3178.71337410412
 31
0.0
  0
ARC
  5
9A0
330
18
100
AcDbEntity
  8
25
100
AcDbCircle
 10
1001.125161098965
 20
-3510.21337410412
 30
0.0
 40
117.85
100
AcDbArc
 50
108.8942349104544
 51
247.6539647909103
  0
ARC
  5
9A3
330
18
100
AcDbEntity
  8
25
100
AcDbCircle
 10
1001.125161098965
 20
-3510.21337410412
 30
0.0
 40
117.85
100
AcDbArc
 50
292.3460352090898
 51
71.1057650895456
  0
LINE
  5
9A6
330
18
100
AcDbEntity
  8
25
100
AcDbLine
 10
956.3186604545272
 20
-3619.21337410412
 30
0.0
 11
1045.931661743403
 21
-3619.21337410412
 31
0.0
  0
LINE
  5
9A8
330
18
100
AcDbEntity
  8
25
100
AcDbLine
 10
969.1251610989652
 20
-3619.21337410412
 30
0.0
 11
969.1251610989654
 21
-3638.446957166549
 31
0.0
  0
LINE
  5
9AA
330
18
100
AcDbEntity
  8
25
100
AcDbLine
 10
1033.125161098965
 20
-3619.21337410412
 30
0.0
 11
1033.125161098965
 21
-3638.446957166549
 31
0.0
  0
LINE
  5
A3A
330
18
100
AcDbEntity
  8
18
  6
STRICHPUNKT
 48
0.5
100
AcDbLine
 10
-898.8748389010352
 20
-3458.71337410412
 30
0.0
 11
-898.8748389010352
 21
-3178.71337410412
 31
0.0
  0
ARC
  5
A40
330
18
100
AcDbEntity
  8
25
100
AcDbCircle
 10
-898.8748389010348
 20
-3510.21337410412
 30
0.0
 40
117.85
100
AcDbArc
 50
108.8942349104544
 51
247.6539647909103
  0
ARC
  5
A43
330
18
100
AcDbEntity
  8
25
100
AcDbCircle
 10
-898.8748389010348
 20
-3510.21337410412
 30
0.0
 40
117.85
100
AcDbArc
 50
292.3460352090898
 51
71.1057650895456
  0
LINE
  5
A46
330
18
100
AcDbEntity
  8
25
100
AcDbLine
 10
-943.6813395454729
 20
-3619.21337410412
 30
0.0
 11
-854.0683382565971
 21
-3619.21337410412
 31
0.0
  0
LINE
  5
A48
330
18
100
AcDbEntity
  8
25
100
AcDbLine
 10
-930.8748389010347
 20
-3619.21337410412
 30
0.0
 11
-930.8748389010348
 21
-3638.446957166549
 31
0.0
  0
LINE
  5
A4A
330
18
100
AcDbEntity
  8
25
100
AcDbLine
 10
-866.8748389010348
 20
-3619.21337410412
 30
0.0
 11
-866.874838901035
 21
-3638.446957166549
 31
0.0
  0
LINE
  5
AEF
330
18
100
AcDbEntity
  8
25
100
AcDbLine
 10
3403.566216378029
 20
-3398.71337410412
 30
0.0
 11
-1305.757453090024
 21
-3398.71337410412
 31
0.0
  0
LINE
  5
AF0
330
18
100
AcDbEntity
  8
25
100
AcDbLine
 10
3403.566216378029
 20
-3458.71337410412
 30
0.0
 11
-1305.757453090024
 21
-3458.713374104121
 31
0.0
  0
LINE
  5
B06
330
18
100
AcDbEntity
  8
35
 48
0.2
100
AcDbLine
 10
2741.125161098965
 20
-3638.446957166549
 30
0.0
 11
2741.125161098965
 21
-3709.247926711394
 31
0.0
  0
LINE
  5
B07
330
18
100
AcDbEntity
  8
18
  6
STRICHLINIE
 48
0.05
100
AcDbLine
 10
3061.125161098965
 20
-3638.446957166549
 30
0.0
 11
3061.125161098965
 21
-3709.247926711394
 31
0.0
  0
LINE
  5
B08
330
18
100
AcDbEntity
  8
35
 48
0.2
100
AcDbLine
 10
-1058.874838901035
 20
-3638.446957166549
 30
0.0
 11
-1058.874838901035
 21
-3709.247926711394
 31
0.0
  0
LINE
  5
B09
330
18
100
AcDbEntity
  8
18
  6
STRICHLINIE
 48
0.05
100
AcDbLine
 10
-738.8748389010352
 20
-3638.446957166549
 30
0.0
 11
-738.8748389010352
 21
-3709.247926711394
 31
0.0
  0
DIMENSION
  5
B2B
330
18
100
AcDbEntity
  8
KOTIERUNG
100
AcDbDimension
  2
*D0
 10
379.6962915142203
 20
-535.3686587273642
 30
0.0
 11
350.7487036902095
 21
-100.3686587273641
 31
0.0
 70
    32
 71
     5
 42
870.0000000000001
  3
TYPENBLATT_M10
100
AcDbAlignedDimension
 13
526.4604279273007
 23
334.6313412726358
 33
0.0
 14
478.683606717881
 24
-535.3686587273642
 34
0.0
 50
90.0
100
AcDbRotatedDimension
1001
ACAD
1000
DSTYLE
1002
{
1070
    47
1040
40.0
1070
   147
1040
0.075
1070
    48
1040
40.0
1070
    72
1070
     0
1070
    71
1070
     1
1002
}
  0
DIMENSION
  5
B9A
330
18
100
AcDbEntity
  8
KOTIERUNG
100
AcDbDimension
  2
*D1
 10
1039.579128636802
 20
334.6313412726356
 30
0.0
 11
1039.579128636802
 21
273.5877987636858
 31
0.0
 70
   160
 71
     5
 42
119.9999999999999
  3
TYPENBLATT_M10
100
AcDbAlignedDimension
 13
893.3101914829675
 23
214.6313412726358
 33
0.0
 14
526.4604279273007
 24
334.6313412726358
 34
0.0
 50
90.0
100
AcDbRotatedDimension
  0
DIMENSION
  5
BE4
330
18
100
AcDbEntity
  8
KOTIERUNG
100
AcDbDimension
  2
*D2
 10
773.3101914829676
 20
-103.5927213514506
 30
0.0
 11
615.9968991004243
 21
-74.64513352743972
 31
0.0
 70
    32
 71
     5
 42
314.6265847650866
  3
TYPENBLATT_M10
100
AcDbAlignedDimension
 13
458.683606717881
 23
277.1799112647762
 33
0.0
 14
773.3101914829676
 24
19.63134127263576
 34
0.0
100
AcDbRotatedDimension
  0
DIMENSION
  5
CB5
330
18
100
AcDbEntity
  8
KOTIERUNG
100
AcDbDimension
  2
*D3
 10
876.9755309066695
 20
334.6313412726357
 30
0.0
 11
848.0279430826584
 21
437.6957648742729
 31
0.0
 70
    32
 71
     5
 42
49.99999999999994
  3
TYPENBLATT_M10
100
AcDbAlignedDimension
 13
773.3101914829676
 23
284.6313412726358
 33
0.0
 14
823.0123391190272
 24
334.6313412726357
 34
0.0
 50
90.0
100
AcDbRotatedDimension
  0
DIMENSION
  5
EC8
330
18
100
AcDbEntity
  8
KOTIERUNG
100
AcDbDimension
  2
*D4
 10
913.3101914829676
 20
-103.5927213514506
 30
0.0
 11
843.3101914829675
 21
-74.64513352743972
 31
0.0
 70
    32
 71
     5
 42
140.0
  3
TYPENBLATT_M10
100
AcDbAlignedDimension
 13
773.3101914829676
 23
-30.36865872736424
 33
0.0
 14
913.3101914829676
 24
-30.36865872736424
 34
0.0
100
AcDbRotatedDimension
  0
DIMENSION
  5
F3F
330
18
100
AcDbEntity
  8
KOTIERUNG
100
AcDbDimension
  2
*D5
 10
1001.125161098965
 20
-2735.150138132893
 30
0.0
 11
51.12516109896478
 21
-2633.828514667682
 31
0.0
 70
    32
 71
     5
 42
-1.0
  3
TYPENBLATT_M50
100
AcDbAlignedDimension
 13
-898.8748389010352
 23
-3178.71337410412
 33
0.0
 14
1001.125161098965
 24
-3178.71337410412
 34
0.0
100
AcDbRotatedDimension
1001
ACAD
1000
DSTYLE
1002
{
1070
    75
1070
     1
1070
   279
1070
     1
1002
}
  0
DIMENSION
  5
F4B
330
18
100
AcDbEntity
  8
KOTIERUNG
100
AcDbDimension
  2
*D6
 10
2901.125161098965
 20
-2735.150138132893
 30
0.0
 11
1951.125161098965
 21
-2633.828514667682
 31
0.0
 70
    32
 71
     5
 42
-1.0
  3
TYPENBLATT_M50
100
AcDbAlignedDimension
 13
1001.125161098965
 23
-3178.71337410412
 33
0.0
 14
2901.125161098965
 24
-3178.71337410412
 34
0.0
100
AcDbRotatedDimension
1001
ACAD
1000
DSTYLE
1002
{
1070
    75
1070
     1
1070
   279
1070
     1
1002
}
  0
DIMENSION
  5
FD8
330
18
100
AcDbEntity
  8
KOTIERUNG
100
AcDbDimension
  2
*D7
 10
2901.125161098965
 20
-2485.150138132893
 30
0.0
 11
1001.125161098965
 21
-2383.828514667682
 31
0.0
 70
    32
 71
     5
 42
3800.0
  3
TYPENBLATT_M50
100
AcDbAlignedDimension
 13
-898.8748389010352
 23
-3178.71337410412
 33
0.0
 14
2901.125161098965
 24
-3128.71337410412
 34
0.0
100
AcDbRotatedDimension
1001
ACAD
1000
DSTYLE
1002
{
1070
   272
1070
     0
1070
    47
1040
9.0
1070
   147
1040
0.075
1070
    48
1040
9.0
1070
    72
1070
     0
1070
    71
1070
     1
1002
}
  0
LINE
  5
10BC
330
18
100
AcDbEntity
  8
18
  6
STRICHLINIE
 48
0.3
100
AcDbLine
 10
781.1188717492268
 20
53.5024338693455
 30
0.0
 11
781.1188717492259
 21
173.502433869345
 31
0.0
  0
MTEXT
  5
10E0
330
18
100
AcDbEntity
  8
KOTIERUNG
100
AcDbMText
 10
7495.698312492914
 20
470.9395909145314
 30
0.0
 40
25.0
 41
0.0
 71
     4
 72
     1
  1
\A1;
  7
VOEST
 73
     1
 44
1.0
1001
ACAD
1000
MTEXTBEGIN
1070
    73
1070
     1
1070
    44
1040
1.0
1070
    74
1070
     0
1000
MTEXTEND
  0
LINE
  5
10F5
330
18
100
AcDbEntity
  8
18
  6
STRICHPUNKT
 48
0.1
100
AcDbLine
 10
554.3484571549088
 20
169.642608570563
 30
0.0
 11
516.3791288307538
 21
165.6518713535013
 31
0.0
  0
HATCH
  5
15B0
330
18
100
AcDbEntity
  8
18
100
AcDbHatch
 10
0.0
 20
0.0
 30
0.0
210
0.0
220
0.0
230
1.0
  2
ANSI31
 70
     0
 71
     0
 91
        1
 92
        7
 72
     0
 73
     1
 93
        4
 10
1088.887022528118
 20
-535.3686587273643
 10
326.2069731805496
 20
-535.3686587273641
 10
326.2069731805504
 20
-573.0010514283159
 10
1088.887022528116
 20
-573.001051428316
 97
        0
 75
     0
 76
     1
 52
0.0
 41
100.0
 77
     0
 78
     1
 53
45.0
 43
-6859.434028739236
 44
0.0000000000008384
 45
-8.838834764831842
 46
8.838834764831844
 79
     0
 47
0.9188338305433763
 98
        1
 10
743.7988220289607
 20
-546.1331099522387
  0
SPLINE
  5
15D7
330
18
100
AcDbEntity
  8
25
100
AcDbSpline
210
0.0
220
0.0
230
1.0
 70
     8
 71
     3
 72
    16
 73
    12
 74
     0
 42
0.0000000001
 43
0.0000000001
 40
0.0
 40
0.0
 40
0.0
 40
0.0
 40
21.97415543732208
 40
39.14534728958732
 40
54.85153579535438
 40
79.17754993972693
 40
94.0127812828627
 40
113.6622896935407
 40
131.7943295878672
 40
146.6433326329171
 40
161.6014265879231
 40
161.6014265879231
 40
161.6014265879231
 40
161.6014265879231
 10
773.3101914829676
 20
-991.014000111388
 30
0.0
 10
780.6858229974896
 20
-991.772257098942
 30
0.0
 10
793.824969934878
 20
-993.1230363449166
 30
0.0
 10
811.5052055029737
 20
-981.7282796426701
 30
0.0
 10
808.9264218997586
 20
-997.1611405411948
 30
0.0
 10
827.6266329412438
 20
-979.7659777358214
 30
0.0
 10
845.1665415189163
 20
-995.951828820438
 30
0.0
 10
863.0027553786266
 20
-982.3410251950656
 30
0.0
 10
879.6915375306271
 20
-997.5447836078592
 30
0.0
 10
894.0967922313566
 20
-985.2510017111034
 30
0.0
 10
904.2249888358382
 20
-986.7344831716838
 30
0.0
 10
913.3101914829676
 20
-987.5191252520739
 30
0.0
  0
DIMENSION
  5
16E4
330
18
100
AcDbEntity
  8
KOTIERUNG
100
AcDbDimension
  2
*D10
 10
458.683606717881
 20
-535.3686587273641
 30
0.0
 11
429.7360188938703
 21
-390.3686587273642
 31
0.0
 70
    32
 71
     5
 42
289.9999999999998
  3
TYPENBLATT_M10
100
AcDbAlignedDimension
 13
713.3101914829676
 23
-245.3686587273645
 33
0.0
 14
773.3101914829676
 24
-535.3686587273642
 34
0.0
 50
90.0
100
AcDbRotatedDimension
1001
ACAD
1000
DSTYLE
1002
{
1070
    47
1040
40.0
1070
    48
1040
40.0
1070
    71
1070
     1
1002
}
  0
LINE
  5
1706
330
18
100
AcDbEntity
  8
35
 48
0.2
100
AcDbLine
 10
-1178.874838901035
 20
-3458.71337410412
 30
0.0
 11
-1178.874838901035
 21
-3398.71337410412
 31
0.0
  0
LINE
  5
1707
330
18
100
AcDbEntity
  8
35
 48
0.2
100
AcDbLine
 10
2621.125161098965
 20
-3458.71337410412
 30
0.0
 11
2621.125161098965
 21
-3398.71337410412
 31
0.0
  0
LINE
  5
1731
330
18
100
AcDbEntity
  8
35
100
AcDbLine
 10
783.2361780360907
 20
-1182.786894187763
 30
0.0
 11
901.2361780360906
 21
-1194.363441667367
 31
0.0
  0
LINE
  5
1734
330
18
100
AcDbEntity
  8
35
100
AcDbLine
 10
783.2361780360907
 20
-1100.839289872269
 30
0.0
 11
901.2361780360906
 21
-1089.262742392665
 31
0.0
  0
LINE
  5
1735
330
18
100
AcDbEntity
  8
35
100
AcDbLine
 10
773.3101914829676
 20
-1171.839451787096
 30
0.0
 11
773.3101914829676
 21
-1141.813092030016
 31
0.0
  0
ARC
  5
1738
330
18
100
AcDbEntity
  8
35
100
AcDbCircle
 10
784.3101914829676
 20
-1171.839451787096
 30
0.0
 40
11.0
100
AcDbArc
 50
180.0
 51
264.3968516704557
  0
ARC
  5
173A
330
18
100
AcDbEntity
  8
35
100
AcDbCircle
 10
784.3101914829676
 20
-1111.786732272936
 30
0.0
 40
11.0
100
AcDbArc
 50
95.60314832954436
 51
180.0
  0
LINE
  5
173B
330
18
100
AcDbEntity
  8
35
100
AcDbLine
 10
773.3101914829676
 20
-1111.786732272936
 30
0.0
 11
773.3101914829676
 21
-1141.813092030016
 31
0.0
  0
ARC
  5
173E
330
18
100
AcDbEntity
  8
35
100
AcDbCircle
 10
902.3101914829677
 20
-1183.415999266699
 30
0.0
 40
11.0
100
AcDbArc
 50
264.3968516704557
 51
0.0
  0
LINE
  5
173F
330
18
100
AcDbEntity
  8
35
100
AcDbLine
 10
913.3101914829676
 20
-1164.313092030016
 30
0.0
 11
913.3101914829676
 21
-1183.4159992667
 31
0.0
  0
ARC
  5
1743
330
18
100
AcDbEntity
  8
35
100
AcDbCircle
 10
902.3101914829677
 20
-1100.210184793331
 30
0.0
 40
11.0
100
AcDbArc
 50
0.0
 51
95.60314832954436
  0
LINE
  5
1744
330
18
100
AcDbEntity
  8
35
100
AcDbLine
 10
913.3101914829676
 20
-1119.313092030016
 30
0.0
 11
913.3101914829676
 21
-1100.210184793332
 31
0.0
  0
LINE
  5
17AE
330
18
100
AcDbEntity
  8
35
100
AcDbLine
 10
-857.9010367432893
 20
-3388.787387550997
 30
0.0
 11
-846.3244892636849
 21
-3270.787387550997
 31
0.0
  0
LINE
  5
17AF
330
18
100
AcDbEntity
  8
35
100
AcDbLine
 10
-939.848641058783
 20
-3388.787387550997
 30
0.0
 11
-951.4251885383874
 21
-3270.787387550997
 31
0.0
  0
LINE
  5
17B1
330
18
100
AcDbEntity
  8
35
100
AcDbLine
 10
-868.8484791439559
 20
-3398.71337410412
 30
0.0
 11
-898.874838901036
 21
-3398.71337410412
 31
0.0
  0
LINE
  5
17B4
330
18
100
AcDbEntity
  8
35
100
AcDbLine
 10
-928.9011986581163
 20
-3398.71337410412
 30
0.0
 11
-898.874838901036
 21
-3398.71337410412
 31
0.0
  0
ARC
  5
17B5
330
18
100
AcDbEntity
  8
35
100
AcDbCircle
 10
-928.9011986581163
 20
-3387.71337410412
 30
0.0
 40
11.0
100
AcDbArc
 50
185.6031483295191
 51
270.0
  0
ARC
  5
17B7
330
18
100
AcDbEntity
  8
35
100
AcDbCircle
 10
-868.8484791439559
 20
-3387.71337410412
 30
0.0
 40
11.0
100
AcDbArc
 50
270.0
 51
354.3968516704809
  0
ARC
  5
17B8
330
18
100
AcDbEntity
  8
35
100
AcDbCircle
 10
-940.4777461377207
 20
-3269.71337410412
 30
0.0
 40
11.0
100
AcDbArc
 50
90.0
 51
185.6031483295191
  0
LINE
  5
17B9
330
18
100
AcDbEntity
  8
35
100
AcDbLine
 10
-921.374838901036
 20
-3258.71337410412
 30
0.0
 11
-940.4777461377207
 21
-3258.71337410412
 31
0.0
  0
LINE
  5
17BD
330
18
100
AcDbEntity
  8
35
100
AcDbLine
 10
-876.3748389010361
 20
-3258.71337410412
 30
0.0
 11
-857.2719316643524
 21
-3258.71337410412
 31
0.0
  0
ARC
  5
17C0
330
18
100
AcDbEntity
  8
35
100
AcDbCircle
 10
-857.2719316643524
 20
-3269.71337410412
 30
0.0
 40
11.0
100
AcDbArc
 50
354.3968516704809
 51
90.0
  0
LINE
  5
17C4
330
18
100
AcDbEntity
  8
35
100
AcDbLine
 10
1042.098963256711
 20
-3388.787387550998
 30
0.0
 11
1053.675510736316
 21
-3270.787387550998
 31
0.0
  0
LINE
  5
17C5
330
18
100
AcDbEntity
  8
35
100
AcDbLine
 10
960.151358941218
 20
-3388.787387550998
 30
0.0
 11
948.5748114616136
 21
-3270.787387550998
 31
0.0
  0
LINE
  5
17C7
330
18
100
AcDbEntity
  8
35
100
AcDbLine
 10
1031.151520856045
 20
-3398.713374104121
 30
0.0
 11
1001.125161098965
 21
-3398.713374104121
 31
0.0
  0
LINE
  5
17CA
330
18
100
AcDbEntity
  8
35
100
AcDbLine
 10
971.0988013418846
 20
-3398.713374104121
 30
0.0
 11
1001.125161098965
 21
-3398.713374104121
 31
0.0
  0
ARC
  5
17CB
330
18
100
AcDbEntity
  8
35
100
AcDbCircle
 10
971.0988013418846
 20
-3387.713374104121
 30
0.0
 40
11.0
100
AcDbArc
 50
185.6031483295191
 51
270.0
  0
ARC
  5
17CD
330
18
100
AcDbEntity
  8
35
100
AcDbCircle
 10
1031.151520856045
 20
-3387.713374104121
 30
0.0
 40
11.0
100
AcDbArc
 50
270.0
 51
354.3968516704809
  0
ARC
  5
17CE
330
18
100
AcDbEntity
  8
35
100
AcDbCircle
 10
959.5222538622802
 20
-3269.713374104121
 30
0.0
 40
11.0
100
AcDbArc
 50
90.0
 51
185.6031483295191
  0
LINE
  5
17CF
330
18
100
AcDbEntity
  8
35
100
AcDbLine
 10
978.6251610989648
 20
-3258.71337410412
 30
0.0
 11
959.5222538622802
 21
-3258.71337410412
 31
0.0
  0
LINE
  5
17D3
330
18
100
AcDbEntity
  8
35
100
AcDbLine
 10
1023.625161098965
 20
-3258.71337410412
 30
0.0
 11
1042.728068335648
 21
-3258.71337410412
 31
0.0
  0
ARC
  5
17D6
330
18
100
AcDbEntity
  8
35
100
AcDbCircle
 10
1042.728068335648
 20
-3269.713374104121
 30
0.0
 40
11.0
100
AcDbArc
 50
354.3968516704809
 51
90.0
  0
LINE
  5
17F0
330
18
100
AcDbEntity
  8
35
100
AcDbLine
 10
2860.151358941218
 20
-3388.787387550998
 30
0.0
 11
2848.574811461613
 21
-3270.787387550998
 31
0.0
  0
LINE
  5
17F1
330
18
100
AcDbEntity
  8
35
100
AcDbLine
 10
2942.098963256712
 20
-3388.787387550998
 30
0.0
 11
2953.675510736316
 21
-3270.787387550998
 31
0.0
  0
ARC
  5
17F4
330
18
100
AcDbEntity
  8
35
100
AcDbCircle
 10
2871.098801341885
 20
-3387.713374104121
 30
0.0
 40
11.0
100
AcDbArc
 50
185.6031483295184
 51
270.0
  0
ARC
  5
17F5
330
18
100
AcDbEntity
  8
35
100
AcDbCircle
 10
2931.151520856045
 20
-3387.713374104121
 30
0.0
 40
11.0
100
AcDbArc
 50
270.0
 51
354.3968516704816
  0
LINE
  5
17F6
330
18
100
AcDbEntity
  8
35
100
AcDbLine
 10
2871.098801341885
 20
-3398.713374104121
 30
0.0
 11
2901.125161098965
 21
-3398.713374104121
 31
0.0
  0
LINE
  5
17F7
330
18
100
AcDbEntity
  8
35
100
AcDbLine
 10
2931.151520856045
 20
-3398.713374104121
 30
0.0
 11
2901.125161098965
 21
-3398.713374104121
 31
0.0
  0
LINE
  5
17FF
330
18
100
AcDbEntity
  8
35
100
AcDbLine
 10
2878.625161098965
 20
-3258.71337410412
 30
0.0
 11
2859.522253862281
 21
-3258.71337410412
 31
0.0
  0
ARC
  5
1800
330
18
100
AcDbEntity
  8
35
100
AcDbCircle
 10
2859.522253862281
 20
-3269.713374104121
 30
0.0
 40
11.0
100
AcDbArc
 50
90.0
 51
185.6031483295184
  0
ARC
  5
1802
330
18
100
AcDbEntity
  8
35
100
AcDbCircle
 10
2942.728068335649
 20
-3269.713374104121
 30
0.0
 40
11.0
100
AcDbArc
 50
354.3968516704816
 51
90.0
  0
LINE
  5
1805
330
18
100
AcDbEntity
  8
35
100
AcDbLine
 10
2923.625161098965
 20
-3258.71337410412
 30
0.0
 11
2942.728068335649
 21
-3258.71337410412
 31
0.0
  0
VIEWPORT
  5
1A5F
102
{ACAD_XDICTIONARY
360
1FCF
102
}
330
1A5D
100
AcDbEntity
 67
     1
  8
0
100
AcDbViewport
 10
174.2280126761279
 20
161.5240831823643
 30
0.0
 40
560.5367461790327
 41
356.6629834842562
 68
     1
 69
     1
 12
174.2280126761279
 22
161.5240831823643
 13
0.0
 23
0.0
 14
0.5
 24
0.5
 15
0.5
 25
0.5
 16
0.0
 26
0.0
 36
1.0
 17
0.0
 27
0.0
 37
0.0
 42
50.0
 43
0.0
 44
0.0
 45
356.6629834842562
 50
0.0
 51
0.0
 72
   100
 90
    32800
  1

281
     0
 71
     1
 74
     0
110
0.0
120
0.0
130
0.0
111
1.0
121
0.0
131
0.0
112
0.0
122
1.0
132
0.0
 79
     0
146
0.0
  0
MTEXT
  5
1A73
330
1A5D
100
AcDbEntity
 67
     1
  8
KOTIERUNG
100
AcDbMText
 10
334.574239722046
 20
33.70865160095127
 30
0.0
 40
2.5
 41
0.0
 71
     4
 72
     1
  1
\A1;
  7
VOEST
 73
     1
 44
1.0
1001
ACAD
1000
MTEXTBEGIN
1070
    73
1070
     1
1070
    44
1040
1.0
1070
    74
1070
     0
1000
MTEXTEND
  0
MTEXT
  5
1A94
330
1A5D
100
AcDbEntity
 67
     1
  8
BLATTTEXT
100
AcDbMText
 10
170.1309310268098
 20
188.4899274501241
 30
0.0
 40
125.0
 41
0.0
 71
     4
 72
     1
  1
\A1;
  7
VOEST
 73
     1
 44
1.0
1001
ACAD
1000
MTEXTBEGIN
1070
    73
1070
     1
1070
    44
1040
1.0
1070
    74
1070
     0
1000
MTEXTEND
  0
MTEXT
  5
1A95
330
1A5D
100
AcDbEntity
 67
     1
  8
BLATTTEXT
100
AcDbMText
 10
122.2170016261258
 20
214.8213238210264
 30
0.0
 40
2.5
 41
0.0
 71
     4
 72
     1
  1
\A1;
  7
VOEST
 73
     1
 44
1.0
1001
ACAD
1000
MTEXTBEGIN
1070
    73
1070
     1
1070
    44
1040
1.0
1070
    74
1070
     0
1000
MTEXTEND
  0
MTEXT
  5
1A96
330
1A5D
100
AcDbEntity
 67
     1
  8
BLATTTEXT
100
AcDbMText
 10
144.2549534229397
 20
114.0194951489363
 30
0.0
 40
2.5
 41
0.0
 71
     4
 72
     1
  1
\A1; 
  7
VOEST
 73
     1
 44
1.0
1001
ACAD
1000
MTEXTBEGIN
1070
    73
1070
     1
1070
    44
1040
1.0
1070
    74
1070
     0
1000
MTEXTEND
  0
MTEXT
  5
1A97
330
1A5D
100
AcDbEntity
 67
     1
  8
BLATTTEXT
100
AcDbMText
 10
122.2170016261258
 20
214.9995195096872
 30
0.0
 40
2.5
 41
0.0
 71
     4
 72
     1
  1
\A1;
  7
VOEST
 73
     1
 44
1.0
1001
ACAD
1000
MTEXTBEGIN
1070
    73
1070
     1
1070
    44
1040
1.0
1070
    74
1070
     0
1000
MTEXTEND
  0
MTEXT
  5
1A98
330
1A5D
100
AcDbEntity
 67
     1
  8
BLATTTEXT
100
AcDbMText
 10
122.2170016261258
 20
214.9995195096872
 30
0.0
 40
2.5
 41
0.0
 71
     4
 72
     1
  1
\A1;
  7
VOEST
 73
     1
 44
1.0
1001
ACAD
1000
MTEXTBEGIN
1070
    73
1070
     1
1070
    44
1040
1.0
1070
    74
1070
     0
1000
MTEXTEND
  0
MTEXT
  5
1A9A
330
1A5D
100
AcDbEntity
 67
     1
  8
BLATTTEXT
100
AcDbMText
 10
130.9001099666395
 20
219.6788439368279
 30
0.0
 40
2.5
 41
0.0
 71
     4
 72
     1
  1
\A1;
  7
VOEST
 73
     1
 44
1.0
1001
ACAD
1000
MTEXTBEGIN
1070
    73
1070
     1
1070
    44
1040
1.0
1070
    74
1070
     0
1000
MTEXTEND
  0
ENDSEC
  0
SECTION
  2
OBJECTS
  0
DICTIONARY
  5
C
330
0
100
AcDbDictionary
281
     1
  3
ACAD_COLOR
350
1A50
  3
ACAD_GROUP
350
D
  3
ACAD_IMAGE_DICT
350
1B27
  3
ACAD_IMAGE_VARS
350
1B28
  3
ACAD_LAYOUT
350
1710
  3
ACAD_MATERIAL
350
1A4F
  3
ACAD_MLINESTYLE
350
1B
  3
ACAD_PLOTSETTINGS
350
1711
  3
ACAD_PLOTSTYLENAME
350
170E
  3
ACAD_TABLESTYLE
350
1FC1
  3
ACDBHEADERROUNDTRIPXREC
350
1FCC
  3
ACDBVARIABLEDICTIONARY
350
1109
  3
CONTENTDICTIONARY
350
23
  3
DWGPROPS
350
1FCB
  0
DICTIONARY
  5
1FCF
330
1A5F
100
AcDbDictionary
280
     1
281
     1
  3
ACAD_XREC_ROUNDTRIP
360
1FD0
  0
DICTIONARY
  5
1A50
102
{ACAD_REACTORS
330
C
102
}
330
C
100
AcDbDictionary
281
     1
  0
DICTIONARY
  5
D
102
{ACAD_REACTORS
330
C
102
}
330
C
100
AcDbDictionary
281
     1
  3
*A1
350
1B1
  3
*A10
350
95A
  3
*A11
350
95B
  3
*A12
350
95D
  3
*A13
350
95C
  3
*A14
350
1B2
  3
*A15
350
1DA1
  3
*A16
350
164D
  3
*A17
350
1DA2
  3
*A18
350
1687
  3
*A19
350
1DA3
  3
*A2
350
16B5
  3
*A20
350
169E
  3
*A3
350
1C3
  3
*A4
350
1970
  3
*A5
350
1D2
  3
*A6
350
1971
  3
*A7
350
46A
  3
*A8
350
1972
  3
*A9
350
46B
  0
DICTIONARY
  5
1B27
102
{ACAD_REACTORS
330
C
102
}
330
C
100
AcDbDictionary
281
     1
  3
D113 H1V Damm explosion_3D
350
1BBA
  3
D113 H1V Damm_3D
350
1BB7
  0
RASTERVARIABLES
  5
1B28
102
{ACAD_REACTORS
330
C
102
}
330
C
100
AcDbRasterVariables
 90
        0
 70
     1
 71
     1
 72
     0
  0
DICTIONARY
  5
1710
102
{ACAD_REACTORS
330
C
102
}
330
C
100
AcDbDictionary
281
     1
  3
Layout 1
350
1AB7
  3
Model
350
1712
  0
DICTIONARY
  5
1A4F
102
{ACAD_REACTORS
330
C
102
}
330
C
100
AcDbDictionary
281
     1
  0
DICTIONARY
  5
1B
102
{ACAD_REACTORS
330
C
102
}
330
C
100
AcDbDictionary
281
     1
  3
STANDARD
350
1C
  0
DICTIONARY
  5
1711
102
{ACAD_REACTORS
330
C
102
}
330
C
100
AcDbDictionary
281
     1
  0
ACDBDICTIONARYWDFLT
  5
170E
102
{ACAD_REACTORS
330
C
102
}
330
C
100
AcDbDictionary
281
     1
  3
Normal
350
170F
100
AcDbDictionaryWithDefault
340
170F
  0
DICTIONARY
  5
1FC1
102
{ACAD_REACTORS
330
C
102
}
330
C
100
AcDbDictionary
281
     1
  3
Standard
350
1FC2
  0
DICTIONARY
  5
1FCC
102
{ACAD_REACTORS
330
C
102
}
330
C
100
AcDbDictionary
281
     1
  0
DICTIONARY
  5
1109
102
{ACAD_REACTORS
330
C
102
}
330
C
100
AcDbDictionary
281
     1
  3
CTABLESTYLE
350
1FC9
  3
DIMASSOC
350
1FBE
  3
PROJECTNAME
350
1FBF
  3
SORTENTS
350
110A
  0
DICTIONARY
  5
23
102
{ACAD_REACTORS
330
C
102
}
330
C
100
AcDbDictionary
281
     1
  0
XRECORD
  5
1FCB
102
{ACAD_REACTORS
330
C
102
}
330
C
100
AcDbXrecord
280
     1
  1
DWGPROPS COOKIE
  2

  3

  4

  6

  7

  8

  9

300
=
301
=
302
=
303
=
304
=
305
=
306
=
307
=
308
=
309
=
 40
2.568766747685184
 41
2451353.41832853
 42
2453710.453790799
  1

 90
        0
  0
XRECORD
  5
1FD0
102
{ACAD_REACTORS
330
1FCF
102
}
330
1FCF
100
AcDbXrecord
280
     1
102
SHADEPLOT
 70
     0
  0
GROUP
  5
1B1
102
{ACAD_REACTORS
330
D
102
}
330
D
100
AcDbGroup
300

 70
     1
 71
     1
340
15D
340
15F
340
159
340
157
340
161
340
16F
340
168
340
155
340
162
340
167
340
16A
340
170
340
16C
340
164
  0
GROUP
  5
95A
102
{ACAD_REACTORS
330
D
102
}
330
D
100
AcDbGroup
300

 70
     1
 71
     1
  0
GROUP
  5
95B
102
{ACAD_REACTORS
330
D
102
}
330
D
100
AcDbGroup
300

 70
     1
 71
     1
  0
GROUP
  5
95D
102
{ACAD_REACTORS
330
D
102
}
330
D
100
AcDbGroup
300

 70
     1
 71
     1
  0
GROUP
  5
95C
102
{ACAD_REACTORS
330
D
102
}
330
D
100
AcDbGroup
300

 70
     1
 71
     1
  0
GROUP
  5
1B2
102
{ACAD_REACTORS
330
D
102
}
330
D
100
AcDbGroup
300

 70
     1
 71
     1
  0
GROUP
  5
1DA1
102
{ACAD_REACTORS
330
D
102
}
330
D
100
AcDbGroup
300

 70
     1
 71
     1
  0
GROUP
  5
164D
102
{ACAD_REACTORS
330
D
102
}
330
D
100
AcDbGroup
300

 70
     1
 71
     1
  0
GROUP
  5
1DA2
102
{ACAD_REACTORS
330
D
102
}
330
D
100
AcDbGroup
300

 70
     1
 71
     1
  0
GROUP
  5
1687
102
{ACAD_REACTORS
330
D
102
}
330
D
100
AcDbGroup
300

 70
     1
 71
     1
  0
GROUP
  5
1DA3
102
{ACAD_REACTORS
330
D
102
}
330
D
100
AcDbGroup
300

 70
     1
 71
     1
  0
GROUP
  5
16B5
102
{ACAD_REACTORS
330
D
102
}
330
D
100
AcDbGroup
300

 70
     1
 71
     1
  0
GROUP
  5
169E
102
{ACAD_REACTORS
330
D
102
}
330
D
100
AcDbGroup
300

 70
     1
 71
     1
  0
GROUP
  5
1C3
102
{ACAD_REACTORS
330
D
102
}
330
D
100
AcDbGroup
300

 70
     1
 71
     1
  0
GROUP
  5
1970
102
{ACAD_REACTORS
330
D
102
}
330
D
100
AcDbGroup
300

 70
     1
 71
     1
  0
GROUP
  5
1D2
102
{ACAD_REACTORS
330
D
102
}
330
D
100
AcDbGroup
300

 70
     1
 71
     1
  0
GROUP
  5
1971
102
{ACAD_REACTORS
330
D
102
}
330
D
100
AcDbGroup
300

 70
     1
 71
     1
  0
GROUP
  5
46A
102
{ACAD_REACTORS
330
D
102
}
330
D
100
AcDbGroup
300

 70
     1
 71
     1
340
460
340
45D
340
44E
340
468
340
44C
340
457
340
451
340
464
340
455
  0
GROUP
  5
1972
102
{ACAD_REACTORS
330
D
102
}
330
D
100
AcDbGroup
300

 70
     1
 71
     1
  0
GROUP
  5
46B
102
{ACAD_REACTORS
330
D
102
}
330
D
100
AcDbGroup
300

 70
     1
 71
     1
340
460
340
45D
340
44E
340
468
340
44C
340
457
340
451
340
464
340
455
  0
IMAGEDEF
  5
1BBA
102
{ACAD_REACTORS
330
1B27
102
}
330
1B27
100
AcDbRasterImageDef
 90
        0
  1
T:\Prospekt\Leitschienen\Bitmaps\S1\D113 H1V Damm explosion_3D.bmp
 10
1600.0
 20
1280.0
 11
0.4882812609139367
 21
0.4882812609139367
280
     1
281
     2
  0
IMAGEDEF
  5
1BB7
102
{ACAD_REACTORS
330
1B27
102
}
330
1B27
100
AcDbRasterImageDef
 90
        0
  1
T:\Prospekt\Leitschienen\Bitmaps\S1\D113 H1V Damm_3D.bmp
 10
1600.0
 20
1280.0
 11
0.4882812609139367
 21
0.4882812609139367
280
     1
281
     2
  0
LAYOUT
  5
1AB7
102
{ACAD_XDICTIONARY
360
1FD1
102
}
102
{ACAD_REACTORS
330
1710
102
}
330
1710
100
AcDbPlotSettings
  1

  2
\\VAKF11\Lexmark Optra E312 lex15
  4
A4
  6

 40
6.805083274841308
 41
5.535083293914794
 42
6.974411010742187
 43
7.14373779296875
 44
209.9733276367187
 45
296.9259948730469
 46
0.0
 47
0.0
 48
-22.09087092405559
 49
8.354328491971727
140
173.2391290759444
141
294.1043284919717
142
1.0
143
1.0
 70
   690
 72
     1
 73
     0
 74
     5
  7
monochrome.ctb
 75
    16
147
1.0
148
22.09087092405559
149
-8.354328491971727
100
AcDbLayout
  1
Layout 1
 70
     1
 71
     1
 10
-28.8959541988969
 20
2.819245198056933
 11
181.0773734378218
 21
299.7452400711038
 12
0.0
 22
0.0
 32
0.0
 14
144.2549534229397
 24
112.0353546305189
 34
0.0
 15
145.0513381432671
 25
115.9899931025516
 35
0.0
146
0.0
 13
0.0
 23
0.0
 33
0.0
 16
1.0
 26
0.0
 36
0.0
 17
0.0
 27
1.0
 37
0.0
 76
     0
330
1A5D
331
1A5F
  0
LAYOUT
  5
1712
102
{ACAD_XDICTIONARY
360
1FCD
102
}
102
{ACAD_REACTORS
330
1710
102
}
330
1710
100
AcDbPlotSettings
  1

  2
\\VAKF3\Lexmark Optra R Plus Series lex4 FS
  4

  6

 40
0.0
 41
0.0
 42
0.0
 43
0.0
 44
0.0
 45
0.0
 46
0.0
 47
0.0
 48
0.0
 49
0.0
140
0.0
141
0.0
142
1.0
143
1.0
 70
  1712
 72
     0
 73
     0
 74
     0
  7

 75
     0
147
1.0
148
0.0
149
0.0
100
AcDbLayout
  1
Model
 70
     1
 71
     0
 10
0.0
 20
0.0
 11
12.0
 21
9.0
 12
0.0
 22
0.0
 32
0.0
 14
0.0
 24
0.0
 34
0.0
 15
0.0
 25
0.0
 35
0.0
146
0.0
 13
0.0
 23
0.0
 33
0.0
 16
1.0
 26
0.0
 36
0.0
 17
0.0
 27
1.0
 37
0.0
 76
     0
330
18
  0
MLINESTYLE
  5
1C
102
{ACAD_REACTORS
330
1B
102
}
330
1B
100
AcDbMlineStyle
  2
STANDARD
 70
     0
  3

 62
   256
 51
90.0
 52
90.0
 71
     2
 49
0.5
 62
   256
  6
BYLAYER
 49
-0.5
 62
   256
  6
BYLAYER
  0
ACDBPLACEHOLDER
  5
170F
102
{ACAD_REACTORS
330
170E
102
}
330
170E
  0
TABLESTYLE
  5
1FC2
102
{ACAD_REACTORS
330
1FC1
102
}
330
1FC1
100
AcDbTableStyle
  3
Standard
 70
     0
 71
     0
 40
0.06
 41
0.06
280
     0
281
     0
  7
STANDARD
140
0.18
170
     2
 62
     0
 63
     7
283
     0
274
    -2
284
     1
 64
     0
275
    -2
285
     1
 65
     0
276
    -2
286
     1
 66
     0
277
    -2
287
     1
 67
     0
278
    -2
288
     1
 68
     0
279
    -2
289
     1
 69
     0
  7
STANDARD
140
0.25
170
     5
 62
     0
 63
     7
283
     0
274
    -2
284
     1
 64
     0
275
    -2
285
     1
 65
     0
276
    -2
286
     1
 66
     0
277
    -2
287
     1
 67
     0
278
    -2
288
     1
 68
     0
279
    -2
289
     1
 69
     0
  7
STANDARD
140
0.18
170
     5
 62
     0
 63
     7
283
     0
274
    -2
284
     1
 64
     0
275
    -2
285
     1
 65
     0
276
    -2
286
     1
 66
     0
277
    -2
287
     1
 67
     0
278
    -2
288
     1
 68
     0
279
    -2
289
     1
 69
     0
  0
DICTIONARYVAR
  5
1FC9
102
{ACAD_REACTORS
330
1109
102
}
330
1109
100
DictionaryVariables
280
     0
  1
STANDARD
  0
DICTIONARYVAR
  5
1FBE
102
{ACAD_REACTORS
330
1109
102
}
330
1109
100
DictionaryVariables
280
     0
  1
1
  0
DICTIONARYVAR
  5
1FBF
102
{ACAD_REACTORS
330
1109
102
}
330
1109
100
DictionaryVariables
280
     0
  1

  0
DICTIONARYVAR
  5
110A
102
{ACAD_REACTORS
330
1109
102
}
330
1109
100
DictionaryVariables
280
     0
  1
96
  0
DICTIONARY
  5
1FD1
330
1AB7
100
AcDbDictionary
280
     1
281
     1
  3
ACAD_XREC_ROUNDTRIP
360
1FD2
  0
DICTIONARY
  5
1FCD
330
1712
100
AcDbDictionary
280
     1
281
     1
  3
ACAD_XREC_ROUNDTRIP
360
1FCE
  0
XRECORD
  5
1FD2
102
{ACAD_REACTORS
330
1FD1
102
}
330
1FD1
100
AcDbXrecord
280
     1
102
SHADEPLOT
 70
     0
102
SHADEPLOTRESLEVEL
 70
     2
102
SHADEPLOTCUSTOMDPI
 70
   300
  0
XRECORD
  5
1FCE
102
{ACAD_REACTORS
330
1FCD
102
}
330
1FCD
100
AcDbXrecord
280
     1
102
SHADEPLOT
 70
     0
102
SHADEPLOTRESLEVEL
 70
     2
102
SHADEPLOTCUSTOMDPI
 70
   300
  0
ENDSEC
  0
EOF
