  0
SECTION
  2
HEADER
  9
$ACADVER
  1
AC1027
  9
$ACADMAINTVER
 70
   125
  9
$DWGCODEPAGE
  3
ANSI_1252
  9
$LASTSAVEDBY
  1
U732372
  9
$REQUIREDVERSIONS
160
                 0
  9
$INSBASE
 10
0.0
 20
0.0
 30
0.0
  9
$EXTMIN
 10
-14400.46437944565
 20
-4361.634599152457
 30
-0.0015258207003583
  9
$EXTMAX
 10
-10078.61908488214
 20
-1816.787989690143
 30
0.0000000349246037
  9
$LIMMIN
 10
-1091.180495341761
 20
-619.6501650024412
  9
$LIMMAX
 10
1056.97244419739
 20
951.0353648293053
  9
$ORTHOMODE
 70
     0
  9
$REGENMODE
 70
     1
  9
$FILLMODE
 70
     1
  9
$QTEXTMODE
 70
     0
  9
$MIRRTEXT
 70
     1
  9
$LTSCALE
 40
1.0
  9
$ATTMODE
 70
     1
  9
$TEXTSIZE
 40
4.0
  9
$TRACEWID
 40
0.05
  9
$TEXTSTYLE
  7
VOESTB
  9
$CLAYER
  8
0
  9
$CELTYPE
  6
BYLAYER
  9
$CECOLOR
 62
   256
  9
$CELTSCALE
 40
1.0
  9
$DISPSILH
 70
     0
  9
$DIMSCALE
 40
142.85
  9
$DIMASZ
 40
0.25
  9
$DIMEXO
 40
0.5
  9
$DIMDLI
 40
0.5
  9
$DIMRND
 40
0.0
  9
$DIMDLE
 40
0.0
  9
$DIMEXE
 40
0.25
  9
$DIMTP
 40
0.0
  9
$DIMTM
 40
0.0
  9
$DIMTXT
 40
0.25
  9
$DIMCEN
 40
0.09
  9
$DIMTSZ
 40
0.0
  9
$DIMTOL
 70
     0
  9
$DIMLIM
 70
     0
  9
$DIMTIH
 70
     0
  9
$DIMTOH
 70
     0
  9
$DIMSE1
 70
     0
  9
$DIMSE2
 70
     0
  9
$DIMTAD
 70
     1
  9
$DIMZIN
 70
     0
  9
$DIMBLK
  1

  9
$DIMASO
 70
     1
  9
$DIMSHO
 70
     1
  9
$DIMPOST
  1

  9
$DIMAPOST
  1

  9
$DIMALT
 70
     0
  9
$DIMALTD
 70
     2
  9
$DIMALTF
 40
25.4
  9
$DIMLFAC
 40
1.0
  9
$DIMTOFL
 70
     0
  9
$DIMTVP
 40
0.0
  9
$DIMTIX
 70
     0
  9
$DIMSOXD
 70
     0
  9
$DIMSAH
 70
     0
  9
$DIMBLK1
  1

  9
$DIMBLK2
  1

  9
$DIMSTYLE
  2
TYPENBLATT_M10
  9
$DIMCLRD
 70
     0
  9
$DIMCLRE
 70
     0
  9
$DIMCLRT
 70
     0
  9
$DIMTFAC
 40
1.0
  9
$DIMGAP
 40
0.075
  9
$DIMJUST
 70
     0
  9
$DIMSD1
 70
     0
  9
$DIMSD2
 70
     0
  9
$DIMTOLJ
 70
     1
  9
$DIMTZIN
 70
     0
  9
$DIMALTZ
 70
     0
  9
$DIMALTTZ
 70
     0
  9
$DIMUPT
 70
     0
  9
$DIMDEC
 70
     0
  9
$DIMTDEC
 70
     0
  9
$DIMALTU
 70
     2
  9
$DIMALTTD
 70
     2
  9
$DIMTXSTY
  7
VOEST
  9
$DIMAUNIT
 70
     0
  9
$DIMADEC
 70
     0
  9
$DIMALTRND
 40
0.0
  9
$DIMAZIN
 70
     0
  9
$DIMDSEP
 70
    46
  9
$DIMATFIT
 70
     3
  9
$DIMFRAC
 70
     0
  9
$DIMLDRBLK
  1

  9
$DIMLUNIT
 70
     2
  9
$DIMLWD
 70
    -2
  9
$DIMLWE
 70
    -2
  9
$DIMTMOVE
 70
     0
  9
$DIMFXL
 40
1.25
  9
$DIMFXLON
 70
     0
  9
$DIMJOGANG
 40
1.570796326794896
  9
$DIMTFILL
 70
     0
  9
$DIMTFILLCLR
 70
     0
  9
$DIMARCSYM
 70
     0
  9
$DIMLTYPE
  6

  9
$DIMLTEX1
  6

  9
$DIMLTEX2
  6

  9
$DIMTXTDIRECTION
 70
     0
  9
$LUNITS
 70
     2
  9
$LUPREC
 70
     4
  9
$SKETCHINC
 40
0.1
  9
$FILLETRAD
 40
0.0
  9
$AUNITS
 70
     0
  9
$AUPREC
 70
     4
  9
$MENU
  1
acad
  9
$ELEVATION
 40
0.0
  9
$PELEVATION
 40
0.0
  9
$THICKNESS
 40
0.0
  9
$LIMCHECK
 70
     0
  9
$CHAMFERA
 40
0.0
  9
$CHAMFERB
 40
0.0
  9
$CHAMFERC
 40
1.0
  9
$CHAMFERD
 40
0.0
  9
$SKPOLY
 70
     0
  9
$TDCREATE
 40
2451353.459988426
  9
$TDUCREATE
 40
2451353.376661864
  9
$TDUPDATE
 40
2458681.541840277
  9
$TDUUPDATE
 40
2458681.458506945
  9
$TDINDWG
 40
5.7408010648
  9
$TDUSRTIMER
 40
5.7408010648
  9
$USRTIMER
 70
     1
  9
$ANGBASE
 50
0.0
  9
$ANGDIR
 70
     0
  9
$PDMODE
 70
     0
  9
$PDSIZE
 40
0.0
  9
$PLINEWID
 40
0.0
  9
$SPLFRAME
 70
     0
  9
$SPLINETYPE
 70
     6
  9
$SPLINESEGS
 70
   110
  9
$HANDSEED
  5
12E09
  9
$SURFTAB1
 70
     6
  9
$SURFTAB2
 70
     6
  9
$SURFTYPE
 70
     6
  9
$SURFU
 70
     6
  9
$SURFV
 70
     6
  9
$UCSBASE
  2

  9
$UCSNAME
  2

  9
$UCSORG
 10
0.0
 20
0.0
 30
0.0
  9
$UCSXDIR
 10
1.0
 20
0.0
 30
0.0
  9
$UCSYDIR
 10
0.0
 20
1.0
 30
0.0
  9
$UCSORTHOREF
  2

  9
$UCSORTHOVIEW
 70
     0
  9
$UCSORGTOP
 10
0.0
 20
0.0
 30
0.0
  9
$UCSORGBOTTOM
 10
0.0
 20
0.0
 30
0.0
  9
$UCSORGLEFT
 10
0.0
 20
0.0
 30
0.0
  9
$UCSORGRIGHT
 10
0.0
 20
0.0
 30
0.0
  9
$UCSORGFRONT
 10
0.0
 20
0.0
 30
0.0
  9
$UCSORGBACK
 10
0.0
 20
0.0
 30
0.0
  9
$PUCSBASE
  2

  9
$PUCSNAME
  2

  9
$PUCSORG
 10
0.0
 20
0.0
 30
0.0
  9
$PUCSXDIR
 10
1.0
 20
0.0
 30
0.0
  9
$PUCSYDIR
 10
0.0
 20
1.0
 30
0.0
  9
$PUCSORTHOREF
  2

  9
$PUCSORTHOVIEW
 70
     0
  9
$PUCSORGTOP
 10
0.0
 20
0.0
 30
0.0
  9
$PUCSORGBOTTOM
 10
0.0
 20
0.0
 30
0.0
  9
$PUCSORGLEFT
 10
0.0
 20
0.0
 30
0.0
  9
$PUCSORGRIGHT
 10
0.0
 20
0.0
 30
0.0
  9
$PUCSORGFRONT
 10
0.0
 20
0.0
 30
0.0
  9
$PUCSORGBACK
 10
0.0
 20
0.0
 30
0.0
  9
$USERI1
 70
     0
  9
$USERI2
 70
     0
  9
$USERI3
 70
     0
  9
$USERI4
 70
     0
  9
$USERI5
 70
     0
  9
$USERR1
 40
0.0
  9
$USERR2
 40
0.0
  9
$USERR3
 40
0.0
  9
$USERR4
 40
0.0
  9
$USERR5
 40
0.0
  9
$WORLDVIEW
 70
     1
  9
$SHADEDGE
 70
     3
  9
$SHADEDIF
 70
    70
  9
$TILEMODE
 70
     1
  9
$MAXACTVP
 70
    48
  9
$PINSBASE
 10
0.0
 20
0.0
 30
0.0
  9
$PLIMCHECK
 70
     0
  9
$PEXTMIN
 10
28.68718261718749
 20
19.99191756248473
 30
0.0
  9
$PEXTMAX
 10
258.1846435546875
 20
179.9272580623627
 30
0.0
  9
$PLIMMIN
 10
-5.027069091796875
 20
-5.027082920074462
  9
$PLIMMAX
 10
291.89892578125
 20
204.9462447166443
  9
$UNITMODE
 70
     0
  9
$VISRETAIN
 70
     1
  9
$PLINEGEN
 70
     0
  9
$PSLTSCALE
 70
     1
  9
$TREEDEPTH
 70
  3020
  9
$CMLSTYLE
  2
STANDARD
  9
$CMLJUST
 70
     0
  9
$CMLSCALE
 40
1.0
  9
$PROXYGRAPHICS
 70
     1
  9
$MEASUREMENT
 70
     1
  9
$CELWEIGHT
370
    -1
  9
$ENDCAPS
280
     0
  9
$JOINSTYLE
280
     0
  9
$LWDISPLAY
290
     0
  9
$INSUNITS
 70
     0
  9
$HYPERLINKBASE
  1

  9
$STYLESHEET
  1

  9
$XEDIT
290
     1
  9
$CEPSNTYPE
380
     0
  9
$PSTYLEMODE
290
     1
  9
$FINGERPRINTGUID
  2
{77F2E389-4F59-11D5-95D4-08002BF18828}
  9
$VERSIONGUID
  2
{1DB138B6-03C9-8A44-ADD5-781C96B71D07}
  9
$EXTNAMES
290
     1
  9
$PSVPSCALE
 40
0.0
  9
$OLESTARTUP
290
     0
  9
$SORTENTS
280
   127
  9
$INDEXCTL
280
     0
  9
$HIDETEXT
280
     0
  9
$XCLIPFRAME
280
     0
  9
$HALOGAP
280
     0
  9
$OBSCOLOR
 70
   257
  9
$OBSLTYPE
280
     0
  9
$INTERSECTIONDISPLAY
280
     0
  9
$INTERSECTIONCOLOR
 70
   257
  9
$DIMASSOC
280
     2
  9
$PROJECTNAME
  1

  9
$CAMERADISPLAY
290
     0
  9
$LENSLENGTH
 40
50.0
  9
$CAMERAHEIGHT
 40
0.0
  9
$STEPSPERSEC
 40
2.0
  9
$STEPSIZE
 40
6.0
  9
$3DDWFPREC
 40
2.0
  9
$PSOLWIDTH
 40
0.25
  9
$PSOLHEIGHT
 40
4.0
  9
$LOFTANG1
 40
1.570796326794896
  9
$LOFTANG2
 40
1.570796326794896
  9
$LOFTMAG1
 40
0.0
  9
$LOFTMAG2
 40
0.0
  9
$LOFTPARAM
 70
     7
  9
$LOFTNORMALS
280
     1
  9
$LATITUDE
 40
37.795
  9
$LONGITUDE
 40
-122.394
  9
$NORTHDIRECTION
 40
0.0
  9
$TIMEZONE
 70
 -8000
  9
$LIGHTGLYPHDISPLAY
280
     1
  9
$TILEMODELIGHTSYNCH
280
     1
  9
$CMATERIAL
347
2742
  9
$SOLIDHIST
280
     1
  9
$SHOWHIST
280
     1
  9
$DWFFRAME
280
     2
  9
$DGNFRAME
280
     0
  9
$REALWORLDSCALE
290
     1
  9
$INTERFERECOLOR
 62
     1
  9
$INTERFEREOBJVS
345
274F
  9
$INTERFEREVPVS
346
274C
  9
$CSHADOW
280
     0
  9
$SHADOWPLANELOCATION
 40
0.0
  0
ENDSEC
  0
SECTION
  2
CLASSES
  0
CLASS
  1
LWPOLYLINE
  2
AcDbPolyline
  3
ObjectDBX Classes
 90
        0
 91
       44
280
     0
281
     1
  0
CLASS
  1
HATCH
  2
AcDbHatch
  3
ObjectDBX Classes
 90
        0
 91
        3
280
     0
281
     1
  0
CLASS
  1
DICTIONARYVAR
  2
AcDbDictionaryVar
  3
ObjectDBX Classes
 90
        0
 91
       11
280
     0
281
     0
  0
CLASS
  1
ACDBDICTIONARYWDFLT
  2
AcDbDictionaryWithDefault
  3
ObjectDBX Classes
 90
        0
 91
        1
280
     0
281
     0
  0
CLASS
  1
ACDBPLACEHOLDER
  2
AcDbPlaceHolder
  3
ObjectDBX Classes
 90
        0
 91
        1
280
     0
281
     0
  0
CLASS
  1
LAYOUT
  2
AcDbLayout
  3
ObjectDBX Classes
 90
        0
 91
        5
280
     0
281
     0
  0
CLASS
  1
RASTERVARIABLES
  2
AcDbRasterVariables
  3
ISM
 90
        0
 91
        1
280
     0
281
     0
  0
CLASS
  1
IMAGEDEF
  2
AcDbRasterImageDef
  3
ISM
 90
        0
 91
        7
280
     0
281
     0
  0
CLASS
  1
IMAGEDEF_REACTOR
  2
AcDbRasterImageDefReactor
  3
ISM
 90
        1
 91
        2
280
     0
281
     0
  0
CLASS
  1
IMAGE
  2
AcDbRasterImage
  3
ISM
 90
     2175
 91
        2
280
     0
281
     1
  0
CLASS
  1
TABLESTYLE
  2
AcDbTableStyle
  3
ObjectDBX Classes
 90
     4095
 91
        1
280
     0
281
     0
  0
CLASS
  1
MATERIAL
  2
AcDbMaterial
  3
ObjectDBX Classes
 90
     1153
 91
        3
280
     0
281
     0
  0
CLASS
  1
VISUALSTYLE
  2
AcDbVisualStyle
  3
ObjectDBX Classes
 90
     4095
 91
       26
280
     0
281
     0
  0
CLASS
  1
EXACXREFPANELOBJECT
  2
ExAcXREFPanelObject
  3
EXAC_ESW
 90
     1025
 91
        0
280
     0
281
     0
  0
CLASS
  1
NPOCOLLECTION
  2
AcDbImpNonPersistentObjectsCollection
  3
ObjectDBX Classes
 90
     1153
 91
        0
280
     0
281
     0
  0
CLASS
  1
SORTENTSTABLE
  2
AcDbSortentsTable
  3
ObjectDBX Classes
 90
        0
 91
        5
280
     0
281
     0
  0
CLASS
  1
SCALE
  2
AcDbScale
  3
ObjectDBX Classes
 90
     1153
 91
       33
280
     0
281
     0
  0
CLASS
  1
MLEADERSTYLE
  2
AcDbMLeaderStyle
  3
ACDB_MLEADERSTYLE_CLASS
 90
     4095
 91
        1
280
     0
281
     0
  0
CLASS
  1
CELLSTYLEMAP
  2
AcDbCellStyleMap
  3
ObjectDBX Classes
 90
     1152
 91
        2
280
     0
281
     0
  0
CLASS
  1
DIMASSOC
  2
AcDbDimAssoc
  3
"AcDbDimAssoc|Product Desc:     AcDim ARX App For Dimension|Company:          Autodesk, Inc.|WEB Address:      www.autodesk.com"
 90
        0
 91
        3
280
     0
281
     0
  0
CLASS
  1
ACME_DOCUMENT
  2
AcMeDbDoc
  3
AcMeServices
 90
     1024
 91
        0
280
     0
281
     0
  0
CLASS
  1
ACMESCOPE
  2
AcMeScope
  3
AcMeServices
 90
     1024
 91
        2
280
     0
281
     0
  0
CLASS
  1
ACMECOMMANDHISTORY
  2
AcMeCommandHistory
  3
AcMeServices
 90
     1024
 91
        2
280
     0
281
     0
  0
CLASS
  1
ACIMSYSVARMAN
  2
AcImSysVarManager
  3
AcMeServices
 90
     1024
 91
        4
280
     0
281
     0
  0
CLASS
  1
ACIMINTSYSVAR
  2
AcImIntSysVar
  3
AcMeServices
 90
     1024
 91
        3
280
     0
281
     0
  0
CLASS
  1
ACMESTATEMGR
  2
AcMeStateMgr
  3
AcMeServices
 90
     1024
 91
        2
280
     0
281
     0
  0
CLASS
  1
ACDBENTITYCACHE
  2
AcMeEntityCache
  3
AcMeServices
 90
     1024
 91
        0
280
     0
281
     0
  0
CLASS
  1
ACGREFMASTER
  2
AcGrefMaster
  3
AcAttribServices
 90
     1024
 91
        2
280
     0
281
     0
  0
CLASS
  1
AM_DRAWING_MGR
  2
AcDmDwgMgr
  3
AcMechDwgViewMgmt
 90
     1024
 91
        0
280
     0
281
     0
  0
CLASS
  1
AM_DWG_DOCUMENT
  2
AcDmDwgDocument
  3
AcMechDwgViewMgmt
 90
     1024
 91
        0
280
     0
281
     0
  0
CLASS
  1
AM_DWG_SHEET
  2
AcDmSheet
  3
AcMechDwgViewMgmt
 90
     1024
 91
        0
280
     0
281
     0
  0
CLASS
  1
AM_VIEWDIMPARMAP
  2
AcDmViewDimParMap
  3
AcMechDwgViewMgmt
 90
     1024
 91
        0
280
     0
281
     0
  0
CLASS
  1
AMDTINTERNALREACTOR
  2
AmdtInternalReactor
  3
AcMeServices
 90
     1024
 91
        0
280
     0
281
     0
  0
CLASS
  1
ACIMREALSYSVAR
  2
AcImRealSysVar
  3
AcMeServices
 90
     1024
 91
        0
280
     0
281
     0
  0
CLASS
  1
AM_DWGMGR_NAME
  2
AcDmDwgMgrName
  3
AcMechDwgViewMgmt
 90
     1024
 91
        0
280
     0
281
     0
  0
CLASS
  1
ACME_DATABASE
  2
AcMeDbDatabase
  3
AcMeServices
 90
     1024
 91
        0
280
     0
281
     0
  0
CLASS
  1
ACRFINSADJUSTERMGR
  2
AcRfInsAdjusterMgr
  3
AcMeServices
 90
     1024
 91
        0
280
     0
281
     0
  0
CLASS
  1
ACGREFACADMASTER
  2
AcGrefacadMaster
  3
AcGrefServices
 90
     1024
 91
        2
280
     0
281
     0
  0
CLASS
  1
AMDTMENUSTATEMGR
  2
AmdtMenuStateMgr
  3
McadcomServices
 90
     1024
 91
        0
280
     0
281
     0
  0
CLASS
  1
AMDTMCOMMENUSTATE
  2
AmdtMcomMenuState
  3
McadcomServices
 90
     1024
 91
        0
280
     0
281
     0
  0
CLASS
  1
AMIMASTER
  2
AmiMaster
  3
AmiServices
 90
     1024
 91
        2
280
     0
281
     0
  0
CLASS
  1
AMGSETTINGSOBJ
  2
AmgSettingsObj
  3
"AcadM|Product Description: AutoCAD Mechanical|Company: Autodesk, Inc."
 90
     1024
 91
        3
280
     0
281
     0
  0
CLASS
  1
MAPIAMMOUDLE
  2
MApiAmModule
  3
MApiAmServices
 90
     1024
 91
        0
280
     0
281
     0
  0
CLASS
  1
ACIMSTRSYSVAR
  2
AcImStrSysVar
  3
AcMeServices
 90
     1024
 91
        6
280
     0
281
     0
  0
CLASS
  1
AMDTDMMENUSTATE
  2
AmdtDmMenuState
  3
AcMechDwgViewMgmt
 90
     1024
 91
        0
280
     0
281
     0
  0
CLASS
  1
AMDTAMMENUSTATE
  2
AmdtAmMenuState
  3
DesignerAssemblies
 90
     1024
 91
        0
280
     0
281
     0
  0
CLASS
  1
ACAMPROJECT
  2
AcAmProject
  3
DesignerAssemblies
 90
     1024
 91
        2
280
     0
281
     0
  0
CLASS
  1
ACAMGRCOMPDEF
  2
AcAmGrCompDef
  3
DesignerAssemblies
 90
     1024
 91
        2
280
     0
281
     0
  0
CLASS
  1
ACAMCOMPDEF
  2
AcAmCompDef
  3
DesignerAssemblies
 90
     1024
 91
        2
280
     0
281
     0
  0
CLASS
  1
ACAMCOMPDEFMGR
  2
AcAmCompDefMgr
  3
DesignerAssemblies
 90
     1024
 91
        2
280
     0
281
     0
  0
CLASS
  1
AMCONTEXTMGR
  2
AcAmContextMgr
  3
DesignerAssemblies
 90
     1024
 91
        2
280
     0
281
     0
  0
CLASS
  1
ACAMCONTEXTMODELER
  2
AcAmContextModeler
  3
DesignerAssemblies
 90
     1024
 91
        2
280
     0
281
     0
  0
CLASS
  1
ACMDATADICTIONARY
  2
AcmDataDictionary
  3
"AcmSymBB|Product Description: AutoCAD Mechanical|Company: Autodesk, Inc."
 90
     1024
 91
        2
280
     0
281
     0
  0
CLASS
  1
ACAMGRCOMPDEFSET
  2
AcAmGrCompDefSet
  3
DesignerAssemblies
 90
     1024
 91
        0
280
     0
281
     0
  0
CLASS
  1
AMDTBROWSERDBTAB
  2
AmdtBrowserDbTab
  3
McadcomServices
 90
     1024
 91
        0
280
     0
281
     0
  0
CLASS
  1
CBROWSERAPPOBJECT
  2
CBrowserAppObject
  3
McadcomServices
 90
     1024
 91
        0
280
     0
281
     0
  0
CLASS
  1
DM_PLACEHOLDER
  2
AcDmSelsetPlaceholder
  3
McadcomServices
 90
     1024
 91
        0
280
     0
281
     0
  0
CLASS
  1
ACMSTANDARDANSI
  2
AcmStandardANSI
  3
"Amdt_StdImp|Product Description: AutoCAD Mechanical|Company: Autodesk, Inc."
 90
     1024
 91
        0
280
     0
281
     0
  0
CLASS
  1
ACMSURFSTANDARDANSI
  2
AcmSurfTextStdANSI
  3
"Amdt_StdImp|Product Description: AutoCAD Mechanical|Company: Autodesk, Inc."
 90
     1024
 91
        0
280
     0
281
     0
  0
CLASS
  1
ACMFCFSTANDARDANSI
  2
AcmFCFStdANSI
  3
"Amdt_StdImp|Product Description: AutoCAD Mechanical|Company: Autodesk, Inc."
 90
     1024
 91
        0
280
     0
281
     0
  0
CLASS
  1
ACMWELDSTANDARDANSI
  2
AcmWeldingStdANSI
  3
"Amdt_StdImp|Product Description: AutoCAD Mechanical|Company: Autodesk, Inc."
 90
     1024
 91
        0
280
     0
281
     0
  0
CLASS
  1
ACMIDSTANDARDANSI
  2
AcmIdStdANSI
  3
"Amdt_StdImp|Product Description: AutoCAD Mechanical|Company: Autodesk, Inc."
 90
     1024
 91
        0
280
     0
281
     0
  0
CLASS
  1
ACMDATUMSTANDARDANSI
  2
AcmDatumStdANSI
  3
"Amdt_StdImp|Product Description: AutoCAD Mechanical|Company: Autodesk, Inc."
 90
     1024
 91
        0
280
     0
281
     0
  0
CLASS
  1
ACMBOMSTANDARDANSI
  2
AcmBOMStdANSI
  3
"Amdt_StdImp|Product Description: AutoCAD Mechanical|Company: Autodesk, Inc."
 90
     1024
 91
        0
280
     0
281
     0
  0
CLASS
  1
ACMDETAILSTANDARDANSI
  2
AmdtDetailSymStdANSI
  3
"Amdt_StdImp|Product Description: AutoCAD Mechanical|Company: Autodesk, Inc."
 90
     1024
 91
        0
280
     0
281
     0
  0
CLASS
  1
ACMSECTIONSTANDARDANSI
  2
AmdtSectionSymStdANSI
  3
"Amdt_StdImp|Product Description: AutoCAD Mechanical|Company: Autodesk, Inc."
 90
     1024
 91
        0
280
     0
281
     0
  0
CLASS
  1
ACMCENTERLINESTANDARDANSI
  2
AmdtCenterLineStdANSI
  3
"Amdt_StdImp|Product Description: AutoCAD Mechanical|Company: Autodesk, Inc."
 90
     1024
 91
        0
280
     0
281
     0
  0
CLASS
  1
ACMTHREADLINESTANDARDANSI
  2
AmdtThreadLineStdANSI
  3
"Amdt_StdImp|Product Description: AutoCAD Mechanical|Company: Autodesk, Inc."
 90
     1024
 91
        0
280
     0
281
     0
  0
CLASS
  1
ACMNOTESTANDARDANSI
  2
AmdtNoteStdANSI
  3
"Amdt_StdImp|Product Description: AutoCAD Mechanical|Company: Autodesk, Inc."
 90
     1024
 91
        0
280
     0
281
     0
  0
CLASS
  1
ACMTAPERSTANDARDANSI
  2
AcmTaperStdANSI
  3
"Amdt_StdImp|Product Description: AutoCAD Mechanical|Company: Autodesk, Inc."
 90
     1024
 91
        0
280
     0
281
     0
  0
CLASS
  1
ACMANOOTATIONVIEWSTANDARDANSI
  2
AmdtAnViewStdANSI
  3
"Amdt_StdImp|Product Description: AutoCAD Mechanical|Company: Autodesk, Inc."
 90
     1024
 91
        0
280
     0
281
     0
  0
CLASS
  1
ACAMGLAYSTD
  2
AcAmgLayStd
  3
"AmgLay|Product Description: AutoCAD Mechanical|Company: Autodesk, Inc."
 90
     1024
 91
        2
280
     0
281
     0
  0
CLASS
  1
ACAMGDIMSTD
  2
AcAmgDimStd
  3
"AmgDim|Product Description: AutoCAD Mechanical|Company: Autodesk, Inc."
 90
     1024
 91
        2
280
     0
281
     0
  0
CLASS
  1
AMGOBJPROPCFG
  2
AmgObjPropCfg
  3
"AmgLay|Product Description: AutoCAD Mechanical|Company: Autodesk, Inc."
 90
     1024
 91
        2
280
     0
281
     0
  0
CLASS
  1
ACAMGHOLECHARTSTDANSI
  2
AcAmgHoleChartStdANSI
  3
AmgDim|Product Description: AutoCAD Mechanical|Company: Autodesk, Inc.
 90
     1024
 91
        0
280
     0
281
     0
  0
CLASS
  1
ACAMGTITLESTD
  2
AcAmgTitleStd
  3
"AmgTitle|Product Description: AutoCAD Mechanical|Company: Autodesk, Inc."
 90
     1024
 91
        2
280
     0
281
     0
  0
CLASS
  1
AMDTNOTETEMPLATEDB
  2
AmdtNoteTemplateDB
  3
AcmSymBB|Product Description: AutoCAD Mechanical|Company: Autodesk, Inc.
 90
     1024
 91
        7
280
     0
281
     0
  0
CLASS
  1
ACAMGFILTERDAT
  2
AcAmgFilterDat
  3
"AcadM|Product Description: AutoCAD Mechanical|Company: Autodesk, Inc."
 90
     1024
 91
        0
280
     0
281
     0
  0
CLASS
  1
CAMSSTRUCTBTNSTATE
  2
StructBtnState
  3
DesignerAssemblies
 90
     1024
 91
        2
280
     0
281
     0
  0
CLASS
  1
ACDB_HATCHVIEWCONTEXTDATA_CLASS
  2
AcDbHatchViewContextData
  3
ObjectDBX Classes
 90
     1153
 91
        0
280
     0
281
     0
  0
CLASS
  1
ACDB_HATCHSCALECONTEXTDATA_CLASS
  2
AcDbHatchScaleContextData
  3
ObjectDBX Classes
 90
     1153
 91
        0
280
     0
281
     0
  0
CLASS
  1
ACDBSECTIONVIEWSTYLE
  2
AcDbSectionViewStyle
  3
ObjectDBX Classes
 90
     1025
 91
        3
280
     0
281
     0
  0
CLASS
  1
ACDBDETAILVIEWSTYLE
  2
AcDbDetailViewStyle
  3
ObjectDBX Classes
 90
     1025
 91
        3
280
     0
281
     0
  0
CLASS
  1
ACMSTANDARDDIN
  2
AcmStandardDIN
  3
"Amdt_StdImp|Product Description: AutoCAD Mechanical|Company: Autodesk, Inc."
 90
     1024
 91
        2
280
     0
281
     0
  0
CLASS
  1
AMDTEDGESTANDARDDIN13715
  2
AmdtEdgeStdDIN13715
  3
"Amdt_StdImp|Product Description: AutoCAD Mechanical|Company: Autodesk, Inc."
 90
     1024
 91
        2
280
     0
281
     0
  0
CLASS
  1
ACMSURFSTANDARDDIN2002
  2
AcmSurfTextStdDIN2002
  3
"Amdt_StdImp|Product Description: AutoCAD Mechanical|Company: Autodesk, Inc."
 90
     1024
 91
        2
280
     0
281
     0
  0
CLASS
  1
ACMFCFSTANDARDDIN2008
  2
AcmFCFStdDIN2008
  3
"Amdt_StdImp|Product Description: AutoCAD Mechanical|Company: Autodesk, Inc."
 90
     1024
 91
        2
280
     0
281
     0
  0
CLASS
  1
ACMWELDSTANDARDDIN
  2
AcmWeldingStdDIN
  3
"Amdt_StdImp|Product Description: AutoCAD Mechanical|Company: Autodesk, Inc."
 90
     1024
 91
        2
280
     0
281
     0
  0
CLASS
  1
ACMIDSTANDARDDIN2008
  2
AcmIdStdDIN2008
  3
"Amdt_StdImp|Product Description: AutoCAD Mechanical|Company: Autodesk, Inc."
 90
     1024
 91
        0
280
     0
281
     0
  0
CLASS
  1
ACMDATUMSTANDARDDIN
  2
AcmDatumStdDIN
  3
"Amdt_StdImp|Product Description: AutoCAD Mechanical|Company: Autodesk, Inc."
 90
     1024
 91
        0
280
     0
281
     0
  0
CLASS
  1
ACMBOMSTANDARDDIN
  2
AcmBOMStdDIN
  3
"Amdt_StdImp|Product Description: AutoCAD Mechanical|Company: Autodesk, Inc."
 90
     1024
 91
        2
280
     0
281
     0
  0
CLASS
  1
ACMDETAILSTANDARDDIN
  2
AmdtDetailSymStdDIN
  3
"Amdt_StdImp|Product Description: AutoCAD Mechanical|Company: Autodesk, Inc."
 90
     1024
 91
        2
280
     0
281
     0
  0
CLASS
  1
ACMSECTIONSTANDARDDIN
  2
AmdtSectionSymStdDIN
  3
"Amdt_StdImp|Product Description: AutoCAD Mechanical|Company: Autodesk, Inc."
 90
     1024
 91
        2
280
     0
281
     0
  0
CLASS
  1
ACMCENTERLINESTANDARDDIN
  2
AmdtCenterLineStdDIN
  3
"Amdt_StdImp|Product Description: AutoCAD Mechanical|Company: Autodesk, Inc."
 90
     1024
 91
        2
280
     0
281
     0
  0
CLASS
  1
ACMTHREADLINESTANDARDDIN
  2
AmdtThreadLineStdDIN
  3
"Amdt_StdImp|Product Description: AutoCAD Mechanical|Company: Autodesk, Inc."
 90
     1024
 91
        2
280
     0
281
     0
  0
CLASS
  1
ACMNOTESTANDARDDIN
  2
AmdtNoteStdDIN
  3
"Amdt_StdImp|Product Description: AutoCAD Mechanical|Company: Autodesk, Inc."
 90
     1024
 91
        2
280
     0
281
     0
  0
CLASS
  1
ACMTAPERSTANDARDDIN
  2
AcmTaperStdDIN
  3
"Amdt_StdImp|Product Description: AutoCAD Mechanical|Company: Autodesk, Inc."
 90
     1024
 91
        2
280
     0
281
     0
  0
CLASS
  1
ACMANOOTATIONVIEWSTANDARDDIN
  2
AmdtAnViewStdDIN
  3
"Amdt_StdImp|Product Description: AutoCAD Mechanical|Company: Autodesk, Inc."
 90
     1024
 91
        2
280
     0
281
     0
  0
CLASS
  1
ACAMGHOLECHARTSTDDIN
  2
AcAmgHoleChartStdDIN
  3
AmgDim|Product Description: AutoCAD Mechanical|Company: Autodesk, Inc.
 90
     1024
 91
        2
280
     0
281
     0
  0
CLASS
  1
ACMIDSTANDARDDIN2012
  2
AcmIdStdDIN2012
  3
"Amdt_StdImp|Product Description: AutoCAD Mechanical|Company: Autodesk, Inc."
 90
     1024
 91
        0
280
     0
281
     0
  0
CLASS
  1
ACMDATUMSTANDARDDIN2008
  2
AcmDatumStdDIN2008
  3
"Amdt_StdImp|Product Description: AutoCAD Mechanical|Company: Autodesk, Inc."
 90
     1024
 91
        0
280
     0
281
     0
  0
CLASS
  1
ACMSECTIONSTANDARDCUSTOM
  2
AmdtSectionSymStdCustom
  3
"Amdt_StdImp|Product Description: AutoCAD Mechanical|Company: Autodesk, Inc."
 90
     1024
 91
        0
280
     0
281
     0
  0
CLASS
  1
ACMDETAILTANDARDCUSTOM
  2
AmdtDetailSymStdCustom
  3
"Amdt_StdImp|Product Description: AutoCAD Mechanical|Company: Autodesk, Inc."
 90
     1024
 91
        0
280
     0
281
     0
  0
CLASS
  1
FIELD
  2
AcDbField
  3
ObjectDBX Classes
 90
     1152
 91
        6
280
     0
281
     0
  0
CLASS
  1
FIELDLIST
  2
AcDbFieldList
  3
ObjectDBX Classes
 90
     1152
 91
        1
280
     0
281
     0
  0
CLASS
  1
RAPIDRTRENDERSETTINGS
  2
AcDbRapidRTRenderSettings
  3
ObjectDBX Classes
 90
     1024
 91
        7
280
     0
281
     0
  0
CLASS
  1
RENDERGLOBAL
  2
AcDbRenderGlobal
  3
SCENEOE
 90
     1024
 91
        1
280
     0
281
     0
  0
CLASS
  1
RAPIDRTRENDERENVIRONMENT
  2
AcDbIBLBackground
  3
SCENEOE
 90
     1024
 91
       11
280
     0
281
     0
  0
ENDSEC
  0
SECTION
  2
TABLES
  0
TABLE
  2
VPORT
  5
8
102
{ACAD_XDICTIONARY
360
29E5
102
}
330
0
100
AcDbSymbolTable
 70
     1
1001
ACAD
1000
DbSaveVer
1071
       11
  0
VPORT
  5
26FD
102
{ACAD_XDICTIONARY
360
124E0
102
}
330
8
100
AcDbSymbolTableRecord
100
AcDbViewportTableRecord
  2
*Active
 70
     0
 10
0.0
 20
0.0
 11
1.0
 21
1.0
 12
-12154.10904892747
 22
-3169.527439322017
 13
0.0
 23
0.0
 14
0.5
 24
0.5
 15
0.5
 25
0.5
 16
0.0
 26
0.0
 36
1.0
 17
0.0
 27
0.0
 37
0.0
 40
3596.661677193915
 41
2.683916083916083
 42
50.0
 43
0.0
 44
0.0
 50
0.0
 51
0.0
 71
     0
 72
   100
 73
     1
 74
     1
 75
     0
 76
     0
 77
     0
 78
     0
281
     0
 65
     1
110
0.0
120
0.0
130
0.0
111
1.0
121
0.0
131
0.0
112
0.0
122
1.0
132
0.0
 79
     0
146
0.0
332
12E00
348
274B
 60
     3
 61
     5
292
     1
282
     1
141
0.0
142
0.0
 63
   250
421
  3355443
1001
ACAD_NAV_VCDISPLAY
1070
     3
  0
ENDTAB
  0
TABLE
  2
LTYPE
  5
5
330
0
100
AcDbSymbolTable
 70
    29
  0
LTYPE
  5
12
330
5
100
AcDbSymbolTableRecord
100
AcDbLinetypeTableRecord
  2
BYBLOCK
 70
     0
  3

 72
    65
 73
     0
 40
0.0
  0
LTYPE
  5
13
330
5
100
AcDbSymbolTableRecord
100
AcDbLinetypeTableRecord
  2
BYLAYER
 70
     0
  3

 72
    65
 73
     0
 40
0.0
  0
LTYPE
  5
14
330
5
100
AcDbSymbolTableRecord
100
AcDbLinetypeTableRecord
  2
CONTINUOUS
 70
     0
  3
Solid line
 72
    65
 73
     0
 40
0.0
  0
LTYPE
  5
222
330
5
100
AcDbSymbolTableRecord
100
AcDbLinetypeTableRecord
  2
STRICHPUNKT
 70
     0
  3
Strichpunkt __ . __ . __ . __ . __ . __ . __ . 
 72
    65
 73
     4
 40
25.4
 49
12.7
 74
     0
 49
-6.349999999999999
 74
     0
 49
0.0
 74
     0
 49
-6.349999999999999
 74
     0
  0
LTYPE
  5
223
330
5
100
AcDbSymbolTableRecord
100
AcDbLinetypeTableRecord
  2
STRICHLINIE
 70
     0
  3
Strichlinie __ __ __ __ __ __ __ __ __ __ __ __
 72
    65
 73
     2
 40
19.05
 49
12.7
 74
     0
 49
-6.349999999999999
 74
     0
  0
LTYPE
  5
381C
330
5
100
AcDbSymbolTableRecord
100
AcDbLinetypeTableRecord
  2
VERDECKT
 70
     0
  3
Verdeckt __ __ __ __ __ __ __ __ __ __ __ __ __
 72
    65
 73
     2
 40
0.375
 49
0.25
 74
     0
 49
-0.125
 74
     0
  0
LTYPE
  5
381D
330
5
100
AcDbSymbolTableRecord
100
AcDbLinetypeTableRecord
  2
ACAD_ISO02W100
 70
     0
  3
ISO Strichlinie __ __ __ __ __ __ __ __ __ __ _
 72
    65
 73
     2
 40
15.0
 49
12.0
 74
     0
 49
-3.0
 74
     0
  0
LTYPE
  5
381E
330
5
100
AcDbSymbolTableRecord
100
AcDbLinetypeTableRecord
  2
ACAD_ISO10W100
 70
     0
  3
ISO Strichpunktlinie __ . __ . __ . __ . __ . _
 72
    65
 73
     4
 40
18.0
 49
12.0
 74
     0
 49
-3.0
 74
     0
 49
0.0
 74
     0
 49
-3.0
 74
     0
  0
LTYPE
  5
CA5B
330
5
100
AcDbSymbolTableRecord
100
AcDbLinetypeTableRecord
  2
HIDDEN
 70
     0
  3
Verdeckt
 72
    65
 73
     2
 40
0.375
 49
0.25
 74
     0
 49
-0.125
 74
     0
  0
LTYPE
  5
CA5C
330
5
100
AcDbSymbolTableRecord
100
AcDbLinetypeTableRecord
  2
PHANTOM2
 70
     0
  3
Phantom (.5x) ___ _ _ ___ _ _ ___ _ _ ___ _ _
 72
    65
 73
     6
 40
1.25
 49
0.625
 74
     0
 49
-0.125
 74
     0
 49
0.125
 74
     0
 49
-0.125
 74
     0
 49
0.125
 74
     0
 49
-0.125
 74
     0
  0
LTYPE
  5
CA5D
330
5
100
AcDbSymbolTableRecord
100
AcDbLinetypeTableRecord
  2
CENTER
 70
     0
  3
Mitte ____ _ ____ _ ____ _ ____ _ ____ _ ____
 72
    65
 73
     4
 40
2.0
 49
1.25
 74
     0
 49
-0.25
 74
     0
 49
0.25
 74
     0
 49
-0.25
 74
     0
  0
LTYPE
  5
CA9D
330
5
100
AcDbSymbolTableRecord
100
AcDbLinetypeTableRecord
  2
AM_ISO02W050
 70
     0
  3
__ __ __ __ __ __ __ __ __ __ __ __ __ __ __
 72
    65
 73
     2
 40
7.5
 49
6.0
 74
     0
 49
-1.5
 74
     0
  0
LTYPE
  5
CA9E
330
5
100
AcDbSymbolTableRecord
100
AcDbLinetypeTableRecord
  2
AM_ISO08W050
 70
     0
  3
____ . ____ . ____ . ____ . ____ . ____ . ____
 72
    65
 73
     4
 40
18.0
 49
12.0
 74
     0
 49
-1.5
 74
     0
 49
3.0
 74
     0
 49
-1.5
 74
     0
  0
LTYPE
  5
CA9F
330
5
100
AcDbSymbolTableRecord
100
AcDbLinetypeTableRecord
  2
AM_ISO09W050
 70
     0
  3
_____ . . _____ . . _____ . . ____ .. ____
 72
    65
 73
     6
 40
22.5
 49
12.0
 74
     0
 49
-1.5
 74
     0
 49
3.0
 74
     0
 49
-1.5
 74
     0
 49
3.0
 74
     0
 49
-1.5
 74
     0
  0
LTYPE
  5
CAA0
330
5
100
AcDbSymbolTableRecord
100
AcDbLinetypeTableRecord
  2
Amconstr
 70
     0
  3
_______________________
 72
    65
 73
     2
 40
9999.0
 49
9999.0
 74
     0
 49
0.0
 74
     0
  0
LTYPE
  5
CAA1
330
5
100
AcDbSymbolTableRecord
100
AcDbLinetypeTableRecord
  2
AM_ISO08W050x2
 70
     0
  3
__ . __ . __ . __ . __ . __
 72
    65
 73
     4
 40
9.0
 49
6.0
 74
     0
 49
-0.75
 74
     0
 49
1.5
 74
     0
 49
-0.75
 74
     0
  0
LTYPE
  5
CAA2
330
5
100
AcDbSymbolTableRecord
100
AcDbLinetypeTableRecord
  2
AM_ISO02W050x2
 70
     0
  3
 _ _ _ _ _ _ _ _ _ _ _ _
 72
    65
 73
     2
 40
3.75
 49
3.0
 74
     0
 49
-0.75
 74
     0
  0
LTYPE
  5
CAA5
330
5
100
AcDbSymbolTableRecord
100
AcDbLinetypeTableRecord
  2
Amzigzag
 70
     0
  3
/\/-/\/-/\/-/\/-/\/-/\/
 72
    65
 73
     2
 40
11.0001
 49
0.0001
 74
     4
 75
   136
340
CAA4
 46
0.04
 50
0.0
 44
0.0
 45
0.0
 49
-11.0
 74
     0
  0
LTYPE
  5
CAA6
330
5
100
AcDbSymbolTableRecord
100
AcDbLinetypeTableRecord
  2
CENTER2
 70
     0
  3
Center (.5x) ___ _ ___ _ ___ _ ___ _ ___ _ ___
 72
    65
 73
     4
 40
1.125
 49
0.75
 74
     0
 49
-0.125
 74
     0
 49
0.125
 74
     0
 49
-0.125
 74
     0
  0
LTYPE
  5
CAA7
330
5
100
AcDbSymbolTableRecord
100
AcDbLinetypeTableRecord
  2
HIDDEN2
 70
     0
  3
Hidden (.5x) _ _ _ _ _ _ _ _ _ _ _ _ _ _ _ _ _
 72
    65
 73
     2
 40
0.1875
 49
0.125
 74
     0
 49
-0.0625
 74
     0
  0
LTYPE
  5
CAA8
330
5
100
AcDbSymbolTableRecord
100
AcDbLinetypeTableRecord
  2
Amzigzag2
 70
     0
  3
/\/-/\/-/\/-/\/-/\/-/\/
 72
    65
 73
     2
 40
0.4401
 49
0.0001
 74
     4
 75
   136
340
CAA4
 46
0.0016
 50
0.0
 44
0.0
 45
0.0
 49
-0.4400000000000001
 74
     0
  0
LTYPE
  5
CAB6
330
5
100
AcDbSymbolTableRecord
100
AcDbLinetypeTableRecord
  2
ACANSTGB
 70
     0
  3
__ . . __ . .
 72
    65
 73
     6
 40
0.35433070866
 49
0.15748031496
 74
     0
 49
-0.03937007874
 74
     0
 49
0.03937007874
 74
     0
 49
-0.03937007874
 74
     0
 49
0.03937007874
 74
     0
 49
-0.03937007874
 74
     0
  0
LTYPE
  5
CAB7
330
5
100
AcDbSymbolTableRecord
100
AcDbLinetypeTableRecord
  2
ACANSTGL
 70
     0
  3
_ _ _ _ _
 72
    65
 73
     2
 40
0.11811023622
 49
0.07874015748
 74
     0
 49
-0.03937007874
 74
     0
  0
LTYPE
  5
F6BB
330
5
100
AcDbSymbolTableRecord
100
AcDbLinetypeTableRecord
  2
ACDINWELD
 70
     0
  3
_ _ _ _ _
 72
    65
 73
     2
 40
2.0
 49
2.0
 74
     0
 49
-1.0
 74
     0
  0
LTYPE
  5
F6BC
330
5
100
AcDbSymbolTableRecord
100
AcDbLinetypeTableRecord
  2
ACDINTGL
 70
     0
  3
_ _ _ _ _
 72
    65
 73
     2
 40
3.0
 49
2.0
 74
     0
 49
-1.0
 74
     0
  0
LTYPE
  5
F6BD
330
5
100
AcDbSymbolTableRecord
100
AcDbLinetypeTableRecord
  2
ACDINTGB
 70
     0
  3
__ . . __ . .
 72
    65
 73
     6
 40
9.0
 49
4.0
 74
     0
 49
-1.0
 74
     0
 49
1.0
 74
     0
 49
-1.0
 74
     0
 49
1.0
 74
     0
 49
-1.0
 74
     0
  0
LTYPE
  5
10C5C
330
5
100
AcDbSymbolTableRecord
100
AcDbLinetypeTableRecord
  2
AM_DIN_F_W050
 70
     0
  3
__ __ __ __ __ __ __ __ __ __ __ __ __ __ __
 72
    65
 73
     2
 40
6.25
 49
4.75
 74
     0
 49
-1.5
 74
     0
  0
LTYPE
  5
10C5D
330
5
100
AcDbSymbolTableRecord
100
AcDbLinetypeTableRecord
  2
AM_DIN_G_W050
 70
     0
  3
____ . ____ . ____ . ____ . ____ . ____ . ____
 72
    65
 73
     4
 40
13.75
 49
9.75
 74
     0
 49
-1.5
 74
     0
 49
1.0
 74
     0
 49
-1.5
 74
     0
  0
LTYPE
  5
10C5E
330
5
100
AcDbSymbolTableRecord
100
AcDbLinetypeTableRecord
  2
AM_DIN_K_W050
 70
     0
  3
_____ . . _____ . . _____ . . ____ .. ____
 72
    65
 73
     6
 40
16.25
 49
9.75
 74
     0
 49
-1.5
 74
     0
 49
1.0
 74
     0
 49
-1.5
 74
     0
 49
1.0
 74
     0
 49
-1.5
 74
     0
  0
LTYPE
  5
10C5F
330
5
100
AcDbSymbolTableRecord
100
AcDbLinetypeTableRecord
  2
AM_DIN_G_W050x2
 70
     0
  3
__ . __ . __ . __ . __ . __
 72
    65
 73
     4
 40
6.875
 49
4.75
 74
     0
 49
-0.875
 74
     0
 49
0.375
 74
     0
 49
-0.875
 74
     0
  0
LTYPE
  5
10C60
330
5
100
AcDbSymbolTableRecord
100
AcDbLinetypeTableRecord
  2
AM_DIN_F_W050x2
 70
     0
  3
 _ _ _ _ _ _ _ _ _ _ _ _
 72
    65
 73
     2
 40
3.125
 49
2.25
 74
     0
 49
-0.875
 74
     0
  0
ENDTAB
  0
TABLE
  2
LAYER
  5
2
102
{ACAD_XDICTIONARY
360
1F30
102
}
330
0
100
AcDbSymbolTable
 70
    21
  0
LAYER
  5
E
102
{ACAD_XDICTIONARY
360
2D06
102
}
330
2
100
AcDbSymbolTableRecord
100
AcDbLayerTableRecord
  2
0
 70
     0
 62
     7
  6
CONTINUOUS
370
    -3
390
170F
347
2744
348
0
  0
LAYER
  5
12F
102
{ACAD_XDICTIONARY
360
2D0A
102
}
330
2
100
AcDbSymbolTableRecord
100
AcDbLayerTableRecord
  2
25
 70
     0
 62
     7
  6
CONTINUOUS
370
    -3
390
170F
347
2744
348
0
  0
LAYER
  5
224
102
{ACAD_XDICTIONARY
360
2D0E
102
}
330
2
100
AcDbSymbolTableRecord
100
AcDbLayerTableRecord
  2
KOTIERUNG
 70
     0
 62
     7
  6
CONTINUOUS
370
    -3
390
170F
347
2744
348
0
  0
LAYER
  5
225
330
2
100
AcDbSymbolTableRecord
100
AcDbLayerTableRecord
  2
DEFPOINTS
 70
     2
 62
     7
  6
CONTINUOUS
290
     0
370
    -3
390
170F
347
2744
348
0
  0
LAYER
  5
226
102
{ACAD_XDICTIONARY
360
2D10
102
}
330
2
100
AcDbSymbolTableRecord
100
AcDbLayerTableRecord
  2
18
 70
     0
 62
     1
  6
CONTINUOUS
370
    -3
390
170F
347
2744
348
0
  0
LAYER
  5
425
102
{ACAD_XDICTIONARY
360
2D12
102
}
330
2
100
AcDbSymbolTableRecord
100
AcDbLayerTableRecord
  2
50
 70
     0
 62
    33
  6
CONTINUOUS
370
    -3
390
170F
347
2744
348
0
  0
ENDTAB
  0
TABLE
  2
STYLE
  5
3
330
0
100
AcDbSymbolTable
 70
    17
  0
STYLE
  5
F
330
3
100
AcDbSymbolTableRecord
100
AcDbTextStyleTableRecord
  2
STANDARD
 70
     0
 40
0.0
 41
1.0
 50
0.0
 71
     0
 42
25.0
  3
ARIALN.TTF
  4

1001
ACAD
1000
Arial Narrow
1071
       34
  0
STYLE
  5
428
330
3
100
AcDbSymbolTableRecord
100
AcDbTextStyleTableRecord
  2
VOEST
 70
     0
 40
0.0
 41
1.0
 50
0.0
 71
     0
 42
4.0
  3
ARIALN.TTF
  4

1001
ACAD
1000
Arial Narrow
1071
       34
  0
STYLE
  5
14E5
330
3
100
AcDbSymbolTableRecord
100
AcDbTextStyleTableRecord
  2
ARIALFETT
 70
     0
 40
0.0
 41
1.0
 50
0.0
 71
     0
 42
4.0
  3
ARIALN.TTF
  4

1001
ACAD
1000
Arial Narrow
1071
       34
  0
STYLE
  5
16FD
330
3
100
AcDbSymbolTableRecord
100
AcDbTextStyleTableRecord
  2
VOESTB
 70
     0
 40
0.0
 41
1.0
 50
0.0
 71
     0
 42
4.0
  3

  4

1001
ACAD
1000
Arial Narrow
1071
 33554466
  0
STYLE
  5
1BD8
330
3
100
AcDbSymbolTableRecord
100
AcDbTextStyleTableRecord
  2
LOGO1
 70
     0
 40
0.0
 41
1.175
 50
0.0
 71
     0
 42
6.158564712355089
  3
swissb.ttf
  4

1001
ACAD
1000
Swis721 BT
1071
 33554466
  0
STYLE
  5
1BD9
330
3
100
AcDbSymbolTableRecord
100
AcDbTextStyleTableRecord
  2
LOGO3
 70
     0
 40
0.0
 41
1.175
 50
0.0
 71
     0
 42
6.158564712355089
  3
swissel.ttf
  4

1001
ACAD
1000
Swis721 LtEx BT
1071
       34
  0
STYLE
  5
1BDA
330
3
100
AcDbSymbolTableRecord
100
AcDbTextStyleTableRecord
  2
LOGO2
 70
     0
 40
0.0
 41
1.175
 50
0.0
 71
     0
 42
6.158564712355089
  3
swiss.ttf
  4

1001
ACAD
1000
Swis721 BT
1071
       34
  0
STYLE
  5
AECD
330
3
100
AcDbSymbolTableRecord
100
AcDbTextStyleTableRecord
  2
STYLE1
 70
     0
 40
0.0
 41
1.0
 50
0.0
 71
     0
 42
15.0
  3
ARIALN.TTF
  4

1001
ACAD
1000
Arial Narrow
1071
       34
  0
STYLE
  5
AECE
330
3
100
AcDbSymbolTableRecord
100
AcDbTextStyleTableRecord
  2
STYLE2
 70
     0
 40
0.0
 41
1.0
 50
0.0
 71
     0
 42
15.0
  3
ARIALN.TTF
  4

1001
ACAD
1000
Arial Narrow
1071
       34
  0
STYLE
  5
CAA4
330
3
100
AcDbSymbolTableRecord
100
AcDbTextStyleTableRecord
  2

 70
     1
 40
0.0
 41
1.0
 50
0.0
 71
     0
 42
4.0
  3
genltshp.shx
  4

  0
STYLE
  5
CAB4
330
3
100
AcDbSymbolTableRecord
100
AcDbTextStyleTableRecord
  2
ACANSTS
 70
     0
 40
1.0
 41
1.0
 50
0.0
 71
     0
 42
4.0
  3
romans.shx
  4

  0
STYLE
  5
CAB5
330
3
100
AcDbSymbolTableRecord
100
AcDbTextStyleTableRecord
  2
ACANSGDT
 70
     0
 40
0.0
 41
1.0
 50
0.0
 71
     0
 42
4.0
  3
amgdt.shx
  4

  0
STYLE
  5
E005
330
3
100
AcDbSymbolTableRecord
100
AcDbTextStyleTableRecord
  2
AN150
 70
     0
 40
0.0
 41
1.5
 50
0.0
 71
     0
 42
4.0
  3
ARIALN.TTF
  4

1001
ACAD
1000
Arial Narrow
1071
       34
  0
STYLE
  5
F6B9
330
3
100
AcDbSymbolTableRecord
100
AcDbTextStyleTableRecord
  2
ACDINTS
 70
     0
 40
1.0
 41
1.0
 50
0.0
 71
     0
 42
4.0
  3
isocp.shx
  4

  0
STYLE
  5
F6BA
330
3
100
AcDbSymbolTableRecord
100
AcDbTextStyleTableRecord
  2
ACDINGDT
 70
     0
 40
0.0
 41
1.0
 50
0.0
 71
     0
 42
4.0
  3
amgdt.shx
  4

  0
STYLE
  5
10FC0
330
3
100
AcDbSymbolTableRecord
100
AcDbTextStyleTableRecord
  2
voestalpine
 70
     0
 40
0.0
 41
1.0
 50
0.0
 71
     0
 42
4.0
  3
voestalpine-Regular.ttf
  4

1001
ACAD
1000
voestalpine
1071
       34
  0
STYLE
  5
10FC1
330
3
100
AcDbSymbolTableRecord
100
AcDbTextStyleTableRecord
  2
voestalpine light
 70
     0
 40
0.0
 41
1.0
 50
0.0
 71
     0
 42
4.0
  3
voestalpine-Light.ttf
  4

1001
ACAD
1000
voestalpine Light
1071
       34
  0
ENDTAB
  0
TABLE
  2
VIEW
  5
6
330
0
100
AcDbSymbolTable
 70
     8
  0
ENDTAB
  0
TABLE
  2
UCS
  5
7
330
0
100
AcDbSymbolTable
 70
     0
  0
ENDTAB
  0
TABLE
  2
APPID
  5
9
330
0
100
AcDbSymbolTable
 70
    32
  0
APPID
  5
10
330
9
100
AcDbSymbolTableRecord
100
AcDbRegAppTableRecord
  2
ACAD
 70
     0
  0
APPID
  5
24
330
9
100
AcDbSymbolTableRecord
100
AcDbRegAppTableRecord
  2
CONTENTTABDATA
 70
     0
  0
APPID
  5
25
330
9
100
AcDbSymbolTableRecord
100
AcDbRegAppTableRecord
  2
CONTENTCURRENTTAB
 70
     0
  0
APPID
  5
116
330
9
100
AcDbSymbolTableRecord
100
AcDbRegAppTableRecord
  2
CONTENTBLOCKICON
 70
     0
  0
APPID
  5
117
330
9
100
AcDbSymbolTableRecord
100
AcDbRegAppTableRecord
  2
CONTENTBLOCKDESCRIPTION
 70
     0
  0
APPID
  5
1FB0
330
9
100
AcDbSymbolTableRecord
100
AcDbRegAppTableRecord
  2
ACAD_PSEXT
 70
     0
  0
APPID
  5
2222
330
9
100
AcDbSymbolTableRecord
100
AcDbRegAppTableRecord
  2
ACAD_EXEMPT_FROM_CAD_STANDARDS
 70
     0
  0
APPID
  5
2C71
330
9
100
AcDbSymbolTableRecord
100
AcDbRegAppTableRecord
  2
ACAD_MLEADERVER
 70
     0
  0
APPID
  5
3825
330
9
100
AcDbSymbolTableRecord
100
AcDbRegAppTableRecord
  2
ACAD_DSTYLE_DIMJOGGED_JOGANGLE_SYMBOL
 70
     0
  0
APPID
  5
5508
330
9
100
AcDbSymbolTableRecord
100
AcDbRegAppTableRecord
  2
ACAD_DSTYLE_DIMEXT_LENGTH
 70
     0
  0
APPID
  5
BFBE
330
9
100
AcDbSymbolTableRecord
100
AcDbRegAppTableRecord
  2
AcAecLayerStandard
 70
     0
  0
APPID
  5
BFBF
330
9
100
AcDbSymbolTableRecord
100
AcDbRegAppTableRecord
  2
ACAD_DSTYLE_DIMJAG
 70
     0
  0
APPID
  5
BFC0
330
9
100
AcDbSymbolTableRecord
100
AcDbRegAppTableRecord
  2
ACAD_DSTYLE_DIMTALN
 70
     0
  0
APPID
  5
CA2E
330
9
100
AcDbSymbolTableRecord
100
AcDbRegAppTableRecord
  2
MCAD_NO_VIS
 70
     0
  0
APPID
  5
CA2F
330
9
100
AcDbSymbolTableRecord
100
AcDbRegAppTableRecord
  2
ACAD_TEMP_GRAPHIC
 70
     0
  0
APPID
  5
CA5F
330
9
100
AcDbSymbolTableRecord
100
AcDbRegAppTableRecord
  2
AD_DRAW
 70
     0
  0
APPID
  5
CA62
330
9
100
AcDbSymbolTableRecord
100
AcDbRegAppTableRecord
  2
ACATTRIBSERVICES
 70
     0
  0
APPID
  5
CA7F
330
9
100
AcDbSymbolTableRecord
100
AcDbRegAppTableRecord
  2
DESIGNERASSEMBLIES
 70
     0
  0
APPID
  5
CA84
330
9
100
AcDbSymbolTableRecord
100
AcDbRegAppTableRecord
  2
ACADM_DIM_EDIT
 70
     0
  0
APPID
  5
CA85
330
9
100
AcDbSymbolTableRecord
100
AcDbRegAppTableRecord
  2
AMDT_DM_ADJ
 70
     0
  0
APPID
  5
CA9B
330
9
100
AcDbSymbolTableRecord
100
AcDbRegAppTableRecord
  2
ACAD_DSTYLE_DIMBREAK
 70
     0
  0
APPID
  5
CABE
330
9
100
AcDbSymbolTableRecord
100
AcDbRegAppTableRecord
  2
GENIUS_GENSCREG_15
 70
     0
  0
APPID
  5
CABF
330
9
100
AcDbSymbolTableRecord
100
AcDbRegAppTableRecord
  2
GENIUS_GENODEF_13
 70
     0
  0
APPID
  5
CAC0
330
9
100
AcDbSymbolTableRecord
100
AcDbRegAppTableRecord
  2
GENIUS_GENOBJ-N-SDF_13
 70
     0
  0
APPID
  5
EE1A
330
9
100
AcDbSymbolTableRecord
100
AcDbRegAppTableRecord
  2
GradientColor1ACI
 70
     0
  0
APPID
  5
EE1B
330
9
100
AcDbSymbolTableRecord
100
AcDbRegAppTableRecord
  2
GradientColor2ACI
 70
     0
  0
APPID
  5
EE1C
330
9
100
AcDbSymbolTableRecord
100
AcDbRegAppTableRecord
  2
AcadAnnotative
 70
     0
  0
APPID
  5
F747
330
9
100
AcDbSymbolTableRecord
100
AcDbRegAppTableRecord
  2
GENIUS_GENDTOL_13
 70
     0
  0
APPID
  5
F748
330
9
100
AcDbSymbolTableRecord
100
AcDbRegAppTableRecord
  2
ACAD_DSTYLE_DIMINSPECT
 70
     0
  0
APPID
  5
F7AA
330
9
100
AcDbSymbolTableRecord
100
AcDbRegAppTableRecord
  2
ACAD_NAV_VCDISPLAY
 70
     0
  0
APPID
  5
10FC2
330
9
100
AcDbSymbolTableRecord
100
AcDbRegAppTableRecord
  2
ACCMTRANSPARENCY
 70
     0
  0
APPID
  5
12168
330
9
100
AcDbSymbolTableRecord
100
AcDbRegAppTableRecord
  2
AcadAnnoMonitorAlertIconDisabled
 70
     0
  0
ENDTAB
  0
TABLE
  2
DIMSTYLE
  5
A
330
0
100
AcDbSymbolTable
 70
    25
100
AcDbDimStyleTable
 71
     4
340
EF9
340
7376
340
3823
340
EFA
  0
DIMSTYLE
105
1D
330
A
100
AcDbSymbolTableRecord
100
AcDbDimStyleTableRecord
  2
STANDARD
 70
     0
340
F
  0
DIMSTYLE
105
B80
330
A
100
AcDbSymbolTableRecord
100
AcDbDimStyleTableRecord
  2
TYPENBLATT
 70
     0
 40
100.0
 41
0.25
 42
0.5
 43
0.5
 44
0.25
 73
     0
 74
     0
140
0.25
147
0.125
271
     0
340
428
  0
DIMSTYLE
105
EF9
330
A
100
AcDbSymbolTableRecord
100
AcDbDimStyleTableRecord
  2
TYPENBLATT_M10
 70
     0
 40
142.85
 41
0.25
 42
0.5
 43
0.5
 44
0.25
 73
     0
 74
     0
 77
     1
140
0.25
147
0.075
271
     0
272
     0
340
428
  0
DIMSTYLE
105
EFA
330
A
100
AcDbSymbolTableRecord
100
AcDbDimStyleTableRecord
  2
TYPENBLATT_M50
 70
     0
 40
500.0
 41
0.25
 42
0.1
 43
0.5
 44
0.25
 73
     0
 74
     0
 77
     1
140
0.25
147
0.075
271
     0
340
428
  0
DIMSTYLE
105
3823
102
{ACAD_REACTORS
330
EFA2
330
EFA0
330
11B4F
330
11B4C
330
11B49
330
11B44
102
}
330
A
100
AcDbSymbolTableRecord
100
AcDbDimStyleTableRecord
  2
ISO-25
 70
     0
 41
2.5
 42
0.625
 43
3.75
 44
1.25
 49
1.25
 50
90.0
 73
     0
 74
     0
 77
     1
 78
     8
140
2.5
141
2.5
143
0.03937007874016
147
0.625
171
     3
172
     1
271
     2
272
     2
274
     3
278
    44
283
     0
284
     8
340
F
1001
ACAD_DSTYLE_DIMJOGGED_JOGANGLE_SYMBOL
1070
   384
1040
1.570796326794896
  0
DIMSTYLE
105
3824
330
A
100
AcDbSymbolTableRecord
100
AcDbDimStyleTableRecord
  2
VAKF
 70
     0
 41
20.0
 42
20.0
 43
60.0
 44
10.0
 50
90.0
 73
     0
 74
     0
140
25.0
147
2.0
271
     0
272
     0
340
F
1001
ACAD_DSTYLE_DIMJOGGED_JOGANGLE_SYMBOL
1070
   384
1040
1.570796326794896
  0
DIMSTYLE
105
7376
330
A
100
AcDbSymbolTableRecord
100
AcDbDimStyleTableRecord
  2
STIL2
 70
     0
 40
0.15
 41
35.0
 42
35.0
 43
75.0
 44
17.5
 73
     0
 74
     0
140
35.0
141
0.0
147
5.0
271
     0
272
     0
340
428
  0
DIMSTYLE
105
7377
330
A
100
AcDbSymbolTableRecord
100
AcDbDimStyleTableRecord
  2
STIL2xx
 70
     0
 40
0.15
 41
35.0
 42
35.0
 43
75.0
 44
17.5
 73
     0
 74
     0
140
35.0
141
0.0
147
5.0
271
     1
272
     1
340
428
  0
DIMSTYLE
105
AECF
330
A
100
AcDbSymbolTableRecord
100
AcDbDimStyleTableRecord
  2
STIL1
 70
     0
 41
15.0
 42
25.0
 43
100.0
 44
12.5
 73
     0
 74
     0
140
17.5
147
5.0
271
     0
340
428
  0
DIMSTYLE
105
AED0
330
A
100
AcDbSymbolTableRecord
100
AcDbDimStyleTableRecord
  2
STIL10
 70
     0
 40
0.7
 41
25.0
 42
25.0
 43
100.0
 44
20.0
 73
     0
 74
     0
140
25.0
147
5.0
271
     0
272
     0
340
428
  0
DIMSTYLE
105
AED1
330
A
100
AcDbSymbolTableRecord
100
AcDbDimStyleTableRecord
  2
STIL5
 70
     0
 40
0.5
 41
25.0
 42
25.0
 43
100.0
 44
20.0
 73
     0
 74
     0
140
25.0
147
5.0
271
     0
340
428
  0
DIMSTYLE
105
CA9A
330
A
100
AcDbSymbolTableRecord
100
AcDbDimStyleTableRecord
  2
AM_ANSI
 70
     0
  4
mm
 41
0.12
 42
0.05
 43
0.5
 44
0.1
 47
0.1
 48
0.1
 78
     7
 79
     2
 90
     1
140
0.12
141
0.0
146
0.71
147
0.06
176
   256
177
   256
178
     2
274
     4
284
     7
340
F
345
12
346
12
347
12
371
    -1
372
    -1
1001
ACAD_DSTYLE_DIMJAG
1070
   388
1040
1.5
1001
ACAD_DSTYLE_DIMBREAK
1070
   391
1040
0.125
  0
DIMSTYLE
105
CAA9
330
A
100
AcDbSymbolTableRecord
100
AcDbDimStyleTableRecord
  2
AM_ANSI$3
 70
     0
  4
mm
 41
0.12
 42
0.05
 43
0.5
 44
0.1
 47
0.1
 48
0.1
 78
     7
 79
     2
 90
     1
140
0.12
141
0.0
146
0.71
147
0.06
176
   256
177
   256
178
     2
274
     4
284
     7
288
     1
289
     0
340
F
345
12
346
12
347
12
371
    -1
372
    -1
1001
ACAD_DSTYLE_DIMBREAK
1070
   391
1040
0.125
1001
ACAD_DSTYLE_DIMJAG
1070
   388
1040
1.5
  0
DIMSTYLE
105
CAAA
330
A
100
AcDbSymbolTableRecord
100
AcDbDimStyleTableRecord
  2
AM_ANSI$4
 70
     0
  4
mm
 41
0.12
 42
0.05
 43
0.5
 44
0.1
 47
0.1
 48
0.1
 78
     7
 79
     2
 90
     1
140
0.12
141
0.0
146
0.71
147
0.06
176
   256
177
   256
178
     2
274
     4
284
     7
288
     1
289
     0
340
F
345
12
346
12
347
12
371
    -1
372
    -1
1001
ACAD_DSTYLE_DIMBREAK
1070
   391
1040
0.125
1001
ACAD_DSTYLE_DIMJAG
1070
   388
1040
1.5
  0
DIMSTYLE
105
CAAB
330
A
100
AcDbSymbolTableRecord
100
AcDbDimStyleTableRecord
  2
AM_ANSI$7
 70
     0
  4
mm
 41
0.12
 42
0.05
 43
0.5
 44
0.1
 47
0.1
 48
0.1
 78
     7
 79
     2
 90
     1
140
0.12
141
0.0
146
0.71
147
0.06
176
   256
177
   256
178
     2
274
     4
284
     7
340
F
345
12
346
12
347
12
371
    -1
372
    -1
1001
ACAD_DSTYLE_DIMBREAK
1070
   391
1040
0.125
1001
ACAD_DSTYLE_DIMJAG
1070
   388
1040
1.5
  0
DIMSTYLE
105
CAAC
330
A
100
AcDbSymbolTableRecord
100
AcDbDimStyleTableRecord
  2
AM_ANSI$SF
 70
     0
  4
mm
 41
0.12
 42
0.05
 43
0.5
 44
0.1
 47
0.1
 48
0.1
 75
     1
 76
     1
 78
     7
 79
     2
 90
     1
140
0.12
141
0.0
146
0.71
147
0.06
176
   256
177
   256
178
     2
274
     4
284
     7
340
F
345
12
346
12
347
12
371
    -1
372
    -1
1001
ACAD_DSTYLE_DIMBREAK
1070
   391
1040
0.125
1001
ACAD_DSTYLE_DIMJAG
1070
   388
1040
1.5
  0
DIMSTYLE
105
CAB1
330
A
100
AcDbSymbolTableRecord
100
AcDbDimStyleTableRecord
  2
AM_ANSI$SH
 70
     0
  4
mm
 41
0.12
 42
0.05
 43
0.5
 44
0.1
 47
0.1
 48
0.1
 75
     1
 76
     1
 78
     7
 79
     2
 90
     1
140
0.12
141
0.0
146
0.71
147
0.06
173
     1
176
   256
177
   256
178
     2
274
     4
284
     7
340
F
343
CAAD
345
12
346
12
347
12
371
    -1
372
    -1
1001
ACAD_DSTYLE_DIMBREAK
1070
   391
1040
0.125
1001
ACAD_DSTYLE_DIMJAG
1070
   388
1040
1.5
  0
DIMSTYLE
105
F6AF
102
{ACAD_REACTORS
330
10EEA
102
}
330
A
100
AcDbSymbolTableRecord
100
AcDbDimStyleTableRecord
  2
AM_DIN
 70
     0
  4
"
 41
3.5
 42
1.0
 43
10.0
 44
1.0
 47
0.1
 48
0.1
 50
90.0
 73
     0
 74
     0
 77
     1
 78
     8
 79
     2
140
3.5
141
0.0
143
0.0393701
146
0.71
147
1.5
172
     1
176
   256
177
   256
178
     2
271
     2
272
     3
274
     4
283
     0
284
     8
340
F
345
12
346
12
347
12
371
    -1
372
    -1
1001
ACAD_DSTYLE_DIMJAG
1070
   388
1040
1.5
1001
ACAD_DSTYLE_DIMBREAK
1070
   391
1040
3.75
  0
DIMSTYLE
105
F6B1
330
A
100
AcDbSymbolTableRecord
100
AcDbDimStyleTableRecord
  2
AM_DIN$3
 70
     0
  4
"
 41
3.5
 42
1.0
 43
10.0
 44
1.0
 47
0.1
 48
0.1
 50
90.0
 73
     0
 77
     1
 78
     8
 79
     2
140
3.5
141
0.0
143
0.0393701
146
0.71
147
1.5
176
   256
177
   256
178
     2
271
     2
272
     3
274
     4
283
     0
284
     8
288
     1
289
     0
340
F
345
12
346
12
347
12
371
    -1
372
    -1
1001
ACAD_DSTYLE_DIMBREAK
1070
   391
1040
3.75
1001
ACAD_DSTYLE_DIMJAG
1070
   388
1040
1.5
  0
DIMSTYLE
105
F6B2
330
A
100
AcDbSymbolTableRecord
100
AcDbDimStyleTableRecord
  2
AM_DIN$4
 70
     0
  4
"
 41
3.5
 42
1.0
 43
10.0
 44
1.0
 47
0.1
 48
0.1
 50
90.0
 73
     0
 77
     1
 78
     8
 79
     2
140
3.5
141
0.0
143
0.0393701
146
0.71
147
1.5
176
   256
177
   256
178
     2
271
     2
272
     3
274
     4
283
     0
284
     8
288
     1
289
     0
340
F
345
12
346
12
347
12
371
    -1
372
    -1
1001
ACAD_DSTYLE_DIMBREAK
1070
   391
1040
3.75
1001
ACAD_DSTYLE_DIMJAG
1070
   388
1040
1.5
  0
DIMSTYLE
105
F6B3
330
A
100
AcDbSymbolTableRecord
100
AcDbDimStyleTableRecord
  2
AM_DIN$6
 70
     0
  4
"
 41
3.5
 42
1.0
 43
10.0
 44
1.0
 47
0.1
 48
0.1
 50
90.0
 73
     0
 74
     0
 78
     8
 79
     2
140
3.5
141
0.0
143
0.0393701
146
0.71
147
1.5
172
     1
176
   256
177
   256
178
     2
271
     2
272
     3
274
     4
283
     0
284
     8
340
F
345
12
346
12
347
12
371
    -1
372
    -1
1001
ACAD_DSTYLE_DIMBREAK
1070
   391
1040
3.75
1001
ACAD_DSTYLE_DIMJAG
1070
   388
1040
1.5
  0
DIMSTYLE
105
F6B4
330
A
100
AcDbSymbolTableRecord
100
AcDbDimStyleTableRecord
  2
AM_DIN$7
 70
     0
  4
"
 41
3.5
 42
1.0
 43
10.0
 44
1.0
 47
0.1
 48
0.1
 50
90.0
 73
     0
 74
     0
 77
     1
 78
     8
 79
     2
140
3.5
141
0.0
143
0.0393701
146
0.71
147
1.5
172
     1
176
   256
177
   256
178
     2
271
     2
272
     3
274
     4
283
     0
284
     8
340
F
345
12
346
12
347
12
371
    -1
372
    -1
1001
ACAD_DSTYLE_DIMBREAK
1070
   391
1040
3.75
1001
ACAD_DSTYLE_DIMJAG
1070
   388
1040
1.5
  0
DIMSTYLE
105
F6B5
330
A
100
AcDbSymbolTableRecord
100
AcDbDimStyleTableRecord
  2
AM_DIN$SF
 70
     0
  4
"
 41
3.5
 42
1.0
 43
10.0
 44
1.0
 47
0.1
 48
0.1
 50
90.0
 73
     0
 74
     0
 75
     1
 76
     1
 77
     1
 78
     8
 79
     2
140
3.5
141
0.0
143
0.0393701
146
0.71
147
1.5
172
     1
176
   256
177
   256
178
     2
271
     2
272
     3
274
     4
283
     0
284
     8
340
F
345
12
346
12
347
12
371
    -1
372
    -1
1001
ACAD_DSTYLE_DIMBREAK
1070
   391
1040
3.75
1001
ACAD_DSTYLE_DIMJAG
1070
   388
1040
1.5
  0
DIMSTYLE
105
F6B6
330
A
100
AcDbSymbolTableRecord
100
AcDbDimStyleTableRecord
  2
AM_DIN$SH
 70
     0
  4
"
 41
3.5
 42
1.0
 43
10.0
 44
1.0
 47
0.1
 48
0.1
 50
90.0
 73
     0
 74
     0
 75
     1
 76
     1
 77
     1
 78
     8
 79
     2
140
3.5
141
0.0
143
0.0393701
144
2.0
146
0.71
147
1.5
172
     1
173
     1
176
   256
177
   256
178
     2
271
     2
272
     3
274
     4
283
     0
284
     8
340
F
343
CAAD
345
12
346
12
347
12
371
    -1
372
    -1
1001
ACAD_DSTYLE_DIMBREAK
1070
   391
1040
3.75
1001
ACAD_DSTYLE_DIMJAG
1070
   388
1040
1.5
  0
DIMSTYLE
105
1170E
330
A
100
AcDbSymbolTableRecord
100
AcDbDimStyleTableRecord
  2
STIL2$0
 70
     0
 40
1.5
 41
5.0
 42
1.0
 43
1.0
 44
1.0
 50
90.0
 73
     0
 74
     0
140
3.5
141
0.0
147
1.0
271
     0
272
     0
340
10FC0
341
1BCA
1001
ACAD_DSTYLE_DIMBREAK
1070
   391
1040
3.75
1001
ACAD_DSTYLE_DIMJAG
1070
   388
1040
1.5
1001
ACAD_DSTYLE_DIMTALN
1070
   392
1070
     0
  0
ENDTAB
  0
TABLE
  2
BLOCK_RECORD
  5
1
330
0
100
AcDbSymbolTable
 70
    31
  0
BLOCK_RECORD
  5
18
102
{ACAD_XDICTIONARY
360
6305
102
}
330
1
100
AcDbSymbolTableRecord
100
AcDbBlockTableRecord
  2
*MODEL_SPACE
340
1712
 70
     0
280
     1
281
     0
  0
BLOCK_RECORD
  5
12D4C
330
1
100
AcDbSymbolTableRecord
100
AcDbBlockTableRecord
  2
*Paper_Space
340
12D4D
 70
     0
280
     1
281
     0
  0
BLOCK_RECORD
  5
1BCA
330
1
100
AcDbSymbolTableRecord
100
AcDbBlockTableRecord
  2
_DotSmall
340
0
 70
     0
280
     1
281
     0
  0
BLOCK_RECORD
  5
1BCE
330
1
100
AcDbSymbolTableRecord
100
AcDbBlockTableRecord
  2
VOESTALPINE LOGO
340
0
310
2800000020000000200000000100080000000000000400000000000000000000000000000000000000000000000080000080000000808000800000008000800080800000C0C0C000C0DCC000F0CAA6000020400000206000002080000020A0000020C0000020E00000400000004020000040400000406000004080000040A0
310
000040C0000040E00000600000006020000060400000606000006080000060A0000060C0000060E00000800000008020000080400000806000008080000080A0000080C0000080E00000A0000000A0200000A0400000A0600000A0800000A0A00000A0C00000A0E00000C0000000C0200000C0400000C0600000C0800000C0
310
A00000C0C00000C0E00000E0000000E0200000E0400000E0600000E0800000E0A00000E0C00000E0E00040000000400020004000400040006000400080004000A0004000C0004000E00040200000402020004020400040206000402080004020A0004020C0004020E000404000004040200040404000404060004040800040
310
40A0004040C0004040E00040600000406020004060400040606000406080004060A0004060C0004060E00040800000408020004080400040806000408080004080A0004080C0004080E00040A0000040A0200040A0400040A0600040A0800040A0A00040A0C00040A0E00040C0000040C0200040C0400040C0600040C08000
310
40C0A00040C0C00040C0E00040E0000040E0200040E0400040E0600040E0800040E0A00040E0C00040E0E00080000000800020008000400080006000800080008000A0008000C0008000E00080200000802020008020400080206000802080008020A0008020C0008020E00080400000804020008040400080406000804080
310
008040A0008040C0008040E00080600000806020008060400080606000806080008060A0008060C0008060E00080800000808020008080400080806000808080008080A0008080C0008080E00080A0000080A0200080A0400080A0600080A0800080A0A00080A0C00080A0E00080C0000080C0200080C0400080C0600080C0
310
800080C0A00080C0C00080C0E00080E0000080E0200080E0400080E0600080E0800080E0A00080E0C00080E0E000C0000000C0002000C0004000C0006000C0008000C000A000C000C000C000E000C0200000C0202000C0204000C0206000C0208000C020A000C020C000C020E000C0400000C0402000C0404000C0406000C0
310
408000C040A000C040C000C040E000C0600000C0602000C0604000C0606000C0608000C060A000C060C000C060E000C0800000C0802000C0804000C0806000C0808000C080A000C080C000C080E000C0A00000C0A02000C0A04000C0A06000C0A08000C0A0A000C0A0C000C0A0E000C0C00000C0C02000C0C04000C0C06000
310
C0C08000C0C0A000F0FBFF00A4A0A000808080000000FF0000FF000000FFFF00FF000000FF00FF00FFFF0000FFFFFF0000000000000000000000000000000000000000000000000000000000000000000000000000000000000000000000000000000000000000000000000000000000000000000000000000000000000000
310
00000000000000000000000000000000000000000000000000000000000000000000000000000000000000000000000000000000000000000000000000000000000000000000000000000000000000000000000000000000000000000000000000000000000000000000000000000000000000000000000000000000000000
310
00000000000000000000000000000000000000000000000000000000000000000000000000000000000000000000000000000000000000000000000000000000000000000000000000000000000000000000000000000000000000000000000000000000000000000000000000000000000000000000000000000000000000
310
000000000000000000000000000000000000000000000000000000000000000000000000000000000000000000000000000000000000000000000000000000000000000000000000000000000000000000000000000000000000000000000000000000000000000000000000000000000000000000FFFFFFFFFFFFFFFFFFFF
310
FFFFFFFFFFFFFFFFFFFFFFFFFF000000000000000000FFFF00FF00FF00FF00FFA2A2A2A2A2A2A2A2A200000000000000000000000000FFFFFFFFFFFFFFFFFFFFA2A2A2A2A2A2A2A2A2A20000000000000000000000FFFFFFFFFFFFFFFFFFFFFFA2A2A2A2A2A2A2A2A2A2000000000000000000000000000000000000000000
310
00000000000000000000000000000000000000000000000000000000000000000000000000000000000000000000000000000000000000000000000000000000000000000000000000000000000000000000000000000000000000000000000000000000000000000000000000000000000000000000000000000000000000
310
00000000000000000000000000000000000000000000000000000000000000000000000000000000000000000000000000000000000000000000000000000000000000000000000000000000000000000000000000000000000000000000000000000000000000000000000000000000000000000000000000000000000000
310
00000000000000000000000000000000000000000000000000000000000000000000000000000000000000000000000000000000000000000000000000000000000000000000000000000000000000000000000000000000000000000000000000000000000000000000000000000000000000000000000000000000000000
310
0000000000000000000000000000000000000000000000000000000000000000000000000000000000000000000000000000000000000000
 70
     4
280
     1
281
     0
  0
BLOCK_RECORD
  5
CAAD
330
1
100
AcDbSymbolTableRecord
100
AcDbBlockTableRecord
  2
GENAXEH
340
0
 70
     0
280
     1
281
     0
  0
BLOCK_RECORD
  5
F019
330
1
100
AcDbSymbolTableRecord
100
AcDbBlockTableRecord
  2
*D11
340
0
 70
     0
280
     1
281
     0
  0
BLOCK_RECORD
  5
F097
330
1
100
AcDbSymbolTableRecord
100
AcDbBlockTableRecord
  2
*D12
340
0
 70
     0
280
     1
281
     0
  0
BLOCK_RECORD
  5
10C6E
330
1
100
AcDbSymbolTableRecord
100
AcDbBlockTableRecord
  2
_ACMFILLED30
340
0
 70
     0
280
     1
281
     0
  0
BLOCK_RECORD
  5
10EDC
330
1
100
AcDbSymbolTableRecord
100
AcDbBlockTableRecord
  2
*U14
340
0
 70
     0
280
     1
281
     0
  0
BLOCK_RECORD
  5
11BC4
330
1
100
AcDbSymbolTableRecord
100
AcDbBlockTableRecord
  2
*D26
340
0
 70
     0
280
     1
281
     0
  0
BLOCK_RECORD
  5
11BE5
330
1
100
AcDbSymbolTableRecord
100
AcDbBlockTableRecord
  2
*D27
340
0
 70
     0
280
     1
281
     0
  0
BLOCK_RECORD
  5
11BF2
330
1
100
AcDbSymbolTableRecord
100
AcDbBlockTableRecord
  2
*D28
340
0
 70
     0
280
     1
281
     0
  0
BLOCK_RECORD
  5
11BFF
330
1
100
AcDbSymbolTableRecord
100
AcDbBlockTableRecord
  2
*D29
340
0
 70
     0
280
     1
281
     0
  0
ENDTAB
  0
ENDSEC
  0
SECTION
  2
BLOCKS
  0
BLOCK
  5
19
330
18
100
AcDbEntity
  8
0
100
AcDbBlockBegin
  2
*MODEL_SPACE
 70
     0
 10
0.0
 20
0.0
 30
0.0
  3
*MODEL_SPACE
  1

  0
ENDBLK
  5
1A
330
18
100
AcDbEntity
  8
0
100
AcDbBlockEnd
  0
BLOCK
  5
12D4E
330
12D4C
100
AcDbEntity
 67
     1
  8
0
100
AcDbBlockBegin
  2
*Paper_Space
 70
     0
 10
0.0
 20
0.0
 30
0.0
  3
*Paper_Space
  1

  0
ENDBLK
  5
12D4F
330
12D4C
100
AcDbEntity
 67
     1
  8
0
100
AcDbBlockEnd
  0
BLOCK
  5
1BCB
330
1BCA
100
AcDbEntity
  8
0
100
AcDbBlockBegin
  2
_DotSmall
 70
     0
 10
0.0
 20
0.0
 30
0.0
  3
_DotSmall
  1

  0
LWPOLYLINE
  5
1BCC
330
1BCA
100
AcDbEntity
  8
0
 62
     0
100
AcDbPolyline
 90
        2
 70
     1
 43
0.5
 10
-0.0625
 20
0.0
 42
1.0
 10
0.0625
 20
0.0
 42
1.0
  0
ENDBLK
  5
1BCD
330
1BCA
100
AcDbEntity
  8
0
100
AcDbBlockEnd
  0
BLOCK
  5
1BCF
330
1BCE
100
AcDbEntity
  8
0
100
AcDbBlockBegin
  2
VOESTALPINE LOGO
 70
     0
 10
0.0
 20
0.0
 30
0.0
  3
VOESTALPINE LOGO
  1

  0
TEXT
  5
1BD0
330
1BCE
100
AcDbEntity
  8
0
 62
   155
100
AcDbText
 10
-2.022376810040597
 20
1.345163130846486
 30
0.0
 40
4.761899999999999
  1
alpine
 41
1.29
  7
LOGO2
100
AcDbText
  0
TEXT
  5
1BD1
330
1BCE
100
AcDbEntity
  8
0
 62
     7
100
AcDbText
 10
-24.96332103124969
 20
-3.319987708589252
 30
0.0
 40
2.050802049214244
  1
KREMS FINALTECHNIK GMBH
 41
1.219999999999999
  7
LOGO3
100
AcDbText
  0
TEXT
  5
1BD2
330
1BCE
100
AcDbEntity
  8
0
 62
     7
100
AcDbText
 10
-25.59751279130563
 20
1.29203428188444
 30
0.0
 40
4.761899999999999
  1
voest
 41
1.379999999999999
  7
LOGO1
100
AcDbText
  0
ENDBLK
  5
1BD3
330
1BCE
100
AcDbEntity
  8
0
100
AcDbBlockEnd
  0
BLOCK
  5
CAAF
330
CAAD
100
AcDbEntity
  8
0
100
AcDbBlockBegin
  2
GENAXEH
 70
     0
 10
0.0
 20
0.0
 30
0.0
  3
GENAXEH
  1

  0
LINE
  5
CAAE
330
CAAD
100
AcDbEntity
  8
0
100
AcDbLine
 10
-1.0
 20
0.0
 30
0.0
 11
1.0
 21
0.0
 31
0.0
  0
ENDBLK
  5
CAB0
330
CAAD
100
AcDbEntity
  8
0
100
AcDbBlockEnd
  0
BLOCK
  5
F01A
330
F019
100
AcDbEntity
  8
0
100
AcDbBlockBegin
  2
*D11
 70
     1
 10
0.0
 20
0.0
 30
0.0
  3
*D11
  1

  0
LINE
  5
11FD9
330
F019
100
AcDbEntity
  8
0
 62
     0
440
 16777216
370
    -2
100
AcDbLine
 10
-12064.57872464779
 20
-2023.116812917679
 30
0.0
 11
-12064.57872464779
 21
-1889.208832022823
 31
0.0
  0
LINE
  5
11FDA
330
F019
100
AcDbEntity
  8
0
 62
     0
440
 16777216
370
    -2
100
AcDbLine
 10
-11889.57872464779
 20
-2049.712406255325
 30
0.0
 11
-11889.57872464779
 21
-1889.208832022823
 31
0.0
  0
LINE
  5
11FDB
330
F019
100
AcDbEntity
  8
0
 62
     0
440
 16777216
370
    -2
100
AcDbLine
 10
-11995.57872464779
 20
-1912.208832022823
 30
0.0
 11
-11958.57872464779
 21
-1912.208832022823
 31
0.0
  0
SOLID
  5
11FDC
330
F019
100
AcDbEntity
  8
0
 62
     0
440
 16777216
100
AcDbTrace
 10
-11995.57872464779
 20
-1900.708832022823
 30
0.0
 11
-11995.57872464779
 21
-1923.708832022823
 31
0.0
 12
-12064.57872464779
 22
-1912.208832022823
 32
0.0
 13
-12064.57872464779
 23
-1912.208832022823
 33
0.0
  0
SOLID
  5
11FDD
330
F019
100
AcDbEntity
  8
0
 62
     0
440
 16777216
100
AcDbTrace
 10
-11958.57872464779
 20
-1900.708832022823
 30
0.0
 11
-11958.57872464779
 21
-1923.708832022823
 31
0.0
 12
-11889.57872464779
 22
-1912.208832022823
 32
0.0
 13
-11889.57872464779
 23
-1912.208832022823
 33
0.0
  0
MTEXT
  5
11FDE
330
F019
100
AcDbEntity
  8
0
 62
     0
440
 16777216
100
AcDbMText
 10
-11977.07872464779
 20
-1868.763497760985
 30
0.0
 40
57.5
 41
0.0
 46
0.0
 71
     5
 72
     1
  1
\A1;175{\H43.125;±20}
  7
voestalpine light
 73
     1
 44
1.0
  0
POINT
  5
11FDF
330
F019
100
AcDbEntity
  8
DEFPOINTS
 62
     0
440
 16777216
100
AcDbPoint
 10
-12064.57872464779
 20
-2046.116812917679
 30
0.0
  0
POINT
  5
11FE0
330
F019
100
AcDbEntity
  8
DEFPOINTS
 62
     0
440
 16777216
100
AcDbPoint
 10
-11889.57872464779
 20
-2072.712406255325
 30
0.0
  0
POINT
  5
11FE1
330
F019
100
AcDbEntity
  8
DEFPOINTS
 62
     0
440
 16777216
100
AcDbPoint
 10
-11889.57872464779
 20
-1912.208832022823
 30
0.0
  0
ENDBLK
  5
F01B
330
F019
100
AcDbEntity
  8
0
100
AcDbBlockEnd
  0
BLOCK
  5
F098
330
F097
100
AcDbEntity
  8
0
100
AcDbBlockBegin
  2
*D12
 70
     1
 10
0.0
 20
0.0
 30
0.0
  3
*D12
  1

  0
LINE
  5
12006
330
F097
100
AcDbEntity
  8
0
 62
     0
440
 16777216
370
    -2
100
AcDbLine
 10
-12012.57872464779
 20
-1994.712406255322
 30
0.0
 11
-12290.01779193402
 21
-1994.712406255322
 31
0.0
  0
LINE
  5
12007
330
F097
100
AcDbEntity
  8
0
 62
     0
440
 16777216
370
    -2
100
AcDbLine
 10
-12012.5787246478
 20
-2744.712406255323
 30
0.0
 11
-12290.01779193402
 21
-2744.712406255323
 31
0.0
  0
LINE
  5
12008
330
F097
100
AcDbEntity
  8
0
 62
     0
440
 16777216
370
    -2
100
AcDbLine
 10
-12267.01779193402
 20
-2063.712406255323
 30
0.0
 11
-12267.01779193402
 21
-2675.712406255323
 31
0.0
  0
SOLID
  5
12009
330
F097
100
AcDbEntity
  8
0
 62
     0
440
 16777216
100
AcDbTrace
 10
-12278.51779193402
 20
-2063.712406255323
 30
0.0
 11
-12255.51779193402
 21
-2063.712406255323
 31
0.0
 12
-12267.01779193402
 22
-1994.712406255322
 32
0.0
 13
-12267.01779193402
 23
-1994.712406255322
 33
0.0
  0
SOLID
  5
1200A
330
F097
100
AcDbEntity
  8
0
 62
     0
440
 16777216
100
AcDbTrace
 10
-12278.51779193402
 20
-2675.712406255323
 30
0.0
 11
-12255.51779193402
 21
-2675.712406255323
 31
0.0
 12
-12267.01779193402
 22
-2744.712406255323
 32
0.0
 13
-12267.01779193402
 23
-2744.712406255323
 33
0.0
  0
MTEXT
  5
1200B
330
F097
100
AcDbEntity
  8
0
 62
     0
440
 16777216
100
AcDbMText
 10
-12310.46312619586
 20
-2369.712406255322
 30
0.0
 40
57.5
 41
0.0
 46
0.0
 71
     5
 72
     1
  1
\A1;750{\H43.125;±40}
  7
voestalpine light
 11
0.0000000000000001
 21
1.0
 31
0.0
 73
     1
 44
1.0
  0
POINT
  5
1200C
330
F097
100
AcDbEntity
  8
DEFPOINTS
 62
     0
440
 16777216
100
AcDbPoint
 10
-11989.57872464779
 20
-1994.712406255322
 30
0.0
  0
POINT
  5
1200D
330
F097
100
AcDbEntity
  8
DEFPOINTS
 62
     0
440
 16777216
100
AcDbPoint
 10
-11989.5787246478
 20
-2744.712406255323
 30
0.0
  0
POINT
  5
1200E
330
F097
100
AcDbEntity
  8
DEFPOINTS
 62
     0
440
 16777216
100
AcDbPoint
 10
-12267.01779193402
 20
-2744.712406255323
 30
0.0
  0
ENDBLK
  5
F099
330
F097
100
AcDbEntity
  8
0
100
AcDbBlockEnd
  0
BLOCK
  5
10C6F
330
10C6E
100
AcDbEntity
  8
0
100
AcDbBlockBegin
  2
_ACMFILLED30
 70
     0
 10
0.0
 20
0.0
 30
0.0
  3
_ACMFILLED30
  1

  0
ENDBLK
  5
10C70
330
10C6E
100
AcDbEntity
  8
0
100
AcDbBlockEnd
  0
BLOCK
  5
10EDD
330
10EDC
100
AcDbEntity
  8
0
100
AcDbBlockBegin
  2
*U14
 70
     1
 10
0.0
 20
0.0
 30
0.0
  3
*U14
  1

  0
ENDBLK
  5
10EDE
330
10EDC
100
AcDbEntity
  8
0
100
AcDbBlockEnd
  0
BLOCK
  5
11BC5
330
11BC4
100
AcDbEntity
  8
0
100
AcDbBlockBegin
  2
*D26
 70
     1
 10
0.0
 20
0.0
 30
0.0
  3
*D26
  1

  0
LINE
  5
12DC5
330
11BC4
100
AcDbEntity
  8
KOTIERUNG
 62
     0
440
 16777216
370
    -2
100
AcDbLine
 10
-14114.60594263488
 20
-4145.311380897734
 30
0.0
 11
-14114.60594263488
 21
-3691.96617385806
 31
0.0
  0
LINE
  5
12DC6
330
11BC4
100
AcDbEntity
  8
KOTIERUNG
 62
     0
440
 16777216
370
    -2
100
AcDbLine
 10
-10314.60594263488
 20
-4145.311380897734
 30
0.0
 11
-10314.60594263488
 21
-3691.96617385806
 31
0.0
  0
LINE
  5
12DC7
330
11BC4
100
AcDbEntity
  8
KOTIERUNG
 62
     0
440
 16777216
370
    -2
100
AcDbLine
 10
-13974.60594263488
 20
-3761.96617385806
 30
0.0
 11
-10454.60594263488
 21
-3761.96617385806
 31
0.0
  0
SOLID
  5
12DC8
330
11BC4
100
AcDbEntity
  8
KOTIERUNG
 62
     0
440
 16777216
100
AcDbTrace
 10
-13974.60594263488
 20
-3738.632840524726
 30
0.0
 11
-13974.60594263488
 21
-3785.299507191393
 31
0.0
 12
-14114.60594263488
 22
-3761.96617385806
 32
0.0
 13
-14114.60594263488
 23
-3761.96617385806
 33
0.0
  0
SOLID
  5
12DC9
330
11BC4
100
AcDbEntity
  8
KOTIERUNG
 62
     0
440
 16777216
100
AcDbTrace
 10
-10454.60594263488
 20
-3738.632840524726
 30
0.0
 11
-10454.60594263488
 21
-3785.299507191393
 31
0.0
 12
-10314.60594263488
 22
-3761.96617385806
 32
0.0
 13
-10314.60594263488
 23
-3761.96617385806
 33
0.0
  0
MTEXT
  5
12DCA
330
11BC4
100
AcDbEntity
  8
KOTIERUNG
 62
     0
440
 16777216
100
AcDbMText
 10
-12214.60594263488
 20
-3656.186229568367
 30
0.0
 40
140.0
 41
0.0
 46
0.0
 71
     5
 72
     1
  1
\A1;3800{\H105;±9}
  7
voestalpine light
 73
     1
 44
1.0
  0
POINT
  5
12DCB
330
11BC4
100
AcDbEntity
  8
DEFPOINTS
 62
     0
440
 16777216
100
AcDbPoint
 10
-14114.60594263488
 20
-4180.311380897734
 30
0.0
  0
POINT
  5
12DCC
330
11BC4
100
AcDbEntity
  8
DEFPOINTS
 62
     0
440
 16777216
100
AcDbPoint
 10
-10314.60594263488
 20
-4180.311380897734
 30
0.0
  0
POINT
  5
12DCD
330
11BC4
100
AcDbEntity
  8
DEFPOINTS
 62
     0
440
 16777216
100
AcDbPoint
 10
-10314.60594263488
 20
-3761.96617385806
 30
0.0
  0
ENDBLK
  5
11BC6
330
11BC4
100
AcDbEntity
  8
0
100
AcDbBlockEnd
  0
BLOCK
  5
11BE6
330
11BE5
100
AcDbEntity
  8
0
100
AcDbBlockBegin
  2
*D27
 70
     1
 10
0.0
 20
0.0
 30
0.0
  3
*D27
  1

  0
LINE
  5
12DCE
330
11BE5
100
AcDbEntity
  8
KOTIERUNG
 62
     0
440
 16777216
370
    -2
100
AcDbLine
 10
-14114.60594263488
 20
-4145.311380897734
 30
0.0
 11
-14114.60594263488
 21
-3960.124502551304
 31
0.0
  0
LINE
  5
12DCF
330
11BE5
100
AcDbEntity
  8
KOTIERUNG
 62
     0
440
 16777216
370
    -2
100
AcDbLine
 10
-12847.60594263488
 20
-4145.311380897734
 30
0.0
 11
-12847.60594263488
 21
-3960.124502551304
 31
0.0
  0
LINE
  5
12DD0
330
11BE5
100
AcDbEntity
  8
KOTIERUNG
 62
     0
440
 16777216
370
    -2
100
AcDbLine
 10
-13974.60594263488
 20
-4030.124502551303
 30
0.0
 11
-12987.60594263488
 21
-4030.124502551303
 31
0.0
  0
SOLID
  5
12DD1
330
11BE5
100
AcDbEntity
  8
KOTIERUNG
 62
     0
440
 16777216
100
AcDbTrace
 10
-13974.60594263488
 20
-4006.79116921797
 30
0.0
 11
-13974.60594263488
 21
-4053.457835884636
 31
0.0
 12
-14114.60594263488
 22
-4030.124502551303
 32
0.0
 13
-14114.60594263488
 23
-4030.124502551303
 33
0.0
  0
SOLID
  5
12DD2
330
11BE5
100
AcDbEntity
  8
KOTIERUNG
 62
     0
440
 16777216
100
AcDbTrace
 10
-12987.60594263488
 20
-4006.79116921797
 30
0.0
 11
-12987.60594263488
 21
-4053.457835884636
 31
0.0
 12
-12847.60594263488
 22
-4030.124502551303
 32
0.0
 13
-12847.60594263488
 23
-4030.124502551303
 33
0.0
  0
MTEXT
  5
12DD3
330
11BE5
100
AcDbEntity
  8
KOTIERUNG
 62
     0
440
 16777216
100
AcDbMText
 10
-13481.10594263488
 20
-3924.344558261611
 30
0.0
 40
140.0
 41
0.0
 46
0.0
 71
     5
 72
     1
  1
\A1;1267{\H105;±20}
  7
voestalpine light
 73
     1
 44
1.0
  0
POINT
  5
12DD4
330
11BE5
100
AcDbEntity
  8
DEFPOINTS
 62
     0
440
 16777216
100
AcDbPoint
 10
-14114.60594263488
 20
-4180.311380897734
 30
0.0
  0
POINT
  5
12DD5
330
11BE5
100
AcDbEntity
  8
DEFPOINTS
 62
     0
440
 16777216
100
AcDbPoint
 10
-12847.60594263488
 20
-4180.311380897734
 30
0.0
  0
POINT
  5
12DD6
330
11BE5
100
AcDbEntity
  8
DEFPOINTS
 62
     0
440
 16777216
100
AcDbPoint
 10
-12847.60594263488
 20
-4030.124502551303
 30
0.0
  0
ENDBLK
  5
11BE7
330
11BE5
100
AcDbEntity
  8
0
100
AcDbBlockEnd
  0
BLOCK
  5
11BF3
330
11BF2
100
AcDbEntity
  8
0
100
AcDbBlockBegin
  2
*D28
 70
     1
 10
0.0
 20
0.0
 30
0.0
  3
*D28
  1

  0
LINE
  5
12DD7
330
11BF2
100
AcDbEntity
  8
KOTIERUNG
 62
     0
440
 16777216
370
    -2
100
AcDbLine
 10
-12847.60594263488
 20
-4145.311380897734
 30
0.0
 11
-12847.60594263488
 21
-3960.124502551304
 31
0.0
  0
LINE
  5
12DD8
330
11BF2
100
AcDbEntity
  8
KOTIERUNG
 62
     0
440
 16777216
370
    -2
100
AcDbLine
 10
-11581.60594263488
 20
-4145.311380897734
 30
0.0
 11
-11581.60594263488
 21
-3960.124502551304
 31
0.0
  0
LINE
  5
12DD9
330
11BF2
100
AcDbEntity
  8
KOTIERUNG
 62
     0
440
 16777216
370
    -2
100
AcDbLine
 10
-12707.60594263488
 20
-4030.124502551303
 30
0.0
 11
-11721.60594263488
 21
-4030.124502551303
 31
0.0
  0
SOLID
  5
12DDA
330
11BF2
100
AcDbEntity
  8
KOTIERUNG
 62
     0
440
 16777216
100
AcDbTrace
 10
-12707.60594263488
 20
-4006.79116921797
 30
0.0
 11
-12707.60594263488
 21
-4053.457835884636
 31
0.0
 12
-12847.60594263488
 22
-4030.124502551303
 32
0.0
 13
-12847.60594263488
 23
-4030.124502551303
 33
0.0
  0
SOLID
  5
12DDB
330
11BF2
100
AcDbEntity
  8
KOTIERUNG
 62
     0
440
 16777216
100
AcDbTrace
 10
-11721.60594263488
 20
-4006.79116921797
 30
0.0
 11
-11721.60594263488
 21
-4053.457835884636
 31
0.0
 12
-11581.60594263488
 22
-4030.124502551303
 32
0.0
 13
-11581.60594263488
 23
-4030.124502551303
 33
0.0
  0
MTEXT
  5
12DDC
330
11BF2
100
AcDbEntity
  8
KOTIERUNG
 62
     0
440
 16777216
100
AcDbMText
 10
-12214.60594263488
 20
-3924.344558261611
 30
0.0
 40
140.0
 41
0.0
 46
0.0
 71
     5
 72
     1
  1
\A1;1266{\H105;±20}
  7
voestalpine light
 73
     1
 44
1.0
  0
POINT
  5
12DDD
330
11BF2
100
AcDbEntity
  8
DEFPOINTS
 62
     0
440
 16777216
100
AcDbPoint
 10
-12847.60594263488
 20
-4180.311380897734
 30
0.0
  0
POINT
  5
12DDE
330
11BF2
100
AcDbEntity
  8
DEFPOINTS
 62
     0
440
 16777216
100
AcDbPoint
 10
-11581.60594263488
 20
-4180.311380897734
 30
0.0
  0
POINT
  5
12DDF
330
11BF2
100
AcDbEntity
  8
DEFPOINTS
 62
     0
440
 16777216
100
AcDbPoint
 10
-11581.60594263488
 20
-4030.124502551303
 30
0.0
  0
ENDBLK
  5
11BF4
330
11BF2
100
AcDbEntity
  8
0
100
AcDbBlockEnd
  0
BLOCK
  5
11C00
330
11BFF
100
AcDbEntity
  8
0
100
AcDbBlockBegin
  2
*D29
 70
     1
 10
0.0
 20
0.0
 30
0.0
  3
*D29
  1

  0
LINE
  5
12DE0
330
11BFF
100
AcDbEntity
  8
KOTIERUNG
 62
     0
440
 16777216
370
    -2
100
AcDbLine
 10
-11581.60594263488
 20
-4145.311380897734
 30
0.0
 11
-11581.60594263488
 21
-3960.124502551304
 31
0.0
  0
LINE
  5
12DE1
330
11BFF
100
AcDbEntity
  8
KOTIERUNG
 62
     0
440
 16777216
370
    -2
100
AcDbLine
 10
-10314.60594263488
 20
-4145.311380897734
 30
0.0
 11
-10314.60594263488
 21
-3960.124502551304
 31
0.0
  0
LINE
  5
12DE2
330
11BFF
100
AcDbEntity
  8
KOTIERUNG
 62
     0
440
 16777216
370
    -2
100
AcDbLine
 10
-11441.60594263488
 20
-4030.124502551303
 30
0.0
 11
-10454.60594263488
 21
-4030.124502551303
 31
0.0
  0
SOLID
  5
12DE3
330
11BFF
100
AcDbEntity
  8
KOTIERUNG
 62
     0
440
 16777216
100
AcDbTrace
 10
-11441.60594263488
 20
-4006.79116921797
 30
0.0
 11
-11441.60594263488
 21
-4053.457835884636
 31
0.0
 12
-11581.60594263488
 22
-4030.124502551303
 32
0.0
 13
-11581.60594263488
 23
-4030.124502551303
 33
0.0
  0
SOLID
  5
12DE4
330
11BFF
100
AcDbEntity
  8
KOTIERUNG
 62
     0
440
 16777216
100
AcDbTrace
 10
-10454.60594263488
 20
-4006.79116921797
 30
0.0
 11
-10454.60594263488
 21
-4053.457835884636
 31
0.0
 12
-10314.60594263488
 22
-4030.124502551303
 32
0.0
 13
-10314.60594263488
 23
-4030.124502551303
 33
0.0
  0
MTEXT
  5
12DE5
330
11BFF
100
AcDbEntity
  8
KOTIERUNG
 62
     0
440
 16777216
100
AcDbMText
 10
-10948.10594263488
 20
-3924.344558261611
 30
0.0
 40
140.0
 41
0.0
 46
0.0
 71
     5
 72
     1
  1
\A1;1267{\H105;±20}
  7
voestalpine light
 73
     1
 44
1.0
  0
POINT
  5
12DE6
330
11BFF
100
AcDbEntity
  8
DEFPOINTS
 62
     0
440
 16777216
100
AcDbPoint
 10
-11581.60594263488
 20
-4180.311380897734
 30
0.0
  0
POINT
  5
12DE7
330
11BFF
100
AcDbEntity
  8
DEFPOINTS
 62
     0
440
 16777216
100
AcDbPoint
 10
-10314.60594263488
 20
-4180.311380897734
 30
0.0
  0
POINT
  5
12DE8
330
11BFF
100
AcDbEntity
  8
DEFPOINTS
 62
     0
440
 16777216
100
AcDbPoint
 10
-10314.60594263488
 20
-4030.124502551303
 30
0.0
  0
ENDBLK
  5
11C01
330
11BFF
100
AcDbEntity
  8
0
100
AcDbBlockEnd
  0
ENDSEC
  0
SECTION
  2
ENTITIES
  0
MTEXT
  5
10E0
330
18
100
AcDbEntity
  8
KOTIERUNG
100
AcDbMText
 10
7495.698312492914
 20
470.9395909145314
 30
0.0
 40
25.0
 41
0.0
 46
0.0
 71
     4
 72
     1
  1
\A1;
  7
VOEST
 73
     1
 44
1.0
  0
DIMENSION
  5
EFA0
330
18
100
AcDbEntity
  8
0
100
AcDbDimension
280
     0
  2
*D11
 10
-11889.57872464779
 20
-1912.208832022823
 30
0.0
 11
-11977.07872464779
 21
-1912.208832022823
 31
0.0
 70
   160
 71
     5
 42
175.0
 73
     0
 74
     0
 75
     0
  3
ISO-25
100
AcDbAlignedDimension
 13
-12064.57872464779
 23
-2046.116812917679
 33
0.0
 14
-11889.57872464779
 24
-2072.712406255325
 34
0.0
100
AcDbRotatedDimension
1001
ACAD
1000
DSTYLE
1002
{
1070
   340
1005
10FC1
1070
    40
1040
23.0
1070
    41
1040
3.0
1070
    42
1040
1.0
1070
    44
1040
1.0
1070
    47
1040
20.0
1070
    48
1040
20.0
1070
    71
1070
     1
1070
   146
1040
0.75
1070
   271
1070
     0
1070
   283
1070
     1
1002
}
  0
DIMENSION
  5
EFA2
330
18
100
AcDbEntity
  8
0
100
AcDbDimension
280
     0
  2
*D12
 10
-12267.01779193402
 20
-2744.712406255323
 30
0.0
 11
-12267.01779193402
 21
-2369.712406255322
 31
0.0
 70
   160
 71
     5
 42
750.0000000000004
 73
     0
 74
     0
 75
     0
  3
ISO-25
100
AcDbAlignedDimension
 13
-11989.57872464779
 23
-1994.712406255322
 33
0.0
 14
-11989.5787246478
 24
-2744.712406255322
 34
0.0
 50
90.0
100
AcDbRotatedDimension
1001
ACAD
1000
DSTYLE
1002
{
1070
   340
1005
10FC1
1070
    40
1040
23.0
1070
    41
1040
3.0
1070
    42
1040
1.0
1070
    44
1040
1.0
1070
    47
1040
40.0
1070
    48
1040
40.0
1070
    71
1070
     1
1070
   146
1040
0.75
1070
   271
1070
     0
1070
   283
1070
     1
1002
}
  0
HATCH
  5
F3C4
330
18
100
AcDbEntity
  8
18
100
AcDbHatch
 10
0.0
 20
0.0
 30
0.0
210
0.0
220
0.0
230
1.0
  2
GRAVEL
 70
     0
 71
     0
 91
        5
 92
        7
 72
     0
 73
     1
 93
        4
 10
-11995.57856486861
 20
-2744.712406255326
 10
-12003.57856486861
 20
-2744.712406255326
 10
-12003.57855964699
 20
-2805.855406678131
 10
-11995.57855964699
 20
-2805.855406678131
 97
        0
 92
        7
 72
     0
 73
     1
 93
        4
 10
-11897.5785648686
 20
-2744.712406255322
 10
-11995.57856486861
 20
-2744.712406255322
 10
-11995.57855964699
 20
-2805.855406678131
 10
-11897.57855964698
 20
-2805.855406678135
 97
        0
 92
        7
 72
     0
 73
     1
 93
        4
 10
-11889.57856486861
 20
-2744.712406255322
 10
-11897.5785648686
 20
-2744.712406255322
 10
-11897.57855964698
 20
-2805.855406678131
 10
-11889.57855964699
 20
-2805.855406678131
 97
        0
 92
        1
 93
        4
 72
     1
 10
-11812.06472577852
 20
-2805.855406678131
 11
-11812.06472577852
 21
-2744.71240625532
 72
     1
 10
-11812.06472577852
 20
-2744.712406255322
 11
-11889.57856486861
 21
-2744.712406255322
 72
     1
 10
-11889.57856486861
 20
-2744.712406255322
 11
-11889.57855964698
 21
-2805.855406678133
 72
     1
 10
-11889.57855964699
 20
-2805.855406678131
 11
-11812.06472577852
 21
-2805.855406678131
 97
        0
 92
        1
 93
        4
 72
     1
 10
-12467.92649873911
 20
-2744.712406255323
 11
-12467.92649873911
 21
-2805.855406678131
 72
     1
 10
-12467.92649873911
 20
-2805.855406678131
 11
-12003.57855964699
 21
-2805.855406678131
 72
     1
 10
-12003.57855964699
 20
-2805.855406678131
 11
-12003.57856486861
 21
-2744.712406255322
 72
     1
 10
-12003.57856486861
 20
-2744.712406255322
 11
-12467.92649873911
 21
-2744.712406255323
 97
        0
 75
     0
 76
     1
 52
0.0
 41
100.0
 77
     0
 78
    41
 53
228.012787504
 43
-10083.31735001115
 44
2330.279375685775
 45
-800.0000000000062
 46
-900.0000000000003
 79
     2
 49
13.4536
 49
-1331.90880470737
 53
184.969740728
 43
-10092.31735001115
 44
2320.279375685775
 45
1199.999999999997
 46
100.0000000000035
 79
     2
 49
23.0868
 49
-2285.592476122999
 53
132.510447078
 43
-10115.31735001115
 44
2318.279375685775
 45
1000.000000000011
 46
-1099.999999999986
 79
     2
 49
16.2788
 49
-1611.60325960997
 53
267.273689006
 43
-10154.31735001115
 44
2293.279375685775
 45
100.0000000000024
 46
2000.000000000002
 79
     2
 49
21.02379999999996
 49
-2081.355804162895
 53
292.833654178
 43
-10155.31735001115
 44
2272.279375685775
 45
-499.9999999999988
 46
1200.000000000003
 79
     2
 49
20.61549999999996
 49
-2040.937312808827
 53
357.273689006
 43
-10147.31735001115
 44
2253.279375685775
 45
-2000.000000000002
 46
100.0000000000025
 79
     2
 49
21.02379999999996
 49
-2081.355804162895
 53
37.6942404667
 43
-10126.31735001115
 44
2252.279375685775
 45
-1300.0
 46
-999.9999999999973
 79
     2
 49
27.8029
 49
-2752.4848548916
 53
72.2553283749
 43
-10104.31735001115
 44
2269.279375685775
 45
700.0000000000027
 46
2200.000000000001
 79
     2
 49
26.24879999999996
 49
-2598.632149681334
 53
121.429565615
 43
-10096.31735001115
 44
2294.279375685775
 45
-800.0000000000019
 46
1299.999999999999
 79
     2
 49
21.095
 49
-2088.4073109729
 53
175.236358309
 43
-10107.31735001115
 44
2312.279375685775
 45
1099.999999999998
 46
-100.0000000000038
 79
     2
 49
24.0832
 49
-1180.07625787923
 53
222.397437798
 43
-10131.31735001115
 44
2314.279375685775
 45
-1199.999999999996
 46
-1099.999999999997
 79
     2
 49
31.1448
 49
-3083.33750047949
 53
138.814074834
 43
-10055.31735001115
 44
2292.279375685775
 45
-700.0000000000032
 46
600.0
 79
     2
 49
10.63009999999998
 49
-1052.384481273467
 53
171.46923439
 43
-10063.31735001115
 44
2299.279375685775
 45
1300.0
 46
-199.9999999999995
 79
     2
 49
20.2237
 49
-2002.1511416157
 53
225.0
 43
-10083.31735001115
 44
2302.279375685775
 45
-0.0000000000000111
 46
-99.9999999999933
 79
     2
 49
14.1421
 49
-127.27925623731
 53
203.198590514
 43
-10090.31735001115
 44
2314.279375685775
 45
499.9999999999989
 46
199.9999999999975
 79
     2
 49
7.6158
 49
-753.96151058639
 53
291.801409486
 43
-10097.31735001115
 44
2311.279375685775
 45
-99.99999999996839
 46
300.0000000000103
 79
     2
 49
10.7703
 49
-527.74618071345
 53
30.96375653209999
 43
-10093.31735001115
 44
2301.279375685775
 45
300.0000000000053
 46
199.9999999999979
 79
     2
 49
17.49289999999999
 49
-565.6022894845298
 53
161.565051177
 43
-10078.31735001115
 44
2310.279375685775
 45
200.0000000000011
 46
-99.99999999999767
 79
     2
 49
12.64909999999998
 49
-303.5786660168393
 53
16.389540334
 43
-10155.31735001115
 44
2311.279375685775
 45
999.9999999999966
 46
300.0000000000044
 79
     2
 49
17.72
 49
-1754.28451466694
 53
70.3461759419
 43
-10138.31735001115
 44
2316.279375685775
 45
-400.000000000122
 46
-1100.000000000339
 79
     2
 49
14.8661
 49
-1471.7407747319
 53
293.198590514
 43
-10078.31735001115
 44
2330.279375685775
 45
-199.999999999997
 46
499.9999999999991
 79
     2
 49
15.2315
 49
-746.34581058639
 53
343.610459666
 43
-10072.31735001115
 44
2316.279375685775
 45
-999.9999999999966
 46
300.0000000000044
 79
     2
 49
17.71999999999995
 49
-1754.284514666897
 53
339.44395478
 43
-10155.31735001115
 44
2249.279375685775
 45
-500.0000000000036
 46
200.0000000000024
 79
     2
 49
17.08799999999996
 49
-837.3123745317487
 53
294.775140569
 43
-10139.31735001114
 44
2243.279375685775
 45
-500.0000000000005
 46
1100.0
 79
     2
 49
14.3178
 49
-1417.4643063276
 53
66.8014094864
 43
-10077.31735001115
 44
2230.279375685775
 45
199.9999999999981
 46
499.9999999999969
 79
     2
 49
15.2315
 49
-746.34581058639
 53
17.3540246363
 43
-10071.31735001115
 44
2244.279375685775
 45
-1299.999999999998
 46
-399.9999999999963
 79
     2
 49
16.7631
 49
-1659.542361424
 53
69.4439547804
 43
-10126.31735001115
 44
2230.279375685775
 45
-200.0000000000007
 46
-499.9999999999954
 79
     2
 49
8.543999999999979
 49
-845.8563745317487
 53
101.3099324739999
 43
-10083.31735001115
 44
2230.279375685775
 45
-99.99999999999637
 46
400.0000000000012
 79
     2
 49
5.099
 49
-504.8029513592799
 53
165.963756532
 43
-10084.31735001115
 44
2235.279375685775
 45
299.9999999999959
 46
-100.0000000000001
 79
     2
 49
20.6155
 49
-391.6950625617701
 53
186.009005957
 43
-10104.31735001115
 44
2240.279375685775
 45
1000.000000000004
 46
99.99999999999831
 79
     2
 49
19.105
 49
-1891.39231745428
 53
303.690067526
 43
-10093.31735001115
 44
2292.279375685775
 45
-99.99999999999872
 46
199.9999999999985
 79
     2
 49
14.42219999999998
 49
-346.1329275463993
 53
353.157226587
 43
-10085.31735001115
 44
2280.279375685775
 45
1700.000000000001
 46
-200.0000000000053
 79
     2
 49
25.1794
 49
-2492.75626240283
 53
60.9453959009
 43
-10060.31735001114
 44
2277.279375685775
 45
-399.9999999999976
 46
-699.9999999999977
 79
     2
 49
10.2956
 49
-1019.2674140987
 53
90.0
 43
-10055.31735001115
 44
2286.279375685775
 45
-100.0
 46
100.0
 79
     2
 49
6.0
 49
-94.0
 53
120.256437164
 43
-10106.31735001115
 44
2243.279375685775
 45
400.0000000000008
 46
-700.0000000000007
 79
     2
 49
13.8924
 49
-1375.35199894498
 53
48.01278750419999
 43
-10113.31735001115
 44
2255.279375685775
 45
800.0
 46
899.9999999999975
 79
     2
 49
26.9072
 49
-1318.45520470737
 53
0.0
 43
-10095.31735001115
 44
2275.279375685775
 45
100.0
 46
100.0
 79
     2
 49
26.0
 49
-74.0
 53
325.304846469
 43
-10069.31735001115
 44
2275.279375685775
 45
1000.000000000014
 46
-699.9999999999825
 79
     2
 49
15.81139999999998
 49
-1565.327430084197
 53
254.0546040990001
 43
-10056.31735001115
 44
2266.279375685775
 45
-100.0000000000037
 46
-400.0000000000004
 79
     2
 49
14.5602
 49
-713.45078892805
 53
207.645975364
 43
-10060.31735001114
 44
2252.279375685775
 45
-1899.999999999995
 46
-1000.000000000005
 79
     2
 49
23.7065
 49
-2346.94741822594
 53
175.42607874
 43
-10081.31735001114
 44
2241.279375685775
 45
-1299.999999999995
 46
100.0000000000001
 79
     2
 49
25.0799
 49
-2482.90734079689
 47
0.9528008570846957
 98
        5
 10
-12398.89659944876
 20
-2772.742760113949
 10
-11999.5536248393
 20
-2776.597758104485
 10
-11970.96148922645
 20
-2774.691975108041
 10
-11892.80931505085
 20
-2773.739410166206
 10
-11829.90644828569
 20
-2772.786518667983
  0
LINE
  5
F3C5
330
18
100
AcDbEntity
  8
50
100
AcDbLine
 10
-11812.06472577852
 20
-2744.712406255322
 30
0.0
 11
-12467.92649873911
 21
-2744.712406255321
 31
0.0
  0
LINE
  5
11A98
330
18
100
AcDbEntity
  8
25
100
AcDbLine
 10
-14378.11002718927
 20
-4361.045344826186
 30
0.0
 11
-10080.95141649093
 21
-4361.045344826187
 31
0.0
  0
LINE
  5
11A99
330
18
100
AcDbEntity
  8
25
100
AcDbLine
 10
-14384.26538366976
 20
-4286.045344826184
 30
0.0
 11
-10087.10677297143
 21
-4286.045344826187
 31
0.0
  0
LINE
  5
11A9A
330
18
100
AcDbEntity
  8
25
100
AcDbLine
 10
-10474.60594263488
 20
-4286.045344826181
 30
0.0
 11
-10474.60594263485
 21
-4361.045344826181
 31
0.0
  0
LINE
  5
11A9B
330
18
100
AcDbEntity
  8
18
  6
STRICHLINIE
 48
0.06
100
AcDbLine
 10
-13954.60594263488
 20
-4286.045344826181
 30
0.0
 11
-13954.60594263491
 21
-4361.045344826181
 31
0.0
  0
LINE
  5
11A9C
330
18
100
AcDbEntity
  8
18
  6
STRICHLINIE
 48
0.06
100
AcDbLine
 10
-10154.60594263488
 20
-4286.045344826181
 30
0.0
 11
-10154.60594263488
 21
-4361.045344826181
 31
0.0
  0
LINE
  5
11A9D
330
18
100
AcDbEntity
  8
25
100
AcDbLine
 10
-14274.60594263485
 20
-4286.045344826181
 30
0.0
 11
-14274.60594263485
 21
-4361.045344826181
 31
0.0
  0
LWPOLYLINE
  5
11AAA
330
18
100
AcDbEntity
  8
25
100
AcDbPolyline
 90
       11
 70
     0
 43
0.0
 10
-14144.60594263488
 20
-4261.045344826182
 10
-14144.60594263488
 20
-4276.045344826181
 42
0.4142135623730951
 10
-14134.60594263488
 20
-4286.045344826181
 10
-14094.60594263488
 20
-4286.045344826181
 42
0.4142135623730951
 10
-14084.60594263488
 20
-4276.045344826181
 10
-14084.60594263488
 20
-4196.045344826181
 42
0.4142135623730959
 10
-14094.60594263488
 20
-4186.045344826181
 10
-14134.60594263488
 20
-4186.045344826181
 42
0.4142135623730951
 10
-14144.60594263488
 20
-4196.045344826181
 10
-14144.60594263488
 20
-4211.045344826181
 10
-14140.60594263488
 20
-4211.045344826181
  0
LWPOLYLINE
  5
11AAB
330
18
100
AcDbEntity
  8
25
100
AcDbPolyline
 90
       10
 70
     0
 43
0.0
 10
-14140.60594263488
 20
-4211.045344826181
 10
-14140.60594263488
 20
-4196.045344826181
 42
-0.4142135623730951
 10
-14134.60594263488
 20
-4190.045344826181
 10
-14094.60594263488
 20
-4190.045344826181
 42
-0.4142135623730959
 10
-14088.60594263488
 20
-4196.045344826181
 10
-14088.60594263488
 20
-4276.045344826181
 42
-0.4142135623730951
 10
-14094.60594263488
 20
-4282.045344826181
 10
-14134.60594263488
 20
-4282.045344826181
 42
-0.4142135623730951
 10
-14140.60594263488
 20
-4276.045344826181
 10
-14140.60594263488
 20
-4261.045344826182
  0
LWPOLYLINE
  5
11AAC
330
18
100
AcDbEntity
  8
25
100
AcDbPolyline
 90
        2
 70
     0
 43
0.0
 10
-14140.60594263488
 20
-4261.045344826182
 10
-14144.60594263488
 20
-4261.045344826182
  0
LWPOLYLINE
  5
11AB6
330
18
100
AcDbEntity
  8
25
100
AcDbPolyline
 90
       11
 70
     0
 43
0.0
 10
-12877.60594263488
 20
-4261.045344826182
 10
-12877.60594263488
 20
-4276.045344826181
 42
0.4142135623730951
 10
-12867.60594263488
 20
-4286.045344826181
 10
-12827.60594263488
 20
-4286.045344826181
 42
0.4142135623730951
 10
-12817.60594263488
 20
-4276.045344826181
 10
-12817.60594263488
 20
-4196.045344826181
 42
0.4142135623730959
 10
-12827.60594263488
 20
-4186.045344826181
 10
-12867.60594263488
 20
-4186.045344826181
 42
0.4142135623730951
 10
-12877.60594263488
 20
-4196.045344826181
 10
-12877.60594263488
 20
-4211.045344826181
 10
-12873.60594263488
 20
-4211.045344826181
  0
LWPOLYLINE
  5
11AB7
330
18
100
AcDbEntity
  8
25
100
AcDbPolyline
 90
       10
 70
     0
 43
0.0
 10
-12873.60594263488
 20
-4211.045344826181
 10
-12873.60594263488
 20
-4196.045344826181
 42
-0.4142135623730951
 10
-12867.60594263488
 20
-4190.045344826181
 10
-12827.60594263488
 20
-4190.045344826181
 42
-0.4142135623730959
 10
-12821.60594263488
 20
-4196.045344826181
 10
-12821.60594263488
 20
-4276.045344826181
 42
-0.4142135623730951
 10
-12827.60594263488
 20
-4282.045344826181
 10
-12867.60594263488
 20
-4282.045344826181
 42
-0.4142135623730951
 10
-12873.60594263488
 20
-4276.045344826181
 10
-12873.60594263488
 20
-4261.045344826182
  0
LWPOLYLINE
  5
11AB8
330
18
100
AcDbEntity
  8
25
100
AcDbPolyline
 90
        2
 70
     0
 43
0.0
 10
-12873.60594263488
 20
-4261.045344826182
 10
-12877.60594263488
 20
-4261.045344826182
  0
LWPOLYLINE
  5
11AC2
330
18
100
AcDbEntity
  8
25
100
AcDbPolyline
 90
       11
 70
     0
 43
0.0
 10
-11611.60594263488
 20
-4261.045344826182
 10
-11611.60594263488
 20
-4276.045344826181
 42
0.4142135623730951
 10
-11601.60594263488
 20
-4286.045344826181
 10
-11561.60594263488
 20
-4286.045344826181
 42
0.4142135623730951
 10
-11551.60594263488
 20
-4276.045344826181
 10
-11551.60594263488
 20
-4196.045344826181
 42
0.4142135623730959
 10
-11561.60594263488
 20
-4186.045344826181
 10
-11601.60594263488
 20
-4186.045344826181
 42
0.4142135623730951
 10
-11611.60594263488
 20
-4196.045344826181
 10
-11611.60594263488
 20
-4211.045344826181
 10
-11607.60594263488
 20
-4211.045344826181
  0
LWPOLYLINE
  5
11AC3
330
18
100
AcDbEntity
  8
25
100
AcDbPolyline
 90
       10
 70
     0
 43
0.0
 10
-11607.60594263488
 20
-4211.045344826181
 10
-11607.60594263488
 20
-4196.045344826181
 42
-0.4142135623730951
 10
-11601.60594263488
 20
-4190.045344826181
 10
-11561.60594263488
 20
-4190.045344826181
 42
-0.4142135623730959
 10
-11555.60594263488
 20
-4196.045344826181
 10
-11555.60594263488
 20
-4276.045344826181
 42
-0.4142135623730951
 10
-11561.60594263488
 20
-4282.045344826181
 10
-11601.60594263488
 20
-4282.045344826181
 42
-0.4142135623730951
 10
-11607.60594263488
 20
-4276.045344826181
 10
-11607.60594263488
 20
-4261.045344826182
  0
LWPOLYLINE
  5
11AC4
330
18
100
AcDbEntity
  8
25
100
AcDbPolyline
 90
        2
 70
     0
 43
0.0
 10
-11607.60594263488
 20
-4261.045344826182
 10
-11611.60594263488
 20
-4261.045344826182
  0
LINE
  5
11AE9
330
18
100
AcDbEntity
  8
25
100
AcDbLine
 10
-11989.57872464779
 20
-2159.712406255322
 30
0.0
 11
-11989.57872464779
 21
-2189.497952404263
 31
0.0
  0
LINE
  5
11AEA
330
18
100
AcDbEntity
  8
25
100
AcDbLine
 10
-11992.37872464778
 20
-2159.712406255322
 30
0.0
 11
-11992.37872464778
 21
-2189.497952404263
 31
0.0
  0
LINE
  5
11AEB
330
18
100
AcDbEntity
  8
25
100
AcDbLine
 10
-12064.57872464779
 20
-2248.049162269365
 30
0.0
 11
-12064.57872464779
 21
-2273.307999592961
 31
0.0
  0
LINE
  5
11AEC
330
18
100
AcDbEntity
  8
25
100
AcDbLine
 10
-12061.77872464777
 20
-2248.049162269365
 30
0.0
 11
-12061.77872464777
 21
-2273.307999592961
 31
0.0
  0
LINE
  5
11AED
330
18
100
AcDbEntity
  8
25
100
AcDbLine
 10
-12055.91255237061
 20
-2288.007688248685
 30
0.0
 11
-11989.57872464779
 21
-2324.712406255322
 31
0.0
  0
LINE
  5
11AEE
330
18
100
AcDbEntity
  8
25
100
AcDbLine
 10
-12054.55691441682
 20
-2285.557740139399
 30
0.0
 11
-11988.22308669397
 21
-2322.262458146032
 31
0.0
  0
LINE
  5
11AEF
330
18
100
AcDbEntity
  8
25
100
AcDbLine
 10
-11989.57872464779
 20
-2324.712406255322
 30
0.0
 11
-11988.22308669397
 21
-2322.262458146032
 31
0.0
  0
ARC
  5
11AF0
330
18
100
AcDbEntity
  8
25
100
AcDbCircle
 10
-12047.77872464777
 20
-2273.307999592961
 30
0.0
 40
14.0
100
AcDbArc
 50
180.0
 51
241.042782401277
  0
ARC
  5
11AF1
330
18
100
AcDbEntity
  8
25
100
AcDbCircle
 10
-12047.77872464777
 20
-2273.307999592961
 30
0.0
 40
16.8
100
AcDbArc
 50
180.0
 51
241.042782401277
  0
LINE
  5
11AF2
330
18
100
AcDbEntity
  8
25
100
AcDbLine
 10
-11989.57872464779
 20
-2168.712406255322
 30
0.0
 11
-11992.37872464778
 21
-2168.712406255322
 31
0.0
  0
LINE
  5
11AF4
330
18
100
AcDbEntity
  8
25
100
AcDbLine
 10
-11999.52731800828
 20
-2201.70689286035
 30
0.0
 11
-12056.00041261517
 21
-2233.398433722056
 31
0.0
  0
LINE
  5
11AF5
330
18
100
AcDbEntity
  8
25
100
AcDbLine
 10
-11998.15703668038
 20
-2204.148680951568
 30
0.0
 11
-12054.63013128727
 21
-2235.840221813274
 31
0.0
  0
ARC
  5
11AF6
330
18
100
AcDbEntity
  8
25
100
AcDbCircle
 10
-12047.77872464777
 20
-2248.049162269365
 30
0.0
 40
16.8
100
AcDbArc
 50
119.3002455088299
 51
180.0
  0
ARC
  5
11AF7
330
18
100
AcDbEntity
  8
25
100
AcDbCircle
 10
-12006.37872464778
 20
-2189.497952404263
 30
0.0
 40
16.8
100
AcDbArc
 50
299.3002455088301
 51
0.0
  0
ARC
  5
11AF8
330
18
100
AcDbEntity
  8
25
100
AcDbCircle
 10
-12047.77872464777
 20
-2248.049162269365
 30
0.0
 40
14.0
100
AcDbArc
 50
119.3002455088299
 51
180.0
  0
ARC
  5
11AF9
330
18
100
AcDbEntity
  8
25
100
AcDbCircle
 10
-12006.37872464778
 20
-2189.497952404263
 30
0.0
 40
14.0
100
AcDbArc
 50
299.3002455088301
 51
0.0
  0
LINE
  5
11AFA
330
18
100
AcDbEntity
  8
25
100
AcDbLine
 10
-11998.15703668038
 20
-2115.276131559071
 30
0.0
 11
-12054.63013128727
 21
-2083.584590697365
 31
0.0
  0
LINE
  5
11AFB
330
18
100
AcDbEntity
  8
25
100
AcDbLine
 10
-11999.52731800828
 20
-2117.71791965029
 30
0.0
 11
-12056.00041261517
 21
-2086.02637878858
 31
0.0
  0
ARC
  5
11AFC
330
18
100
AcDbEntity
  8
25
100
AcDbCircle
 10
-12047.77872464777
 20
-2046.116812917679
 30
0.0
 40
16.8
100
AcDbArc
 50
118.9572175987229
 51
180.0
  0
ARC
  5
11AFD
330
18
100
AcDbEntity
  8
25
100
AcDbCircle
 10
-12047.77872464777
 20
-2046.116812917679
 30
0.0
 40
14.0
100
AcDbArc
 50
118.9572175987229
 51
180.0
  0
LINE
  5
11AFE
330
18
100
AcDbEntity
  8
25
100
AcDbLine
 10
-12055.91255237061
 20
-2031.417124261955
 30
0.0
 11
-11989.57872464779
 21
-1994.712406255322
 31
0.0
  0
LINE
  5
11AFF
330
18
100
AcDbEntity
  8
25
100
AcDbLine
 10
-12054.55691441682
 20
-2033.867072371244
 30
0.0
 11
-11988.22308669397
 21
-1997.162354364608
 31
0.0
  0
LINE
  5
11B00
330
18
100
AcDbEntity
  8
25
100
AcDbLine
 10
-11989.57872464779
 20
-1994.712406255322
 30
0.0
 11
-11988.22308669397
 21
-1997.162354364608
 31
0.0
  0
LINE
  5
11B03
330
18
100
AcDbEntity
  8
25
100
AcDbLine
 10
-12061.77872464777
 20
-2071.375650241275
 30
0.0
 11
-12061.77872464777
 21
-2046.116812917679
 31
0.0
  0
LINE
  5
11B04
330
18
100
AcDbEntity
  8
25
100
AcDbLine
 10
-12064.57872464779
 20
-2071.375650241275
 30
0.0
 11
-12064.57872464779
 21
-2046.116812917679
 31
0.0
  0
ARC
  5
11B05
330
18
100
AcDbEntity
  8
25
100
AcDbCircle
 10
-12047.77872464777
 20
-2071.375650241275
 30
0.0
 40
14.0
100
AcDbArc
 50
180.0
 51
240.6997544911699
  0
ARC
  5
11B06
330
18
100
AcDbEntity
  8
25
100
AcDbCircle
 10
-12047.77872464777
 20
-2071.375650241275
 30
0.0
 40
16.8
100
AcDbArc
 50
180.0
 51
240.6997544911699
  0
ARC
  5
11B07
330
18
100
AcDbEntity
  8
25
100
AcDbCircle
 10
-12006.37872464778
 20
-2129.926860106376
 30
0.0
 40
14.0
100
AcDbArc
 50
0.0
 51
60.69975449117009
  0
ARC
  5
11B08
330
18
100
AcDbEntity
  8
25
100
AcDbCircle
 10
-12006.37872464778
 20
-2129.926860106376
 30
0.0
 40
16.8
100
AcDbArc
 50
0.0
 51
60.69975449117009
  0
LINE
  5
11B09
330
18
100
AcDbEntity
  8
25
100
AcDbLine
 10
-11989.57872464779
 20
-2150.712406255322
 30
0.0
 11
-11992.37872464778
 21
-2150.712406255322
 31
0.0
  0
LINE
  5
11B0A
330
18
100
AcDbEntity
  8
25
100
AcDbLine
 10
-11989.57872464779
 20
-2159.712406255318
 30
0.0
 11
-11989.57872464779
 21
-2129.926860106376
 31
0.0
  0
LINE
  5
11B0B
330
18
100
AcDbEntity
  8
25
100
AcDbLine
 10
-11992.37872464778
 20
-2159.712406255322
 30
0.0
 11
-11992.37872464778
 21
-2129.926860106376
 31
0.0
  0
LINE
  5
11B0E
330
18
100
AcDbEntity
  8
25
100
AcDbLine
 10
-11989.57872464779
 20
-2072.712406255325
 30
0.0
 11
-11989.57872464781
 21
-2744.712406255322
 31
0.0
  0
LINE
  5
11B11
330
18
100
AcDbEntity
  8
25
100
AcDbLine
 10
-11889.57872464779
 20
-2744.712406255322
 30
0.0
 11
-11889.57872464779
 21
-2072.712406255325
 31
0.0
  0
LINE
  5
11B12
330
18
100
AcDbEntity
  8
25
100
AcDbLine
 10
-11889.57872464779
 20
-2072.712406255325
 30
0.0
 11
-11989.57872464779
 21
-2072.712406255325
 31
0.0
  0
ARC
  5
11B1B
330
18
100
AcDbEntity
  8
25
100
AcDbCircle
 10
-11939.57872464779
 20
-2118.712406255325
 30
0.0
 40
6.0
100
AcDbArc
 50
180.0
 51
0.0
  0
ARC
  5
11B1C
330
18
100
AcDbEntity
  8
25
100
AcDbCircle
 10
-11939.57872464779
 20
-2100.712406255325
 30
0.0
 40
6.0
100
AcDbArc
 50
0.0
 51
180.0
  0
LINE
  5
11B1D
330
18
100
AcDbEntity
  8
25
100
AcDbLine
 10
-11933.57872464779
 20
-2100.712406255325
 30
0.0
 11
-11933.57872464779
 21
-2118.712406255325
 31
0.0
  0
LINE
  5
11B1E
330
18
100
AcDbEntity
  8
25
100
AcDbLine
 10
-11945.57872464779
 20
-2100.712406255325
 30
0.0
 11
-11945.57872464779
 21
-2118.712406255325
 31
0.0
  0
ARC
  5
11B1F
330
18
100
AcDbEntity
  8
25
100
AcDbCircle
 10
-11939.57872464779
 20
-2178.712406255325
 30
0.0
 40
9.0
100
AcDbArc
 50
180.0
 51
0.0
  0
ARC
  5
11B20
330
18
100
AcDbEntity
  8
25
100
AcDbCircle
 10
-11939.57872464779
 20
-2160.712406255326
 30
0.0
 40
9.0
100
AcDbArc
 50
0.0
 51
180.0
  0
LINE
  5
11B21
330
18
100
AcDbEntity
  8
25
100
AcDbLine
 10
-11930.57872464779
 20
-2160.712406255326
 30
0.0
 11
-11930.57872464779
 21
-2178.712406255325
 31
0.0
  0
LINE
  5
11B22
330
18
100
AcDbEntity
  8
25
100
AcDbLine
 10
-11948.57872464779
 20
-2160.712406255326
 30
0.0
 11
-11948.57872464779
 21
-2178.712406255325
 31
0.0
  0
LWPOLYLINE
  5
11B2D
330
18
100
AcDbEntity
  8
25
100
AcDbPolyline
 90
        5
 70
     1
 43
0.0
 10
-11929.57872464779
 20
-2269.712406255325
 10
-11939.57872464779
 20
-2259.712406255325
 10
-11949.57872464779
 20
-2269.712406255325
 10
-11949.57872464779
 20
-2279.712406255325
 10
-11929.57872464779
 20
-2279.712406255325
  0
ARC
  5
11B2F
330
18
100
AcDbEntity
  8
25
100
AcDbCircle
 10
-11939.57872464779
 20
-2371.712406255325
 30
0.0
 40
6.0
100
AcDbArc
 50
180.0
 51
0.0
  0
ARC
  5
11B30
330
18
100
AcDbEntity
  8
25
100
AcDbCircle
 10
-11939.57872464779
 20
-2353.712406255326
 30
0.0
 40
6.0
100
AcDbArc
 50
0.0
 51
180.0
  0
LINE
  5
11B31
330
18
100
AcDbEntity
  8
25
100
AcDbLine
 10
-11933.57872464779
 20
-2353.712406255326
 30
0.0
 11
-11933.57872464779
 21
-2371.712406255325
 31
0.0
  0
LINE
  5
11B32
330
18
100
AcDbEntity
  8
25
100
AcDbLine
 10
-11945.57872464779
 20
-2353.712406255326
 30
0.0
 11
-11945.57872464779
 21
-2371.712406255325
 31
0.0
  0
LWPOLYLINE
  5
11B39
330
18
100
AcDbEntity
  8
25
100
AcDbPolyline
 90
        4
 70
     1
 43
0.0
 10
-11997.37872464781
 20
-2175.712406255322
 10
-11992.37872464781
 20
-2175.712406255322
 10
-11992.37872464781
 20
-2135.712406255322
 10
-11997.37872464781
 20
-2135.712406255322
  0
DIMENSION
  5
11B44
330
18
100
AcDbEntity
  8
KOTIERUNG
100
AcDbDimension
280
     0
  2
*D26
 10
-10314.60594263488
 20
-3761.96617385806
 30
0.0
 11
-12214.60594263488
 21
-3656.186229568367
 31
0.0
 70
    32
 71
     5
 42
3800.0
 73
     0
 74
     0
 75
     0
  3
ISO-25
100
AcDbAlignedDimension
 13
-14114.60594263488
 23
-4180.311380897734
 33
0.0
 14
-10314.60594263488
 24
-4180.311380897734
 34
0.0
100
AcDbRotatedDimension
1001
ACAD_DSTYLE_DIMTALN
1070
   392
1070
     0
1001
ACAD
1000
DSTYLE
1002
{
1070
   340
1005
10FC1
1070
    40
1040
56.0
1070
    47
1040
9.0
1070
    48
1040
9.0
1070
    71
1070
     1
1070
   146
1040
0.75
1070
   271
1070
     0
1070
   283
1070
     1
1002
}
  0
DIMENSION
  5
11B49
330
18
100
AcDbEntity
  8
KOTIERUNG
100
AcDbDimension
280
     0
  2
*D27
 10
-12847.60594263488
 20
-4030.124502551303
 30
0.0
 11
-13481.10594263488
 21
-3924.344558261611
 31
0.0
 70
    32
 71
     5
 42
1267.0
 73
     0
 74
     0
 75
     0
  3
ISO-25
100
AcDbAlignedDimension
 13
-14114.60594263488
 23
-4180.311380897734
 33
0.0
 14
-12847.60594263488
 24
-4180.311380897734
 34
0.0
100
AcDbRotatedDimension
1001
ACAD_DSTYLE_DIMTALN
1070
   392
1070
     0
1001
ACAD
1000
DSTYLE
1002
{
1070
   340
1005
10FC1
1070
    40
1040
56.0
1070
    47
1040
20.0
1070
    48
1040
20.0
1070
    71
1070
     1
1070
   146
1040
0.75
1070
   271
1070
     0
1070
   283
1070
     1
1002
}
  0
DIMENSION
  5
11B4C
330
18
100
AcDbEntity
  8
KOTIERUNG
100
AcDbDimension
280
     0
  2
*D28
 10
-11581.60594263488
 20
-4030.124502551303
 30
0.0
 11
-12214.60594263488
 21
-3924.344558261611
 31
0.0
 70
    32
 71
     5
 42
1266.0
 73
     0
 74
     0
 75
     0
  3
ISO-25
100
AcDbAlignedDimension
 13
-12847.60594263488
 23
-4180.311380897734
 33
0.0
 14
-11581.60594263488
 24
-4180.311380897734
 34
0.0
100
AcDbRotatedDimension
1001
ACAD_DSTYLE_DIMTALN
1070
   392
1070
     0
1001
ACAD
1000
DSTYLE
1002
{
1070
   340
1005
10FC1
1070
    40
1040
56.0
1070
    47
1040
20.0
1070
    48
1040
20.0
1070
    71
1070
     1
1070
   146
1040
0.75
1070
   271
1070
     0
1070
   283
1070
     1
1002
}
  0
DIMENSION
  5
11B4F
330
18
100
AcDbEntity
  8
KOTIERUNG
100
AcDbDimension
280
     0
  2
*D29
 10
-10314.60594263488
 20
-4030.124502551303
 30
0.0
 11
-10948.10594263488
 21
-3924.344558261611
 31
0.0
 70
    32
 71
     5
 42
1267.0
 73
     0
 74
     0
 75
     0
  3
ISO-25
100
AcDbAlignedDimension
 13
-11581.60594263488
 23
-4180.311380897734
 33
0.0
 14
-10314.60594263488
 24
-4180.311380897734
 34
0.0
100
AcDbRotatedDimension
1001
ACAD_DSTYLE_DIMTALN
1070
   392
1070
     0
1001
ACAD
1000
DSTYLE
1002
{
1070
   340
1005
10FC1
1070
    40
1040
56.0
1070
    47
1040
20.0
1070
    48
1040
20.0
1070
    71
1070
     1
1070
   146
1040
0.75
1070
   271
1070
     0
1070
   283
1070
     1
1002
}
  0
LWPOLYLINE
  5
11D27
330
18
100
AcDbEntity
  8
25
100
AcDbPolyline
 90
       11
 70
     0
 43
0.0
 10
-10344.60594263488
 20
-4261.045344826182
 10
-10344.60594263488
 20
-4276.045344826181
 42
0.4142135623730951
 10
-10334.60594263488
 20
-4286.045344826181
 10
-10294.60594263488
 20
-4286.045344826181
 42
0.4142135623730951
 10
-10284.60594263488
 20
-4276.045344826181
 10
-10284.60594263488
 20
-4196.045344826181
 42
0.4142135623730959
 10
-10294.60594263488
 20
-4186.045344826181
 10
-10334.60594263488
 20
-4186.045344826181
 42
0.4142135623730951
 10
-10344.60594263488
 20
-4196.045344826181
 10
-10344.60594263488
 20
-4211.045344826181
 10
-10340.60594263488
 20
-4211.045344826181
  0
LWPOLYLINE
  5
11D28
330
18
100
AcDbEntity
  8
25
100
AcDbPolyline
 90
       10
 70
     0
 43
0.0
 10
-10340.60594263488
 20
-4211.045344826181
 10
-10340.60594263488
 20
-4196.045344826181
 42
-0.4142135623730951
 10
-10334.60594263488
 20
-4190.045344826181
 10
-10294.60594263488
 20
-4190.045344826181
 42
-0.4142135623730959
 10
-10288.60594263488
 20
-4196.045344826181
 10
-10288.60594263488
 20
-4276.045344826181
 42
-0.4142135623730951
 10
-10294.60594263488
 20
-4282.045344826181
 10
-10334.60594263488
 20
-4282.045344826181
 42
-0.4142135623730951
 10
-10340.60594263488
 20
-4276.045344826181
 10
-10340.60594263488
 20
-4261.045344826182
  0
LWPOLYLINE
  5
11D29
330
18
100
AcDbEntity
  8
25
100
AcDbPolyline
 90
        2
 70
     0
 43
0.0
 10
-10340.60594263488
 20
-4261.045344826182
 10
-10344.60594263488
 20
-4261.045344826182
  0
LINE
  5
11D2A
330
18
100
AcDbEntity
  8
25
100
AcDbLine
 10
-14384.26538366976
 20
-4286.045344826184
 30
0.0
 11
-14396.74348424467
 21
-4304.478586100755
 31
0.0
  0
LINE
  5
11D2B
330
18
100
AcDbEntity
  8
25
100
AcDbLine
 10
-14396.74348424467
 20
-4304.478586100755
 30
0.0
 11
-14382.48278224157
 21
-4331.532697419246
 31
0.0
  0
LINE
  5
11D2C
330
18
100
AcDbEntity
  8
25
100
AcDbLine
 10
-14382.48278224157
 20
-4331.532697419246
 30
0.0
 11
-14394.51520510381
 21
-4341.777363839227
 31
0.0
  0
LINE
  5
11D2D
330
18
100
AcDbEntity
  8
25
100
AcDbLine
 10
-14394.51520510381
 20
-4341.777363839227
 30
0.0
 11
-14378.11002718927
 21
-4361.045344826186
 31
0.0
  0
LINE
  5
11D2E
330
18
100
AcDbEntity
  8
25
100
AcDbLine
 10
-10087.10677297143
 20
-4286.045344826187
 30
0.0
 11
-10099.58487354634
 21
-4304.478586100757
 31
0.0
  0
LINE
  5
11D2F
330
18
100
AcDbEntity
  8
25
100
AcDbLine
 10
-10099.58487354634
 20
-4304.478586100757
 30
0.0
 11
-10085.32417154324
 21
-4331.532697419247
 31
0.0
  0
LINE
  5
11D30
330
18
100
AcDbEntity
  8
25
100
AcDbLine
 10
-10085.32417154324
 20
-4331.532697419247
 30
0.0
 11
-10097.35659440548
 21
-4341.777363839229
 31
0.0
  0
LINE
  5
11D31
330
18
100
AcDbEntity
  8
25
100
AcDbLine
 10
-10097.35659440548
 20
-4341.777363839229
 30
0.0
 11
-10080.95141649093
 21
-4361.045344826187
 31
0.0
  0
VIEWPORT
  5
12D53
102
{ACAD_XDICTIONARY
360
12D54
102
}
330
12D4C
100
AcDbEntity
 67
     1
  8
0
100
AcDbViewport
 10
143.4359283447265
 20
99.95958089828491
 30
0.0
 40
596.2367371293501
 41
222.1517806396485
 68
     1
 69
     1
 12
143.4359283447265
 22
99.95958089828491
 13
0.0
 23
0.0
 14
10.0
 24
10.0
 15
10.0
 25
10.0
 16
0.0
 26
0.0
 36
1.0
 17
0.0
 27
0.0
 37
0.0
 42
50.0
 43
0.0
 44
0.0
 45
222.1517806396485
 50
0.0
 51
0.0
 72
   100
 90
   819232
  1

281
     0
 71
     1
 74
     0
110
0.0
120
0.0
130
0.0
111
1.0
121
0.0
131
0.0
112
0.0
122
1.0
132
0.0
 79
     0
146
0.0
170
     0
 61
     5
348
274B
292
     1
282
     1
141
0.0
142
0.0
 63
   250
421
  3355443
  0
ENDSEC
  0
SECTION
  2
OBJECTS
  0
DICTIONARY
  5
C
330
0
100
AcDbDictionary
281
     1
  3
ACAD_BACKGROUND
350
124CA
  3
ACAD_CIP_PREVIOUS_PRODUCT_INFO
350
F559
  3
ACAD_COLOR
350
1A50
  3
ACAD_DETAILVIEWSTYLE
350
F54A
  3
ACAD_FIELDLIST
350
10C6B
  3
ACAD_GROUP
350
D
  3
ACAD_IMAGE_DICT
350
1B27
  3
ACAD_IMAGE_VARS
350
1B28
  3
ACAD_LAYOUT
350
1710
  3
ACAD_MATERIAL
350
1A4F
  3
ACAD_MLEADERSTYLE
350
2C6F
  3
ACAD_MLINESTYLE
350
1B
  3
ACAD_PLOTSETTINGS
350
1711
  3
ACAD_PLOTSTYLENAME
350
170E
  3
ACAD_RENDER_ACTIVE_RAPIDRT_SETTINGS
350
12489
  3
ACAD_RENDER_GLOBAL
350
124BD
  3
ACAD_RENDER_RAPIDRT_SETTINGS
350
12482
  3
ACAD_SCALELIST
350
2C4D
  3
ACAD_SECTIONVIEWSTYLE
350
F548
  3
ACAD_TABLESTYLE
350
1F21
  3
ACAD_VISUALSTYLE
350
2745
  3
ACDB_RECOMPOSE_DATA
350
12E08
  3
ACDBVARIABLEDICTIONARY
350
1109
  3
ACGREF_MASTER
350
10ECA
  3
ACGREFACAD_MASTER
350
10ECD
  3
AcmDictionary
350
CA80
  3
ACME_COMMAND_HISTORY
350
10EC5
  3
ACME_SCOPE_NAME
350
10EC4
  3
ACMESTATEMGR
350
10EC8
  3
AcmeSysVarManager
350
10EC6
  3
AcmSystemVariableManager
350
10ED2
  3
AMG
350
CA67
  3
AMGSNAPSETTINGS
350
CB3E
  3
AMI_MASTER
350
10ED0
  3
AUTOCAD_ASSEMBLIES_PROJECT
350
10EDB
  3
CONTENTDICTIONARY
350
23
  3
Designer_Assemblies_SysVars
350
10ED5
  3
StructToggleButtonState
350
10F2D
  0
DICTIONARY
  5
29E5
330
8
100
AcDbDictionary
280
     1
281
     1
  0
DICTIONARY
  5
124E0
330
26FD
100
AcDbDictionary
280
     1
281
     1
  3
AcDbVariableDictionary
360
124E1
  3
ADSK_XREC_BACKGROUND_INFO
360
124E4
  3
ADSK_XREC_PHOTOGRAPHIC_TONE_OPERATOR_INFO
360
124E6
  3
ADSK_XREC_TONE_OPERATOR_INFO
360
124E5
  0
DICTIONARY
  5
1F30
330
2
100
AcDbDictionary
280
     1
281
     1
  3
ACAD_LAYERFILTERS
360
2704
  3
ACAD_LAYERSTATES
360
1F31
  3
ACLYDICTIONARY
360
2703
  0
DICTIONARY
  5
2D06
330
E
100
AcDbDictionary
280
     1
281
     1
  3
ADSK_XREC_LAYER_RECONCILED
360
2D07
  0
DICTIONARY
  5
2D0A
330
12F
100
AcDbDictionary
280
     1
281
     1
  3
ADSK_XREC_LAYER_RECONCILED
360
2D0B
  0
DICTIONARY
  5
2D0E
330
224
100
AcDbDictionary
280
     1
281
     1
  3
ADSK_XREC_LAYER_RECONCILED
360
2D0F
  0
DICTIONARY
  5
2D10
330
226
100
AcDbDictionary
280
     1
281
     1
  3
ADSK_XREC_LAYER_RECONCILED
360
2D11
  0
DICTIONARY
  5
2D12
330
425
100
AcDbDictionary
280
     1
281
     1
  3
ADSK_XREC_LAYER_RECONCILED
360
2D13
  0
DICTIONARY
  5
6305
330
18
100
AcDbDictionary
280
     1
281
     1
  3
ACAD_SORTENTS
360
6306
  0
DICTIONARY
  5
12D54
330
12D53
100
AcDbDictionary
280
     1
281
     1
  3
ASDK_XREC_ANNOTATION_SCALE_INFO
360
12D55
  0
DICTIONARY
  5
124CA
102
{ACAD_REACTORS
330
C
102
}
330
C
100
AcDbDictionary
281
     1
  3
124CB
350
124CB
  3
124E3
350
124E3
  3
124F9
350
124F9
  3
126B9
350
126B9
  3
1270B
350
1270B
  3
12D22
350
12D22
  3
12D4B
350
12D4B
  3
12E00
350
12E00
  0
XRECORD
  5
F559
102
{ACAD_REACTORS
330
C
102
}
330
C
100
AcDbXrecord
280
     1
300
AMECH_PP
300
2017
300
86627AMECH_PP_2017_0F
  0
DICTIONARY
  5
1A50
102
{ACAD_REACTORS
330
C
102
}
330
C
100
AcDbDictionary
281
     1
  0
DICTIONARY
  5
F54A
102
{ACAD_REACTORS
330
C
102
}
330
C
100
AcDbDictionary
281
     1
  3
DIN 6
350
10F04
  3
Imperial24
350
F54B
  3
Metric50
350
F664
  0
FIELDLIST
  5
10C6B
102
{ACAD_REACTORS
330
C
102
}
330
C
100
AcDbIdSet
 90
        6
330
10F07
330
10F08
330
10F09
330
10F0D
330
10F0E
330
10F0F
100
AcDbFieldList
  0
DICTIONARY
  5
D
102
{ACAD_REACTORS
330
C
102
}
330
C
100
AcDbDictionary
281
     1
  0
DICTIONARY
  5
1B27
102
{ACAD_REACTORS
330
C
102
}
330
C
100
AcDbDictionary
281
     1
  3
D114 KB1 RH1S Damm explosion_3D
350
1BBA
  3
D114 KB1 RH1S Damm_3D
350
1BB7
  3
KB 1 RH1 D Damm explosion_3D
350
124D6
  3
KB 1 RH1D Damm_3D
350
12491
  3
KB1 RH1C Damm
350
BDDC
  3
KB1 RH1C Damm explosion
350
C5D4
  3
KB1RH1CDamm
350
EF77
  0
RASTERVARIABLES
  5
1B28
102
{ACAD_REACTORS
330
C
102
}
330
C
100
AcDbRasterVariables
 90
        0
 70
     1
 71
     1
 72
     0
  0
DICTIONARY
  5
1710
102
{ACAD_REACTORS
330
C
102
}
330
C
100
AcDbDictionary
281
     1
  3
Layout1
350
12D4D
  3
Model
350
1712
  0
DICTIONARY
  5
1A4F
102
{ACAD_REACTORS
330
C
102
}
330
C
100
AcDbDictionary
281
     1
  3
ByBlock
350
2743
  3
ByLayer
350
2742
  3
Global
350
2744
  0
DICTIONARY
  5
2C6F
102
{ACAD_REACTORS
330
C
102
}
330
C
100
AcDbDictionary
281
     1
  3
Standard
350
2C70
  0
DICTIONARY
  5
1B
102
{ACAD_REACTORS
330
C
102
}
330
C
100
AcDbDictionary
281
     1
  3
STANDARD
350
1C
  0
DICTIONARY
  5
1711
102
{ACAD_REACTORS
330
C
102
}
330
C
100
AcDbDictionary
281
     1
  0
ACDBDICTIONARYWDFLT
  5
170E
102
{ACAD_REACTORS
330
C
102
}
330
C
100
AcDbDictionary
281
     1
  3
Normal
350
170F
100
AcDbDictionaryWithDefault
340
170F
  0
RAPIDRTRENDERSETTINGS
  5
12489
102
{ACAD_REACTORS
330
C
102
}
330
C
100
AcDbRenderSettings
 90
        2
  1
Mittel
290
     1
290
     0
290
     1
290
     1
  1

  1
Wendet 5 Render-Ebenen an
 90
        0
100
AcDbRapidRTRenderSettings
 90
        3
 70
     0
 90
        5
 90
        1
 70
     1
 70
     2
 40
3.0
 40
3.0
290
     1
  0
RENDERGLOBAL
  5
124BD
102
{ACAD_XDICTIONARY
360
124BE
102
}
102
{ACAD_REACTORS
330
C
102
}
330
C
100
AcDbRenderGlobal
 90
        2
 90
        0
 90
        0
290
     0
  1

 90
      800
 90
      600
290
     1
290
     1
  0
DICTIONARY
  5
12482
102
{ACAD_REACTORS
330
C
102
}
330
C
100
AcDbDictionary
281
     1
  3
Hoch
350
12485
  3
Mittagsqualität
350
12487
  3
Mittel
350
12484
  3
Morgenqualität
350
12486
  3
Nachtqualität
350
12488
  3
Niedrig
350
12483
  0
DICTIONARY
  5
2C4D
102
{ACAD_REACTORS
330
C
102
}
330
C
100
AcDbDictionary
281
     1
  3
A0
350
2C4E
  3
A1
350
2C4F
  3
A2
350
2C50
  3
A3
350
2C51
  3
A4
350
2C52
  3
A5
350
2C53
  3
A6
350
2C54
  3
A7
350
2C55
  3
A8
350
2C56
  3
A9
350
2C57
  3
B0
350
2C58
  3
B1
350
2C59
  3
B2
350
2C5A
  3
B3
350
2C5B
  3
B4
350
2C5C
  3
B5
350
2C5D
  3
B6
350
2C5E
  3
B7
350
2C5F
  3
B8
350
2C60
  3
B9
350
2C61
  3
C0
350
2C62
  3
C1
350
2C63
  3
C2
350
2C64
  3
C3
350
2C65
  3
C4
350
2C66
  3
C5
350
2C67
  3
C6
350
2C68
  3
C7
350
2C69
  3
C8
350
2C6A
  3
C9
350
2C6B
  3
D0
350
2C6C
  3
D1
350
2C6D
  3
D2
350
2C6E
  0
DICTIONARY
  5
F548
102
{ACAD_REACTORS
330
C
102
}
330
C
100
AcDbDictionary
281
     1
  3
DIN ISO 128-40_2002-05
350
10F0A
  3
Imperial24
350
F549
  3
Metric50
350
F663
  0
DICTIONARY
  5
1F21
102
{ACAD_REACTORS
330
C
102
}
330
C
100
AcDbDictionary
281
     1
  3
Standard
350
1F22
  0
DICTIONARY
  5
2745
102
{ACAD_REACTORS
330
C
102
}
330
C
100
AcDbDictionary
281
     1
  3
2dWireframe
350
274B
  3
3D Hidden
350
274D
  3
3dWireframe
350
274C
  3
Basic
350
274A
  3
Brighten
350
2751
  3
ColorChange
350
2755
  3
Conceptual
350
274E
  3
Dim
350
2750
  3
EdgeColorOff
350
CA21
  3
Facepattern
350
2754
  3
Flat
350
2746
  3
FlatWithEdges
350
2747
  3
Gouraud
350
2748
  3
GouraudWithEdges
350
2749
  3
Hidden
350
CA19
  3
JitterOff
350
CA1F
  3
Linepattern
350
2753
  3
OverhangOff
350
CA20
  3
Realistic
350
274F
  3
Shaded
350
CA1E
  3
Shaded with edges
350
CA1D
  3
Shades of Gray
350
CA1A
  3
Sketchy
350
CA1B
  3
Thicken
350
2752
  3
Wireframe
350
CA18
  3
X-Ray
350
CA1C
  0
XRECORD
  5
12E08
102
{ACAD_REACTORS
330
C
102
}
330
C
100
AcDbXrecord
280
     1
 90
        1
330
1F22
330
F549
330
F54B
330
F663
330
F664
330
10F04
330
10F0A
  0
DICTIONARY
  5
1109
102
{ACAD_REACTORS
330
C
102
}
330
C
100
AcDbDictionary
281
     1
  3
CANNOSCALE
350
2E5F
  3
CMLEADERSTYLE
350
2E5E
  3
CTABLESTYLE
350
1F54
  3
CVIEWDETAILSTYLE
350
F660
  3
CVIEWSECTIONSTYLE
350
F661
  3
LAYEREVAL
350
AFDD
  3
LAYERNOTIFY
350
AFDE
  3
LIGHTINGUNITS
350
AFDC
  3
MSLTSCALE
350
AFDB
  3
SORTENTS
350
110A
  0
ACAD_PROXY_OBJECT
  5
10ECA
102
{ACAD_REACTORS
330
C
102
}
330
C
100
AcDbProxyObject
 90
      499
 91
      527
 95
 11993117
 70
     0
162
                 0
161
                34
310
0C000042CC
 94
        0
  0
ACAD_PROXY_OBJECT
  5
10ECD
102
{ACAD_REACTORS
330
C
102
}
330
C
100
AcDbProxyObject
 90
      499
 91
      537
 95
 11993117
 70
     0
162
                 0
161
               114
310
04000041C08000000000000000000C
 94
        0
  0
DICTIONARY
  5
CA80
102
{ACAD_REACTORS
330
C
102
}
330
C
100
AcDbDictionary
281
     1
  3
AcmBOMDATA
350
10EE4
  3
AcmStdDictionary
350
CA89
  0
ACAD_PROXY_OBJECT
  5
10EC5
102
{ACAD_REACTORS
330
C
102
}
330
C
100
AcDbProxyObject
 90
      499
 91
      522
 95
 11993117
 70
     0
162
              1356
311
4115401380110013C010455004E0044004F004393001040164013C01540150017C010C013C013801500148013C0130010450004C004F0054004150C0130013C014C011401324D005300470020002D0020005000500041003A002000200020006400650073006B0074006F0070002E006100720078002000460069006C00650
311
0560065007200730069006F006E003A002000310039002E0030002E003200300036002E0030002E003000C
161
                76
310
4140601806018050101C
 94
        0
  0
ACAD_PROXY_OBJECT
  5
10EC4
102
{ACAD_REACTORS
330
C
102
}
330
C
100
AcDbProxyObject
 90
      499
 91
      521
 95
 11993117
 70
     0
162
                 0
161
               258
310
1000004F0080000000000000000010C442000000000000000000000000AAAAAA8C
360
10EC7
360
10ED3
360
10ED6
360
10ED7
360
10ED8
360
10ED9
360
10EDA
360
10EDF
360
10EE0
360
10EE1
360
10EE2
360
10EE3
 94
        0
  0
ACAD_PROXY_OBJECT
  5
10EC8
102
{ACAD_REACTORS
330
C
102
}
330
C
100
AcDbProxyObject
 90
      499
 91
      525
 95
 11993117
 70
     0
162
                 0
161
                50
310
1000004424128C
 94
        0
  0
ACAD_PROXY_OBJECT
  5
10EC6
102
{ACAD_REACTORS
330
C
102
}
330
C
100
AcDbProxyObject
 90
      499
 91
      523
 95
 11993117
 70
     0
162
                 0
161
                32
310
9014220000
330
10EC7
 94
        0
  0
ACAD_PROXY_OBJECT
  5
10ED2
102
{ACAD_REACTORS
330
C
102
}
330
C
100
AcDbProxyObject
 90
      499
 91
      523
 95
 11993117
 70
     0
162
                 0
161
                32
310
9014220000
330
10ED3
 94
        0
  0
DICTIONARY
  5
CA67
102
{ACAD_REACTORS
330
C
102
}
330
C
100
AcDbDictionary
281
     1
  3
AcMgSettings
350
10EC0
  3
AMGLAYCFG
350
10EFC
  0
DICTIONARY
  5
CB3E
102
{ACAD_REACTORS
330
C
102
}
330
C
100
AcDbDictionary
281
     1
  0
ACAD_PROXY_OBJECT
  5
10ED0
102
{ACAD_REACTORS
330
C
102
}
330
C
100
AcDbProxyObject
 90
      499
 91
      540
 95
 11993117
 70
     0
162
                 0
161
                34
310
050000428C
 94
        0
  0
ACAD_PROXY_OBJECT
  5
10EDB
102
{ACAD_REACTORS
330
C
102
}
330
C
100
AcDbProxyObject
 90
      499
 91
      546
 95
 11993117
 70
     0
162
                 0
161
                98
310
0E00005380000000000000000C
330
10EE1
330
0
330
10EE2
330
0
330
0
330
0
330
0
330
0
 94
        0
  0
DICTIONARY
  5
23
102
{ACAD_REACTORS
330
C
102
}
330
C
100
AcDbDictionary
281
     1
  0
ACAD_PROXY_OBJECT
  5
10ED5
102
{ACAD_REACTORS
330
C
102
}
330
C
100
AcDbProxyObject
 90
      499
 91
      523
 95
 11993117
 70
     0
162
                 0
161
                64
310
905422000000000000
330
10ED6
330
10ED7
330
10ED8
330
10ED9
330
10EDA
 94
        0
  0
ACAD_PROXY_OBJECT
  5
10F2D
102
{ACAD_REACTORS
330
C
102
}
330
C
100
AcDbProxyObject
 90
      499
 91
      578
 95
 11993117
 70
     0
162
                 0
161
                 1
310
4C
 94
        0
  0
DICTIONARY
  5
124E1
102
{ACAD_REACTORS
330
124E0
102
}
330
124E0
100
AcDbDictionary
281
     1
  3
IBLENVIRONMENT
350
124E2
  0
XRECORD
  5
124E4
102
{ACAD_REACTORS
330
124E0
102
}
330
124E0
100
AcDbXrecord
280
     1
290
     0
291
     0
292
     0
293
     0
 70
     0
 71
     0
  0
XRECORD
  5
124E6
102
{ACAD_REACTORS
330
124E0
102
}
330
124E0
100
AcDbXrecord
280
     1
 70
     1
 41
62.78885641144838
 40
9.0
 41
6500.0
 42
0.0
 43
0.0
  0
XRECORD
  5
124E5
102
{ACAD_REACTORS
330
124E0
102
}
330
124E0
100
AcDbXrecord
280
     1
 70
     1
 40
0.0
 71
     0
 72
     0
 62
     7
420
 16777215
291
     0
 73
     0
 41
62.78885641144838
 42
50.0
 43
1.0
 74
     2
  0
DICTIONARY
  5
2704
102
{ACAD_REACTORS
330
1F30
102
}
330
1F30
100
AcDbDictionary
281
     1
  0
DICTIONARY
  5
1F31
102
{ACAD_REACTORS
330
1F30
102
}
330
1F30
100
AcDbDictionary
281
     1
  0
DICTIONARY
  5
2703
102
{ACAD_REACTORS
330
1F30
102
}
330
1F30
100
AcDbDictionary
281
     1
1001
ACAD
1000
<All
  0
XRECORD
  5
2D07
102
{ACAD_REACTORS
330
2D06
102
}
330
2D06
100
AcDbXrecord
280
     1
290
     1
  0
XRECORD
  5
2D0B
102
{ACAD_REACTORS
330
2D0A
102
}
330
2D0A
100
AcDbXrecord
280
     1
290
     1
  0
XRECORD
  5
2D0F
102
{ACAD_REACTORS
330
2D0E
102
}
330
2D0E
100
AcDbXrecord
280
     1
290
     1
  0
XRECORD
  5
2D11
102
{ACAD_REACTORS
330
2D10
102
}
330
2D10
100
AcDbXrecord
280
     1
290
     1
  0
XRECORD
  5
2D13
102
{ACAD_REACTORS
330
2D12
102
}
330
2D12
100
AcDbXrecord
280
     1
290
     1
  0
SORTENTSTABLE
  5
6306
102
{ACAD_REACTORS
330
6305
102
}
330
6305
100
AcDbSortentsTable
330
18
331
11B21
  5
11B22
331
11B2D
  5
11B2F
331
11AEE
  5
11AEF
331
11AEA
  5
11AEB
331
11AF6
  5
11AF7
331
11AF2
  5
11AF4
331
11B31
  5
11B32
331
11B39
  5
11B44
331
11AFE
  5
11AFF
331
11AFA
  5
11AFB
331
11B06
  5
11B07
331
11A9D
  5
11AAA
331
11A99
  5
11A9A
331
11D2D
  5
11D2E
331
11B44
  5
11B49
331
11D29
  5
11D2A
331
11B4C
  5
11B4F
331
11D31
  5
12151
331
11AAC
  5
11AB6
331
11B09
  5
11B0A
331
11B11
  5
11B12
331
11B1D
  5
11B1E
331
11AB8
  5
11AC2
331
11AC4
  5
11AE9
331
11B20
  5
11B21
331
11AED
  5
11AEE
331
11AE9
  5
11AEA
331
11AF5
  5
11AF6
331
11AF1
  5
11AF2
331
11B30
  5
11B31
331
11AFD
  5
11AFE
331
11AF9
  5
11AFA
331
11A9C
  5
11A9D
331
11B05
  5
11B06
331
11A98
  5
11A99
331
11D2C
  5
11D2D
331
11D28
  5
11D29
331
11B4F
  5
11D27
331
11D30
  5
11D31
331
EFA0
  5
EFA0
331
11AAB
  5
11AAC
331
11AB7
  5
11AB8
331
11B08
  5
11B09
331
11B1C
  5
11B1D
331
11AC3
  5
11AC4
331
11B2F
  5
11B30
331
F3C5
  5
F3C5
331
11AEC
  5
11AED
331
11AF4
  5
11AF5
331
11AF0
  5
11AF1
331
11AFC
  5
11AFD
331
11AF8
  5
11AF9
331
11A9B
  5
11A9C
331
11B04
  5
11B05
331
11B00
  5
11B03
331
11D2F
  5
11D30
331
11D2B
  5
11D2C
331
11AAA
  5
11AAB
331
11B0B
  5
11B0E
331
11AB6
  5
11AB7
331
11B1F
  5
11B20
331
11B1B
  5
11B1C
331
11AC2
  5
11AC3
331
11B22
  5
11B2D
331
10E0
  5
10E0
331
F3C4
  5
F3C4
331
11AEF
  5
11AF0
331
11AEB
  5
11AEC
331
11AF7
  5
11AF8
331
11B32
  5
11B39
331
11D27
  5
11D28
331
11AFF
  5
11B00
331
11AFB
  5
11AFC
331
11B07
  5
11B08
331
11B03
  5
11B04
331
11A9A
  5
11A9B
331
11D2E
  5
11D2F
331
11D2A
  5
11D2B
331
11B49
  5
11B4C
331
EFA2
  5
EFA2
331
11B0E
  5
11B11
331
11B0A
  5
11B0B
331
11B12
  5
11B1B
331
11B1E
  5
11B1F
  0
XRECORD
  5
12D55
102
{ACAD_REACTORS
330
12D54
102
}
330
12D54
100
AcDbXrecord
280
     1
 90
        1
340
2C4E
  0
RAPIDRTRENDERENVIRONMENT
  5
124CB
102
{ACAD_REACTORS
330
124CA
102
}
330
124CA
100
AcDbIBLBackground
 90
        2
290
     0
  1
C:\Program Files\Autodesk\AutoCAD 2017\Environments\half_hdr\studio_03_grids.hdr
 40
0.0
290
     1
340
0
  0
RAPIDRTRENDERENVIRONMENT
  5
124E3
102
{ACAD_REACTORS
330
124CA
102
}
330
124CA
100
AcDbIBLBackground
 90
        2
290
     0
  1
C:\Program Files\Autodesk\AutoCAD 2017\Environments\half_hdr\studio_03_grids.hdr
 40
0.0
290
     1
340
0
  0
RAPIDRTRENDERENVIRONMENT
  5
124F9
102
{ACAD_REACTORS
330
124CA
102
}
330
124CA
100
AcDbIBLBackground
 90
        2
290
     0
  1
C:\Program Files\Autodesk\AutoCAD 2017\Environments\half_hdr\studio_03_grids.hdr
 40
0.0
290
     1
340
0
  0
RAPIDRTRENDERENVIRONMENT
  5
126B9
102
{ACAD_REACTORS
330
124CA
102
}
330
124CA
100
AcDbIBLBackground
 90
        2
290
     0
  1
C:\Program Files\Autodesk\AutoCAD 2017\Environments\half_hdr\studio_03_grids.hdr
 40
0.0
290
     1
340
0
  0
RAPIDRTRENDERENVIRONMENT
  5
1270B
102
{ACAD_REACTORS
330
124CA
102
}
330
124CA
100
AcDbIBLBackground
 90
        2
290
     0
  1
C:\Program Files\Autodesk\AutoCAD 2017\Environments\half_hdr\studio_03_grids.hdr
 40
0.0
290
     1
340
0
  0
RAPIDRTRENDERENVIRONMENT
  5
12D22
102
{ACAD_REACTORS
330
124CA
102
}
330
124CA
100
AcDbIBLBackground
 90
        2
290
     0
  1
C:\Program Files\Autodesk\AutoCAD 2017\Environments\half_hdr\studio_03_grids.hdr
 40
0.0
290
     1
340
0
  0
RAPIDRTRENDERENVIRONMENT
  5
12D4B
102
{ACAD_REACTORS
330
124CA
102
}
330
124CA
100
AcDbIBLBackground
 90
        2
290
     0
  1
C:\Program Files\Autodesk\AutoCAD 2017\Environments\half_hdr\studio_03_grids.hdr
 40
0.0
290
     1
340
0
  0
RAPIDRTRENDERENVIRONMENT
  5
12E00
102
{ACAD_REACTORS
330
124CA
102
}
330
124CA
100
AcDbIBLBackground
 90
        2
290
     0
  1
C:\Program Files\Autodesk\AutoCAD 2017\Environments\half_hdr\studio_03_grids.hdr
 40
0.0
290
     1
340
0
  0
ACDBDETAILVIEWSTYLE
  5
10F04
102
{ACAD_XDICTIONARY
360
10F05
102
}
102
{ACAD_REACTORS
330
F54A
102
}
330
F54A
100
AcDbModelDocViewStyle
 70
     0
  3

290
     0
100
AcDbDetailViewStyle
 70
     0
 71
     0
 90
        3
 71
     1
340
F
 62
     7
 40
5.0
340
0
 62
     3
 40
5.0
300

 40
0.0
280
     0
 71
     2
340
14
 90
       25
 62
     3
 71
     3
340
F
 62
     7
 40
5.0
 90
        0
 40
15.0
 90
        1
300
%<\AcVar ViewDetailId>% %<\AcVar ViewScale \f "%sn">%
 71
     4
340
14
 90
       25
 62
     3
340
14
 90
       25
 62
     3
280
     0
  0
ACDBDETAILVIEWSTYLE
  5
F54B
102
{ACAD_XDICTIONARY
360
115DD
102
}
102
{ACAD_REACTORS
330
F54A
102
}
330
F54A
100
AcDbModelDocViewStyle
 70
     0
  3
Imperial24
290
     0
100
AcDbDetailViewStyle
 70
     0
 71
     0
 90
        3
 71
     1
340
F
 62
   256
 40
0.24
340
0
 62
   256
 40
0.24
300

 40
0.36
280
     3
 71
     2
340
14
 90
       25
 62
   256
 71
     3
340
F
 62
   256
 40
0.24
 90
        1
 40
0.75
 90
        1
300
%<\AcVar ViewType \f "%tc1">% %<\AcVar ViewDetailId>%\PVARIA %<\AcVar ViewScale \f "%sn">%
 71
     4
340
14
 90
       25
 62
   256
340
14
 90
       25
 62
   256
280
     0
  0
ACDBDETAILVIEWSTYLE
  5
F664
102
{ACAD_XDICTIONARY
360
115E1
102
}
102
{ACAD_REACTORS
330
F54A
102
}
330
F54A
100
AcDbModelDocViewStyle
 70
     0
  3
Metric50
290
     0
100
AcDbDetailViewStyle
 70
     0
 71
     0
 90
        3
 71
     1
340
F
 62
   256
 40
5.0
340
0
 62
   256
 40
5.0
300

 40
0.0
280
     1
 71
     2
340
14
 90
       25
 62
   256
 71
     3
340
F
 62
   256
 40
5.0
 90
        0
 40
15.0
 90
        1
300
%<\AcVar ViewDetailId>% (%<\AcVar ViewScale \f "%sn">%)
 71
     4
340
14
 90
       25
 62
   256
340
14
 90
       25
 62
   256
280
     0
  0
IMAGEDEF
  5
1BBA
102
{ACAD_REACTORS
330
1B27
102
}
330
1B27
100
AcDbRasterImageDef
 90
        0
  1
T:\Prospekt\Leitschienen\Bitmaps\S1\KB1 RH1 S Damm explosions_3D.png
 10
1600.0
 20
1280.0
 11
0.0846668360003387
 21
0.0846668360003387
280
     1
281
     2
  0
IMAGEDEF
  5
1BB7
102
{ACAD_REACTORS
330
1B27
102
}
330
1B27
100
AcDbRasterImageDef
 90
        0
  1
T:\Prospekt\Leitschienen\Bitmaps\S1\KB1 RH1 S Damm_3D.png
 10
1600.0
 20
1280.0
 11
0.0846668360003387
 21
0.0846668360003387
280
     1
281
     2
  0
IMAGEDEF
  5
124D6
102
{ACAD_REACTORS
330
1B27
330
124D7
102
}
330
1B27
100
AcDbRasterImageDef
 90
        0
  1
T:\Prospekt\Leitschienen\Bitmaps\S1\KB 1 RH1 D Damm explosion_3D.png
 10
854.0
 20
1095.0
 11
0.0846740050804403
 21
0.0846740050804403
280
     1
281
     2
  0
IMAGEDEF
  5
12491
102
{ACAD_REACTORS
330
1B27
330
12492
102
}
330
1B27
100
AcDbRasterImageDef
 90
        0
  1
T:\Prospekt\Leitschienen\Bitmaps\S1\KB 1 RH1D Damm_3D.png
 10
654.0
 20
268.0
 11
0.0508026823816298
 21
0.0508026823816298
280
     1
281
     2
  0
IMAGEDEF
  5
BDDC
102
{ACAD_REACTORS
330
1B27
102
}
330
1B27
100
AcDbRasterImageDef
 90
        0
  1
T:\Prospekt\Leitschienen\Bitmaps\S1\KB1 RH1C Damm.jpeg
 10
1393.0
 20
659.0
 11
0.2645833333333333
 21
0.2645833333333333
280
     1
281
     5
  0
IMAGEDEF
  5
C5D4
102
{ACAD_REACTORS
330
1B27
102
}
330
1B27
100
AcDbRasterImageDef
 90
        0
  1
T:\Prospekt\Leitschienen\Bitmaps\S1\KB1 RH1C Damm explosion.jpeg
 10
1024.0
 20
768.0
 11
0.0009765625
 21
0.0009765625
280
     1
281
     0
  0
IMAGEDEF
  5
EF77
102
{ACAD_REACTORS
330
1B27
102
}
330
1B27
100
AcDbRasterImageDef
 90
        0
  1
T:\Prospekt\Leitschienen\Bitmaps\neue Bilder\KB1RH1CDamm.jpeg
 10
886.0
 20
294.0
 11
0.2645833333333333
 21
0.2645833333333333
280
     1
281
     5
  0
LAYOUT
  5
12D4D
102
{ACAD_REACTORS
330
1710
102
}
330
1710
100
AcDbPlotSettings
  1

  2
\\2217psvak001\2221PR0081OM112
  4
A4
  6

 40
5.027082920074462
 41
5.027099609375
 42
5.027069091796875
 43
5.027069091796875
 44
209.9733276367187
 45
296.9259948730469
 46
0.0
 47
0.0
 48
0.0
 49
0.0
140
0.0
141
0.0
142
1.0
143
1.0
 70
   688
 72
     1
 73
     1
 74
     5
  7
monochrome.ctb
 75
    16
147
1.0
 76
     0
 77
     2
 78
   300
148
0.0
149
0.0
100
AcDbLayout
  1
Layout1
 70
     1
 71
     1
 10
-5.027069091796875
 20
-5.027082920074462
 11
291.89892578125
 21
204.9462447166443
 12
0.0
 22
0.0
 32
0.0
 14
28.68718261718749
 24
19.99191756248473
 34
0.0
 15
258.1846435546875
 25
179.9272580623627
 35
0.0
146
0.0
 13
0.0
 23
0.0
 33
0.0
 16
1.0
 26
0.0
 36
0.0
 17
0.0
 27
1.0
 37
0.0
 76
     0
330
12D4C
331
12D53
1001
ACAD_PSEXT
1000
\\2217psvak001\2221PR0081OM112
1000
KONICA MINOLTA Universal PCL
1000
VAKF BG / Stichauner Roland
1000

1070
     0
  0
LAYOUT
  5
1712
102
{ACAD_XDICTIONARY
360
CC42
102
}
102
{ACAD_REACTORS
330
1710
102
}
330
1710
100
AcDbPlotSettings
  1

  2
\\VAKF3\Lexmark Optra R Plus Series lex4 FS
  4

  6

 40
0.0
 41
0.0
 42
0.0
 43
0.0
 44
0.0
 45
0.0
 46
0.0
 47
0.0
 48
0.0
 49
0.0
140
0.0
141
0.0
142
1.0
143
1.0
 70
  1712
 72
     0
 73
     0
 74
     0
  7

 75
     0
147
1.0
 76
     0
 77
     2
 78
   300
148
0.0
149
0.0
100
AcDbLayout
  1
Model
 70
     1
 71
     0
 10
0.0
 20
0.0
 11
12.0
 21
9.0
 12
0.0
 22
0.0
 32
0.0
 14
0.0
 24
0.0
 34
0.0
 15
0.0
 25
0.0
 35
0.0
146
0.0
 13
0.0
 23
0.0
 33
0.0
 16
1.0
 26
0.0
 36
0.0
 17
0.0
 27
1.0
 37
0.0
 76
     0
330
18
331
26FD
  0
MATERIAL
  5
2743
102
{ACAD_REACTORS
330
1A4F
102
}
330
1A4F
100
AcDbMaterial
  1
ByBlock
 73
     1
 78
     1
172
     1
176
     1
270
     1
274
     1
 94
       63
  0
MATERIAL
  5
2742
102
{ACAD_REACTORS
330
1A4F
102
}
330
1A4F
100
AcDbMaterial
  1
ByLayer
 73
     1
 78
     1
172
     1
176
     1
270
     1
274
     1
 94
       63
  0
MATERIAL
  5
2744
102
{ACAD_XDICTIONARY
360
10DA2
102
}
102
{ACAD_REACTORS
330
1A4F
102
}
330
1A4F
100
AcDbMaterial
  1
Global
 73
     1
 78
     1
172
     1
176
     1
270
     1
274
     1
 94
       63
  0
MLEADERSTYLE
  5
2C70
102
{ACAD_REACTORS
330
2C6F
102
}
330
2C6F
100
AcDbMLeaderStyle
179
     2
170
     2
171
     1
172
     0
 90
        2
 40
0.0
 41
0.0
173
     1
 91
-1056964608
340
12
 92
       -2
290
     1
 42
0.09
291
     1
 43
0.36
  3
Standard
 44
0.18
300

342
F
174
     1
178
     6
175
     1
176
     0
 93
-1056964608
 45
0.18
292
     0
297
     0
 46
0.18
 94
-1056964608
 47
1.0
 49
1.0
140
1.0
293
     1
141
0.0
294
     1
177
     0
142
1.0
295
     0
296
     0
143
0.125
271
     0
272
     9
273
     9
298
     0
  0
MLINESTYLE
  5
1C
102
{ACAD_REACTORS
330
1B
102
}
330
1B
100
AcDbMlineStyle
  2
STANDARD
 70
     0
  3

 62
   256
 51
90.0
 52
90.0
 71
     2
 49
0.5
 62
   256
  6
BYLAYER
 49
-0.5
 62
   256
  6
BYLAYER
  0
ACDBPLACEHOLDER
  5
170F
102
{ACAD_REACTORS
330
170E
102
}
330
170E
  0
DICTIONARY
  5
124BE
330
124BD
100
AcDbDictionary
280
     1
281
     1
  3
ADSK_XREC_RENDERGLOBALINFO
360
124BF
  0
RAPIDRTRENDERSETTINGS
  5
12485
102
{ACAD_REACTORS
330
12482
102
}
330
12482
100
AcDbRenderSettings
 90
        2
  1
Hoch
290
     1
290
     0
290
     1
290
     1
  1

  1
Wendet 10 Render-Ebenen an
 90
        2
100
AcDbRapidRTRenderSettings
 90
        3
 70
     0
 90
       10
 90
        1
 70
     2
 70
     2
 40
3.0
 40
3.0
290
     1
  0
RAPIDRTRENDERSETTINGS
  5
12487
102
{ACAD_REACTORS
330
12482
102
}
330
12482
100
AcDbRenderSettings
 90
        2
  1
Mittagsqualität
290
     1
290
     0
290
     1
290
     1
  1

  1
Rendert für 60 Minuten
 90
        4
100
AcDbRapidRTRenderSettings
 90
        3
 70
     1
 90
        1
 90
       60
 70
     2
 70
     2
 40
3.0
 40
3.0
290
     1
  0
RAPIDRTRENDERSETTINGS
  5
12484
102
{ACAD_REACTORS
330
12482
102
}
330
12482
100
AcDbRenderSettings
 90
        2
  1
Mittel
290
     1
290
     0
290
     1
290
     1
  1

  1
Wendet 5 Render-Ebenen an
 90
        1
100
AcDbRapidRTRenderSettings
 90
        3
 70
     0
 90
        5
 90
        1
 70
     1
 70
     2
 40
3.0
 40
3.0
290
     1
  0
RAPIDRTRENDERSETTINGS
  5
12486
102
{ACAD_REACTORS
330
12482
102
}
330
12482
100
AcDbRenderSettings
 90
        2
  1
Morgenqualität
290
     1
290
     0
290
     1
290
     1
  1

  1
Rendert für 10 Minuten
 90
        3
100
AcDbRapidRTRenderSettings
 90
        3
 70
     1
 90
        1
 90
       10
 70
     1
 70
     2
 40
3.0
 40
3.0
290
     1
  0
RAPIDRTRENDERSETTINGS
  5
12488
102
{ACAD_REACTORS
330
12482
102
}
330
12482
100
AcDbRenderSettings
 90
        2
  1
Nachtqualität
290
     1
290
     0
290
     1
290
     1
  1

  1
Rendert für 12 Stunden
 90
        5
100
AcDbRapidRTRenderSettings
 90
        3
 70
     1
 90
        1
 90
      720
 70
     2
 70
     2
 40
3.0
 40
3.0
290
     1
  0
RAPIDRTRENDERSETTINGS
  5
12483
102
{ACAD_REACTORS
330
12482
102
}
330
12482
100
AcDbRenderSettings
 90
        2
  1
Niedrig
290
     1
290
     0
290
     1
290
     1
  1

  1
Wendet 1 Render-Ebene an
 90
        0
100
AcDbRapidRTRenderSettings
 90
        3
 70
     0
 90
        1
 90
        1
 70
     0
 70
     2
 40
3.0
 40
3.0
290
     1
  0
SCALE
  5
2C4E
102
{ACAD_REACTORS
330
2C4D
102
}
330
2C4D
100
AcDbScale
 70
     0
300
1:1
140
1.0
141
1.0
290
     1
  0
SCALE
  5
2C4F
102
{ACAD_REACTORS
330
2C4D
102
}
330
2C4D
100
AcDbScale
 70
     0
300
1:2
140
1.0
141
2.0
290
     0
  0
SCALE
  5
2C50
102
{ACAD_REACTORS
330
2C4D
102
}
330
2C4D
100
AcDbScale
 70
     0
300
1:4
140
1.0
141
4.0
290
     0
  0
SCALE
  5
2C51
102
{ACAD_REACTORS
330
2C4D
102
}
330
2C4D
100
AcDbScale
 70
     0
300
1:5
140
1.0
141
5.0
290
     0
  0
SCALE
  5
2C52
102
{ACAD_REACTORS
330
2C4D
102
}
330
2C4D
100
AcDbScale
 70
     0
300
1:8
140
1.0
141
8.0
290
     0
  0
SCALE
  5
2C53
102
{ACAD_REACTORS
330
2C4D
102
}
330
2C4D
100
AcDbScale
 70
     0
300
1:10
140
1.0
141
10.0
290
     0
  0
SCALE
  5
2C54
102
{ACAD_REACTORS
330
2C4D
102
}
330
2C4D
100
AcDbScale
 70
     0
300
1:16
140
1.0
141
16.0
290
     0
  0
SCALE
  5
2C55
102
{ACAD_REACTORS
330
2C4D
102
}
330
2C4D
100
AcDbScale
 70
     0
300
1:20
140
1.0
141
20.0
290
     0
  0
SCALE
  5
2C56
102
{ACAD_REACTORS
330
2C4D
102
}
330
2C4D
100
AcDbScale
 70
     0
300
1:30
140
1.0
141
30.0
290
     0
  0
SCALE
  5
2C57
102
{ACAD_REACTORS
330
2C4D
102
}
330
2C4D
100
AcDbScale
 70
     0
300
1:40
140
1.0
141
40.0
290
     0
  0
SCALE
  5
2C58
102
{ACAD_REACTORS
330
2C4D
102
}
330
2C4D
100
AcDbScale
 70
     0
300
1:50
140
1.0
141
50.0
290
     0
  0
SCALE
  5
2C59
102
{ACAD_REACTORS
330
2C4D
102
}
330
2C4D
100
AcDbScale
 70
     0
300
1:100
140
1.0
141
100.0
290
     0
  0
SCALE
  5
2C5A
102
{ACAD_REACTORS
330
2C4D
102
}
330
2C4D
100
AcDbScale
 70
     0
300
2:1
140
2.0
141
1.0
290
     0
  0
SCALE
  5
2C5B
102
{ACAD_REACTORS
330
2C4D
102
}
330
2C4D
100
AcDbScale
 70
     0
300
4:1
140
4.0
141
1.0
290
     0
  0
SCALE
  5
2C5C
102
{ACAD_REACTORS
330
2C4D
102
}
330
2C4D
100
AcDbScale
 70
     0
300
8:1
140
8.0
141
1.0
290
     0
  0
SCALE
  5
2C5D
102
{ACAD_REACTORS
330
2C4D
102
}
330
2C4D
100
AcDbScale
 70
     0
300
10:1
140
10.0
141
1.0
290
     0
  0
SCALE
  5
2C5E
102
{ACAD_REACTORS
330
2C4D
102
}
330
2C4D
100
AcDbScale
 70
     0
300
100:1
140
100.0
141
1.0
290
     0
  0
SCALE
  5
2C5F
102
{ACAD_REACTORS
330
2C4D
102
}
330
2C4D
100
AcDbScale
 70
     0
300
1/128" = 1'-0"
140
0.0078125
141
12.0
290
     0
  0
SCALE
  5
2C60
102
{ACAD_REACTORS
330
2C4D
102
}
330
2C4D
100
AcDbScale
 70
     0
300
1/64" = 1'-0"
140
0.015625
141
12.0
290
     0
  0
SCALE
  5
2C61
102
{ACAD_REACTORS
330
2C4D
102
}
330
2C4D
100
AcDbScale
 70
     0
300
1/32" = 1'-0"
140
0.03125
141
12.0
290
     0
  0
SCALE
  5
2C62
102
{ACAD_REACTORS
330
2C4D
102
}
330
2C4D
100
AcDbScale
 70
     0
300
1/16" = 1'-0"
140
0.0625
141
12.0
290
     0
  0
SCALE
  5
2C63
102
{ACAD_REACTORS
330
2C4D
102
}
330
2C4D
100
AcDbScale
 70
     0
300
3/32" = 1'-0"
140
0.09375
141
12.0
290
     0
  0
SCALE
  5
2C64
102
{ACAD_REACTORS
330
2C4D
102
}
330
2C4D
100
AcDbScale
 70
     0
300
1/8" = 1'-0"
140
0.125
141
12.0
290
     0
  0
SCALE
  5
2C65
102
{ACAD_REACTORS
330
2C4D
102
}
330
2C4D
100
AcDbScale
 70
     0
300
3/16" = 1'-0"
140
0.1875
141
12.0
290
     0
  0
SCALE
  5
2C66
102
{ACAD_REACTORS
330
2C4D
102
}
330
2C4D
100
AcDbScale
 70
     0
300
1/4" = 1'-0"
140
0.25
141
12.0
290
     0
  0
SCALE
  5
2C67
102
{ACAD_REACTORS
330
2C4D
102
}
330
2C4D
100
AcDbScale
 70
     0
300
3/8" = 1'-0"
140
0.375
141
12.0
290
     0
  0
SCALE
  5
2C68
102
{ACAD_REACTORS
330
2C4D
102
}
330
2C4D
100
AcDbScale
 70
     0
300
1/2" = 1'-0"
140
0.5
141
12.0
290
     0
  0
SCALE
  5
2C69
102
{ACAD_REACTORS
330
2C4D
102
}
330
2C4D
100
AcDbScale
 70
     0
300
3/4" = 1'-0"
140
0.75
141
12.0
290
     0
  0
SCALE
  5
2C6A
102
{ACAD_REACTORS
330
2C4D
102
}
330
2C4D
100
AcDbScale
 70
     0
300
1" = 1'-0"
140
1.0
141
12.0
290
     0
  0
SCALE
  5
2C6B
102
{ACAD_REACTORS
330
2C4D
102
}
330
2C4D
100
AcDbScale
 70
     0
300
1-1/2" = 1'-0"
140
1.5
141
12.0
290
     0
  0
SCALE
  5
2C6C
102
{ACAD_REACTORS
330
2C4D
102
}
330
2C4D
100
AcDbScale
 70
     0
300
3" = 1'-0"
140
3.0
141
12.0
290
     0
  0
SCALE
  5
2C6D
102
{ACAD_REACTORS
330
2C4D
102
}
330
2C4D
100
AcDbScale
 70
     0
300
6" = 1'-0"
140
6.0
141
12.0
290
     0
  0
SCALE
  5
2C6E
102
{ACAD_REACTORS
330
2C4D
102
}
330
2C4D
100
AcDbScale
 70
     0
300
1'-0" = 1'-0"
140
12.0
141
12.0
290
     0
  0
ACDBSECTIONVIEWSTYLE
  5
10F0A
102
{ACAD_XDICTIONARY
360
10F0B
102
}
102
{ACAD_REACTORS
330
F548
102
}
330
F548
100
AcDbModelDocViewStyle
 70
     0
  3

290
     0
100
AcDbSectionViewStyle
 70
     0
 71
     0
 90
      102
 71
     1
340
F
 62
     7
 40
5.0
340
10C6E
340
10C6E
 62
     7
 40
5.0
300
I,O,Q,S,X,Z
 40
10.0
 90
        0
 40
2.5
 90
        0
 71
     2
340
10C5D
 90
       50
 62
     1
340
10C5D
 90
       50
 62
     7
 40
10.0
 40
5.0
 40
25.0
 71
     3
340
F
 62
     7
 40
5.0
 90
        0
 40
5.25
 90
        1
300
%<\AcVar ViewSectionStartId>%-%<\AcVar ViewSectionEndId>%
 71
     4
 62
   256
 62
   257
300
ANSI31
 40
1.0
 90
        0
290
     0
290
     0
 90
        6
 40
0.0
 40
1.570796326794896
 40
0.2617993877991494
 40
1.308996938995747
 40
-0.2617993877991494
 40
1.832595714594046
  0
ACDBSECTIONVIEWSTYLE
  5
F549
102
{ACAD_XDICTIONARY
360
115DB
102
}
102
{ACAD_REACTORS
330
F548
102
}
330
F548
100
AcDbModelDocViewStyle
 70
     0
  3
Imperial24
290
     0
100
AcDbSectionViewStyle
 70
     0
 71
     0
 90
       78
 71
     1
340
F
 62
   256
 40
0.24
340
0
340
0
 62
   256
 40
0.24
300
I, O, Q, S, X, Z
 40
0.48
 90
        3
 40
0.18
 90
        1
 71
     2
340
CA5C
 90
       25
 62
   256
340
14
 90
       50
 62
   256
 40
0.24
 40
0.0
 40
0.24
 71
     3
340
F
 62
   256
 40
0.24
 90
        1
 40
0.75
 90
        1
300
%<\AcVar ViewType \f "%tc1">% %<\AcVar ViewSectionStartId>%-%<\AcVar ViewSectionEndId>%\PVARIA %<\AcVar ViewScale \f "%sn">%
 71
     4
 62
   256
 62
   257
300
ANSI31
 40
1.0
 90
        0
290
     0
290
     0
 90
        6
 40
0.0
 40
1.570796326794896
 40
0.2617993877991494
 40
1.308996938995747
 40
-0.2617993877991494
 40
1.832595714594046
  0
ACDBSECTIONVIEWSTYLE
  5
F663
102
{ACAD_XDICTIONARY
360
115DF
102
}
102
{ACAD_REACTORS
330
F548
102
}
330
F548
100
AcDbModelDocViewStyle
 70
     0
  3
Metric50
290
     0
100
AcDbSectionViewStyle
 70
     0
 71
     0
 90
      102
 71
     1
340
F
 62
   256
 40
5.0
340
0
340
0
 62
   256
 40
5.0
300
I, O, Q, S, X, Z
 40
10.0
 90
        0
 40
2.5
 90
        0
 71
     2
340
14
 90
       25
 62
   256
340
14
 90
       50
 62
   256
 40
5.0
 40
2.5
 40
5.0
 71
     3
340
F
 62
   256
 40
5.0
 90
        0
 40
15.0
 90
        1
300
%<\AcVar ViewSectionStartId>%-%<\AcVar ViewSectionEndId>% (%<\AcVar ViewScale \f "%sn">%)
 71
     4
 62
   256
 62
   257
300
ANSI31
 40
1.0
 90
        0
290
     0
290
     0
 90
        6
 40
0.0
 40
1.570796326794896
 40
0.2617993877991494
 40
1.308996938995747
 40
-0.2617993877991494
 40
1.832595714594046
  0
TABLESTYLE
  5
1F22
102
{ACAD_XDICTIONARY
360
2DE1
102
}
102
{ACAD_REACTORS
330
1F21
102
}
330
1F21
100
AcDbTableStyle
280
     0
  3
Standard
 70
     0
 71
     0
 40
0.06
 41
0.06
280
     0
281
     0
  7
STANDARD
140
0.18
170
     2
 62
     0
 63
     7
283
     0
 90
        4
 91
        0
  1

274
    -2
284
     1
 64
     0
275
    -2
285
     1
 65
     0
276
    -2
286
     1
 66
     0
277
    -2
287
     1
 67
     0
278
    -2
288
     1
 68
     0
279
    -2
289
     1
 69
     0
  7
STANDARD
140
0.25
170
     5
 62
     0
 63
     7
283
     0
 90
        4
 91
        0
  1

274
    -2
284
     1
 64
     0
275
    -2
285
     1
 65
     0
276
    -2
286
     1
 66
     0
277
    -2
287
     1
 67
     0
278
    -2
288
     1
 68
     0
279
    -2
289
     1
 69
     0
  7
STANDARD
140
0.18
170
     5
 62
     0
 63
     7
283
     0
 90
        4
 91
        0
  1

274
    -2
284
     1
 64
     0
275
    -2
285
     1
 65
     0
276
    -2
286
     1
 66
     0
277
    -2
287
     1
 67
     0
278
    -2
288
     1
 68
     0
279
    -2
289
     1
 69
     0
  0
VISUALSTYLE
  5
274B
102
{ACAD_REACTORS
330
2745
102
}
330
2745
100
AcDbVisualStyle
  2
2dWireframe
 70
     4
177
     3
291
     0
 70
    58
 90
        0
176
     1
 90
        2
176
     1
 90
        0
176
     1
 90
        0
176
     1
 40
0.6
176
     1
 40
30.0
176
     1
 62
     7
420
 16777215
176
     1
 90
        1
176
     1
 90
        4
176
     1
 62
     7
176
     1
 62
   257
176
     1
 90
        1
176
     1
 90
        1
176
     1
 40
1.0
176
     1
 90
        0
176
     1
 62
   257
176
     1
 40
1.0
176
     1
 90
        1
176
     1
 90
        6
176
     1
 90
        2
176
     1
 62
     7
176
     1
 90
        5
176
     1
 90
        0
176
     1
 90
        0
176
     1
290
     0
176
     1
 90
        1
176
     1
 40
0.0
176
     1
 90
        0
176
     1
290
     1
176
     1
290
     1
176
     1
290
     0
176
     1
290
     0
176
     1
290
     0
176
     1
290
     0
176
     1
290
     0
176
     1
290
     0
176
     1
290
     0
176
     1
 90
       50
176
     1
 40
0.0
176
     1
 40
1.0
176
     1
 90
        0
176
     1
 62
    18
420
        0
176
     1
 90
       50
176
     1
 90
        3
176
     1
 62
     5
420
      255
176
     1
290
     0
176
     1
 90
       50
176
     1
 90
       50
176
     1
 90
       50
176
     1
290
     0
176
     1
 90
       50
176
     1
 62
   256
176
     0
 40
1.0
176
     0
 90
        2
176
     1
  1
strokes_ogs.tif
176
     1
290
     0
176
     1
 40
1.0
176
     1
 40
1.0
176
     1
  0
VISUALSTYLE
  5
274D
102
{ACAD_REACTORS
330
2745
102
}
330
2745
100
AcDbVisualStyle
  2
3D Hidden
 70
     6
177
     3
291
     0
 70
    58
 90
        1
176
     1
 90
        2
176
     1
 90
        2
176
     1
 90
        0
176
     1
 40
0.6
176
     1
 40
30.0
176
     1
 62
     7
420
 16777215
176
     1
 90
        2
176
     1
 90
        2
176
     1
 62
     7
176
     1
 62
   257
176
     1
 90
        2
176
     1
 90
        1
176
     1
 40
40.0
176
     1
 90
        0
176
     1
 62
   257
176
     1
 40
1.0
176
     1
 90
        1
176
     1
 90
        6
176
     1
 90
        2
176
     1
 62
     7
176
     1
 90
        3
176
     1
 90
        0
176
     1
 90
        0
176
     1
290
     0
176
     1
 90
        1
176
     1
 40
0.0
176
     1
 90
        0
176
     1
290
     0
176
     1
290
     1
176
     1
290
     1
176
     1
290
     0
176
     1
290
     0
176
     1
290
     0
176
     1
290
     0
176
     1
290
     0
176
     1
290
     0
176
     1
 90
       50
176
     1
 40
0.0
176
     1
 40
1.0
176
     1
 90
        0
176
     1
 62
    18
420
        0
176
     1
 90
       50
176
     1
 90
        3
176
     1
 62
     5
420
      255
176
     1
290
     0
176
     1
 90
       50
176
     1
 90
       50
176
     1
 90
       50
176
     1
290
     0
176
     1
 90
       50
176
     1
 62
   256
176
     0
 40
1.0
176
     0
 90
        2
176
     1
  1
strokes_ogs.tif
176
     1
290
     0
176
     1
 40
1.0
176
     1
 40
1.0
176
     1
  0
VISUALSTYLE
  5
274C
102
{ACAD_REACTORS
330
2745
102
}
330
2745
100
AcDbVisualStyle
  2
3dWireframe
 70
     5
177
     3
291
     0
 70
    58
 90
        0
176
     1
 90
        2
176
     1
 90
        0
176
     1
 90
        0
176
     1
 40
0.6
176
     1
 40
30.0
176
     1
 62
     7
420
 16777215
176
     1
 90
        1
176
     1
 90
        4
176
     1
 62
     7
176
     1
 62
   257
176
     1
 90
        1
176
     1
 90
        1
176
     1
 40
1.0
176
     1
 90
        0
176
     1
 62
   257
176
     1
 40
1.0
176
     1
 90
        1
176
     1
 90
        6
176
     1
 90
        2
176
     1
 62
     7
176
     1
 90
        5
176
     1
 90
        0
176
     1
 90
        0
176
     1
290
     0
176
     1
 90
        1
176
     1
 40
0.0
176
     1
 90
        0
176
     1
290
     0
176
     1
290
     1
176
     1
290
     1
176
     1
290
     0
176
     1
290
     0
176
     1
290
     0
176
     1
290
     0
176
     1
290
     0
176
     1
290
     0
176
     1
 90
       50
176
     1
 40
0.0
176
     1
 40
1.0
176
     1
 90
        0
176
     1
 62
    18
420
        0
176
     1
 90
       50
176
     1
 90
        3
176
     1
 62
     5
420
      255
176
     1
290
     0
176
     1
 90
       50
176
     1
 90
       50
176
     1
 90
       50
176
     1
290
     0
176
     1
 90
       50
176
     1
 62
   256
176
     0
 40
1.0
176
     0
 90
        2
176
     1
  1
strokes_ogs.tif
176
     1
290
     0
176
     1
 40
1.0
176
     1
 40
1.0
176
     1
  0
VISUALSTYLE
  5
274A
102
{ACAD_REACTORS
330
2745
102
}
330
2745
100
AcDbVisualStyle
  2
Basic
 70
     7
177
     3
291
     1
 70
    58
 90
        1
176
     1
 90
        0
176
     1
 90
        1
176
     1
 90
        0
176
     1
 40
0.6
176
     1
 40
30.0
176
     1
 62
     7
420
 16777215
176
     1
 90
        0
176
     1
 90
        4
176
     1
 62
     7
176
     1
 62
   257
176
     1
 90
        1
176
     1
 90
        1
176
     1
 40
1.0
176
     1
 90
        8
176
     1
 62
     7
176
     1
 40
1.0
176
     1
 90
        1
176
     1
 90
        6
176
     1
 90
        2
176
     1
 62
     7
176
     1
 90
        5
176
     1
 90
        0
176
     1
 90
        0
176
     1
290
     0
176
     1
 90
        1
176
     1
 40
0.0
176
     1
 90
        0
176
     1
290
     0
176
     1
290
     1
176
     1
290
     1
176
     1
290
     0
176
     1
290
     0
176
     1
290
     0
176
     1
290
     0
176
     1
290
     0
176
     1
290
     0
176
     1
 90
       50
176
     1
 40
0.0
176
     1
 40
1.0
176
     1
 90
        0
176
     1
 62
    18
420
        0
176
     1
 90
       50
176
     1
 90
        3
176
     1
 62
     5
420
      255
176
     1
290
     0
176
     1
 90
       50
176
     1
 90
       50
176
     1
 90
       50
176
     1
290
     0
176
     1
 90
       50
176
     1
 62
   256
176
     0
 40
1.0
176
     0
 90
        2
176
     1
  1
strokes_ogs.tif
176
     1
290
     0
176
     1
 40
1.0
176
     1
 40
1.0
176
     1
  0
VISUALSTYLE
  5
2751
102
{ACAD_REACTORS
330
2745
102
}
330
2745
100
AcDbVisualStyle
  2
Brighten
 70
    12
177
     3
291
     1
 70
    58
 90
        2
176
     1
 90
        2
176
     1
 90
        0
176
     1
 90
        0
176
     1
 40
0.6
176
     1
 40
30.0
176
     1
 62
     7
420
 16777215
176
     1
 90
        1
176
     1
 90
        4
176
     1
 62
     7
176
     1
 62
   257
176
     1
 90
        1
176
     1
 90
        1
176
     1
 40
1.0
176
     1
 90
        8
176
     1
 62
     7
176
     1
 40
1.0
176
     1
 90
        1
176
     1
 90
        6
176
     1
 90
        2
176
     1
 62
     7
176
     1
 90
        5
176
     1
 90
        0
176
     1
 90
        0
176
     1
290
     0
176
     1
 90
        1
176
     1
 40
50.0
176
     1
 90
        0
176
     1
290
     0
176
     1
290
     1
176
     1
290
     1
176
     1
290
     0
176
     1
290
     0
176
     1
290
     0
176
     1
290
     0
176
     1
290
     0
176
     1
290
     0
176
     1
 90
       50
176
     1
 40
0.0
176
     1
 40
1.0
176
     1
 90
        0
176
     1
 62
    18
420
        0
176
     1
 90
       50
176
     1
 90
        3
176
     1
 62
     5
420
      255
176
     1
290
     0
176
     1
 90
       50
176
     1
 90
       50
176
     1
 90
       50
176
     1
290
     0
176
     1
 90
       50
176
     1
 62
   256
176
     0
 40
1.0
176
     0
 90
        2
176
     1
  1
strokes_ogs.tif
176
     1
290
     0
176
     1
 40
1.0
176
     1
 40
1.0
176
     1
  0
VISUALSTYLE
  5
2755
102
{ACAD_REACTORS
330
2745
102
}
330
2745
100
AcDbVisualStyle
  2
ColorChange
 70
    16
177
     3
291
     1
 70
    58
 90
        2
176
     1
 90
        2
176
     1
 90
        3
176
     1
 90
        0
176
     1
 40
0.6
176
     1
 40
30.0
176
     1
 62
     8
420
  8421504
176
     1
 90
        1
176
     1
 90
        4
176
     1
 62
     7
176
     1
 62
   257
176
     1
 90
        1
176
     1
 90
        1
176
     1
 40
1.0
176
     1
 90
        8
176
     1
 62
     8
420
  8421504
176
     1
 40
1.0
176
     1
 90
        1
176
     1
 90
        6
176
     1
 90
        2
176
     1
 62
     7
176
     1
 90
        5
176
     1
 90
        0
176
     1
 90
        0
176
     1
290
     0
176
     1
 90
        1
176
     1
 40
0.0
176
     1
 90
        0
176
     1
290
     0
176
     1
290
     1
176
     1
290
     1
176
     1
290
     0
176
     1
290
     0
176
     1
290
     0
176
     1
290
     0
176
     1
290
     0
176
     1
290
     0
176
     1
 90
       50
176
     1
 40
0.0
176
     1
 40
1.0
176
     1
 90
        0
176
     1
 62
    18
420
        0
176
     1
 90
       50
176
     1
 90
        3
176
     1
 62
     5
420
      255
176
     1
290
     0
176
     1
 90
       50
176
     1
 90
       50
176
     1
 90
       50
176
     1
290
     0
176
     1
 90
       50
176
     1
 62
   256
176
     0
 40
1.0
176
     0
 90
        2
176
     1
  1
strokes_ogs.tif
176
     1
290
     0
176
     1
 40
1.0
176
     1
 40
1.0
176
     1
  0
VISUALSTYLE
  5
274E
102
{ACAD_REACTORS
330
2745
102
}
330
2745
100
AcDbVisualStyle
  2
Conceptual
 70
     9
177
     3
291
     0
 70
    58
 90
        3
176
     1
 90
        2
176
     1
 90
        0
176
     1
 90
        0
176
     1
 40
0.6
176
     1
 40
30.0
176
     1
 62
     7
420
 16777215
176
     1
 90
        2
176
     1
 90
        2
176
     1
 62
     7
176
     1
 62
   257
176
     1
 90
        1
176
     1
 90
        1
176
     1
 40
40.0
176
     1
 90
        8
176
     1
 62
     7
176
     1
 40
1.0
176
     1
 90
        1
176
     1
 90
        6
176
     1
 90
        2
176
     1
 62
     7
176
     1
 90
        3
176
     1
 90
        0
176
     1
 90
        0
176
     1
290
     0
176
     1
 90
        1
176
     1
 40
0.0
176
     1
 90
        0
176
     1
290
     0
176
     1
290
     1
176
     1
290
     1
176
     1
290
     0
176
     1
290
     0
176
     1
290
     0
176
     1
290
     0
176
     1
290
     0
176
     1
290
     0
176
     1
 90
       50
176
     1
 40
0.0
176
     1
 40
1.0
176
     1
 90
        0
176
     1
 62
    18
420
        0
176
     1
 90
       50
176
     1
 90
        3
176
     1
 62
     5
420
      255
176
     1
290
     0
176
     1
 90
       50
176
     1
 90
       50
176
     1
 90
       50
176
     1
290
     0
176
     1
 90
       50
176
     1
 62
   256
176
     0
 40
1.0
176
     0
 90
        2
176
     1
  1
strokes_ogs.tif
176
     1
290
     0
176
     1
 40
1.0
176
     1
 40
1.0
176
     1
  0
VISUALSTYLE
  5
2750
102
{ACAD_REACTORS
330
2745
102
}
330
2745
100
AcDbVisualStyle
  2
Dim
 70
    11
177
     3
291
     1
 70
    58
 90
        2
176
     1
 90
        2
176
     1
 90
        0
176
     1
 90
        0
176
     1
 40
0.6
176
     1
 40
30.0
176
     1
 62
     7
420
 16777215
176
     1
 90
        1
176
     1
 90
        4
176
     1
 62
     7
176
     1
 62
   257
176
     1
 90
        1
176
     1
 90
        1
176
     1
 40
1.0
176
     1
 90
        8
176
     1
 62
     7
176
     1
 40
1.0
176
     1
 90
        1
176
     1
 90
        6
176
     1
 90
        2
176
     1
 62
     7
176
     1
 90
        5
176
     1
 90
        0
176
     1
 90
        0
176
     1
290
     0
176
     1
 90
        1
176
     1
 40
-50.0
176
     1
 90
        0
176
     1
290
     0
176
     1
290
     1
176
     1
290
     1
176
     1
290
     0
176
     1
290
     0
176
     1
290
     0
176
     1
290
     0
176
     1
290
     0
176
     1
290
     0
176
     1
 90
       50
176
     1
 40
0.0
176
     1
 40
1.0
176
     1
 90
        0
176
     1
 62
    18
420
        0
176
     1
 90
       50
176
     1
 90
        3
176
     1
 62
     5
420
      255
176
     1
290
     0
176
     1
 90
       50
176
     1
 90
       50
176
     1
 90
       50
176
     1
290
     0
176
     1
 90
       50
176
     1
 62
   256
176
     0
 40
1.0
176
     0
 90
        2
176
     1
  1
strokes_ogs.tif
176
     1
290
     0
176
     1
 40
1.0
176
     1
 40
1.0
176
     1
  0
VISUALSTYLE
  5
CA21
102
{ACAD_REACTORS
330
2745
102
}
330
2745
100
AcDbVisualStyle
  2
EdgeColorOff
 70
    22
177
     3
291
     1
 70
    58
 90
        2
176
     0
 90
        2
176
     0
 90
        0
176
     0
 90
        0
176
     0
 40
0.6
176
     0
 40
30.0
176
     0
 62
     7
420
 16777215
176
     0
 90
        1
176
     0
 90
        4
176
     0
 62
     7
176
     0
 62
   257
176
     0
 90
        1
176
     0
 90
        1
176
     0
 40
1.0
176
     0
 90
        8
176
     2
 62
     7
176
     0
 40
1.0
176
     0
 90
        1
176
     0
 90
        6
176
     0
 90
        2
176
     0
 62
     7
176
     0
 90
        5
176
     0
 90
        0
176
     0
 90
        0
176
     0
290
     0
176
     0
 90
        1
176
     0
 40
0.0
176
     0
 90
        0
176
     0
290
     0
176
     1
290
     1
176
     1
290
     1
176
     1
290
     0
176
     1
290
     0
176
     1
290
     0
176
     1
290
     0
176
     1
290
     0
176
     1
290
     0
176
     1
 90
       50
176
     1
 40
0.0
176
     1
 40
1.0
176
     1
 90
        0
176
     1
 62
    18
420
        0
176
     1
 90
       50
176
     1
 90
        3
176
     1
 62
     5
420
      255
176
     1
290
     0
176
     1
 90
       50
176
     1
 90
       50
176
     1
 90
       50
176
     1
290
     0
176
     1
 90
       50
176
     1
 62
   256
176
     0
 40
1.0
176
     0
 90
        2
176
     1
  1
strokes_ogs.tif
176
     1
290
     0
176
     1
 40
1.0
176
     1
 40
1.0
176
     1
  0
VISUALSTYLE
  5
2754
102
{ACAD_REACTORS
330
2745
102
}
330
2745
100
AcDbVisualStyle
  2
Facepattern
 70
    15
177
     3
291
     1
 70
    58
 90
        2
176
     1
 90
        2
176
     1
 90
        0
176
     1
 90
        0
176
     1
 40
0.6
176
     1
 40
30.0
176
     1
 62
     7
420
 16777215
176
     1
 90
        1
176
     1
 90
        4
176
     1
 62
     7
176
     1
 62
   257
176
     1
 90
        1
176
     1
 90
        1
176
     1
 40
1.0
176
     1
 90
        8
176
     1
 62
     7
176
     1
 40
1.0
176
     1
 90
        1
176
     1
 90
        6
176
     1
 90
        2
176
     1
 62
     7
176
     1
 90
        5
176
     1
 90
        0
176
     1
 90
        0
176
     1
290
     0
176
     1
 90
        1
176
     1
 40
0.0
176
     1
 90
        0
176
     1
290
     0
176
     1
290
     1
176
     1
290
     1
176
     1
290
     0
176
     1
290
     0
176
     1
290
     0
176
     1
290
     0
176
     1
290
     0
176
     1
290
     0
176
     1
 90
       50
176
     1
 40
0.0
176
     1
 40
1.0
176
     1
 90
        0
176
     1
 62
    18
420
        0
176
     1
 90
       50
176
     1
 90
        3
176
     1
 62
     5
420
      255
176
     1
290
     0
176
     1
 90
       50
176
     1
 90
       50
176
     1
 90
       50
176
     1
290
     0
176
     1
 90
       50
176
     1
 62
   256
176
     0
 40
1.0
176
     0
 90
        2
176
     1
  1
strokes_ogs.tif
176
     1
290
     0
176
     1
 40
1.0
176
     1
 40
1.0
176
     1
  0
VISUALSTYLE
  5
2746
102
{ACAD_REACTORS
330
2745
102
}
330
2745
100
AcDbVisualStyle
  2
Flat
 70
     0
177
     3
291
     1
 70
    58
 90
        2
176
     1
 90
        1
176
     1
 90
        1
176
     1
 90
        2
176
     1
 40
0.6
176
     1
 40
30.0
176
     1
 62
     7
420
 16777215
176
     1
 90
        0
176
     1
 90
        4
176
     1
 62
     7
176
     1
 62
   257
176
     1
 90
        1
176
     1
 90
        1
176
     1
 40
1.0
176
     1
 90
        8
176
     1
 62
     7
176
     1
 40
1.0
176
     1
 90
        1
176
     1
 90
        6
176
     1
 90
        2
176
     1
 62
     7
176
     1
 90
        5
176
     1
 90
        0
176
     1
 90
        0
176
     1
290
     0
176
     1
 90
       13
176
     1
 40
0.0
176
     1
 90
        0
176
     1
290
     0
176
     1
290
     1
176
     1
290
     1
176
     1
290
     0
176
     1
290
     0
176
     1
290
     0
176
     1
290
     0
176
     1
290
     0
176
     1
290
     0
176
     1
 90
       50
176
     1
 40
0.0
176
     1
 40
1.0
176
     1
 90
        0
176
     1
 62
    18
420
        0
176
     1
 90
       50
176
     1
 90
        3
176
     1
 62
     5
420
      255
176
     1
290
     0
176
     1
 90
       50
176
     1
 90
       50
176
     1
 90
       50
176
     1
290
     0
176
     1
 90
       50
176
     1
 62
   256
176
     0
 40
1.0
176
     0
 90
        2
176
     1
  1
strokes_ogs.tif
176
     1
290
     0
176
     1
 40
1.0
176
     1
 40
1.0
176
     1
  0
VISUALSTYLE
  5
2747
102
{ACAD_REACTORS
330
2745
102
}
330
2745
100
AcDbVisualStyle
  2
FlatWithEdges
 70
     1
177
     3
291
     1
 70
    58
 90
        2
176
     1
 90
        1
176
     1
 90
        1
176
     1
 90
        2
176
     1
 40
0.6
176
     1
 40
30.0
176
     1
 62
     7
420
 16777215
176
     1
 90
        1
176
     1
 90
        4
176
     1
 62
     7
176
     1
 62
   257
176
     1
 90
        1
176
     1
 90
        1
176
     1
 40
1.0
176
     1
 90
        0
176
     1
 62
   257
176
     1
 40
1.0
176
     1
 90
        1
176
     1
 90
        6
176
     1
 90
        2
176
     1
 62
     7
176
     1
 90
        5
176
     1
 90
        0
176
     1
 90
        0
176
     1
290
     0
176
     1
 90
       13
176
     1
 40
0.0
176
     1
 90
        0
176
     1
290
     0
176
     1
290
     1
176
     1
290
     1
176
     1
290
     0
176
     1
290
     0
176
     1
290
     0
176
     1
290
     0
176
     1
290
     0
176
     1
290
     0
176
     1
 90
       50
176
     1
 40
0.0
176
     1
 40
1.0
176
     1
 90
        0
176
     1
 62
    18
420
        0
176
     1
 90
       50
176
     1
 90
        3
176
     1
 62
     5
420
      255
176
     1
290
     0
176
     1
 90
       50
176
     1
 90
       50
176
     1
 90
       50
176
     1
290
     0
176
     1
 90
       50
176
     1
 62
   256
176
     0
 40
1.0
176
     0
 90
        2
176
     1
  1
strokes_ogs.tif
176
     1
290
     0
176
     1
 40
1.0
176
     1
 40
1.0
176
     1
  0
VISUALSTYLE
  5
2748
102
{ACAD_REACTORS
330
2745
102
}
330
2745
100
AcDbVisualStyle
  2
Gouraud
 70
     2
177
     3
291
     1
 70
    58
 90
        2
176
     1
 90
        2
176
     1
 90
        1
176
     1
 90
        2
176
     1
 40
0.6
176
     1
 40
30.0
176
     1
 62
     7
420
 16777215
176
     1
 90
        0
176
     1
 90
        4
176
     1
 62
     7
176
     1
 62
   257
176
     1
 90
        1
176
     1
 90
        1
176
     1
 40
1.0
176
     1
 90
        0
176
     1
 62
     7
176
     1
 40
1.0
176
     1
 90
        1
176
     1
 90
        6
176
     1
 90
        2
176
     1
 62
     7
176
     1
 90
        5
176
     1
 90
        0
176
     1
 90
        0
176
     1
290
     0
176
     1
 90
       13
176
     1
 40
0.0
176
     1
 90
        0
176
     1
290
     0
176
     1
290
     1
176
     1
290
     1
176
     1
290
     0
176
     1
290
     0
176
     1
290
     0
176
     1
290
     0
176
     1
290
     0
176
     1
290
     0
176
     1
 90
       50
176
     1
 40
0.0
176
     1
 40
1.0
176
     1
 90
        0
176
     1
 62
    18
420
        0
176
     1
 90
       50
176
     1
 90
        3
176
     1
 62
     5
420
      255
176
     1
290
     0
176
     1
 90
       50
176
     1
 90
       50
176
     1
 90
       50
176
     1
290
     0
176
     1
 90
       50
176
     1
 62
   256
176
     0
 40
1.0
176
     0
 90
        2
176
     1
  1
strokes_ogs.tif
176
     1
290
     0
176
     1
 40
1.0
176
     1
 40
1.0
176
     1
  0
VISUALSTYLE
  5
2749
102
{ACAD_REACTORS
330
2745
102
}
330
2745
100
AcDbVisualStyle
  2
GouraudWithEdges
 70
     3
177
     3
291
     1
 70
    58
 90
        2
176
     1
 90
        2
176
     1
 90
        1
176
     1
 90
        2
176
     1
 40
0.6
176
     1
 40
30.0
176
     1
 62
     7
420
 16777215
176
     1
 90
        1
176
     1
 90
        4
176
     1
 62
     7
176
     1
 62
   257
176
     1
 90
        1
176
     1
 90
        1
176
     1
 40
1.0
176
     1
 90
        0
176
     1
 62
   257
176
     1
 40
1.0
176
     1
 90
        1
176
     1
 90
        6
176
     1
 90
        2
176
     1
 62
     7
176
     1
 90
        5
176
     1
 90
        0
176
     1
 90
        0
176
     1
290
     0
176
     1
 90
       13
176
     1
 40
0.0
176
     1
 90
        0
176
     1
290
     0
176
     1
290
     1
176
     1
290
     1
176
     1
290
     0
176
     1
290
     0
176
     1
290
     0
176
     1
290
     0
176
     1
290
     0
176
     1
290
     0
176
     1
 90
       50
176
     1
 40
0.0
176
     1
 40
1.0
176
     1
 90
        0
176
     1
 62
    18
420
        0
176
     1
 90
       50
176
     1
 90
        3
176
     1
 62
     5
420
      255
176
     1
290
     0
176
     1
 90
       50
176
     1
 90
       50
176
     1
 90
       50
176
     1
290
     0
176
     1
 90
       50
176
     1
 62
   256
176
     0
 40
1.0
176
     0
 90
        2
176
     1
  1
strokes_ogs.tif
176
     1
290
     0
176
     1
 40
1.0
176
     1
 40
1.0
176
     1
  0
VISUALSTYLE
  5
CA19
102
{ACAD_REACTORS
330
2745
102
}
330
2745
100
AcDbVisualStyle
  2
Hidden
 70
     6
177
     3
291
     0
 70
    58
 90
        1
176
     1
 90
        2
176
     1
 90
        2
176
     1
 90
        0
176
     1
 40
0.6
176
     1
 40
30.0
176
     1
 62
     7
420
 16777215
176
     1
 90
        2
176
     1
 90
        2
176
     1
 62
     7
176
     1
 62
   257
176
     1
 90
        2
176
     1
 90
        1
176
     1
 40
40.0
176
     1
 90
        0
176
     1
 62
   257
176
     1
 40
1.0
176
     1
 90
        1
176
     1
 90
        6
176
     1
 90
        2
176
     1
 62
     7
176
     1
 90
        3
176
     1
 90
        0
176
     1
 90
        0
176
     1
290
     0
176
     1
 90
        1
176
     1
 40
0.0
176
     1
 90
        0
176
     1
290
     0
176
     1
290
     1
176
     1
290
     1
176
     1
290
     0
176
     1
290
     0
176
     1
290
     0
176
     1
290
     0
176
     1
290
     0
176
     1
290
     0
176
     1
 90
       50
176
     1
 40
0.0
176
     1
 40
1.0
176
     1
 90
        0
176
     1
 62
    18
420
        0
176
     1
 90
       50
176
     1
 90
        3
176
     1
 62
     5
420
      255
176
     1
290
     0
176
     1
 90
       50
176
     1
 90
       50
176
     1
 90
       50
176
     1
290
     0
176
     1
 90
       50
176
     1
 62
   256
176
     0
 40
1.0
176
     0
 90
        2
176
     1
  1
strokes_ogs.tif
176
     1
290
     0
176
     1
 40
1.0
176
     1
 40
1.0
176
     1
  0
VISUALSTYLE
  5
CA1F
102
{ACAD_REACTORS
330
2745
102
}
330
2745
100
AcDbVisualStyle
  2
JitterOff
 70
    20
177
     3
291
     1
 70
    58
 90
        2
176
     0
 90
        2
176
     0
 90
        0
176
     0
 90
        0
176
     0
 40
0.6
176
     0
 40
30.0
176
     0
 62
     7
420
 16777215
176
     0
 90
        1
176
     0
 90
        4
176
     0
 62
     7
176
     0
 62
   257
176
     0
 90
        1
176
     0
 90
        1
176
     0
 40
1.0
176
     0
 90
       10
176
     2
 62
     7
176
     0
 40
1.0
176
     0
 90
        1
176
     0
 90
        6
176
     0
 90
        2
176
     0
 62
     7
176
     0
 90
        5
176
     0
 90
        0
176
     0
 90
        0
176
     0
290
     0
176
     0
 90
        1
176
     0
 40
0.0
176
     0
 90
        0
176
     0
290
     0
176
     1
290
     1
176
     1
290
     1
176
     1
290
     0
176
     1
290
     0
176
     1
290
     0
176
     1
290
     0
176
     1
290
     0
176
     1
290
     0
176
     1
 90
       50
176
     1
 40
0.0
176
     1
 40
1.0
176
     1
 90
        0
176
     1
 62
    18
420
        0
176
     1
 90
       50
176
     1
 90
        3
176
     1
 62
     5
420
      255
176
     1
290
     0
176
     1
 90
       50
176
     1
 90
       50
176
     1
 90
       50
176
     1
290
     0
176
     1
 90
       50
176
     1
 62
   256
176
     0
 40
1.0
176
     0
 90
        2
176
     1
  1
strokes_ogs.tif
176
     1
290
     0
176
     1
 40
1.0
176
     1
 40
1.0
176
     1
  0
VISUALSTYLE
  5
2753
102
{ACAD_REACTORS
330
2745
102
}
330
2745
100
AcDbVisualStyle
  2
Linepattern
 70
    14
177
     3
291
     1
 70
    58
 90
        2
176
     1
 90
        2
176
     1
 90
        0
176
     1
 90
        0
176
     1
 40
0.6
176
     1
 40
30.0
176
     1
 62
     7
420
 16777215
176
     1
 90
        1
176
     1
 90
        4
176
     1
 62
     7
176
     1
 62
   257
176
     1
 90
        7
176
     1
 90
        7
176
     1
 40
1.0
176
     1
 90
        8
176
     1
 62
     7
176
     1
 40
1.0
176
     1
 90
        1
176
     1
 90
        6
176
     1
 90
        2
176
     1
 62
     7
176
     1
 90
        5
176
     1
 90
        0
176
     1
 90
        0
176
     1
290
     0
176
     1
 90
        1
176
     1
 40
0.0
176
     1
 90
        0
176
     1
290
     0
176
     1
290
     1
176
     1
290
     1
176
     1
290
     0
176
     1
290
     0
176
     1
290
     0
176
     1
290
     0
176
     1
290
     0
176
     1
290
     0
176
     1
 90
       50
176
     1
 40
0.0
176
     1
 40
1.0
176
     1
 90
        0
176
     1
 62
    18
420
        0
176
     1
 90
       50
176
     1
 90
        3
176
     1
 62
     5
420
      255
176
     1
290
     0
176
     1
 90
       50
176
     1
 90
       50
176
     1
 90
       50
176
     1
290
     0
176
     1
 90
       50
176
     1
 62
   256
176
     0
 40
1.0
176
     0
 90
        2
176
     1
  1
strokes_ogs.tif
176
     1
290
     0
176
     1
 40
1.0
176
     1
 40
1.0
176
     1
  0
VISUALSTYLE
  5
CA20
102
{ACAD_REACTORS
330
2745
102
}
330
2745
100
AcDbVisualStyle
  2
OverhangOff
 70
    21
177
     3
291
     1
 70
    58
 90
        2
176
     0
 90
        2
176
     0
 90
        0
176
     0
 90
        0
176
     0
 40
0.6
176
     0
 40
30.0
176
     0
 62
     7
420
 16777215
176
     0
 90
        1
176
     0
 90
        4
176
     0
 62
     7
176
     0
 62
   257
176
     0
 90
        1
176
     0
 90
        1
176
     0
 40
1.0
176
     0
 90
        9
176
     2
 62
     7
176
     0
 40
1.0
176
     0
 90
        1
176
     0
 90
        6
176
     0
 90
        2
176
     0
 62
     7
176
     0
 90
        5
176
     0
 90
        0
176
     0
 90
        0
176
     0
290
     0
176
     0
 90
        1
176
     0
 40
0.0
176
     0
 90
        0
176
     0
290
     0
176
     1
290
     1
176
     1
290
     1
176
     1
290
     0
176
     1
290
     0
176
     1
290
     0
176
     1
290
     0
176
     1
290
     0
176
     1
290
     0
176
     1
 90
       50
176
     1
 40
0.0
176
     1
 40
1.0
176
     1
 90
        0
176
     1
 62
    18
420
        0
176
     1
 90
       50
176
     1
 90
        3
176
     1
 62
     5
420
      255
176
     1
290
     0
176
     1
 90
       50
176
     1
 90
       50
176
     1
 90
       50
176
     1
290
     0
176
     1
 90
       50
176
     1
 62
   256
176
     0
 40
1.0
176
     0
 90
        2
176
     1
  1
strokes_ogs.tif
176
     1
290
     0
176
     1
 40
1.0
176
     1
 40
1.0
176
     1
  0
VISUALSTYLE
  5
274F
102
{ACAD_REACTORS
330
2745
102
}
330
2745
100
AcDbVisualStyle
  2
Realistic
 70
     8
177
     3
291
     0
 70
    58
 90
        2
176
     1
 90
        2
176
     1
 90
        0
176
     1
 90
        0
176
     1
 40
0.6
176
     1
 40
30.0
176
     1
 62
     7
420
 16777215
176
     1
 90
        1
176
     1
 90
        0
176
     1
 62
     7
176
     1
 62
   257
176
     1
 90
        1
176
     1
 90
        1
176
     1
 40
1.0
176
     1
 90
        8
176
     1
 62
     8
420
  7895160
176
     1
 40
1.0
176
     1
 90
        1
176
     1
 90
        6
176
     1
 90
        2
176
     1
 62
     7
176
     1
 90
        5
176
     1
 90
        0
176
     1
 90
        0
176
     1
290
     0
176
     1
 90
       13
176
     1
 40
0.0
176
     1
 90
        0
176
     1
290
     0
176
     1
290
     1
176
     1
290
     1
176
     1
290
     0
176
     1
290
     0
176
     1
290
     0
176
     1
290
     0
176
     1
290
     0
176
     1
290
     0
176
     1
 90
       50
176
     1
 40
0.0
176
     1
 40
1.0
176
     1
 90
        0
176
     1
 62
    18
420
        0
176
     1
 90
       50
176
     1
 90
        3
176
     1
 62
     5
420
      255
176
     1
290
     0
176
     1
 90
       50
176
     1
 90
       50
176
     1
 90
       50
176
     1
290
     0
176
     1
 90
       50
176
     1
 62
   256
176
     0
 40
1.0
176
     0
 90
        2
176
     1
  1
strokes_ogs.tif
176
     1
290
     0
176
     1
 40
1.0
176
     1
 40
1.0
176
     1
  0
VISUALSTYLE
  5
CA1E
102
{ACAD_REACTORS
330
2745
102
}
330
2745
100
AcDbVisualStyle
  2
Shaded
 70
    27
177
     3
291
     0
 70
    58
 90
        2
176
     1
 90
        2
176
     1
 90
        1
176
     1
 90
        2
176
     1
 40
0.6
176
     1
 40
30.0
176
     1
 62
     7
420
 16777215
176
     1
 90
        0
176
     1
 90
        4
176
     1
 62
     7
176
     1
 62
   257
176
     1
 90
        1
176
     1
 90
        1
176
     1
 40
1.0
176
     1
 90
        8
176
     1
 62
   257
176
     1
 40
1.0
176
     1
 90
        1
176
     1
 90
        6
176
     1
 90
        2
176
     1
 62
     8
420
  7895160
176
     1
 90
        3
176
     1
 90
        0
176
     1
 90
        0
176
     1
290
     0
176
     1
 90
        5
176
     1
 40
0.0
176
     1
 90
        0
176
     1
290
     0
176
     1
290
     1
176
     1
290
     1
176
     1
290
     0
176
     1
290
     0
176
     1
290
     0
176
     1
290
     0
176
     1
290
     0
176
     1
290
     0
176
     1
 90
       50
176
     1
 40
0.0
176
     1
 40
1.0
176
     1
 90
        0
176
     1
 62
    18
420
        0
176
     1
 90
       50
176
     1
 90
        3
176
     1
 62
     5
420
      255
176
     1
290
     0
176
     1
 90
       50
176
     1
 90
       50
176
     1
 90
       50
176
     1
290
     0
176
     1
 90
       50
176
     1
 62
   256
176
     0
 40
1.0
176
     0
 90
        2
176
     1
  1
strokes_ogs.tif
176
     1
290
     0
176
     1
 40
1.0
176
     1
 40
1.0
176
     1
  0
VISUALSTYLE
  5
CA1D
102
{ACAD_REACTORS
330
2745
102
}
330
2745
100
AcDbVisualStyle
  2
Shaded with edges
 70
    26
177
     3
291
     0
 70
    58
 90
        2
176
     1
 90
        2
176
     1
 90
        1
176
     1
 90
        2
176
     1
 40
0.6
176
     1
 40
30.0
176
     1
 62
     7
420
 16777215
176
     1
 90
        1
176
     1
 90
        2
176
     1
 62
     7
176
     1
 62
   257
176
     1
 90
        2
176
     1
 90
        1
176
     1
 40
1.0
176
     1
 90
        8
176
     1
 62
   257
176
     1
 40
1.0
176
     1
 90
        1
176
     1
 90
        6
176
     1
 90
        2
176
     1
 62
     7
176
     1
 90
        3
176
     1
 90
        0
176
     1
 90
        0
176
     1
290
     0
176
     1
 90
        5
176
     1
 40
0.0
176
     1
 90
        0
176
     1
290
     0
176
     1
290
     1
176
     1
290
     1
176
     1
290
     0
176
     1
290
     0
176
     1
290
     0
176
     1
290
     0
176
     1
290
     0
176
     1
290
     0
176
     1
 90
       50
176
     1
 40
0.0
176
     1
 40
1.0
176
     1
 90
        0
176
     1
 62
    18
420
        0
176
     1
 90
       50
176
     1
 90
        3
176
     1
 62
     5
420
      255
176
     1
290
     0
176
     1
 90
       50
176
     1
 90
       50
176
     1
 90
       50
176
     1
290
     0
176
     1
 90
       50
176
     1
 62
   256
176
     0
 40
1.0
176
     0
 90
        2
176
     1
  1
strokes_ogs.tif
176
     1
290
     0
176
     1
 40
1.0
176
     1
 40
1.0
176
     1
  0
VISUALSTYLE
  5
CA1A
102
{ACAD_REACTORS
330
2745
102
}
330
2745
100
AcDbVisualStyle
  2
Shades of Gray
 70
    23
177
     3
291
     0
 70
    58
 90
        2
176
     1
 90
        2
176
     1
 90
        3
176
     1
 90
        0
176
     1
 40
0.6
176
     1
 40
30.0
176
     1
 62
     7
420
 16777215
176
     1
 90
        2
176
     1
 90
        2
176
     1
 62
     7
176
     1
 62
     7
176
     1
 90
        1
176
     1
 90
        1
176
     1
 40
40.0
176
     1
 90
        8
176
     1
 62
     7
176
     1
 40
1.0
176
     1
 90
        1
176
     1
 90
        6
176
     1
 90
        2
176
     1
 62
     7
176
     1
 90
        3
176
     1
 90
        0
176
     1
 90
        0
176
     1
290
     0
176
     1
 90
        1
176
     1
 40
0.0
176
     1
 90
        0
176
     1
290
     0
176
     1
290
     1
176
     1
290
     1
176
     1
290
     0
176
     1
290
     0
176
     1
290
     0
176
     1
290
     0
176
     1
290
     0
176
     1
290
     0
176
     1
 90
       50
176
     1
 40
0.0
176
     1
 40
1.0
176
     1
 90
        0
176
     1
 62
    18
420
        0
176
     1
 90
       50
176
     1
 90
        3
176
     1
 62
     5
420
      255
176
     1
290
     0
176
     1
 90
       50
176
     1
 90
       50
176
     1
 90
       50
176
     1
290
     0
176
     1
 90
       50
176
     1
 62
   256
176
     0
 40
1.0
176
     0
 90
        2
176
     1
  1
strokes_ogs.tif
176
     1
290
     0
176
     1
 40
1.0
176
     1
 40
1.0
176
     1
  0
VISUALSTYLE
  5
CA1B
102
{ACAD_REACTORS
330
2745
102
}
330
2745
100
AcDbVisualStyle
  2
Sketchy
 70
    24
177
     3
291
     0
 70
    58
 90
        1
176
     1
 90
        2
176
     1
 90
        2
176
     1
 90
        0
176
     1
 40
0.6
176
     1
 40
30.0
176
     1
 62
     7
420
 16777215
176
     1
 90
        2
176
     1
 90
        2
176
     1
 62
     7
176
     1
 62
     7
176
     1
 90
        1
176
     1
 90
        1
176
     1
 40
40.0
176
     1
 90
       11
176
     1
 62
     7
176
     1
 40
1.0
176
     1
 90
        1
176
     1
 90
        6
176
     1
 90
        2
176
     1
 62
     7
176
     1
 90
        6
176
     1
 90
        0
176
     1
 90
        0
176
     1
290
     0
176
     1
 90
        1
176
     1
 40
0.0
176
     1
 90
        0
176
     1
290
     0
176
     1
290
     1
176
     1
290
     1
176
     1
290
     0
176
     1
290
     0
176
     1
290
     0
176
     1
290
     0
176
     1
290
     0
176
     1
290
     0
176
     1
 90
       50
176
     1
 40
0.0
176
     1
 40
1.0
176
     1
 90
        0
176
     1
 62
    18
420
        0
176
     1
 90
       50
176
     1
 90
        3
176
     1
 62
     5
420
      255
176
     1
290
     0
176
     1
 90
       50
176
     1
 90
       50
176
     1
 90
       50
176
     1
290
     0
176
     1
 90
       50
176
     1
 62
   256
176
     0
 40
1.0
176
     0
 90
        2
176
     1
  1
strokes_ogs.tif
176
     1
290
     0
176
     1
 40
1.0
176
     1
 40
1.0
176
     1
  0
VISUALSTYLE
  5
2752
102
{ACAD_REACTORS
330
2745
102
}
330
2745
100
AcDbVisualStyle
  2
Thicken
 70
    13
177
     3
291
     1
 70
    58
 90
        2
176
     1
 90
        2
176
     1
 90
        0
176
     1
 90
        0
176
     1
 40
0.6
176
     1
 40
30.0
176
     1
 62
     7
420
 16777215
176
     1
 90
        1
176
     1
 90
        4
176
     1
 62
     7
176
     1
 62
   257
176
     1
 90
        1
176
     1
 90
        1
176
     1
 40
1.0
176
     1
 90
       12
176
     1
 62
     7
176
     1
 40
1.0
176
     1
 90
        1
176
     1
 90
        6
176
     1
 90
        2
176
     1
 62
     7
176
     1
 90
        5
176
     1
 90
        0
176
     1
 90
        0
176
     1
290
     0
176
     1
 90
        1
176
     1
 40
0.0
176
     1
 90
        0
176
     1
290
     0
176
     1
290
     1
176
     1
290
     1
176
     1
290
     0
176
     1
290
     0
176
     1
290
     0
176
     1
290
     0
176
     1
290
     0
176
     1
290
     0
176
     1
 90
       50
176
     1
 40
0.0
176
     1
 40
1.0
176
     1
 90
        0
176
     1
 62
    18
420
        0
176
     1
 90
       50
176
     1
 90
        3
176
     1
 62
     5
420
      255
176
     1
290
     0
176
     1
 90
       50
176
     1
 90
       50
176
     1
 90
       50
176
     1
290
     0
176
     1
 90
       50
176
     1
 62
   256
176
     0
 40
1.0
176
     0
 90
        2
176
     1
  1
strokes_ogs.tif
176
     1
290
     0
176
     1
 40
1.0
176
     1
 40
1.0
176
     1
  0
VISUALSTYLE
  5
CA18
102
{ACAD_REACTORS
330
2745
102
}
330
2745
100
AcDbVisualStyle
  2
Wireframe
 70
     5
177
     3
291
     0
 70
    58
 90
        0
176
     1
 90
        2
176
     1
 90
        0
176
     1
 90
        0
176
     1
 40
0.6
176
     1
 40
30.0
176
     1
 62
     7
420
 16777215
176
     1
 90
        1
176
     1
 90
        4
176
     1
 62
     7
176
     1
 62
   257
176
     1
 90
        1
176
     1
 90
        1
176
     1
 40
1.0
176
     1
 90
        0
176
     1
 62
   257
176
     1
 40
1.0
176
     1
 90
        1
176
     1
 90
        6
176
     1
 90
        2
176
     1
 62
     7
176
     1
 90
        3
176
     1
 90
        0
176
     1
 90
        0
176
     1
290
     0
176
     1
 90
        1
176
     1
 40
0.0
176
     1
 90
        0
176
     1
290
     0
176
     1
290
     1
176
     1
290
     1
176
     1
290
     0
176
     1
290
     0
176
     1
290
     0
176
     1
290
     0
176
     1
290
     0
176
     1
290
     0
176
     1
 90
       50
176
     1
 40
0.0
176
     1
 40
1.0
176
     1
 90
        0
176
     1
 62
    18
420
        0
176
     1
 90
       50
176
     1
 90
        3
176
     1
 62
     5
420
      255
176
     1
290
     0
176
     1
 90
       50
176
     1
 90
       50
176
     1
 90
       50
176
     1
290
     0
176
     1
 90
       50
176
     1
 62
   256
176
     0
 40
1.0
176
     0
 90
        2
176
     1
  1
strokes_ogs.tif
176
     1
290
     0
176
     1
 40
1.0
176
     1
 40
1.0
176
     1
  0
VISUALSTYLE
  5
CA1C
102
{ACAD_REACTORS
330
2745
102
}
330
2745
100
AcDbVisualStyle
  2
X-Ray
 70
    25
177
     3
291
     0
 70
    58
 90
        2
176
     1
 90
        2
176
     1
 90
        1
176
     1
 90
        1
176
     1
 40
0.5
176
     1
 40
30.0
176
     1
 62
     7
420
 16777215
176
     1
 90
        1
176
     1
 90
        0
176
     1
 62
     7
176
     1
 62
   257
176
     1
 90
        1
176
     1
 90
        1
176
     1
 40
1.0
176
     1
 90
        8
176
     1
 62
     7
176
     1
 40
1.0
176
     1
 90
        1
176
     1
 90
        6
176
     1
 90
        2
176
     1
 62
     7
176
     1
 90
        3
176
     1
 90
        0
176
     1
 90
        0
176
     1
290
     0
176
     1
 90
       13
176
     1
 40
0.0
176
     1
 90
        0
176
     1
290
     0
176
     1
290
     1
176
     1
290
     1
176
     1
290
     0
176
     1
290
     0
176
     1
290
     0
176
     1
290
     0
176
     1
290
     0
176
     1
290
     0
176
     1
 90
       50
176
     1
 40
0.0
176
     1
 40
1.0
176
     1
 90
        0
176
     1
 62
    18
420
        0
176
     1
 90
       50
176
     1
 90
        3
176
     1
 62
     5
420
      255
176
     1
290
     0
176
     1
 90
       50
176
     1
 90
       50
176
     1
 90
       50
176
     1
290
     0
176
     1
 90
       50
176
     1
 62
   256
176
     0
 40
1.0
176
     0
 90
        2
176
     1
  1
strokes_ogs.tif
176
     1
290
     0
176
     1
 40
1.0
176
     1
 40
1.0
176
     1
  0
DICTIONARYVAR
  5
2E5F
102
{ACAD_REACTORS
330
1109
102
}
330
1109
100
DictionaryVariables
280
     0
  1
1:1
  0
DICTIONARYVAR
  5
2E5E
102
{ACAD_REACTORS
330
1109
102
}
330
1109
100
DictionaryVariables
280
     0
  1
STANDARD
  0
DICTIONARYVAR
  5
1F54
102
{ACAD_REACTORS
330
1109
102
}
330
1109
100
DictionaryVariables
280
     0
  1
STANDARD
  0
DICTIONARYVAR
  5
F660
102
{ACAD_REACTORS
330
1109
102
}
330
1109
100
DictionaryVariables
280
     0
  1
DIN 6
  0
DICTIONARYVAR
  5
F661
102
{ACAD_REACTORS
330
1109
102
}
330
1109
100
DictionaryVariables
280
     0
  1
DIN ISO 128-40_2002-05
  0
DICTIONARYVAR
  5
AFDD
102
{ACAD_REACTORS
330
1109
102
}
330
1109
100
DictionaryVariables
280
     0
  1
1
  0
DICTIONARYVAR
  5
AFDE
102
{ACAD_REACTORS
330
1109
102
}
330
1109
100
DictionaryVariables
280
     0
  1
15
  0
DICTIONARYVAR
  5
AFDC
102
{ACAD_REACTORS
330
1109
102
}
330
1109
100
DictionaryVariables
280
     0
  1
0
  0
DICTIONARYVAR
  5
AFDB
102
{ACAD_REACTORS
330
1109
102
}
330
1109
100
DictionaryVariables
280
     0
  1
0
  0
DICTIONARYVAR
  5
110A
102
{ACAD_REACTORS
330
1109
102
}
330
1109
100
DictionaryVariables
280
     0
  1
96
  0
ACAD_PROXY_OBJECT
  5
10EE4
102
{ACAD_REACTORS
330
CA80
102
}
330
CA80
100
AcDbProxyObject
 90
      499
 91
      552
 95
 11993117
 70
     0
162
                 0
161
                84
310
90100057356C1DC0406AAC
 94
        0
  0
DICTIONARY
  5
CA89
102
{ACAD_REACTORS
330
CA80
102
}
330
CA80
100
AcDbDictionary
281
     1
  3
DIN
350
10EEA
  0
ACAD_PROXY_OBJECT
  5
10EC7
330
0
100
AcDbProxyObject
 90
      499
 91
      524
 95
 11993117
 70
     0
162
               234
311
43904010C01340114014C016401340108013C0130014C01240168011400C
161
                34
310
000101420C
330
10EC4
 94
        0
  0
ACAD_PROXY_OBJECT
  5
10ED3
330
0
100
AcDbProxyObject
 90
      499
 91
      543
 95
 11993117
 70
     0
162
               196
311
421040134010C01540148014C015001100103440049004E00C
161
                32
310
0001010100
330
10EC4
 94
        0
  0
ACAD_PROXY_OBJECT
  5
10ED6
330
0
100
AcDbProxyObject
 90
      499
 91
      543
 95
 11993117
 70
     0
162
               276
311
431040104010C013C0134014001100118013801040134011401044B004F004D005000C
161
                32
310
0001010100
330
10EC4
 94
        0
  0
ACAD_PROXY_OBJECT
  5
10ED7
330
0
100
AcDbProxyObject
 90
      499
 91
      543
 95
 11993117
 70
     0
162
               340
311
4390401040118013C013001100114014801100118013801040134011401064F00720064006E0065007200C
161
                32
310
0001010100
330
10EC4
 94
        0
  0
ACAD_PROXY_OBJECT
  5
10ED8
330
0
100
AcDbProxyObject
 90
      499
 91
      543
 95
 11993117
 70
     0
162
               260
311
431040104010401380138013C01100118013801040134011401035F0041005600C
161
                32
310
0001010100
330
10EC4
 94
        0
  0
ACAD_PROXY_OBJECT
  5
10ED9
330
0
100
AcDbProxyObject
 90
      499
 91
      543
 95
 11993117
 70
     0
162
               772
311
439040104010C013C01340140015801240114015C01300124014C015001214F00620065006E000A0056006F0072006E000A005200650063006800740073000A004C0069006E006B0073000A0055006E00740065006E000A004100750078003100C
161
                32
310
0001010100
330
10EC4
 94
        0
  0
ACAD_PROXY_OBJECT
  5
10EDA
330
0
100
AcDbProxyObject
 90
      499
 91
      524
 95
 11993117
 70
     0
162
               234
311
439040134014C014C0150014801040130015C01040164014C013C013800C
161
                26
310
0001018C
330
10EC4
 94
        0
  0
ACAD_PROXY_OBJECT
  5
10EDF
330
0
100
AcDbProxyObject
 90
      499
 91
      547
 95
 11993117
 70
     0
162
                 0
161
                32
310
0001000000
330
10EC4
340
10EDC
330
10EE0
330
10EDC
 94
        0
  0
ACAD_PROXY_OBJECT
  5
10EE0
330
0
100
AcDbProxyObject
 90
      499
 91
      548
 95
 11993117
 70
     0
162
               314
311
44D1000C400C800C000800080012C010800C400800148012000C4010C0080011001040134013400C
161
                80
310
0001014140155005540000
330
10EC4
330
10EDF
330
0
 94
        0
  0
ACAD_PROXY_OBJECT
  5
10EE1
330
0
100
AcDbProxyObject
 90
      499
 91
      549
 95
 11993117
 70
     0
162
                 0
161
               178
310
000100AAAAAAAF6DADC2B5FB0910233B75565DF919488C
330
10EC4
330
10EE0
 94
        0
  0
ACAD_PROXY_OBJECT
  5
10EE2
330
0
100
AcDbProxyObject
 90
      499
 91
      550
 95
 11993117
 70
     0
162
                 0
161
               108
310
0001901422000000000000AAAAAC
330
10EC4
330
10EE3
330
10EE3
330
10EE3
330
10EE3
330
10EE3
330
0
 94
        0
  0
ACAD_PROXY_OBJECT
  5
10EE3
330
0
100
AcDbProxyObject
 90
      499
 91
      551
 95
 11993117
 70
     0
162
                 0
161
                51
310
00010000AAAA8C
330
10EC4
330
10EE2
330
10EE0
 94
        0
  0
DICTIONARY
  5
10EC0
102
{ACAD_REACTORS
330
CA67
102
}
330
CA67
100
AcDbDictionary
281
     1
  3
DWGSETTINGS
350
10EC1
  3
TRANSSETTINGS
350
10EC2
  0
ACAD_PROXY_OBJECT
  5
10EFC
102
{ACAD_REACTORS
330
CA67
102
}
330
CA67
100
AcDbProxyObject
 90
      499
 91
      573
 95
 11993117
 70
     0
162
             15940
311
404C0010441004D005F0030009013100411040134017C00C402404C8010441004D005F0032009013300411040134017C00CC02404D0010441004D005F0034009013500411040134017C00D402404D8010441004D005F0036009013700411040134017C00DC02404E0010441004D005F0038009013900411040134017C00E40
311
2408C80104010541004D005F003100300090234004100415040134017C00C400C402409240140010541004D005F003100320090230004E00415040134017C00C0013802408C40138010541004D005F0031004E0090232004E00415040134017C00C8013802408CC0138010541004D005F0033004E0090234004E0041504013
311
4017C00D0013802408D40138010541004D005F0035004E0090236004E00415040134017C00D8013802408DC0138010541004D005F0037004E0090238004E00415040134017C00E0013802408E40138010541004D005F0039004E00903320041004E00419040134017C00C400C001380240CD001040138010641004D005F003
311
10031004E00903490050004E00419040134017C00C400C80138024112C013001240138010541004D005F0043004C0090449004E0046004F00421040134017C01400104014801140118024154801040120013400D4010641004D005F0042004F0052009045600490045005700421040134017C015801240114015C014C02419
311
0801140120012401380110010641004D005F0049004E00560090554005200410049004C00415040134017C015001480240D2001240110010641004D005F00480049004400903560049005300419040134017C01580124014C024194001040148011001240134010941004D005F00500041005200440049004D009065200450
311
04600440049004D00425040134017C01480114011801100124013402411080120013801580101390041508012001380158014C010642004500480049004E00440041108013C014800C801055200410048004D00350041108013C014800CC01055200410048004D00350041108013C014800D401055200410048004D0035004
311
110C0104013000C8010134004110C0104013000CC010134004110C0104013000D4010134004110C0104013000DC010134004110C011401380138010137004110C01140138015C010137004110C01300124013801044B004C0049004E004110C013C013800C4010130004110C013C013800C8010131004110C013C013800CC0
311
10132004110C013C013800D00101320041110011401500104010134004111001240104011C010135004111001240130012401013500411100124013401400106500041005200440049004D00411100124013401480106520045004600440049004D00411180114013401380101380041518011401340140013801013800415
311
1801140134014C01400102340041004151801140134014C015001023400410041518011401340158013801013200415180114013401580150010132004112001040150010C0101380041120012401100138010133004112001240110015C01013300411200130012401380101340041120013C010C01380101370041120013
311
C010C015C010137004112401380118013C010449004E0046004F00411300114010401100101350041938017C0108012001380158010239004E0041938017C010C013C013800C4010230004E0041938017C010C013C013800C8010231004E0041938017C010C013C013800CC010232004E0041938017C010C013C013800D001
311
0232004E0041938017C010C011401380138010237004E0041938017C010C01140138015C010237004E0041938017C0110012401300124010235004E0041938017C012001040150010C010238004E0041938017C0120012401100138010233004E0041938017C012001240110015C010233004E0041938017C0130011401040
311
110010235004E0041938017C0138011C012401400103490050004E0041938017C01400120010401380103340041004E0041938017C0150010C013C0138010230004E0041938017C0150012001300124010234004E0041938017C0150013001140138010230004E0041938017C01580140013001240103320041004E0041138
311
011C01240140010249005000411400104013000C801055200410048004D003500411400104013000CC01055200410048004D003500411400104013000D401055200410048004D0035004114001200104013801023400410041140013C014C01380101350041148010C011C01380101370041148010C011C015C01013700411
311
4C01080148012C010134004114C0114010C0150010134004114C0164010800CC0101350041134014C016401340101350041150010C013C0138010130004115001200130012401013400411500124015000C801055200410048004D003500411500124015000CC01055200410048004D003500411500124015000D401055200
311
410048004D0035004115001300114013801013000415500148010401240130010554005200410049004C004115001480130012401013400411500160015000C401013600411500160015000C801013600411500160015000CC01013600411500160015000D401013600411500160015000DC010136004115801240114015C0
311
10456004900450057004115801140110012001034800490044004115801140110015801035600490053004115801400130012401023200410041168012401680104010134004114C014001300124010232004100404FC02C
161
              8972
310
4210449201C00030C013244203800030C013244201400030C013244201800030C0119A00C00030C0119A00C00030C0119A00800030C0123A01000030C0119A00400030C0119A3F400030C0241201C00030C0132A00C00030C0119A01C00030C013240A01C00030C0132A03800030C0132A01400030C0132A01800030C0119A
310
00C00030C0119A00C00030C0119A00800030C0123A01000030C0119A00400030C0119A3F400030C0241201C00030C0132A00C00030C0119A01C00030C013240A00400030C011942601000030C011942E01C00030C013242600400030C011942E3F400030C0243600C00030C011942601C00030C011942601C00030C0132426
310
00C00030C011942601000030C0119425548000000C0003FFFFFFFE8000000C0003FFFFFFFE8010000C3004668020000C30048E8000000C0003FFFFFFFE8000000C0003FFFFFFFE8020000C30048E8070000C3004CA81E0000C30051A8000000C0003FFFFFFFE8000000C0003FFFFFFFE8000000C0003FFFFFFFE8000000C00
310
03FFFFFFFD038000000C0003FFFFFFFD038000000C0003FFFFFFFD038000000C0003FFFFFFFD038030000C3004668000000C0003FFFFFFFE8000000C0003FFFFFFFE8000000C0003FFFFFFFE8000000C0003FFFFFFFE8000000C0003FFFFFFFE8030000C3003FFFFFFFE8000000C0003FFFFFFFE8030000C3004668000000C
310
0003FFFFFFFE8030000C3004668000000C0003FFFFFFFD018000000C0003FFFFFFFD038000000C0003FFFFFFFD038000000C0003FFFFFFFD018000000C0003FFFFFFFE8000000C0003FFFFFFFE8000000C0003FFFFFFFE8000000C0003FFFFFFFE8000000C0003FFFFFFFE8000000C0003FFFFFFFD038000000C0003FFFFFF
310
FD038000000C0003FFFFFFFD038000000C0003FFFFFFFD038000000C0003FFFFFFFE8000000C0003FFFFFFFE8000000C0003FFFFFFFE8000000C0003FFFFFFFD018000000C0003FFFFFFFD038000000C0003FFFFFFFD038000000C0003FFFFFFFE8000000C0003FFFFFFFE8000000C0003FFFFFFFE8000000C0003FFFFFFFD
310
038000000C0003FFFFFFFD018000000C0003FFFFFFFD038000000C0003FFFFFFFE8000000C0003FFFFFFFE8010000C3003FFFFFFFE8020000C3003FFFFFFFE8070000C3003FFFFFFFE8000000C0003FFFFFFFE8000000C0003FFFFFFFE8000000C0003FFFFFFFE8000000C0003FFFFFFFE8000000C0003FFFFFFFD01800000
310
0C0003FFFFFFFD018020000C30048E8020000C3003FFFFFFFE8000000C0003FFFFFFFD038000000C0003FFFFFFFD018010000C3004668020000C30048E8000000C0003FFFFFFFE8000000C0003FFFFFFFD038000000C0003FFFFFFFE8000000C0003FFFFFFFD018030000C3004668030000C3004668000000C0003FFFFFFFE
310
8070000C3004CA81E0000C30051A8000000C0003FFFFFFFE8000000C0003FFFFFFFD028000000C0003FFFFFFFD028070000C3004CA8000000C0003FFFFFFFD018010000C3004CAAAA3F400030C010A4393241532409234794641D3241119405197F64191940D1980200C
340
14
340
14
340
14
340
10C5C
340
14
340
14
340
14
340
10C5D
340
14
340
14
340
10C5D
340
10C5E
340
14
340
14
340
14
340
14
340
10C5C
340
14
340
14
340
14
340
10C5D
340
14
340
14
340
10C5D
340
10C5E
340
14
340
CAA0
340
14
340
14
340
14
340
14
340
14
340
10C5C
340
14
340
14
340
14
340
13
340
13
340
13
340
13
340
13
340
13
340
13
340
13
340
13
340
10C5F
340
13
340
13
340
13
340
13
340
13
340
13
340
14
340
13
340
13
340
13
340
13
340
13
340
13
340
14
340
13
340
13
340
13
340
13
340
10C60
340
13
340
13
340
10C5F
340
13
340
13
340
13
340
13
340
13
340
13
340
13
340
13
340
10C5F
340
13
340
13
340
13
340
10C60
340
13
340
13
340
13
340
13
340
13
340
13
340
13
340
13
340
13
340
14
340
14
340
14
340
13
340
13
340
10C5F
340
13
340
13
340
13
340
13
340
13
340
13
340
13
340
13
340
13
340
13
340
13
340
13
340
13
340
13
340
13
340
13
340
13
340
13
340
13
340
13
340
13
340
10C5D
340
CAA5
340
10C5D
 94
        0
  0
DICTIONARYVAR
  5
124E2
102
{ACAD_REACTORS
330
124E1
102
}
330
124E1
100
DictionaryVariables
280
     0
  1
8
  0
DICTIONARY
  5
10F05
330
10F04
100
AcDbDictionary
280
     1
281
     1
  3
ACAD_FIELD
360
10F06
  3
ACAD_XREC_ROUNDTRIP
360
12E06
  0
DICTIONARY
  5
115DD
330
F54B
100
AcDbDictionary
280
     1
281
     1
  3
ACAD_XREC_ROUNDTRIP
360
12E03
  0
DICTIONARY
  5
115E1
330
F664
100
AcDbDictionary
280
     1
281
     1
  3
ACAD_XREC_ROUNDTRIP
360
12E05
  0
DICTIONARY
  5
CC42
330
1712
100
AcDbDictionary
280
     1
281
     1
  0
DICTIONARY
  5
10DA2
330
2744
100
AcDbDictionary
280
     1
281
     1
  3
FBXASSET
360
10DA3
  0
XRECORD
  5
124BF
102
{ACAD_REACTORS
330
124BE
102
}
330
124BE
100
AcDbXrecord
280
     1
 70
     0
  0
DICTIONARY
  5
10F0B
330
10F0A
100
AcDbDictionary
280
     1
281
     1
  3
ACAD_FIELD
360
10F0C
  3
ACAD_XREC_ROUNDTRIP
360
12E07
  0
DICTIONARY
  5
115DB
330
F549
100
AcDbDictionary
280
     1
281
     1
  3
ACAD_XREC_ROUNDTRIP
360
12E02
  0
DICTIONARY
  5
115DF
330
F663
100
AcDbDictionary
280
     1
281
     1
  3
ACAD_XREC_ROUNDTRIP
360
12E04
  0
DICTIONARY
  5
2DE1
330
1F22
100
AcDbDictionary
280
     1
281
     1
  3
ACAD_ROUNDTRIP_2008_TABLESTYLE_CELLSTYLEMAP
360
12E01
  0
ACAD_PROXY_OBJECT
  5
10EEA
102
{ACAD_REACTORS
330
CA89
102
}
330
CA89
100
AcDbProxyObject
 90
      499
 91
      583
 95
 11993117
 70
     0
162
              3904
311
40D10012401380242D0401B4019001D001140190019C0194014C01D00190010E410063006D005300750072006600540065007800740053007400640042504018C01B40118010C0118014C01D00190010D410063006D00570065006C00640069006E00670053007400640042104018C01B401240190014C01D00190010B4100
311
63006D0044006100740075006D0053007400640042504018C01B40108013C0134014C01D00190011041006D0064007400440065007400610069006C00530079006D005300740064004450401B4019001D0014C0194018C01D001A401BC01B8014C01E401B4014C01D00190011141006D0064007400430065006E0074006500
311
72004C0069006E0065005300740064004450401B4019001D0015001A001C8019401840190013001A401B80194014C01D00190010B41006D00640074004E006F007400650053007400640042D04018C01B40150018401C0019401C8014C01D00190010D41006D006400740041006E00560069006500770053007400640042D0
311
4018C010401B4019C0130018401E4014C01D00190010B4100630041006D006700440069006D0053007400640044504018C010401B4019C012001BC01B00194010C01A0018401C801D0014C01D00190010D4100630041006D0067005400690074006C006500530074006400B2
161
               737
310
7000000000000000C408000000C00040540600800030C02000000300000000000000000C40C95224812028120281202812028120281202812028120881208812028120281202812028120281202812028120281203204809FFFE7FFFCC
340
F
360
10EEB
360
10EEC
360
10EED
360
10EEE
360
0
360
0
360
10EF1
360
10EF2
360
0
360
0
360
0
360
10EF3
360
0
360
0
360
0
360
10EF4
360
10EF5
360
10EF6
360
10EF7
360
10EF8
360
10EF9
360
10EFA
360
10EFB
360
10EFD
340
F6AF
340
0
340
13
340
13
 94
        0
  0
ACAD_PROXY_OBJECT
  5
10EC1
102
{ACAD_REACTORS
330
10EC0
102
}
330
10EC0
100
AcDbProxyObject
 90
      499
 91
      541
 95
 11993117
 70
     0
162
              4076
311
42D10015C011C014C01140150015001240138011C014C0109430041004E00470041005200520041005900420CC00C001F000D000D401F000D800C00106430045004E0041004E004700424D000D401F000E400C001F000C400CC00D40106430045004E0044004900410041D0C01140138011001240104014C0108310030007C
311
00320030007C003300300041D0C0114013801100124014C01500106430045004E004C0045004E004190C01140138013C01180118010E4300480041004D00460045005200440049004D004D004F00440045004550C0120010401340118011401480110012401340134013C01100114011001140118010401540130015001094
311
3004C0049004E0041005200520041005900420C400C001F000C800C001F000CC00C0010843004C0049004E004500540059005000415600130012401380114010944005700470055005300430041004C00450041D300104014C0150013C0108012801013000421340104012C0114015801240114015C0106500053004300410
311
04C00450041948011401580124014C0124010130004154C010C010401300114010831003A003100340032002E003800350042550012401340114014C01500104013401400107560045005200530049004F004E00414C400D400B800C000C001107B00440057004700530045005400540049004E004700530045004E0044007
311
D00C
161
               572
310
40682A0A940000000000000488082A5000000000000004202500000000000001220250000000000000122027F27F20A82A50A0A9FA040C008000105415282F53C584BB4E5CD0505C
 94
        0
  0
ACAD_PROXY_OBJECT
  5
10EC2
102
{ACAD_REACTORS
330
10EC0
102
}
330
10EC0
100
AcDbProxyObject
 90
      499
 91
      541
 95
 11993117
 70
     0
162
              1382
311
43550014801040138014C014C01140150015001240138011C014C0112440052004100570049004E0047005400520041004E0053004C004100540049004F004E004353C01480124011C012401380104013001300164017C013C0138010A53004F0055005200430045004C0041004E00470040D1001140154010955005000520
311
0450053004500520056004500441EC0110015C011C014C01140150015001240138011C014C01140138011001F400
161
               126
310
4060C00800041801000020A0C0080000
 94
        0
  0
DICTIONARY
  5
10F06
102
{ACAD_REACTORS
330
10F05
102
}
330
10F05
100
AcDbDictionary
280
     1
281
     1
  3
TEXT
360
10F07
  0
XRECORD
  5
12E06
102
{ACAD_REACTORS
330
10F05
102
}
330
10F05
100
AcDbXrecord
280
     1
102
DISPLAYNAME
  1
DIN 6
102
FLAGS
 90
        1
  0
XRECORD
  5
12E03
102
{ACAD_REACTORS
330
115DD
102
}
330
115DD
100
AcDbXrecord
280
     1
102
DISPLAYNAME
  1
Imperial24
102
FLAGS
 90
        0
  0
XRECORD
  5
12E05
102
{ACAD_REACTORS
330
115E1
102
}
330
115E1
100
AcDbXrecord
280
     1
102
DISPLAYNAME
  1
Metric50
102
FLAGS
 90
        0
  0
XRECORD
  5
10DA3
102
{ACAD_REACTORS
330
10DA2
102
}
330
10DA2
100
AcDbXrecord
280
     1
 70
     1
 90
2070111275
 71
     1
  1
31AFE870-AD6E-42BB-816D-E1138D70748E
311
504B0304140006080800C54D154725121D4DDB000000200100004F00000037374436353036412D363242372D344236322D424335372D3136433642384535323345442F4173736574446174612F446566696E6974696F6E4974657261746F7250726F706572746965732E62696E454E3D4FC3400CBD32503130F00FAAEEC7DD
311
E5A34DA2B688D086091698582AF7E2964897A4CA25122323FF1A6CD1AA969E9F3F9FFD2384F83D19856244F8267F4BFC8C0D76957DB39F5883B8E68A6B77E0C697DE15859CAE710F83EB79EBA5F2169D8306DBC1DF5D462735F42407EE9E976E08E7826785C3FF31BEFF4AE09798A13C660FE03DF64BB5DF7DA9A7C2A4611E
311
16329C07A98CA23897495C84325FE7B33899478FC9C6A80E7D3B7416BD0A94DE9E94B7C7E65095AB455FD53869A0C6E5D476483F95D355A04D2C752203F3AED32C9A65467F2C144FFE01504B0304140006080800C54D1547A047EE940D010000300200004500000037374436353036412D363242372D344236322D42433537
311
2D3136433642384535323345442F4173736574446174612F496E7374616E636550726F706572746965732E62696EEB606060F80F0540260323103700495E20ED9E9A975A94991C9C9C919A9BA802143036747473B53037D075743173D535317272D2B5303473D175353434B67031373037B17065476884683171713532B5D4
311
35353131D635313332D475727372D13534373670367376B67474B504EA00DBCBA019D37FE8ABC6157B20CD04146B0062181F4C03F940F0C11EA29A8141C08141002C0426541C106CAC2CA046088033B02A030AC2157C6006F21A8018AAF50194E6010A610250382264E08660284CD9E98021862280A91564B406929A0FF62C
311
401E28B6F88038B83CB1243943D7A928312F25350524D351BFD71048110D76BF28B5DE9D74C5AC724AA67D25DF092B90C92000320B0432CA33C1E60100504B0304140006080800C54D154728BB58AF800100009E0500003D00000037374436353036412D363242372D344236322D424335372D313643364238453532334544
311
2F536368656D61732F436F6D6D6F6E536368656D612E786D6CBD544D4FC23018BEFB2B96DE15493C78601010A34B880709DEDFB52FD0D8B54BD70DF6EFED3AC0B12E6442E2716BFB3CEFF3D18E26FB440405EA8C2B1992E1C323095052C5B8DC842437EBFB673219DF8DA659866649B798C078B48AE6410122242F2A4994AC
311
7F93815DF85C049C8564CA0A901499DD886B2EB9B1E02448F358701A9235880C49A0119892A20C89D1B9FD768815CAD268CB5E0355B40B1E47F3E37A2020464BED06AA57CE8FCC20C3C3446D46761A2632A8C1283D07031EFF2AE7CCB1BFEEE916E406DFAC8E36FFD99A9D60A6944090EEDC3B670C7DC13DE86B6B2C5C240D
311
6E503BB85ACD579D513F1B9F9A69DC9CC22AFA80C426D40AF0B21EA168559156B6276F0F726A6BFF04DCD513A87A62CAD41FB24FCB2858B3952E3D852084DA25B9303C15687973CC8E8AAE11DF2836C38C6A9E765E8C1BA1BFB1DC29CDFE518C8B5A7655A4ED7E77291ABEB80DBD82EC866ADE1B8D05AF9E35CF09D7A061F3
311
8A986D9EC412B8F0F65E5D81534D9B231D1E5A8FE577A241F3A5FD01504B0304140006080800C54D15472CCEBD668A040000E01200003E00000037374436353036412D363242372D344236322D424335372D3136433642384535323345442F536368656D61732F47656E65726963536368656D612E786D6CD5586D6FDB380C
311
FE7EBF42F0F7A649B70E1B90744856B4970F450FCD7A5F05459613EDE4174872DADCAF3F522F8ED3B88D2F1D06AC4050DBA2493EE4438AF2F8EB73AEC8466823CB62928C06C384888297A92C5693A4B6D9D9E7E4EBD51FE3A931C22EF85AE4EC6AFC38BF261BA626C9AD288496DC3F4FCEAFC63366845F7A10452AF41DB320
311
C0D44EC26EAB20918735565582695670811A6A49643A49A6E9069FA4604A64B29016DC4B48552F95E4932463CA888468C1D2B250DB4962750DF7CE273069CE8363F1FF4EDB00E0A21999574AE4A2B00C353B93F3BD4777B8A61ED8F604ABFEDD79CE56A2B7BDFBDBC50996E0ADDE16FED26223C5D30956C29BDF4A55EA686E
311
5E58B112DA45CE67F76F4FA27EFA3FB672FD7372FC388FAECDCA5209E693CAD167BADCD272F943701B3812F8A3D852008B1D2E32DB927B2F833C6EA95879925356D254582695095A3CE982924720BE5774A3CB9CDCDB350427D2DF20DA1B5532EBE2D5D6288D75D4F7E4FD9890A0EF8E3D93EBB8F8BA4758158EF6FB90A6F9
311
520281C93DE7AAC6D24607DA296BB96018123F821A7D6A5C5884050C475DA4865442732C8B95684A50165CBB3A32F25F783A4A480ED59AD7F924B968AEA50131F46303223E6A397B0E52976030DC1DCA81D7E7C1EDEEA42C19FF27635C505E2BD5198A599020DF50A2330FCB3AAF28CB0124108429553EF1B228802E2265D8
311
F7CC2401042B155BCC7070F1E5C55F13B4A9577362CCCE46C32174E010C3C378C44841A4BDA00FE3A12006CE11EE6AEC59894D3526DDE1CD59D503ECC324017F8061B7F162162FA62EDD81AE3308617770796DCBDAD2B2625C5AE8A63DE20B2C8AA5E95E76E5730823955956E33E705425A2187C185D36489A1B44D3DCEC21
311
72F6BA2105C3546287A7194B2331768EBBE64F6E70A9930ABE0ADEA89E9E2C38523B810287AD67A54A039C1606EAFE68F8304610BB9093DBDDABC0B2AE4E290DCDA15376D7E39F72B556F0B32EAB5D3D498B4C41ABADEC3A1434C422D87E8025A84BDCB2B1417ED750FAE4DA8976863974C577C7F902D3F156AD354DEA3540
311
DE6BEAE2BEA52F7A2EB4CA43802ECE5BF2CE2EDC9347179FFB023CE412E60BE16DA0BE29B374988A553F561DC04615DD35F7D2C8979F60E5955CE93DF29DED8AFA1EE6642D53418086C03C47C377910F75F7E8F5EF665F70B60FFB22AEDF897D119E8423C773E819A3C1E55E550599EE6EDCA34D0C86FD72057DF2CD46F16A
311
470682471C164E4346D5306BF12D7D12D82CFF673D41636C347443FEB51B50D72EA171A8E4A58623A4A16E0FA2B8B10A0D23268D87C33896EE8FB73305A74BF224EDBADFA0BD674AB354D63DB7BD5D83426761C077DE767728235446A552754EB93B755891C3C4CC6CADE37CF0E912A7BB38DBA010F9DE1282EDF470CA69A9
311
CDA482E334C4A6EA4107987980B17E72F31730EBF88BBD39E7C629F56797A3C0009C2C5AE7951D9A05A02773440F02EEB4DE396A3B6A570C72CCFBCD823B0B8ED3F1D5CEDDFED772FA70236C83FB7D86C385D570B87107535572A60A96035F8F7C6A7192F13007246BBE0521855E6AC46F3E27689CEE7D186A6FD679D98CDC
311
AD13333E04EBE7ED6F55FF01504B0304140006080800C54D15476180134D5F0100006B0300004500000037374436353036412D363242372D344236322D424335372D3136433642384535323345442F536368656D61732F52656E6465724D6174657269616C536368656D612E786D6CA5934D6FC2300C86EFFB1551EEE343DB
311
A41D1A103009551ADAD40EAE28A4A68D9426284961FCFBE5A340113B2071746D3F765EBF4DC6BFB5407BD0862B49F0B037C0082453059725C18DDD3EBFE3F1E829991803366715D474942CD30FB4A782E00C64017A412D684E454CE3FE28995203B162A6EA5AC94B66997D225E109CD63B0135484BAD1B3C07E9080CA35DB3
311
119C11BCA5C200461A68A1A438126C75E3E230D40FF81FB3F03C91D1E3A3A0AF79FE28E25BC39EC3E17E4C2A2D94A0833A51AF55BCCA7D88572FCBAC529C4140B020FC3AAFA886621DCED7EAD7664CC86024E806DC297DA1BB393E4156543457A4537DB8817349A70F8ACBF09B3EEE2CB2F33E91B65D60786E4E3B39B77E3F
311
EEEF5650424525DA657FB8B46BE6BF064646F0A0F7327C0BC1BC1B4CBBC1C419FA3CCB23500007872A2580CAAE5461865565294E4EDB4617B62FF579DF9A5B2F54E834076A597573A020912FED777F9B3F504B0304140006080800C54D1547E86B111B51000000570000004700000037374436353036412D363242372D3442
311
36322D424335372D3136433642384535323345442F4173736574446174612F41737365745461626C654F66436F6E74656E74732E62696E536160603036747473B53037D075743173D535317272D2B5303473D175353434B67031373037B1701502AACB4D2C492DCA4CCC492C28484D2C4ACC4B4E050A82012F90744FCD03CA
311
26072767A4E6260200504B0304140006080800C54D1547F865834058000000680000004500000037374436353036412D363242372D344236322D424335372D3136433642384535323345442F4173736574446174612F53747265616D56657273696F6E5461626C652E696E66558CBD0A80300C06F73E4B117FB66E451741D0
311
41DC5BF98480A492E4FDD18EAEC7DD4555D89EF28DF51A0B1BD8340C4DE7DD848B988C0ACF0649566493F2408C508DDEBB99D5129FF8F1AF8CF5B9503E20FAE5A16B5AF702504B0304140006080800C54D1547F1ACFBAB350100009A0400003600000037374436353036412D363242372D344236322D424335372D31364336
311
42384535323345442F4173736574446174612F636E782E786D6CCD94314FC3301085FF4AE43D7652012A95E30AC1D209242A06B6AB7369AD3A76645F10FC7BEC3403A888A943D7F3BBF3F327BF93EBCFDE161F18A2F1AE6135AF58814EFBD6B87DC346EACA252BD64A06EFE9878C150E7A6C582E3325F7C18FC35C6AB183D1
311
E6AA35EE38171F6244DAC2CEE273F7E81DA1A3C80A6D21C686457DC01E388CE45B8C47DE0201AF79C0E8C7A0314D22D3E33C490704C296A94555DF96D5B25CD4DBEA7E7573B7AAAB7729B252C99DF776D69B7459F043A14FB7325549918F951C839935F92D4CFDE591EF8C932229958C141293B983BE86D401C3608D064AE8
311
84D784542611422FC549ACA4C80C7E9178C2CE38935B36C918900F2FC91E0632787544FEF37A79321B17099CC6EBE571EEF0F2145EA71FF4760AE494986BCBC9B9436E5C77819488698DA4D0E4ADA2BE01504B0304140006080800C54D1547F3DF3D0A080100004F0300003400000037374436353036412D363242372D3442
311
36322D424335372D3136433642384535323345442F536368656D61732F636E782E786D6CCD933F4F432114C5BFCA0B7B81D7A8A90D8F0E0E4E2EEAE48670DB9202F7853F46BFBDF0646813371DBAC1E11772CEE122769FDE0D1F1093C5309191723240D0686C384CA4E4FD6A43869D1411319F616408CAC3449A4CA438442C
311
73970CEC55714D75369CBAF880DE6378D147F08A0CDAA9942692962D5525A38174A2466545471A2161891AEA0DD97AE837E8082A832172CDC7DB15DFACD6E32BBFDFDEDC6D47FE265823A57847749DB72143C479D05817A1DAE182B563294AB49D6919883CF7466B1B8255428A9463EDA093F96BAEA49A6767B5CAB52AB680
311
3F8C14AC45BD08FC0801A2D5D799F8C2DCBF457E8660203ED5578A56B9EB4CFE9BC7BF15C096D9AF23D0BE82FC06504B0304140006080800C54D1547410A3D5871000000A40000002C00000037374436353036412D363242372D344236322D424335372D3136433642384535323345442F636E782E786D6C55CC4D0E823010
311
86E1AB34B31774E7A22D31F1069E60020334B633A63FC6E34B0909B07DDE2F9FEE7EC1AB2FC5E4840DDC9A2B28E25E06C7938192C7CB1D54677514C9871928C640062A83D55394F2D968A0118BAFEA1DBF377CA444F98919176EAB9FEAAB9F2960DA5BBB1E2ED3FA6FFF504B0304140006080800C54D154746DC93997E0000
311
00A300000007000000636E782E786D6C4D8C410E83201405AF42FE9E5669F9B8104C510F622A1A5284864AD3E3171A175DBD64F266DAEEB339F236F1658397509F2A20C6DFC36CFD2A21ED0B6D8074AA8D21EC7F37207EDA8C848241B56B0CE979A0D92C5372853AEB1F071462405EE18D22D3825E3532AA7B2E688D3DEA66
311
E4EC320ED9381725CFAF97B7E4D517504B0304140006080800C54D154716E99B5DA600000035010000130000005B436F6E74656E745F54797065735D2E786D6C9590410E82301045AFD2740F4517C6180A0BF5065E60AC53688469D30E066F6F91AD9AB89CF9FFFD3F99BA9DC7413C3026E749CB4D59498164FCCD51A7E5C4
311
B6D84BD136F5E5193089ECA5A465CF1C0E4A25D3E308A9F401292BD6C711388FB15301CC1D3A54DBAADA29E38991B8E0254336F5092D4C038BF39CD76B6FC6A538AEBEA54A4B08617006389FA516557DE4AE8E7E70DE30729138228C5F021CD93F02D4FB0DCD0B504B0304140006080800C54D15473DEE336E640000007900
311
00001B0000006175746F6465736B2D64657369676E2D7061636B6167652E786D6C35CBC10E83200C00D05F21DCA56CA76D41FC96062B120735B69A7DBE268BB7777961F8D5AF396893C2ADB70FE7ADA196782C2DF776D7A97B5933C430F15651E5469C55D70F80A4992A3ADC954792C525AE70A1E4D6AD9816CC044FEFDF01
311
FE3FDE907802504B0304140006080800C54D154749161407F9000000960100003700000037374436353036412D363242372D344236322D424335372D3136433642384535323345442F4173736574446174612F636F72652E786D6C8550416E833010FC0ADABBC1264020328E48235ED0536F96ED102BC146D8AEFAFCDA814A
311
EDA9A75DCDCECCEE0E3D7FCDCFEC53AD4E5BD303C93164CA082BB5997A08FE865AC8CE8CAED6FA5F34C80C9F550F090646A7D586658784355E99841A2BD50E72E794874C3C63D383137735F39C071F19EE912F5C3CF8A472926F3C4643D072976A19DDF44DAB15587D19C97018463474F580AAE3E58A3AFCD6A2B124D550D6
311
5D838F0D2D929851AFE79FED6255DC2B09ACC4A446B8452579C7DDA96A4E047FD0223119757E8D3FEF4BD377C08674F5957B4E8B6DFAC7352CF27FD7A08D3F94BBEBA670C0483CF23560B44829C5F28A30D69428FB06504B0304140006080800C54D15475B9F59C7F8000000940100003500000037374436353036412D3632
311
42372D344236322D424335372D3136433642384535323345442F536368656D61732F636F72652E786D6C8550CB6E833010FC15B477834D8040641C9156FC407BEACD320EB1126CE447D5CFAF1DA8D49E7ADAD5ECCCECEED0F3D7F2C83EA575CAE81E488E21935A9849E9B987E0AFA885ECCCA835C6FFA241A6F9227B483030
311
3A5B13D61D12467BA913AACD2477903B273D64E2119B1E9CB8C985E73CF8C870F77CE5E2CE6799937CE3311A829A76A99AA29BBA2A6981D597910C87614443570FA83A5E5E51875F5A3496A41ACABA6BF0B1A1451233EAD5F2B35D58C9BD9C809598D408B7A824EFB83B55CD89E00F5A2426A3CEDBF8F3BE347D07ECED79A7
311
A3C536FBE319D6E97FCFA0B43F94BBE7A670C0483CF13960B44819C5F20C30D69427FB06504B0304140006080800C54D154769187DB401010000D70100002D00000037374436353036412D363242372D344236322D424335372D3136433642384535323345442F636F72652E786D6C9591C172832010865F85D93B2A26A2CD
311
20999AE40D7AEA8DCAC63289E00874FAF8C56AA7EDAD3DC1FC7CFF2EFFAE38BE8F77F286B337CEB6C0B20208DADE6963871662B8D206C8518AD9B9F0030362D5882D2C324831CC2E4E9BD43B1BD02EAA751A3751798F01487F4F97167CFF8AA3CA540C89F0B76C52FD4D0D98B16CE5A40866FCB2F633AA801A6459B08A160D
311
2DD953F170D8F3032B9E45BE90524463C3AEDC9AE1F8829AB829A448202B91AFAF898A466F8CD1E98FE66A700659D7675E15FC91F2B2ABE9BEE325ED4E554D193FF1AEB954E5EE724E4592590A1FE63499ADC83283BFDA57E3AF6471D2FF4CB63A3C48F61D2A5FC62C45FEB983742E2B911F504B0304140006080800C54D15
311
47C56A558708010000B201000008000000636F72652E786D6C8D50C16E842014FC15F2EE28B8EAEA06D9B86DFC829E7AA3C2BA64158CE0A6FDFBC26A93F6D6D32333F3DE0CC3CE9FD3881E6A71DA9A0668420029D35BA9CDD0C0EAAFB80274E66CB1D6FF92013262520D4418381B16BBCE3BD45BE39589A8B152EDA0704E79
311
40FD181E0DB8FEA6269188D50785BB27B3E8EF6250094D361D675E4F3FABFDA284571278466881498533FA46EA535E9E287967695472B6AE5AEE565A06777DD56A015E5C3ADA1EDA0EB775D1E2FC7879C53579A97097D1BCCD8ABA24C792A5719933E797F0E7FD48C8E991138FE8CBD28DE2ECC3DA711784501259337E0127
311
2C8DC49FD0EB2CFF115A1B7FC8F683DB86034E43A027118C6383613CEB0D33B6CDBF01504B01021400140006080800C54D154725121D4DDB000000200100004F000000000000000000000000000000000037374436353036412D363242372D344236322D424335372D3136433642384535323345442F417373657444617461
311
2F446566696E6974696F6E4974657261746F7250726F706572746965732E62696E504B01021400140006080800C54D1547A047EE940D0100003002000045000000000000000000000000004801000037374436353036412D363242372D344236322D424335372D3136433642384535323345442F4173736574446174612F49
311
6E7374616E636550726F706572746965732E62696E504B01021400140006080800C54D154728BB58AF800100009E0500003D00000000000000000000000000B802000037374436353036412D363242372D344236322D424335372D3136433642384535323345442F536368656D61732F436F6D6D6F6E536368656D612E786D
311
6C504B01021400140006080800C54D15472CCEBD668A040000E01200003E000000000000000000000000009304000037374436353036412D363242372D344236322D424335372D3136433642384535323345442F536368656D61732F47656E65726963536368656D612E786D6C504B01021400140006080800C54D15476180
311
134D5F0100006B03000045000000000000000000000000007909000037374436353036412D363242372D344236322D424335372D3136433642384535323345442F536368656D61732F52656E6465724D6174657269616C536368656D612E786D6C504B01021400140006080800C54D1547E86B111B51000000570000004700
311
0000000000000000000000003B0B000037374436353036412D363242372D344236322D424335372D3136433642384535323345442F4173736574446174612F41737365745461626C654F66436F6E74656E74732E62696E504B01021400140006080800C54D1547F86583405800000068000000450000000000000000000000
311
0000F10B000037374436353036412D363242372D344236322D424335372D3136433642384535323345442F4173736574446174612F53747265616D56657273696F6E5461626C652E696E66504B01021400140006080800C54D1547F1ACFBAB350100009A0400003600000000000000000000000000AC0C0000373744363530
311
36412D363242372D344236322D424335372D3136433642384535323345442F4173736574446174612F636E782E786D6C504B01021400140006080800C54D1547F3DF3D0A080100004F0300003400000000000000000000000000350E000037374436353036412D363242372D344236322D424335372D313643364238453532
311
3345442F536368656D61732F636E782E786D6C504B01021400140006080800C54D1547410A3D5871000000A40000002C000000000000000000000000008F0F000037374436353036412D363242372D344236322D424335372D3136433642384535323345442F636E782E786D6C504B01021400140006080800C54D154746DC
311
93997E000000A300000007000000000000000000000000004A100000636E782E786D6C504B01021400140006080800C54D154716E99B5DA6000000350100001300000000000000000000000000ED1000005B436F6E74656E745F54797065735D2E786D6C504B01021400140006080800C54D15473DEE336E64000000790000
311
001B00000000000000000000000000C41100006175746F6465736B2D64657369676E2D7061636B6167652E786D6C504B01021400140006080800C54D154749161407F90000009601000037000000000000000000000000006112000037374436353036412D363242372D344236322D424335372D3136433642384535323345
311
442F4173736574446174612F636F72652E786D6C504B01021400140006080800C54D15475B9F59C7F8000000940100003500000000000000000000000000AF13000037374436353036412D363242372D344236322D424335372D3136433642384535323345442F536368656D61732F636F72652E786D6C504B010214001400
311
06080800C54D154769187DB401010000D70100002D00000000000000000000000000FA14000037374436353036412D363242372D344236322D424335372D3136433642384535323345442F636F72652E786D6C504B01021400140006080800C54D1547C56A558708010000B201000008000000000000000000000000004616
311
0000636F72652E786D6C504B050600000000110011005A060000741700000000
310
504B0304140006080800C54D1547000000000000000000000000370000006662782F39353437314634432D383430342D343943352D423842322D4632343346394143424139352F617474726962757465732E62696E504B0304140006080800C54D1547000000000000000000000000350000006662782F3935343731463443
310
2D383430342D343943352D423842322D4632343346394143424139352F76657274696365732E62696E504B0304140006080800C54D1547F270F1330600000004000000360000006662782F39353437314634432D383430342D343943352D423842322D4632343346394143424139352F747269616E676C65732E62696E6366
310
60600000504B0304140006080800C54D154751464CB48900000043010000360000006662782F39353437314634432D383430342D343943352D423842322D4632343346394143424139352F6469726563746F72792E786D6C9D8F310EC2300C45AF127987122606C71DD918B841D4B851A43646695A717C52A85029031293A5
310
A76FBF6FACEF7DA7264E43906840EF0FA03836E242F406C6DCEE4EA06AC22492573150D1F66C60C640E8938CB705396EEDD86DE9B5042FE27813D640EA63BB001C722AF6E55CB61E4863F58284D5D3F53DD715CE1C3985E63FD7F1B7EBDD617E9F1E504B0304140006080800C54D15474AAD5D173E070000201C0000340000
310
006662782F39353437314634432D383430342D343943352D423842322D4632343346394143424139352F6F626A656374732E786D6CDD595B6FE23814FE2B56F665F72124214061441915684768D499D1A059ED5B6482A1DE3A1739494BF7D7EFB16387380D90CE455A6D2B15EAD8C7E77CE77E327D7F88187A223CA3497C6D
310
793DD742240E932D8DF7D75691EFECB185DECFD09427495EDB67A11847E4DA12CBD66CBAE74991AAA52DD9E1823557EFE67FA12C2431B150C870965D5B59F84022DCC3459E6C49F6D8DBE21CF7F6BB43CFEB951B4DB27B8ED387C65529E624CE8155588F818AE2C033FF05919CD9D4111B8C6D7EB76DFD33DB1C29B8C9288D
310
B31CC7E12BAE1AD7F54F70D5B8CEF706CBDBFE70620F0703DF1E8CFA9E3DBF9B2F6DEFCA7717A3C56272733BB1D06CBA491256292025F116B4F862CDBCA9239E54E22B14DAF80E933826A142B36DC39628BA94644D4C0C603D295A4D21A5ACB505BFA3F027B67502C560C9405B0BA73FEBD69B6CFE0610B22E56CA3322AC3C
310
CB39E85A615FFA833B75CA55432F344311CE09A7982146371C7350106C2D15649011DE2248218199D4A2A657E7150CFBB22FB571B92B1813FE6BCDA4A705E08F24CF2467F41FC28FDCD76F039E40DA82C6F958099BBFA440623275E462F9CCEFAB87259068C7F01EAC05C4149BFC7E03AF858805ABA535FB78B739AC457C68
310
BF3CE5494A782E2C4F3AB3F23BADC19A6981F17500A5C4D5D4DD1195AF00FD2740BEE2054D41739C1E068781969DE338DB253C02ED2017D92EFC7191F8FAEADBD4A90ECF103262E5294CC16D7F12A68618C6DD354867D32730FA84FB4AB8758819D8F43D8D859F83A12096C012C4FBDDE660CD56104C61114E6106D2C3EFD4
310
115F117C947420DE3434D4167E3B284A3B4CD3CF8EBAFA0036C36958A9CA90F114BEC39F82EFCD72FD715DF01D0EC9BD72EC25D9D198E6904CDB193240375CFEDBEA93F4C80F2CD960763C6D6C0AE19A7D22E2468B5AD64A2D48EA05381169B8D48C5CB9A7E0ED8CE1982445A6D6DBE25498B084079B97A074E1D6BBFED436
310
505EA60CA0359641720F394D0526D64C69AB0A84BD9AA06061982B0BDC975A0D36459406384A8A5884DAD7A6D8E403E28CB044A02AA969C3D65EABC96EE96E576410BC5A492E0C20953F6BC2A5850F208EB5F1CBC98E6348A2491C50C8C1E02CAD37181754E09DE739236C1750C68A28D85106792488707A827E4709EA99EB
310
91BC3C277CDB4AD0B42CED93DA8604E00A580D92CE5665CC573AE5E4898A3253E6339D0D8C1DAA0EB5668313E942648A1640B5314A33F7BD9BBBDBF1956BDF2C47B7F6A03F9FDB636FB4B46F3DCF1F2FAFDCABC1F8B6C9A78E56F57C07AA14658EE17FF943116D624C193C1062E36DFAEEBDCC9ED70E84466771E74DFCB97F
310
67FB57FD893D180CE1EEE19D6FCF97F3D1707C35B819DF7A0E275952F090644EDF71036D9269BC3FC595E6EE750C85B2E672B2D3FA6A0AF33F8EA1CD9C6028F1BF1A44ABD8D55210760DA2E2683384E2F051A4A82084AAAFD57D1A41B4C9475B9C7B635C767BBE2B7F3C6FD27727FDF1645419FBD9402DEFF9E138D7264108
310
7D679107498A439AB727D4062E1DE3F49B724BCFF78608D0A9FE56979CCF33EA928046784F821D165D424B60BC24416B0EDBB324CB684C32D9E5BDAAFE1A34DD1E145366CE6D31429A0511C9F1F7D89F6C1B1A360DB19905D08FE6622270B12AA80C5A7520A7288AEE1712B794FF25C87094B2B2D3BD8481D7D710E81EA7CD
310
E204D3E28A27B0B700E781BB25727071897AC5BEAE0F5AB5D6A43EF96EF227E0D175CD2F84475FD1BD74EA0DBD89F8194350190D3DFF4A2BE21256FAAA5CF471AC80CE337C099E09DD3F742A34BBE9A456B29545754E226863715EF04EFE3A1ABAAF2E5271A1E110B59BDE581CCAFE4D7770809E6CE04E95B7B56BA00EA531
310
CCB93A09F24A8A561396BA90333D31BA7A835F9F55769DEA0FC7CB5F5E31D79D2F92C39FCB3840B55C0660157D8C9ABAB5EA36EAA1EC19E72104D2B5FCB4E7E0115BB23D366606B9B6125DD7A797AAE79508A8114C6CB188B3F7E20BFB8A41D5D03D67CE87B26873CAF595486C3D184E1FF9309836697DFEB06E508195CEA7
310
BF088CC87383825A5D886EF80CA96FAB63CFDFA0A024FAB63A73FC3FD1516805D6C668300DCE124661284FB6684F12C8DE3076E8D06DF08864322B83F1AA20A5DF087438FD54CE5473BC61FA74F8806130CD542F56843014858C796DA975F41B8C41C524520EA77A8FD086A91866A182D36B0B2C36A7D06DF53630CE92C343
310
49BD31AE04C7C6F15EE4FBF254F5FFF1984007A2D251AE6A4F175C9464863341619BCAF70450F5950F66D3EF175DB383700E5F37455E09735C384AA340D02F044AE160EAF7A8E03D4041715E2EAF27F71890749ACC9FB58392AA9D63BE97E3F51ADE37CB2F8E988CAF3EA394157BA1CE73DDAF41C9165D372BCA29D4140C43
310
89996251432EDE395F7802AF98227447C108D0EF87F1E80F6791445112974BCE8D7A5185D60FF0DA69EBE8911FB4F1AE3774E414408DF5830DCE480F6FB3475800D5722A66A325C4860154D1B466005A23421770CCD8BF5A22551BD52624F5B02BE091337D048E24DEE508B7A96FA80D20C117802BF9F0F8452F4C1D0E43F0
310
D9BF504B0304140006080800C54D1547D67EF19B3E01000046050000300000006662782F39353437314634432D383430342D343943352D423842322D4632343346394143424139352F636E782E786D6CCD94C14E032110865F85705F76B751531B96261E7C020FC61BCB4E572C0B1B188C7D7BA1D2AA31351E9AD81B19FE49
310
FE6FE6CFF0F5DB64C82BF8A09DED68CB1A4AC02A37683B7634E2A65A52B216DC3B875F64945839414773990A3E7A17E7521A6023A3C955A3EDB61425A2D77D440894282343E86850CF30492623BA01C2960D12256B9987E0A25790FA514F50FA9507893050B168DAEBAA59568BF6A1B95D5DDDACDAE689D7592978EF9C297A
310
6D11BC9B8972E961939986D7F95BF0E875D164022A3E9DB15E5B5EA77FC143726BC7A2C3DD9C75F36CB49298C6543B85805512819C78FD2116BCCEBCDFA8EFEF1E0F0EC8A03D28747EF74F03684F0DE0688CA524FC8D7F2FFC1DDBF52F09F7BFB67D12B6D83A1BEA21AD21C5F5E7FE538AA41DCDE585FE68ECFC994FA704B5
310
BA3CE483AF3311D7FB9397969E2FA07807504B0304140006080800C54D1547C2FC5C107E000000A30000000B0000006662782F636E782E786D6C4D8CD10A832018465F45FE7BB76ACA14D448C1F7886521330D57638F3F1D5DECEA83C3778EE83F6B406F975F3E4509EDA501E4E2234D3E2E128E7DC60C50AF444E69FFBB01
310
8AE3EA24540C4A2C391DDB8926378F47A834F8F83C21A7E4DE5A6230230DC1841B8A35D31DB61DB9593E183D705A8C6B55CAFC7A656B5E7D01504B0304140006080800C54D1547A6D797065F0000008200000007000000636E782E786D6C4DCB3B0E80201045D1AD90E9FD7516806B51190811670C8A61F982B1B0BAC9C97B
310
72CA7B1037C6D3332918DA1E04D2CAC69353902EDB8C20262D23F3F59B81A079470595414B17391D1F19B4730A5583A7ED43BBE4025D9592775E5ADFFA01504B0304140006080800C54D15474FEB6A7CA0000000F4000000130000005B436F6E74656E745F54797065735D2E786D6C7D8F4B0EC2300C44AF1279DFA6B04008
310
35ED02B8011730C16D239A8F121795DB93D02D6269CFBC19BBED573B8B17C564BC53B0AB1B10E4B47F18372A5878A88E20FAAEBDBD032591BD2E299898C349CAA427B2986A1FC86565F0D122E7318E32A07EE24872DF3407A9BD63725C71C980AEBDD080CBCCE2BAE6F5D69B7110E7CD57AA146008B3D1C8F92C5954F993BB
310
1BF787F39A89ABC491D09600F9FDA2FB00504B0304140006080800C54D15473DEE336E64000000790000001B0000006175746F6465736B2D64657369676E2D7061636B6167652E786D6C35CBC10E83200C00D05F21DCA56CA76D41FC96062B120735B69A7DBE268BB7777961F8D5AF396893C2ADB70FE7ADA196782C2DF776
310
D7A97B5933C430F15651E5469C55D70F80A4992A3ADC954792C525AE70A1E4D6AD9816CC044FEFDF01FE3FDE907802504B0304140006080800C54D15477D5583B9FA000000960100003B0000006662782F39353437314634432D383430342D343943352D423842322D4632343346394143424139352F7265736F7572636573
310
2F636F72652E786D6C8550CB6E833010FC15B4770336490A9171A4A4E10B7AEACD321B6A25D8C88FAA9F5F3B50A93DF5B4ABD999D9DDE1A7AFF9517CA2F3DA9A1E6859438146D9519BA987186EA485E224B8B336FCA24161E48C3D6418049F9C8DCB06296B029A8C1A3BE2064AEF3140A11EA9E9C1AB0F9C652963480C7F2F
310
17A9EE72C292962B4FF018F5B849F598DCF44DA30371E986E1721D1AF2C2064A76AC65E45C5F77843587D78E9D0FE7EEB2E755160B1EF4FCB35D3994014710ACA67B52B784D1B7BA3BEE0E475ABFF32A3305F7C1A59FB7A5F93B100EBD8D4EA1E7D53AFDE31A97F17FD7A84D68D8E6BA2A3C089A8E7C0E04AF724AA93C234C
310
35272ABE01504B0304140006080800C54D1547D2EA3F70F2000000B1010000310000006662782F39353437314634432D383430342D343943352D423842322D4632343346394143424139352F636F72652E786D6C8D50CB6EC32010FC156BEFD8E0E0D68E30516CC95FD0536F08130725068B47D5CF2F24AED4DE725A343BC3
310
CC0E3B7DAFF7E24B39AFADE98194180A65A49DB5597A88E1825A284E9C396BC31F1A1446ACAA870C03678BB371DB21694D5026A3C6CE6A0785F72A4021EFE9D1839757B58A52C49018FE566E42DEC4A24A523E799C05BDFE4AA55322A819788D4983708B6AF281BB237D3B12FCC9AACCE42C463DEF567A4EEEFAA29503DE35
310
F49D4C74442DC514D16E6CD0D00E359A6A7A98BAF3389CBB865559CC990F2EDDBC7F92AF7B55FE14FECB1CB7F985CCDA8443BD1B3E151E3849791E0BCEAA5C601A8F76D3CC65F31F504B0304140006080800C54D1547A48BE01155010000DD0200000C0000006662782F636F72652E786D6C8D52DB8E832014FC15C33B5EA8
310
EDD60669D26EFD827DDA378AE8922A1804D3CF5FF012D787ED6E4C90CC3967E6CC047C7EB64D3070DD0B257390843108B864AA14B2CE8135153C82E04CB056CAFC680381A42DCF818701C1B556B69B21A6A4E1D2A352957C0669DF730302D6B84B0E7AF6C55B1A526B5C47FF083BCA1EB4E661124E7D045B2BCA7954948E4D
310
54826B40AE59515C6FC50EBEA12281293A2278896F2944BBC37B862E874B76DDE3C80F136C44BBA833CDA9E12520284EF6303E42947CC4D9293D9C92F81347BE93E0DE68E77916F5EE00A9EE4F1C4DF886CF76E5DF7C5648B34333DF34D10392B8F5C602C191CFC7FDC6F0B6193A61979FA1F766B1F070D0C099513A759552
310
D9B534D0C672471D07E387A3A9EA984782DF78D00B9ED71C2E282A6BB71A35EE7AB7C6AB6F77EAB88683790652E99636EB72D38AEBB90A6D2C2DE34C354AFF677AB1BA8419F98749BE01504B0304140006080800C54D15473FBEEB5008010000B201000008000000636F72652E786D6C8D50416EC32010FC0ADA3B3610C78D
310
234C24BBF10B7AEA8D1A92A0D860191CB5BF2FC4AED4DE7A5A3433BB330C3F7D8E037AE8D91B676BA01901A46DEF94B1D71A9670C1074027C167E7C22F19202B475D438241F0EBEC9669837A6783B609B54EE90D94DEEB00A81FE2A306DFDFF42833B984A8F0F76C92FD5D5E7546B355277830E3CF6A3F6B19B402C108DD63
310
72C08CBE91EA5894474ADE799E94822F8B519B9551D1DD5C8C9E41B455D7B5E76E875F584771C10E0C37E45C60B62B5F2BD6944DD5EE799E9605F7618E7FDE8EC49C0179F948BE3C5F29C13F9C1B36410CA590B3C31708C2F344FC09BD4CEA1FA18D0D3BB61D5C373C081A033D89689C1A8CE3596F9CA96DF10D504B010214
310
00140006080800C54D15470000000000000000000000003700000000000000000000000000000000006662782F39353437314634432D383430342D343943352D423842322D4632343346394143424139352F617474726962757465732E62696E504B01021400140006080800C54D1547000000000000000000000000350000
310
0000000000000000000000550000006662782F39353437314634432D383430342D343943352D423842322D4632343346394143424139352F76657274696365732E62696E504B01021400140006080800C54D1547F270F13306000000040000003600000000000000000000000000A80000006662782F39353437314634432D
310
383430342D343943352D423842322D4632343346394143424139352F747269616E676C65732E62696E504B01021400140006080800C54D154751464CB489000000430100003600000000000000000000000000020100006662782F39353437314634432D383430342D343943352D423842322D463234334639414342413935
310
2F6469726563746F72792E786D6C504B01021400140006080800C54D15474AAD5D173E070000201C00003400000000000000000000000000DF0100006662782F39353437314634432D383430342D343943352D423842322D4632343346394143424139352F6F626A656374732E786D6C504B01021400140006080800C54D15
310
47D67EF19B3E0100004605000030000000000000000000000000006F0900006662782F39353437314634432D383430342D343943352D423842322D4632343346394143424139352F636E782E786D6C504B01021400140006080800C54D1547C2FC5C107E000000A30000000B00000000000000000000000000FB0A00006662
310
782F636E782E786D6C504B01021400140006080800C54D1547A6D797065F000000820000000700000000000000000000000000A20B0000636E782E786D6C504B01021400140006080800C54D15474FEB6A7CA0000000F40000001300000000000000000000000000260C00005B436F6E74656E745F54797065735D2E786D6C
310
504B01021400140006080800C54D15473DEE336E64000000790000001B00000000000000000000000000F70C00006175746F6465736B2D64657369676E2D7061636B6167652E786D6C504B01021400140006080800C54D15477D5583B9FA000000960100003B00000000000000000000000000940D00006662782F39353437
310
314634432D383430342D343943352D423842322D4632343346394143424139352F7265736F75726365732F636F72652E786D6C504B01021400140006080800C54D1547D2EA3F70F2000000B10100003100000000000000000000000000E70E00006662782F39353437314634432D383430342D343943352D423842322D4632
310
343346394143424139352F636F72652E786D6C504B01021400140006080800C54D1547A48BE01155010000DD0200000C00000000000000000000000000281000006662782F636F72652E786D6C504B01021400140006080800C54D15473FBEEB5008010000B20100000800000000000000000000000000A7110000636F7265
310
2E786D6C504B0506000000000E000E0080040000D51200000000
  0
DICTIONARY
  5
10F0C
102
{ACAD_REACTORS
330
10F0B
102
}
330
10F0B
100
AcDbDictionary
280
     1
281
     1
  3
TEXT
360
10F0D
  0
XRECORD
  5
12E07
102
{ACAD_REACTORS
330
10F0B
102
}
330
10F0B
100
AcDbXrecord
280
     1
102
DISPLAYNAME
  1
DIN ISO 128-40:2002-05
102
FLAGS
 90
        1
  0
XRECORD
  5
12E02
102
{ACAD_REACTORS
330
115DB
102
}
330
115DB
100
AcDbXrecord
280
     1
102
DISPLAYNAME
  1
Imperial24
102
FLAGS
 90
        0
  0
XRECORD
  5
12E04
102
{ACAD_REACTORS
330
115DF
102
}
330
115DF
100
AcDbXrecord
280
     1
102
DISPLAYNAME
  1
Metric50
102
FLAGS
 90
        0
  0
CELLSTYLEMAP
  5
12E01
102
{ACAD_REACTORS
330
2DE1
102
}
330
2DE1
100
AcDbCellStyleMap
 90
        3
300
CELLSTYLE
  1
TABLEFORMAT_BEGIN
 90
        5
170
     1
 91
        0
 92
    32768
 62
   257
 93
        1
300
CONTENTFORMAT
  1
CONTENTFORMAT_BEGIN
 90
        0
 91
        0
 92
        4
 93
        0
300

 40
0.0
140
1.0
 94
        5
 62
     0
340
F
144
0.25
309
CONTENTFORMAT_END
171
     0
 94
        6
 95
        1
302
GRIDFORMAT
  1
GRIDFORMAT_BEGIN
 90
        0
 91
        1
 62
     0
 92
       -2
340
0
 93
        0
 40
0.045
309
GRIDFORMAT_END
 95
        2
302
GRIDFORMAT
  1
GRIDFORMAT_BEGIN
 90
        0
 91
        1
 62
     0
 92
       -2
340
0
 93
        0
 40
0.045
309
GRIDFORMAT_END
 95
        4
302
GRIDFORMAT
  1
GRIDFORMAT_BEGIN
 90
        0
 91
        1
 62
     0
 92
       -2
340
0
 93
        0
 40
0.045
309
GRIDFORMAT_END
 95
        8
302
GRIDFORMAT
  1
GRIDFORMAT_BEGIN
 90
        0
 91
        1
 62
     0
 92
       -2
340
0
 93
        0
 40
0.045
309
GRIDFORMAT_END
 95
       16
302
GRIDFORMAT
  1
GRIDFORMAT_BEGIN
 90
        0
 91
        1
 62
     0
 92
       -2
340
0
 93
        0
 40
0.045
309
GRIDFORMAT_END
 95
       32
302
GRIDFORMAT
  1
GRIDFORMAT_BEGIN
 90
        0
 91
        1
 62
     0
 92
       -2
340
0
 93
        0
 40
0.045
309
GRIDFORMAT_END
309
TABLEFORMAT_END
  1
CELLSTYLE_BEGIN
 90
        1
 91
        1
300
_TITLE
309
CELLSTYLE_END
300
CELLSTYLE
  1
TABLEFORMAT_BEGIN
 90
        5
170
     1
 91
        0
 92
        0
 62
   257
 93
        1
300
CONTENTFORMAT
  1
CONTENTFORMAT_BEGIN
 90
        0
 91
        0
 92
        4
 93
        0
300

 40
0.0
140
1.0
 94
        5
 62
     0
340
F
144
0.18
309
CONTENTFORMAT_END
171
     0
 94
        6
 95
        1
302
GRIDFORMAT
  1
GRIDFORMAT_BEGIN
 90
        0
 91
        1
 62
     0
 92
       -2
340
0
 93
        0
 40
0.045
309
GRIDFORMAT_END
 95
        2
302
GRIDFORMAT
  1
GRIDFORMAT_BEGIN
 90
        0
 91
        1
 62
     0
 92
       -2
340
0
 93
        0
 40
0.045
309
GRIDFORMAT_END
 95
        4
302
GRIDFORMAT
  1
GRIDFORMAT_BEGIN
 90
        0
 91
        1
 62
     0
 92
       -2
340
0
 93
        0
 40
0.045
309
GRIDFORMAT_END
 95
        8
302
GRIDFORMAT
  1
GRIDFORMAT_BEGIN
 90
        0
 91
        1
 62
     0
 92
       -2
340
0
 93
        0
 40
0.045
309
GRIDFORMAT_END
 95
       16
302
GRIDFORMAT
  1
GRIDFORMAT_BEGIN
 90
        0
 91
        1
 62
     0
 92
       -2
340
0
 93
        0
 40
0.045
309
GRIDFORMAT_END
 95
       32
302
GRIDFORMAT
  1
GRIDFORMAT_BEGIN
 90
        0
 91
        1
 62
     0
 92
       -2
340
0
 93
        0
 40
0.045
309
GRIDFORMAT_END
309
TABLEFORMAT_END
  1
CELLSTYLE_BEGIN
 90
        2
 91
        1
300
_HEADER
309
CELLSTYLE_END
300
CELLSTYLE
  1
TABLEFORMAT_BEGIN
 90
        5
170
     1
 91
        0
 92
        0
 62
   257
 93
        1
300
CONTENTFORMAT
  1
CONTENTFORMAT_BEGIN
 90
        0
 91
        0
 92
        4
 93
        0
300

 40
0.0
140
1.0
 94
        2
 62
     0
340
F
144
0.18
309
CONTENTFORMAT_END
171
     0
 94
        6
 95
        1
302
GRIDFORMAT
  1
GRIDFORMAT_BEGIN
 90
        0
 91
        1
 62
     0
 92
       -2
340
0
 93
        0
 40
0.045
309
GRIDFORMAT_END
 95
        2
302
GRIDFORMAT
  1
GRIDFORMAT_BEGIN
 90
        0
 91
        1
 62
     0
 92
       -2
340
0
 93
        0
 40
0.045
309
GRIDFORMAT_END
 95
        4
302
GRIDFORMAT
  1
GRIDFORMAT_BEGIN
 90
        0
 91
        1
 62
     0
 92
       -2
340
0
 93
        0
 40
0.045
309
GRIDFORMAT_END
 95
        8
302
GRIDFORMAT
  1
GRIDFORMAT_BEGIN
 90
        0
 91
        1
 62
     0
 92
       -2
340
0
 93
        0
 40
0.045
309
GRIDFORMAT_END
 95
       16
302
GRIDFORMAT
  1
GRIDFORMAT_BEGIN
 90
        0
 91
        1
 62
     0
 92
       -2
340
0
 93
        0
 40
0.045
309
GRIDFORMAT_END
 95
       32
302
GRIDFORMAT
  1
GRIDFORMAT_BEGIN
 90
        0
 91
        1
 62
     0
 92
       -2
340
0
 93
        0
 40
0.045
309
GRIDFORMAT_END
309
TABLEFORMAT_END
  1
CELLSTYLE_BEGIN
 90
        3
 91
        2
300
_DATA
309
CELLSTYLE_END
  0
ACAD_PROXY_OBJECT
  5
10EEB
330
10EEA
100
AcDbProxyObject
 90
      499
 91
      584
 95
 11993117
 70
     0
162
                 0
161
               249
310
7000000000000000C400000000000000310200800030C02000000300012AFBCC
 94
        0
  0
ACAD_PROXY_OBJECT
  5
10EEC
330
10EEA
100
AcDbProxyObject
 90
      499
 91
      585
 95
 11993117
 70
     0
162
              2608
311
415480184008000D400C001055200610020003200350041D480184008000C400C800B000D4010652006100200036002C003300419480184008000CC00B000C8010652006100200031002C003600419480184008000C000B000E0010652006100200030002C003400419480184008000C000B000C8010652006100200030002
311
C00310041D480184008000C000B000C000D4010852006100200030002C00300032003500415480184008000D400C001055200610020003200350041D480184008000C400C800B000D4010652006100200036002C003300419480184008000CC00B000C8010652006100200031002C003600419480184008000C000B000E001
311
0652006100200030002C003400419480184008000C000B000C8010652006100200030002C00310041D480184008000C000B000C000D4010852006100200030002C003000320035002E
161
               439
310
7000000000000000C400000000000000310200800030C02000000300012AFD41D01405014050140501E83C80A0481A0882A0C862195554
 94
        0
  0
ACAD_PROXY_OBJECT
  5
10EED
330
10EEA
100
AcDbProxyObject
 90
      499
 91
      586
 95
 11993117
 70
     0
162
                 0
161
               695
310
7000000000000000C400000000000000310200800030C02000000300012AFA1E80A0280A0280A0280A0280A0280A0280A0280A1A80A0280A0280A0280A0280A0280A028096000000000000002000000000000001881484
340
F6BA
 94
        0
  0
ACAD_PROXY_OBJECT
  5
10EEE
330
10EEA
100
AcDbProxyObject
 90
      499
 91
      587
 95
 11993117
 70
     0
162
                 0
161
               742
310
7000000000000000C400000000000000310200800030C02000000300012AFD0CCCCCCCCCCCF4CFC333333333333D33FA4680A0280A0280A0280A0280A0280A0280A0280A0280A0280A0280A0280A0280A0280A0280A0280A0280A02808
340
F6BB
 94
        0
  0
ACAD_PROXY_OBJECT
  5
10EF1
330
10EEA
100
AcDbProxyObject
 90
      499
 91
      590
 95
 11993117
 70
     0
162
             24524
311
41124015001140134010450006F0073002E004CD1C01140138015001480104010C013C00B001100114015400B000C000B0014001BC01CC00B800B0011C011401380150014801040150016000B0009401CC00B000A0011C011401380134014C011C0080019C019401B8019001DC019C008000C800C800C800A4029035100540
311
0590040D0401B801E80132470045004E0054005200410043004F002C004400450055002C0030002C0041006E007A002C00470045004E00540052004100540058002C00250073002C002800470045004E004D00530047002000670065006E0064007700670020003200320033002900A4113801040134011401044E0061006D
311
0065004CD1C01140138015001480104010C013C00B001100114015400B000C000B00138018401B4019400B0011C011401380150014801040150016000B0009401CC00B000A0011C011401380134014C011C0080019C019401B8019001DC019C008000C800C800D800A4012C3D004900460028004900530042004C0041004E0
311
04B00280050004100520054003A004E0041004D00450029002C0042004C004F0043004B003A004E0041004D0045002C0050004100520054003A004E0041004D00450029009054400450053004300520043108019401CC018C01A001C8019401A4018801D401B8019C013B470045004E0054005200410043004F002C0044004
311
50055002C0030002C0042006500730063006800720065006900620075006E0067002C00470045004E00540052004100540058002C00250073002C002800470045004E004D00530047002000670065006E0064007700670020003200310037002900A4214C015001040138011001040148011001044E006F0072006D004CD1C
311
01140138015001480104010C013C00B001100114015400B000C000B0013801BC01C801B400B0011C011401380150014801040150016000B0009401CC00B000A0011C011401380134014C011C0080019C019401B8019001DC019C008000C800C400E000A4029084D004100540045005200490041004C004255C019401C801AC
311
01CC01D001BC019801980138470045004E0054005200410043004F002C004400450055002C0030002C005700650072006B00730074006F00660066002C00470045004E00540052004100540058002C00250073002C002800470045004E004D00530047002000670065006E0064007700670020003200320031002900A41138
311
013C015001140109420065006D00650072006B0075006E0067004E11C01140138015001480104010C013C00B001100114015400B000C000B00108019401B4019401C801AC01D401B8019C00B0011C011401380150014801040150016000B0009401CC00B000A0011C011401380134014C011C0080019C019401B8019001DC0
311
19C008000C800C800D400A402906560045004E0044004F0052004253001A401940198019401C8018401B801D00138470045004E0054005200410043004F002C004400450055002C0030002C004C006900650066006500720061006E0074002C00470045004E00540052004100540058002C00250073002C002800470045004
311
E004D00530047002000670065006E0064007700670020003200320034002900A419100114014C010C014800C8010E42006500730063006800720065006900620075006E006700200032004F11C01140138015001480104010C013C00B001100114015400B000C000B00108019401CC018C01A001C8019401A4018801D401B8
311
019C008000C800B0011C011401380150014801040150016000B0009401CC00B000A0011C011401380134014C011C0080019C019401B8019001DC019C008000CC00D800A4029095300540041004E00440041005200440032004193801BC01C801B4008000C80135470045004E0054005200410043004F002C00440045005500
311
2C0030002C004E006F0072006D00200032002C00470045004E00540052004100540058002C00250073002C002800470045004E004D00530047002000670065006E0064007700670020003200320030002900A42534010401500114014801240104013000C8010A4D006100740065007200690061006C00200032004E11C011
311
40138015001480104010C013C00B001100114015400B000C000B00134018401D0019401C801A4018401B0008000C800B0011C011401380150014801040150016000B0009401CC00B000A0011C011401380134014C011C0080019C019401B8019001DC019C008000D000C000A4029044D0041005300530041534018401CC01C
311
C01940133470045004E0054005200410043004F002C004400450055002C0030002C004D0061007300730065002C00470045004E00540052004100540058002C00250073002C002800470045004E004D00530047002000670065006E006400770067002000340032002900A4154001480124010C01140105500072006500690
311
073004CD1C01140138015001480104010C013C00B001100114015400B000C000B0014001C8019401A401CC00B0011C011401380150014801040150016000B0009401CC00B000A0011C011401380134014C011C0080019C019401B8019001DC019C008000D000CC00A402903440049004D0042D04018801B4019401CC01CC01
311
D401B8019C019401B80139470045004E0054005200410043004F002C004400450055002C0030002C00410062006D0065007300730075006E00670065006E002C00470045004E00540052004100540058002C00250073002C002800470045004E004D00530047002000670065006E006400770067002000340034002900A425
311
08013C0134017C0154013801240150014C0109450069006E00680065006900740065006E004E11C01140138015001480104010C013C00B001100114015400B000C000B0011401A401B801A0019401A401D0019401B800B0011C011401380150014801040150016000B0009401CC00B000A0011C011401380134014C011C008
311
0019C019401B8019001DC019C008000C800D000CC00A4029073D003C004900540045004D003E0041CF400F0012401500114013400F801073D003C004900540045004D003E0041CF400F0012401500114013400F801073D003C004900540045004D003E00418F400F001440150016400F801073D003C004900540045004D003
311
E0041CF400F0012401500114013400F8024294C01D003F0018C01AC01B001A401CC01D00194010541005200490041004C00415040148012401040130010541005200490041004C00A404C40242D9401840024019401840024012801940190019400280115730071006D000900730071006D000900510075006100640072006
311
10074006D0065007400650072000A00471CC01C4018C01B4002401CC01C4018C01B40024014401D40184019001C8018401D001E8019401B801D001A401B4019401D0019401C8002801157300710066007400090073007100660074000900510075006100640072006100740066007500DF000A00459CC01C401A401B800240
311
1CC01C401A401B80024014401D40184019001C8018401D001E801BC01B001B000280110670061006C000900670061006C000900470061006C006C006F006E0065000A00431C401D0002401C401D00024014401D4018401C801D0002801266C00710064005F006F007A0009006C00710064005F006F007A0009004F0075006E
311
00630065002000280046006C00FC0073007300690067006B0065006900740073006D006100DF0029000A00429B0002401B00024013001A401D0019401C8002801116D006C0009006D006C0009004D0069006C006C0069006C0069007400650072000A0042DE40190002401E4019000240164018401C801900028010A660074
311
00090066007400090046007500DF000A0042DA401B8002401A401B80024016801BC01B001B00028010A6D0009006D0009004D0065007400650072000A004458C01B40024018C01B400240168019401B801D001A401B4019401D0019401C8002801116D006D0009006D006D0009004D0069006C006C0069006D006500740065
311
0072000A00431B00188002401B0018800240140019801D401B801900028010C6F007A0009006F007A0009004F0075006E00630065000A004299C0024019C0024011C01C8018401B401B4002801116D00670009006D00670009004D0069006C006C0069006700720061006D006D000A004398801E00024018801E0002401440
311
1D40184019001C8018401D0002801012D00C
161
              6477
310
7000000000000000C400000000000000310200800030C02000000300012AFA1E80A0280A0280A0280D20200000000000012202032024050140501409014050140501901000000000000091010190120280A0280A3880C80C81500000000000009C8080C80901405014051D40640640E8000000000080514040640480A0280A
310
028EA03203209400000000000024A0203202405014050147501901905A1C4F42B5E8DC115010190120280A0280A3A80C80C83500000000000007C8080880901405014051D40640641E80000000000003E4040440480A0280A028EA03203211400000000004028A0202202405014050147501901909A0000000000001250101
310
10120280A0280A3A80C80C8550E27A15AF46E08A8080880901405014051D405024050242D034080000000000003E4040440480A0280A028EA028120281218812040000000000001F20202202405014050147501409014090D40D020000000000000F9010190120280A0280A3C80C80C87500000000000007C8080C80901405
310
0F4A9020000000000000510201C00030C00010180000000000003E400000000000000F901014060000000000000F9000000000000003E4040501800000000000034400000000000000D101014060000000000000D1000000000000003440405029010000000000000F9000000000000003E40405014060000000000000F900
310
0000000000003E4040501800000000000034400000000000000D10101404000000000000003E400000000000000F90290800000000000020810000001800169FFFE8220681A048120280A20852108820321480C8452028521485214814000000000000F0BF0000000000003C2FD018020000C3008070000C30026A66666666
310
67D4FC9A9999999999F53F26A6666666667D4FC333333333333F33F337333333333370FC333333333333F33F26A6666666667D4FC333333333333F33F337333333333370FC333333333333F33F0000000000000310080A028120B20281A0882A0340000000000000C408020000C3008020000C3008010000C300291440BF9F
310
FFE7FFF9FFFE4050140515405014050140501405014050140501405014050140501405014064068320481A0882A1A874
340
13
340
0
340
F
340
F
340
14
340
14
340
14
 94
        0
  0
ACAD_PROXY_OBJECT
  5
10EF2
330
10EEA
100
AcDbProxyObject
 90
      499
 91
      591
 95
 11993117
 70
     0
162
               538
311
484F400F0011001140150010401240130017C0130010401080114013000F8008000F0011001140150010401240130017C01040108014C014C010C01040130011400F800C
161
               658
310
70000000000000014400000000000000510201C00030C0200C00030C012AE8A0E4D4CCCCCCCCCDC9F9353333333333927E000000000000701FA00000000000000200000000000000288000000000000012204C
340
14
340
F
 94
        0
  0
ACAD_PROXY_OBJECT
  5
10EF3
330
10EEA
100
AcDbProxyObject
 90
      499
 91
      592
 95
 11993117
 70
     0
162
               698
311
4ACF400F0014C0114010C01500124013C0138017C01300104010801140130017C011801240148014C015000F800B400F0014C0114010C01500124013C0138017C01300104010801140130017C01300104014C015000F800C
161
               521
310
70000000000000014400000000000000510201C00030C0201C00030C0112C80F0000000000000910099403800061800000000000000244000000000000005102994C
340
10C5D
340
F
 94
        0
  0
ACAD_PROXY_OBJECT
  5
10EF4
330
10EEA
100
AcDbProxyObject
 90
      499
 91
      593
 95
 11993117
 70
     0
162
                 0
161
               380
310
700000000000000F0BF0000000000003C2FE000000320020000003200205000000000000010814333333333333F33F2C
 94
        0
  0
ACAD_PROXY_OBJECT
  5
10EF5
330
10EEA
100
AcDbProxyObject
 90
      499
 91
      594
 95
 11993117
 70
     0
162
                 0
161
               241
310
700000000000000F0BF0000000000003C2FE0000003200200000032002044C
340
0
 94
        0
  0
ACAD_PROXY_OBJECT
  5
10EF6
330
10EEA
100
AcDbProxyObject
 90
      499
 91
      595
 95
 11993117
 70
     0
162
             13944
311
4255801BC01C801B00184019C0194008000C4000A013D002500250063003C0048006F006C0065003A00630074006400690061003E002000780020003C0048006F006C0065003A0063007400640065007000740068003E00200055005C0050003C0069006600280065007100750061006C00280048006F006C0065003A00740
311
0610070007000650064002C0022003000220029002C0022002500250063002200200048006F006C0065003A006400690061002C0048006F006C0065003A006E006F006D0069006E0061006C0029003E003C0069006600280065007100750061006C00280048006F006C0065003A007400610070007000650064002C0022003
311
100220029002C0022002000780020002200200048006F006C0065003A00540061007000440065007000740068002C002200220029003E003C0069006600280065007100750061006C00280048006F006C0065003A007400650072006D0069006E006100740069006F006E002C0022003000220029002C00690066002800650
311
07100750061006C00280048006F006C0065003A007400610070007000650064002C0022003000220029002C00220020007800200022002C00220020002F002000220029002C002200220029003E003C0069006600280065007100750061006C00280048006F006C0065003A007400650072006D0069006E006100740069006
311
F006E002C0022003000220029002C0048006F006C0065003A00640065007000740068002C002200220029003E004255801BC01C801B00184019C0194008000C4000B013D002500250063003C0048006F006C0065003A00630074006400690061003E002000780020003C0048006F006C0065003A006300740061006E006700
311
6C0065003E002500250064005C0050003C0069006600280065007100750061006C00280048006F006C0065003A007400610070007000650064002C0022003000220029002C0022002500250063002200200048006F006C0065003A006400690061002C0048006F006C0065003A006E006F006D0069006E0061006C0029003E
311
003C0069006600280065007100750061006C00280048006F006C0065003A007400610070007000650064002C0022003100220029002C0022002000780020002200200048006F006C0065003A00540061007000440065007000740068002C002200220029003E003C0069006600280065007100750061006C00280048006F00
311
6C0065003A007400650072006D0069006E006100740069006F006E002C0022003000220029002C0069006600280065007100750061006C00280048006F006C0065003A007400610070007000650064002C0022003000220029002C00220020007800200022002C00220020002F002000220029002C002200220029003E003C
311
0069006600280065007100750061006C00280048006F006C0065003A007400650072006D0069006E006100740069006F006E002C0022003000220029002C0048006F006C0065003A00640065007000740068002C002200220029003E004255801BC01C801B00184019C0194008000C401E63D003C006900660028006500710
311
0750061006C00280048006F006C0065003A007400610070007000650064002C0022003000220029002C0022002500250063002200200048006F006C0065003A006400690061002C0048006F006C0065003A006E006F006D0069006E0061006C0029003E003C0069006600280065007100750061006C00280048006F006C006
311
5003A007400610070007000650064002C0022003100220029002C0022002000780020002200200048006F006C0065003A00540061007000440065007000740068002C002200220029003E003C0069006600280065007100750061006C00280048006F006C0065003A007400650072006D0069006E006100740069006F006E0
311
02C0022003000220029002C0069006600280065007100750061006C00280048006F006C0065003A007400610070007000650064002C0022003000220029002C00220020007800200022002C00220020002F002000220029002C002200220029003E003C0069006600280065007100750061006C00280048006F006C0065003
311
A007400650072006D0069006E006100740069006F006E002C0022003000220029002C0048006F006C0065003A00640065007000740068002C002200220029003E004255801BC01C801B00184019C0194008000C801173D003C0053005400440050003A0044004500530043003E0020003C0053005400440050003A00530054
311
0044003E004255801BC01C801B00184019C0194008000C4010C3D003C0053005400440050003A0044004500530043003E004255801BC01C801B00184019C0194008000CC010B3D003C0053005400440050003A005300540044003E0000
161
               667
310
7000000000000000C400000000000000310200800030C02000000300012AFA1080A17480A15480A0480A0280E9014050340501407480A0280A0280A03A405014790340501D20280A901405481A028AD55736A12C
360
10F14
330
10F14
360
10F15
330
10F15
360
10F13
330
10F13
360
10F11
360
10F10
360
10F12
330
10F11
330
10F10
330
10F12
 94
        0
  0
ACAD_PROXY_OBJECT
  5
10EF7
330
10EEA
100
AcDbProxyObject
 90
      499
 91
      596
 95
 11993117
 70
     0
162
                26
311
404E800C
161
               305
310
7000000000000000C400000000000000310200800030C02000000300012AFA175203480A03554C
 94
        0
  0
ACAD_PROXY_OBJECT
  5
10EF8
330
10EEA
100
AcDbProxyObject
 90
      499
 91
      597
 95
 11993117
 70
     0
162
              1066
311
508F400F0014C015001480154010C015000E8010C013C01340140017C013801040134011400F8008000F0014C015001480154010C015000E8015801240114015C017C013801040134011400F80080010401B801CC01A4018C01A001D0008000A000F0014C015001480154010C015000E8014C0158017C014C010C010401300
311
11400F800A400C
161
               332
310
70000000000000014400000000000000310201C00030C02000000300012AFA028100000000000006881C
340
F
 94
        0
  0
ACAD_PROXY_OBJECT
  5
10EF9
330
10EEA
100
AcDbProxyObject
 90
      499
 91
      571
 95
 11993117
 70
     0
162
                 0
161
               253
310
700000000000000F0BF0000000000003C2FE0000003200200000032002020754
340
10EFC
 94
        0
  0
ACAD_PROXY_OBJECT
  5
10EFA
330
10EEA
100
AcDbProxyObject
 90
      499
 91
      572
 95
 11993117
 70
     0
162
               126
311
408F000F801023C003E00409A000DC00
161
               400
310
700000000000000F0BF0000000000003C2FE000000320020000003200202080000000000001420000000000000048807FFFC00
340
F6AF
340
0
340
0
340
F6B1
340
F6B2
340
F6B3
340
F6B4
340
F6B5
340
F6B6
340
0
340
F6B2
340
0
 94
        0
  0
ACAD_PROXY_OBJECT
  5
10EFB
330
10EEA
100
AcDbProxyObject
 90
      499
 91
      598
 95
 11993117
 70
     0
162
             22180
311
4412C01BC01BC01C8019001A401B8018401D0019401B801B001A401CC01D00194013F470045004E0054005200410043004F002C004400450055002C0030002C004B006F006F007200640069006E006100740065006E006C0069007300740065002C00470045004E00540052004100540058002C00250073002C00280047004
311
5004E004D00530047002000670065006E00640069006D007A00200033003000290043CF400F0011001940198018401D401B001D0015001A401D001B0019400F8011242006F006800720075006E006700730064006500660069006E006900740069006F006E005051C01140138015001480104010C013C00B00110011401540
311
0B000C000B0010801BC01A001C801D401B8019C01CC01900194019801A401B801A401D001A401BC01B800B0011C011401380150014801040150016000B0009401CC00B000A0011C011401380134014C011C0080019C019401B8019001A401B401E8008000CC00C400A4010F3D003C00440065006600610075006C007400540
311
0690074006C0065003E004215401C801CC01C001C801D401B8019C0136470045004E0054005200410043004F002C004400450055002C0030002C005500720073007000720075006E0067002C00470045004E00540052004100540058002C00250073002C002800470045004E004D00530047002000670065006E0064006900
311
6D007A002000310029004114001BC01CC00B80132470045004E0054005200410043004F002C004400450055002C0030002C0050006F0073002E002C00470045004E00540052004100540058002C00250073002C002800470045004E004D00530047002000670065006E00640069006D007A002000320029004FCF400F0013C
311
01C801A4019C01A401B800F800F00124011800A0013C014800A00124014C0108013001040138012C00A0013C01C801A4019C01A401B800A400B00124014C0108013001040138012C00A0012401B80190019401E000A400A400B00088008800B0008800B8008800A400F800F0012401B80190019401E000F8010158004BD1C0
311
1140138015001480104010C013C00B001100114015400B000C000B0016000B0011C011401380150014801040150016000B0009401CC00B000A0011C011401380134014C011C0080019C019401B8019001A401B401E8008000CC00A4010159004BD1C01140138015001480104010C013C00B001100114015400B000C000B001
311
6400B0011C011401380150014801040150016000B0009401CC00B000A0011C011401380134014C011C0080019C019401B8019001A401B401E8008000D000A4010172004BD1C01140138015001480104010C013C00B001100114015400B000C000B001C800B0011C011401380150014801040150016000B0009401CC00B000A
311
0011C011401380134014C011C0080019C019401B8019001A401B401E8008000D800A401187B005C006600530079006D0062006F006C007C00620030007C00690030007C00630032007C00700030003B006A007D005191C01140138015001480104010C013C00B001100114015400B000C000B001EC01700198014C01E401B4
311
018801BC01B001F0018800C001F001A400C001F0018C00C801F001C000C000EC01A801F400B0011C011401380150014801040150016000B0009401CC00B000A0011C011401380134014C011C0080019C019401B8019001A401B401E8008000DC00A401032500250063004C51C01140138015001480104010C013C00B001100
311
114015400B000C000B000940094018C00B0011C011401380150014801040150016000B0009401CC00B000A0011C011401380134014C011C0080019C019401B8019001A401B401E8008000E000A4010C42006500730063006800720065006900620075006E0067004ED1C01140138015001480104010C013C00B00110011401
311
5400B000C000B00108019401CC018C01A001C8019401A4018801D401B8019C00B0011C011401380150014801040150016000B0009401CC00B000A0011C011401380134014C011C0080019C019401B8019001A401B401E8008000C800C000A401044E006F0072006D004CD1C01140138015001480104010C013C00B00110011
311
4015400B000C000B0013801BC01C801B400B0011C011401380150014801040150016000B0009401CC00B000A0011C011401380134014C011C0080019C019401B8019001A401B401E8008000C800C400A401085500720073007000720075006E0067004D91C01140138015001480104010C013C00B001100114015400B000C0
311
00B0015401C801CC01C001C801D401B8019C00B0011C011401380150014801040150016000B0009401CC00B000A0011C011401380134014C011C0080019C019401B8019001A401B401E8008000C400A4010131004114001BC01CC00B80133470045004E0054005200410043004F002C004400450055002C0030002C0050006
311
F0073002E002C00470045004E00540052004100540058002C00250073002C002800470045004E004D00530047002000670065006E00640069006D007A0020003100340029004152401B80190019401E00134470045004E0054005200410043004F002C004400450055002C0030002C0049006E006400650078002C00470045
311
004E00540052004100540058002C00250073002C002800470045004E004D00530047002000670065006E00640069006D007A0020003100350029004390801BC01A001C801D401B8019C01CC01B801D401B401B4019401C8013D470045004E0054005200410043004F002C004400450055002C0030002C0042006F006800720
311
075006E00670073006E0075006D006D00650072002C00470045004E00540052004100540058002C00250073002C002800470045004E004D00530047002000670065006E00640069006D007A00200031003700290043D08019401B801D401D001E8019401C8019401B0019401B4019401B801D0013E470045004E0054005200
311
410043004F002C004400450055002C0030002C00420065006E00750074007A006500720065006C0065006D0065006E0074002C00470045004E00540052004100540058002C00250073002C002800470045004E004D00530047002000670065006E00640069006D007A00200032003200290041D0801BC01A001C801D401B80
311
19C0136470045004E0054005200410043004F002C004400450055002C0030002C0042006F006800720075006E0067002C00470045004E00540052004100540058002C00250073002C002800470045004E004D00530047002000670065006E00640069006D007A00200031003600290040D0401B801E80132470045004E0054
311
005200410043004F002C004400450055002C0030002C0041006E007A002C00470045004E00540052004100540058002C00250073002C002800470045004E004D00530047002000670065006E00640069006D007A0020003100390029004FCF400F0013C01C801A4019C01A401B800F800F00124011800A0013C014800A0012
311
4014C0108013001040138012C00A0013C01C801A4019C01A401B800A400B00124014C0108013001040138012C00A0012401B80190019401E000A400A400B00088008800B0008800B8008800A400F800F0012401B80190019401E000F801453D003C004F0072006900670069006E003E003C004900460028004F00520028004
311
900530042004C0041004E004B0028004F0072006900670069006E0029002C004900530042004C0041004E004B00280055007300650072004900740065006D00290029002C00220022002C0022002E00220029003E003C0055007300650072004900740065006D003E00C
161
              7113
310
700000000000000F0BF0000000000003C2FE000000320020000003200202463120606000600000000000006204010000618068181800180000000000001881004000186018080F02018000000000000000000000000000000020000000000000620401000061802000000000000062040100006180403F8080F02018000000
310
000000000000000000000000020000000000000620401000061802000000000000062040100006180403FA1C88222812068220A83A1886A1E80A1C89A2A81A2483A28880000808000808200110A00010101010104002234000202000202000040A8000404000404000081D0000808000808000104A000101000101030020B4
310
000202000202020041E80004040004001000865000080800080020010DA000101010101040021F40002020002020A01406800040400040414028750000808000808280113A000101000101050022B4000202000202080044A800040400040418008A5220000000000000001CA04FFFFFFFF030000000000000D1027FFFFFFF
310
80800000000000068813FFFFFFFC0400000000000034409FFFFFFFE040000000000001A204FFFFFFFF020000000000000D1027FFFFFFF81800000000000072813FFFFFFFC0C00000000000049409FFFFFFFE0600000000004028A04FFFFFFFF000000000000000D1027FFFFFFF80000000000000048813FFFFFFFC00000000
310
00000034409FFFFFFFE000000000000001A204FFFFFFFF000000000000000D1027FFFFFFF80000000000000068813FFFFFFFC0C00000000000028409FFFFFFFE8800000000000000072813FFFFFFFC0C00000000000034409FFFFFFFE060000000000001A204FFFFFFFF030000000000000D1027FFFFFFF818000000000000
310
68813FFFFFFFC0C00000000000034409FFFFFFFE060000000000001CA04FFFFFFFF03000000000000125027FFFFFFF818000000000100A2813FFFFFFFC0000000000000034409FFFFFFFE0000000000000012204FFFFFFFF000000000000000D1027FFFFFFF80000000000000068813FFFFFFFC0000000000000034409FFFF
310
FFFE060000000000001A204FFFFFFFF030000000000000A1027FFFFFFFA0E8800000021E000000810000002060000008200000020A00000083800000202890000001FFFFFFFE81202000283A2000000087800000204000000818000002080000008280000020E000000810000A068800000021E0000008A8000001FFFFFFFF
310
4C
340
0
340
0
340
0
340
0
340
F
340
F
 94
        0
  0
ACAD_PROXY_OBJECT
  5
10EFD
330
10EEA
100
AcDbProxyObject
 90
      499
 91
      575
 95
 11993117
 70
     0
162
              7496
311
40D10012401380106440049004E005F00410033004251001240138017C015001240150013001140113440049004E005F00420052005F005200650076006900730069006F006E006C006900730074004410400CC00C8008000A000C800E400DC01E000D400E400D0008001B401B400A40107440049004E005F0041003300320
311
04410400C0008000A000E000D000C401E000C400C400E000E4008001B401B400A40106440049004E005F00410030004450400CC00C0008000A000C800E400DC01E000C400C800CC00C0008001B401B400A40107440049004E005F004100330030004410400C800C4008000A000D000C800C001E000E000D000C4008001B401
311
B400A40107440049004E005F004100320031004450400C800C0008000A000D000C800C001E000C400C400E000E4008001B401B400A40107440049004E005F004100320030004410400CC00C4008000A000C800E400DC01E000E000D000C4008001B401B400A40107440049004E005F0041003300310043D0400CC008000A00
311
0C800E400DC01E000D000C800C0008001B401B400A40106440049004E005F004100330043D0400C8008000A000D000C800C001E000D400E400D0008001B401B400A40106440049004E005F004100320043D0400C4008000A000D400E400D001E000E000D000C4008001B401B400A40106440049004E005F004100310043D04
311
00D0008000A000C800E400DC01E000C800C400C0008001B401B400A40106440049004E005F004100340045934019401D001C801A401CC018C01A0019401CC0080014C018C01A001C801A4019801D00198019401B001900109440049004E005F005400490054004C00450045148019401D801A401CC01A401BC01B801CC01D8
311
019401C801B4019401C801AC017C01080130017C0113440049004E005F0042004C005F005200650076006900730069006F006E006C0069007300740045148019401D801A401CC01A401BC01B801CC01D8019401C801B4019401C801AC017C01500130017C0113440049004E005F0054004C005F00520065007600690073006
311
9006F006E006C0069007300740045148019401D801A401CC01A401BC01B801CC01D8019401C801B4019401C801AC017C01080148017C0113440049004E005F00420052005F005200650076006900730069006F006E006C0069007300740045148019401D801A401CC01A401BC01B801CC01D8019401C801B4019401C801AC0
311
17C01500148017C0113440049004E005F00540052005F005200650076006900730069006F006E006C00690073007400A00
161
               490
310
700000000000000F0BF0000000000003C2FE0000003200200000032002032E8520282205400000000002015900000000000000324000000000000007100C
 94
        0
  0
FIELD
  5
10F07
102
{ACAD_REACTORS
330
10F06
102
}
330
10F06
100
AcDbField
  1
_text
  2
%<\_FldIdx 0>% %<\_FldIdx 1>%
 90
        2
360
10F08
360
10F09
 97
        0
 91
       63
 92
        0
 94
        9
 95
        2
 96
        0
300

 93
        0
  7
ACFD_FIELD_VALUE
 93
        3
 90
        0
 94
        0
300

302

304
ACVALUE_END
301

 98
        0
  0
FIELD
  5
10F0D
102
{ACAD_REACTORS
330
10F0C
102
}
330
10F0C
100
AcDbField
  1
_text
  2
%<\_FldIdx 0>%-%<\_FldIdx 1>%
 90
        2
360
10F0E
360
10F0F
 97
        0
 91
       63
 92
        0
 94
        9
 95
        2
 96
        0
300

 93
        0
  7
ACFD_FIELD_VALUE
 93
        3
 90
        0
 94
        0
300

302

304
ACVALUE_END
301

 98
        0
  0
ACAD_PROXY_OBJECT
  5
10F14
330
0
100
AcDbProxyObject
 90
      499
 91
      576
 95
 11993117
 70
     0
162
              4428
311
4255801BC01C801B00184019C0194008000C4000A013D002500250063003C0048006F006C0065003A00630074006400690061003E002000780020003C0048006F006C0065003A0063007400640065007000740068003E00200055005C0050003C0069006600280065007100750061006C00280048006F006C0065003A00740
311
0610070007000650064002C0022003000220029002C0022002500250063002200200048006F006C0065003A006400690061002C0048006F006C0065003A006E006F006D0069006E0061006C0029003E003C0069006600280065007100750061006C00280048006F006C0065003A007400610070007000650064002C0022003
311
100220029002C0022002000780020002200200048006F006C0065003A00540061007000440065007000740068002C002200220029003E003C0069006600280065007100750061006C00280048006F006C0065003A007400650072006D0069006E006100740069006F006E002C0022003000220029002C00690066002800650
311
07100750061006C00280048006F006C0065003A007400610070007000650064002C0022003000220029002C00220020007800200022002C00220020002F002000220029002C002200220029003E003C0069006600280065007100750061006C00280048006F006C0065003A007400650072006D0069006E006100740069006
311
F006E002C0022003000220029002C0048006F006C0065003A00640065007000740068002C002200220029003E00C
161
                29
310
7020101C
 94
        0
  0
ACAD_PROXY_OBJECT
  5
10F15
330
0
100
AcDbProxyObject
 90
      499
 91
      576
 95
 11993117
 70
     0
162
              4444
311
4255801BC01C801B00184019C0194008000C4000B013D002500250063003C0048006F006C0065003A00630074006400690061003E002000780020003C0048006F006C0065003A006300740061006E0067006C0065003E002500250064005C0050003C0069006600280065007100750061006C00280048006F006C0065003A0
311
07400610070007000650064002C0022003000220029002C0022002500250063002200200048006F006C0065003A006400690061002C0048006F006C0065003A006E006F006D0069006E0061006C0029003E003C0069006600280065007100750061006C00280048006F006C0065003A007400610070007000650064002C002
311
2003100220029002C0022002000780020002200200048006F006C0065003A00540061007000440065007000740068002C002200220029003E003C0069006600280065007100750061006C00280048006F006C0065003A007400650072006D0069006E006100740069006F006E002C0022003000220029002C0069006600280
311
065007100750061006C00280048006F006C0065003A007400610070007000650064002C0022003000220029002C00220020007800200022002C00220020002F002000220029002C002200220029003E003C0069006600280065007100750061006C00280048006F006C0065003A007400650072006D0069006E00610074006
311
9006F006E002C0022003000220029002C0048006F006C0065003A00640065007000740068002C002200220029003E00C
161
                29
310
7020101C
 94
        0
  0
ACAD_PROXY_OBJECT
  5
10F13
330
0
100
AcDbProxyObject
 90
      499
 91
      576
 95
 11993117
 70
     0
162
              3844
311
4255801BC01C801B00184019C0194008000C401E63D003C0069006600280065007100750061006C00280048006F006C0065003A007400610070007000650064002C0022003000220029002C0022002500250063002200200048006F006C0065003A006400690061002C0048006F006C0065003A006E006F006D0069006E006
311
1006C0029003E003C0069006600280065007100750061006C00280048006F006C0065003A007400610070007000650064002C0022003100220029002C0022002000780020002200200048006F006C0065003A00540061007000440065007000740068002C002200220029003E003C0069006600280065007100750061006C0
311
0280048006F006C0065003A007400650072006D0069006E006100740069006F006E002C0022003000220029002C0069006600280065007100750061006C00280048006F006C0065003A007400610070007000650064002C0022003000220029002C00220020007800200022002C00220020002F002000220029002C0022002
311
20029003E003C0069006600280065007100750061006C00280048006F006C0065003A007400650072006D0069006E006100740069006F006E002C0022003000220029002C0048006F006C0065003A00640065007000740068002C002200220029003E00C
161
                29
310
7020101C
 94
        0
  0
ACAD_PROXY_OBJECT
  5
10F11
330
0
100
AcDbProxyObject
 90
      499
 91
      576
 95
 11993117
 70
     0
162
               532
311
4255801BC01C801B00184019C0194008000C801173D003C0053005400440050003A0044004500530043003E0020003C0053005400440050003A005300540044003E00C
161
                29
310
70201014
 94
        0
  0
ACAD_PROXY_OBJECT
  5
10F10
330
0
100
AcDbProxyObject
 90
      499
 91
      576
 95
 11993117
 70
     0
162
               356
311
4255801BC01C801B00184019C0194008000C4010C3D003C0053005400440050003A0044004500530043003E00C
161
                29
310
7020101C
 94
        0
  0
ACAD_PROXY_OBJECT
  5
10F12
330
0
100
AcDbProxyObject
 90
      499
 91
      576
 95
 11993117
 70
     0
162
               340
311
4255801BC01C801B00184019C0194008000CC010B3D003C0053005400440050003A005300540044003E00C
161
                29
310
70201014
 94
        0
  0
FIELD
  5
10F08
330
10F07
100
AcDbField
  1
AcVar
  2
\AcVar ViewDetailId
 90
        0
 97
        0
 91
       63
 92
        0
 94
       43
 95
        2
 96
        0
300

 93
        1
  6
Variable
 93
        2
 90
        4
  1
ViewDetailId
 94
        0
300

302

304
ACVALUE_END
  7
ACFD_FIELD_VALUE
 93
        1
 90
        0
 94
        0
300

302

304
ACVALUE_END
301
----
 98
        4
  0
FIELD
  5
10F09
330
10F07
100
AcDbField
  1
AcVar
  2
\AcVar ViewScale \f "%sn"
 90
        0
 97
        0
 91
       63
 92
        0
 94
       43
 95
        2
 96
        0
300

 93
        1
  6
Variable
 93
        2
 90
        4
  1
ViewScale
 94
        0
300

302

304
ACVALUE_END
  7
ACFD_FIELD_VALUE
 93
        1
 90
        0
 94
        0
300
%sn
302

304
ACVALUE_END
301
----
 98
        4
  0
FIELD
  5
10F0E
330
10F0D
100
AcDbField
  1
AcVar
  2
\AcVar ViewSectionStartId
 90
        0
 97
        0
 91
       63
 92
        0
 94
       43
 95
        2
 96
        0
300

 93
        1
  6
Variable
 93
        2
 90
        4
  1
ViewSectionStartId
 94
        0
300

302

304
ACVALUE_END
  7
ACFD_FIELD_VALUE
 93
        1
 90
        0
 94
        0
300

302

304
ACVALUE_END
301
----
 98
        4
  0
FIELD
  5
10F0F
330
10F0D
100
AcDbField
  1
AcVar
  2
\AcVar ViewSectionEndId
 90
        0
 97
        0
 91
       63
 92
        0
 94
       43
 95
        2
 96
        0
300

 93
        1
  6
Variable
 93
        2
 90
        4
  1
ViewSectionEndId
 94
        0
300

302

304
ACVALUE_END
  7
ACFD_FIELD_VALUE
 93
        1
 90
        0
 94
        0
300

302

304
ACVALUE_END
301
----
 98
        4
  0
ENDSEC
  0
SECTION
  2
ACDSDATA
 70
     2
 71
     8
  0
ACDSSCHEMA
 90
        0
  1
AcDb_Thumbnail_Schema
  2
AcDbDs::ID
280
    10
 91
        8
  2
Thumbnail_Data
280
    15
 91
        0
101
ACDSRECORD
 95
        0
 90
        1
  2
AcDbDs::TreatedAsObjectData
280
     1
291
     1
101
ACDSRECORD
 95
        0
 90
        2
  2
AcDbDs::Legacy
280
     1
291
     1
101
ACDSRECORD
  1
AcDbDs::ID
 90
        3
  2
AcDs:Indexable
280
     1
291
     1
101
ACDSRECORD
  1
AcDbDs::ID
 90
        4
  2
AcDbDs::HandleAttribute
280
     7
282
     1
  0
ACDSSCHEMA
 90
        1
  1
AcDbDs::TreatedAsObjectDataSchema
  2
AcDbDs::TreatedAsObjectData
280
     1
 91
        0
  0
ACDSSCHEMA
 90
        2
  1
AcDbDs::LegacySchema
  2
AcDbDs::Legacy
280
     1
 91
        0
  0
ACDSSCHEMA
 90
        3
  1
AcDbDs::IndexedPropertySchema
  2
AcDs:Indexable
280
     1
 91
        0
  0
ACDSSCHEMA
 90
        4
  1
AcDbDs::HandleAttributeSchema
  2
AcDbDs::HandleAttribute
280
     7
 91
        1
284
     1
  0
ACDSRECORD
 90
        0
  2
AcDbDs::ID
280
    10
320
12D4D
  2
Thumbnail_Data
280
    15
 94
     1810
310
89504E470D0A1A0A0000000D4948445200000100000000B5080300000087DCD12600000300504C5445FFFFFF000000C8C8C80000000000000000000000000000000000000000000000000000330000660000990000CC0000FF0033000033330033660033990033CC0033FF0066000066330066660066990066CC0066FF0099
310
000099330099660099990099CC0099FF00CC0000CC3300CC6600CC9900CCCC00CCFF00FF0000FF3300FF6600FF9900FFCC00FFFF3300003300333300663300993300CC3300FF3333003333333333663333993333CC3333FF3366003366333366663366993366CC3366FF3399003399333399663399993399CC3399FF33CC00
310
33CC3333CC6633CC9933CCCC33CCFF33FF0033FF3333FF6633FF9933FFCC33FFFF6600006600336600666600996600CC6600FF6633006633336633666633996633CC6633FF6666006666336666666666996666CC6666FF6699006699336699666699996699CC6699FF66CC0066CC3366CC6666CC9966CCCC66CCFF66FF0066
310
FF3366FF6666FF9966FFCC66FFFF9900009900339900669900999900CC9900FF9933009933339933669933999933CC9933FF9966009966339966669966999966CC9966FF9999009999339999669999999999CC9999FF99CC0099CC3399CC6699CC9999CCCC99CCFF99FF0099FF3399FF6699FF9999FFCC99FFFFCC0000CC00
310
33CC0066CC0099CC00CCCC00FFCC3300CC3333CC3366CC3399CC33CCCC33FFCC6600CC6633CC6666CC6699CC66CCCC66FFCC9900CC9933CC9966CC9999CC99CCCC99FFCCCC00CCCC33CCCC66CCCC99CCCCCCCCCCFFCCFF00CCFF33CCFF66CCFF99CCFFCCCCFFFFFF0000FF0033FF0066FF0099FF00CCFF00FFFF3300FF3333
310
FF3366FF3399FF33CCFF33FFFF6600FF6633FF6666FF6699FF66CCFF66FFFF9900FF9933FF9966FF9999FF99CCFF99FFFFCC00FFCC33FFCC66FFCC99FFCCCCFFCCFFFFFF00FFFF33FFFF66FFFF99FFFFCCFFFFFF0000000D0D0D1A1A1A2828283535354343435050505D5D5D6B6B6B787878868686939393A1A1A1AEAEAEBB
310
BBBBC9C9C9D6D6D6E4E4E4F1F1F1FFFFFF000000000000000000000000000000000000000000000000000000000000B0E2D235000003CD4944415478DAEDDC4F6EE2301406F0C837E85D6636650EC36AB8083BAFC261BC42394957A9664A48F2EC383EC03C3B5453E81F410501F23E43D55402D1FCF2F9F925D0668DF091F1
310
5DF20000001240B9373E785CF9F5B8D367BC011079F40100000000000000000000000000000000000000806800B90300000000000000000000000000000000000000000000004201705114000000000000000000DCCA6F76C49836C0591E0280FB07F05D1F640358DBCB9E02BD910D10B2E04D9A05BC1582C00478AAB7DA27
310
084BCEBC311001D0BB7ABEA59880DEB60DDFB4EB450198BAAA5C3CEAC1E96198200A40D5D55CA55AE08872BEFF0F800880D0DB4563E30CE02DEBF86695F77DEF839822D82BD2A492808F028E93602D450111005CFC7BA71B8A02995FF1FE3B1B018C0480107A3246F55E6FEB7E58129C5D799793A58E7B82E90378B7AD1BDD
310
AD23406C83B80CB4DA3B4DB9569C8CE94F811054EC8339018BB4F605CEFECA59ED142740440D18967CAF7537AC84D6A62AC80E9C0029AD304F0415861531ED7EAF749ED685206419B4B54D415873FCADCB7D50DC0ECA580552FCDBF9DCA63590934F96F73F539A3B834E4A23B4AEEB6668053BCB073E36C29D76711590D20A
310
936EF91CD0F1962222134F0F345DA411CA6E3201F122001FF9D8F986F5500D4D9C02EA8C87ECA601E2C9409EAE0A86D77BAC01B91B13E0526F4A1C7749CC6BBB7F59D8C45560D404C417FACB3D298F56D3F9CEC58F5B065B3EFE6F0582E14E589BB101AA45CBFDC782F4A2F9F9F2F26B3C80A00E2F0A77BA257DAE227834C0
310
F3300B7FFF618115D178005976F8BE48AC01E327E079B79DBE073D26C0E1306D7EBE4EF038808AAACDFCC7EC7136DB41B4D704E86231EA464EC0663BA7AADA54336678B83280218EC0E835206455B56D68B3A9369BC759FB70DD04D0C809B8661FF06E7063C0025D10D309BE9F02BC1E6B41ADF0BB9112A0E426204D8171CF
310
056E2E017C36281820489F029C00D945302540CB4E80BE480D28EF2701F9A735A02CCAD35FE6DE3E28F955022400044F44F92745F0E41E7D6A1F965E16CBA9007C6F1445211BE0E4BDC01F4C00E06E01F66B6079F8E39113E3AE014E189304D8DFFA6897CB492760379E9E9ECAF85516BBADDD8FAF5B288200000000000000
310
00000000000000002E0430C2A7256E3C01D201C42760B9943E05B00A00601200720700000000007CBF091CF513D400B83180B22C0030010114410000000000000000000000E100B8280A00000000000000000000000000000000000000000000000000000000000000000000000000000010002077000000430D38F99F514D
310
E51948000000207C8807F80742BBD1C098C234FA0000000049454E44AE426082
  0
ACDSRECORD
 90
        0
  2
AcDbDs::ID
280
    10
320
1712
  2
Thumbnail_Data
280
    15
 94
     2970
310
89504E470D0A1A0A0000000D49484452000001000000005F08030000003003E9C200000300504C5445000000000000C8C8C80000000000000000000000000000000000000000000000000000330000660000990000CC0000FF0033000033330033660033990033CC0033FF0066000066330066660066990066CC0066FF0099
310
000099330099660099990099CC0099FF00CC0000CC3300CC6600CC9900CCCC00CCFF00FF0000FF3300FF6600FF9900FFCC00FFFF3300003300333300663300993300CC3300FF3333003333333333663333993333CC3333FF3366003366333366663366993366CC3366FF3399003399333399663399993399CC3399FF33CC00
310
33CC3333CC6633CC9933CCCC33CCFF33FF0033FF3333FF6633FF9933FFCC33FFFF6600006600336600666600996600CC6600FF6633006633336633666633996633CC6633FF6666006666336666666666996666CC6666FF6699006699336699666699996699CC6699FF66CC0066CC3366CC6666CC9966CCCC66CCFF66FF0066
310
FF3366FF6666FF9966FFCC66FFFF9900009900339900669900999900CC9900FF9933009933339933669933999933CC9933FF9966009966339966669966999966CC9966FF9999009999339999669999999999CC9999FF99CC0099CC3399CC6699CC9999CCCC99CCFF99FF0099FF3399FF6699FF9999FFCC99FFFFCC0000CC00
310
33CC0066CC0099CC00CCCC00FFCC3300CC3333CC3366CC3399CC33CCCC33FFCC6600CC6633CC6666CC6699CC66CCCC66FFCC9900CC9933CC9966CC9999CC99CCCC99FFCCCC00CCCC33CCCC66CCCC99CCCCCCCCCCFFCCFF00CCFF33CCFF66CCFF99CCFFCCCCFFFFFF0000FF0033FF0066FF0099FF00CCFF00FFFF3300FF3333
310
FF3366FF3399FF33CCFF33FFFF6600FF6633FF6666FF6699FF66CCFF66FFFF9900FF9933FF9966FF9999FF99CCFF99FFFFCC00FFCC33FFCC66FFCC99FFCCCCFFCCFFFFFF00FFFF33FFFF66FFFF99FFFFCCFFFFFF0000000D0D0D1A1A1A2828283535354343435050505D5D5D6B6B6B787878868686939393A1A1A1AEAEAEBB
310
BBBBC9C9C9D6D6D6E4E4E4F1F1F1FFFFFF00000000000000000000000000000000000000000000000000000000000008F1915C000001294944415478DAEDDB511282201485E1BBFFC5B8047675DFCB90A44871A642F0FC9FD6136376B8809366060000000038813F10807202CB4BB6F3E7FE77E1CED7AE801880EE1CE0CF81
310
A01C8019018807C02A205A01A9E36527C1B5F245874016806A05B87A0510807600D985100110000108FF1E4005480630E5FCBE4D935600A164000000000000007051F30D8175577C3CC0E3CD008F6F8ACF47B8A7FD4A01788321E07D776B037D57C07FCF6F299C0B0C81CE3FE3972757ADDB7A61BFB618228034BF6D0E5C2F
310
DAD8468BE21023041017B79DEF576DB0D3629C0A58B68F679F5D07BD0570F8102C83C32D83E9E2A7D6A27E888197416F710802208013E7C02F1BD881067D27D0438D9CBCFE85062B61E8AD0CF2FFBD8506734C30EFB600342B0000000000000CE506FCDA0BA5A0AD404F0000000049454E44AE426082541B8124EB6F63BCEE
310
3C796A5484E0FDF207E2B21BA4105A3140328984494B09306D075B87C154B22FCAF697487AC2464D2B4CE3CEBAD2089586A87444A623E9031A350E885E26202B13005F07094379AB9336408F034C4E2D513D1593AEB88E009D38418F03CAA9E8AF2380BA1B74DE2D9D01AB9CCA3F0A905C60F3FC28EC7E1B5CD401F55A9CDD
310
8DB7B757B66C428EC82C24407E7604F4A048B982851DF060C01F8E247F0E7617F2620298FCF2FB2F19D0920C432B086076752231E6E262671713E015C5017ED946688E7D7FB7B9BCA0A7936AB35D4D80D20851BBB003B8EF7BBAAB225C6EEA658C2B3B608512F0C338F8FEAAEF2FBF9C6F36DFD7134076811504B8CFA1AFFD
310
60FDD0172F9CAFE880E54370CD3EE0CD1220459DE0EB105CBE043E9500B504343BA0948027DD0E58BC0FF85C19704DEA334052507B087AD521E8E95D079CD2BD83BF9F05DE71C0F1386B70806F553B204F4D93920201FEE25EE1FDFEB83FD3CDA9DF410D00F883903CED7FAD985FBE7A63C9F31B9F3D3D6E6E6EE6F29C8F4F
310
AF9EFEC81395020000000000C0328389D6C914024000CDECF7B3F6C36800000000A8EC0135FDBA1704F870FDB83D0100000000FF3D3F017F158C4367E5DB810000000049454E44AE4260823AF55F95ED61670EF61BEDCDABADFC306A22FC36800A6642A256AC29A3DA72AC11BF843013029E4EFD871E492E64F84607ED8E26
310
3C5AE6357DC029C084920E6D0472A0F4FD5C1470CC336EE01E3DC01ECC371490D9F759E35DF660A7D8656414C2EA297B40B8BF59FF7C2894F9A7D3DB4B3F849B024602C287F6C13E57C3773AFFD095C6DFFED9940888A3EE2FA8FB90B99D2A84106AF54CC7FA2844A154B3CDF0CE77F260863F9A6352C0A1FE0E0121748885
310
61520B223CEE8112BA27C7320C616A510991AFC55A88950005EB5C1025CA9B45DD87F0870DA4FA2E01A400574E8B805E7BE429B4AB3175A16DC141273996381109CFEBE54A2CD6C735B810F270AC95DF9E77FD572B3B217387BF10028DF5D322A0A3328E0A5A8596053D1C27F0FA7A420C35A450910E702E84318B05450504
310
A15EF4F9F2768FE7CC3EFF25054C8C808BB2B2302309AC05EFAD92A3082209100371204E0808912F2828980FA0704AB339200DDA3F570031F51B3C6062211086AC6B9C2C28FAA5B1A314B8FF8D86F01012A2A631E78888A5587DCAD7EB7C1D6910CABD6C5B0502BEB3063C745EF930B55561F8E0AE6B30EB240526C18EB6C0
310
5230230F2304ABE188918387F5710931AC9806671747B73DF7EF2B878F21A087FDF40A212878B8745A59C352B014100A9D1DC40029989B14EA918B82C4001F582D476F58AC73650E074A169551ED3B737824A06D7C19F613AD04A3129CC2F8D814C08253BE41078F9BF6BD14888B82B4705A2F3910962BE51687C58AB2056E
310
08038FE402EA315784B06DA6A98007A782124612241D1003A4402C281F5BBC0721F05514C8961C04F96A998BF593F814BD211650ED4843F480B6744D983201B1721F7A9000131C95105DA169B4F6575BB81AE3CD18D81F911E9ED7F19A7F1A2D929831A823610E039B603369053C86C3B9E1F0BFC5836529E87B86D85C29A8
310
1FFD91B204578E7006F1892988C9A250BED5A5F4B320E0E6092D85C3180FE48DCE392241FB9B394635D4D7D7C21009187B54C0333F2DE94AD650BAFCE4B65D46720833D82112381C34D587104221A312AE528016E4CD1CEF0503BDE6928169E04CB1E22B64D1A8C3225F3D8B9CA2E26A0E53DE221317FED02CE99807A49057
310
5B50DED38277B485FA510D0F2101124ED44DC01A880CE1EDE180627AC1A543F10FA99AAE0F73D82314A2126801F8EA8CCC024B4137E58B55F724F92E26A23F9E30FBEB7C2994591C17A7F5897C92F225ACC2CD6793142B01A18FF4509BD11A294BDE03429907D40FF5637DEB25C812D915A97E823E4E3ECC689758D8FF2740
310
092F6ECC0E858DB6209D2B590AD44FCAB8A47063A1B8BE14A6E02C01635CA25C389E4EF9E954E930AF6D72212AA185FF1563ECC309E5D84DF27E02FF503EDF4AE8AB1EC81F217E9163F6F3AA7E69FB59EE1344C38370F05415513890122C1DE48D3A7E4EAC2C6BA1E672C10879EF2AAB13A32A5CCBAB4B33DD2849CB884402
310
AD276074B1938C118104D1D0EE0175CD10F5D512445D5571EA31FADD5821CF78A728D5096FA48458320A3B168D46C60441DB62AE85237D3C529DAAFBDCDF965367BF5596944015634D5A28460E247552D452430A8D923C7A4183AF0BDBEDDE2D19FC107B8599043FAE28420B925656E842D5B3A43535B2FCBC80EBEDC2571F
310
2BFC189BA56944C35BD6B231D62405AA194102A69E745F91F26DDB0F3FF66EF1302A816B012E000A1A7D8EC19B9718F73FC176F910DE40024C41A21CAA29F2AB0F71FFA37F5F20EC87E1DC912720F88DFBF725FC745F98E07D027DD6BEF838F761A204FCECDF1A4B4848484848484848484848484848484848484848484848
310
484848484848484848484848484848484848484848484848489802FE0BA88B0687C02A9C820000000049454E44AE426082
  0
ENDSEC
  0
EOF
