  0
SECTION
  2
HEADER
  9
$ACADVER
  1
AC1015
  9
$ACADMAINTVER
 70
    20
  9
$DWGCODEPAGE
  3
ANSI_1252
  9
$INSBASE
 10
0.0
 20
0.0
 30
0.0
  9
$EXTMIN
 10
4882.620003934195
 20
-5581.167186879905
 30
-11.0
  9
$EXTMAX
 10
13093.93608651034
 20
337.7815371574236
 30
11.0
  9
$LIMMIN
 10
-1091.180495341761
 20
-619.6501650024412
  9
$LIMMAX
 10
1056.97244419739
 20
951.0353648293053
  9
$ORTHOMODE
 70
     0
  9
$REGENMODE
 70
     1
  9
$FILLMODE
 70
     1
  9
$QTEXTMODE
 70
     0
  9
$MIRRTEXT
 70
     0
  9
$LTSCALE
 40
1.0
  9
$ATTMODE
 70
     1
  9
$TEXTSIZE
 40
4.0
  9
$TRACEWID
 40
0.05
  9
$TEXTSTYLE
  7
AN150
  9
$CLAYER
  8
BLATTTEXT
  9
$CELTYPE
  6
BYLAYER
  9
$CECOLOR
 62
   256
  9
$CELTSCALE
 40
1.0
  9
$DISPSILH
 70
     0
  9
$DIMSCALE
 40
1.0
  9
$DIMASZ
 40
20.0
  9
$DIMEXO
 40
20.0
  9
$DIMDLI
 40
60.0
  9
$DIMRND
 40
0.0
  9
$DIMDLE
 40
0.0
  9
$DIMEXE
 40
10.0
  9
$DIMTP
 40
0.0
  9
$DIMTM
 40
0.0
  9
$DIMTXT
 40
25.0
  9
$DIMCEN
 40
0.09
  9
$DIMTSZ
 40
0.0
  9
$DIMTOL
 70
     0
  9
$DIMLIM
 70
     0
  9
$DIMTIH
 70
     0
  9
$DIMTOH
 70
     0
  9
$DIMSE1
 70
     0
  9
$DIMSE2
 70
     0
  9
$DIMTAD
 70
     0
  9
$DIMZIN
 70
     0
  9
$DIMBLK
  1

  9
$DIMASO
 70
     1
  9
$DIMSHO
 70
     1
  9
$DIMPOST
  1

  9
$DIMAPOST
  1

  9
$DIMALT
 70
     0
  9
$DIMALTD
 70
     2
  9
$DIMALTF
 40
25.4
  9
$DIMLFAC
 40
1.0
  9
$DIMTOFL
 70
     0
  9
$DIMTVP
 40
0.0
  9
$DIMTIX
 70
     0
  9
$DIMSOXD
 70
     0
  9
$DIMSAH
 70
     0
  9
$DIMBLK1
  1

  9
$DIMBLK2
  1

  9
$DIMSTYLE
  2
VAKF
  9
$DIMCLRD
 70
     0
  9
$DIMCLRE
 70
     0
  9
$DIMCLRT
 70
     0
  9
$DIMTFAC
 40
1.0
  9
$DIMGAP
 40
2.0
  9
$DIMJUST
 70
     0
  9
$DIMSD1
 70
     0
  9
$DIMSD2
 70
     0
  9
$DIMTOLJ
 70
     1
  9
$DIMTZIN
 70
     0
  9
$DIMALTZ
 70
     0
  9
$DIMALTTZ
 70
     0
  9
$DIMUPT
 70
     0
  9
$DIMDEC
 70
     0
  9
$DIMTDEC
 70
     0
  9
$DIMALTU
 70
     2
  9
$DIMALTTD
 70
     2
  9
$DIMTXSTY
  7
STANDARD
  9
$DIMAUNIT
 70
     0
  9
$DIMADEC
 70
     0
  9
$DIMALTRND
 40
0.0
  9
$DIMAZIN
 70
     0
  9
$DIMDSEP
 70
    46
  9
$DIMATFIT
 70
     3
  9
$DIMFRAC
 70
     0
  9
$DIMLDRBLK
  1

  9
$DIMLUNIT
 70
     2
  9
$DIMLWD
 70
    -2
  9
$DIMLWE
 70
    -2
  9
$DIMTMOVE
 70
     0
  9
$LUNITS
 70
     2
  9
$LUPREC
 70
     4
  9
$SKETCHINC
 40
0.1
  9
$FILLETRAD
 40
0.0
  9
$AUNITS
 70
     0
  9
$AUPREC
 70
     4
  9
$MENU
  1
acad
  9
$ELEVATION
 40
0.0
  9
$PELEVATION
 40
0.0
  9
$THICKNESS
 40
0.0
  9
$LIMCHECK
 70
     0
  9
$CHAMFERA
 40
0.0
  9
$CHAMFERB
 40
0.0
  9
$CHAMFERC
 40
1.0
  9
$CHAMFERD
 40
0.0
  9
$SKPOLY
 70
     0
  9
$TDCREATE
 40
2451353.459995197
  9
$TDUCREATE
 40
2451353.376661864
  9
$TDUPDATE
 40
2453900.578881968
  9
$TDUUPDATE
 40
2453900.495548634
  9
$TDINDWG
 40
3.9619242245
  9
$TDUSRTIMER
 40
3.9619242245
  9
$USRTIMER
 70
     1
  9
$ANGBASE
 50
0.0
  9
$ANGDIR
 70
     0
  9
$PDMODE
 70
     0
  9
$PDSIZE
 40
0.0
  9
$PLINEWID
 40
0.0
  9
$SPLFRAME
 70
     0
  9
$SPLINETYPE
 70
     6
  9
$SPLINESEGS
 70
    50
  9
$HANDSEED
  5
8BFC
  9
$SURFTAB1
 70
     6
  9
$SURFTAB2
 70
     6
  9
$SURFTYPE
 70
     6
  9
$SURFU
 70
     6
  9
$SURFV
 70
     6
  9
$UCSBASE
  2

  9
$UCSNAME
  2

  9
$UCSORG
 10
0.0
 20
0.0
 30
0.0
  9
$UCSXDIR
 10
1.0
 20
0.0
 30
0.0
  9
$UCSYDIR
 10
0.0
 20
1.0
 30
0.0
  9
$UCSORTHOREF
  2

  9
$UCSORTHOVIEW
 70
     0
  9
$UCSORGTOP
 10
0.0
 20
0.0
 30
0.0
  9
$UCSORGBOTTOM
 10
0.0
 20
0.0
 30
0.0
  9
$UCSORGLEFT
 10
0.0
 20
0.0
 30
0.0
  9
$UCSORGRIGHT
 10
0.0
 20
0.0
 30
0.0
  9
$UCSORGFRONT
 10
0.0
 20
0.0
 30
0.0
  9
$UCSORGBACK
 10
0.0
 20
0.0
 30
0.0
  9
$PUCSBASE
  2

  9
$PUCSNAME
  2

  9
$PUCSORG
 10
0.0
 20
0.0
 30
0.0
  9
$PUCSXDIR
 10
1.0
 20
0.0
 30
0.0
  9
$PUCSYDIR
 10
0.0
 20
1.0
 30
0.0
  9
$PUCSORTHOREF
  2

  9
$PUCSORTHOVIEW
 70
     0
  9
$PUCSORGTOP
 10
0.0
 20
0.0
 30
0.0
  9
$PUCSORGBOTTOM
 10
0.0
 20
0.0
 30
0.0
  9
$PUCSORGLEFT
 10
0.0
 20
0.0
 30
0.0
  9
$PUCSORGRIGHT
 10
0.0
 20
0.0
 30
0.0
  9
$PUCSORGFRONT
 10
0.0
 20
0.0
 30
0.0
  9
$PUCSORGBACK
 10
0.0
 20
0.0
 30
0.0
  9
$USERI1
 70
     0
  9
$USERI2
 70
     0
  9
$USERI3
 70
     0
  9
$USERI4
 70
     0
  9
$USERI5
 70
     0
  9
$USERR1
 40
0.0
  9
$USERR2
 40
0.0
  9
$USERR3
 40
0.0
  9
$USERR4
 40
0.0
  9
$USERR5
 40
0.0
  9
$WORLDVIEW
 70
     1
  9
$SHADEDGE
 70
     3
  9
$SHADEDIF
 70
    70
  9
$TILEMODE
 70
     1
  9
$MAXACTVP
 70
    48
  9
$PINSBASE
 10
0.0
 20
0.0
 30
0.0
  9
$PLIMCHECK
 70
     0
  9
$PEXTMIN
 10
1.000000000000000E+20
 20
1.000000000000000E+20
 30
1.000000000000000E+20
  9
$PEXTMAX
 10
-1.000000000000000E+20
 20
-1.000000000000000E+20
 30
-1.000000000000000E+20
  9
$PLIMMIN
 10
-28.8959541988969
 20
2.819245198056933
  9
$PLIMMAX
 10
181.0773734378218
 20
299.7452400711038
  9
$UNITMODE
 70
     0
  9
$VISRETAIN
 70
     1
  9
$PLINEGEN
 70
     0
  9
$PSLTSCALE
 70
     1
  9
$TREEDEPTH
 70
  3020
  9
$CMLSTYLE
  2
STANDARD
  9
$CMLJUST
 70
     0
  9
$CMLSCALE
 40
1.0
  9
$PROXYGRAPHICS
 70
     1
  9
$MEASUREMENT
 70
     0
  9
$CELWEIGHT
370
    -1
  9
$ENDCAPS
280
     0
  9
$JOINSTYLE
280
     0
  9
$LWDISPLAY
290
     0
  9
$INSUNITS
 70
     0
  9
$HYPERLINKBASE
  1

  9
$STYLESHEET
  1

  9
$XEDIT
290
     1
  9
$CEPSNTYPE
380
     0
  9
$PSTYLEMODE
290
     1
  9
$FINGERPRINTGUID
  2
{9534987B-55C5-11D5-8B32-0050046A49B2}
  9
$VERSIONGUID
  2
{8D533F2B-9905-4DF7-A614-1A00B7B17968}
  9
$EXTNAMES
290
     1
  9
$PSVPSCALE
 40
0.0
  9
$OLESTARTUP
290
     0
  0
ENDSEC
  0
SECTION
  2
CLASSES
  0
CLASS
  1
DICTIONARYVAR
  2
AcDbDictionaryVar
  3
ObjectDBX Classes
 90
        0
280
     0
281
     0
  0
CLASS
  1
ACDBDICTIONARYWDFLT
  2
AcDbDictionaryWithDefault
  3
ObjectDBX Classes
 90
        0
280
     0
281
     0
  0
CLASS
  1
ACDBPLACEHOLDER
  2
AcDbPlaceHolder
  3
ObjectDBX Classes
 90
        0
280
     0
281
     0
  0
CLASS
  1
LAYOUT
  2
AcDbLayout
  3
ObjectDBX Classes
 90
        0
280
     0
281
     0
  0
CLASS
  1
RASTERVARIABLES
  2
AcDbRasterVariables
  3
ISM
 90
        0
280
     0
281
     0
  0
CLASS
  1
IMAGEDEF
  2
AcDbRasterImageDef
  3
ISM
 90
        0
280
     0
281
     0
  0
CLASS
  1
IMAGEDEF_REACTOR
  2
AcDbRasterImageDefReactor
  3
ISM
 90
    32769
280
     0
281
     0
  0
CLASS
  1
IMAGE
  2
AcDbRasterImage
  3
ISM
 90
    32895
280
     0
281
     1
  0
CLASS
  1
DIMASSOC
  2
AcDbDimAssoc
  3
"AcDbDimAssoc|Product Desc:     AcDim ARX App For Dimension|Company:          Autodesk, Inc.|WEB Address:      www.autodesk.com"
 90
        0
280
     0
281
     0
  0
CLASS
  1
TABLESTYLE
  2
AcDbTableStyle
  3
ObjectDBX Classes
 90
     2047
280
     0
281
     0
  0
CLASS
  1
SORTENTSTABLE
  2
AcDbSortentsTable
  3
ObjectDBX Classes
 90
        0
280
     0
281
     0
  0
ENDSEC
  0
SECTION
  2
TABLES
  0
TABLE
  2
VPORT
  5
8
330
0
100
AcDbSymbolTable
 70
     3
  0
VPORT
  5
8BEE
330
8
100
AcDbSymbolTableRecord
100
AcDbViewportTableRecord
  2
*Active
 70
     0
 10
0.0
 20
0.0
 11
1.0
 21
1.0
 12
7623.681196352617
 22
-2888.202013867589
 13
0.0
 23
0.0
 14
0.5
 24
0.5
 15
0.5
 25
0.5
 16
0.0
 26
0.0
 36
1.0
 17
0.0
 27
0.0
 37
0.0
 40
7281.230657693082
 41
1.324110671936758
 42
50.0
 43
0.0
 44
0.0
 50
0.0
 51
0.0
 71
     0
 72
   100
 73
     1
 74
     1
 75
     0
 76
     0
 77
     0
 78
     0
281
     0
 65
     1
110
0.0
120
0.0
130
0.0
111
1.0
121
0.0
131
0.0
112
0.0
122
1.0
132
0.0
 79
     0
146
0.0
  0
ENDTAB
  0
TABLE
  2
LTYPE
  5
5
330
0
100
AcDbSymbolTable
 70
     6
  0
LTYPE
  5
12
330
5
100
AcDbSymbolTableRecord
100
AcDbLinetypeTableRecord
  2
BYBLOCK
 70
     0
  3

 72
    65
 73
     0
 40
0.0
  0
LTYPE
  5
13
330
5
100
AcDbSymbolTableRecord
100
AcDbLinetypeTableRecord
  2
BYLAYER
 70
     0
  3

 72
    65
 73
     0
 40
0.0
  0
LTYPE
  5
14
330
5
100
AcDbSymbolTableRecord
100
AcDbLinetypeTableRecord
  2
CONTINUOUS
 70
     0
  3
Solid line
 72
    65
 73
     0
 40
0.0
  0
LTYPE
  5
222
330
5
100
AcDbSymbolTableRecord
100
AcDbLinetypeTableRecord
  2
STRICHPUNKT
 70
     0
  3
Strichpunkt __ . __ . __ . __ . __ . __ . __ . 
 72
    65
 73
     4
 40
25.4
 49
12.7
 74
     0
 49
-6.349999999999999
 74
     0
 49
0.0
 74
     0
 49
-6.349999999999999
 74
     0
  0
LTYPE
  5
223
330
5
100
AcDbSymbolTableRecord
100
AcDbLinetypeTableRecord
  2
STRICHLINIE
 70
     0
  3
Strichlinie __ __ __ __ __ __ __ __ __ __ __ __
 72
    65
 73
     2
 40
19.05
 49
12.7
 74
     0
 49
-6.349999999999999
 74
     0
  0
LTYPE
  5
3BCD
330
5
100
AcDbSymbolTableRecord
100
AcDbLinetypeTableRecord
  2
VERDECKT
 70
     0
  3
Verdeckt __ __ __ __ __ __ __ __ __ __ __ __ __
 72
    65
 73
     2
 40
0.375
 49
0.25
 74
     0
 49
-0.125
 74
     0
  0
LTYPE
  5
5643
330
5
100
AcDbSymbolTableRecord
100
AcDbLinetypeTableRecord
  2
ACAD_ISO02W100
 70
     0
  3
ISO Strichlinie __ __ __ __ __ __ __ __ __ __ _
 72
    65
 73
     2
 40
15.0
 49
12.0
 74
     0
 49
-3.0
 74
     0
  0
LTYPE
  5
5644
330
5
100
AcDbSymbolTableRecord
100
AcDbLinetypeTableRecord
  2
ACAD_ISO10W100
 70
     0
  3
ISO Strichpunktlinie __ . __ . __ . __ . __ . _
 72
    65
 73
     4
 40
18.0
 49
12.0
 74
     0
 49
-3.0
 74
     0
 49
0.0
 74
     0
 49
-3.0
 74
     0
  0
ENDTAB
  0
TABLE
  2
LAYER
  5
2
102
{ACAD_XDICTIONARY
360
553D
102
}
330
0
100
AcDbSymbolTable
 70
    16
  0
LAYER
  5
E
330
2
100
AcDbSymbolTableRecord
100
AcDbLayerTableRecord
  2
0
 70
     0
 62
     7
  6
CONTINUOUS
370
    -3
390
16EB
  0
LAYER
  5
4A
330
2
100
AcDbSymbolTableRecord
100
AcDbLayerTableRecord
  2
HILFSLINIEN
 70
     0
 62
     3
  6
CONTINUOUS
290
     0
370
    -3
390
16EB
  0
LAYER
  5
12F
330
2
100
AcDbSymbolTableRecord
100
AcDbLayerTableRecord
  2
25
 70
     0
 62
     7
  6
CONTINUOUS
370
    -3
390
16EB
  0
LAYER
  5
1DA
330
2
100
AcDbSymbolTableRecord
100
AcDbLayerTableRecord
  2
35
 70
     0
 62
     2
  6
CONTINUOUS
370
    -3
390
16EB
  0
LAYER
  5
224
330
2
100
AcDbSymbolTableRecord
100
AcDbLayerTableRecord
  2
KOTIERUNG
 70
     0
 62
     7
  6
CONTINUOUS
370
    -3
390
16EB
  0
LAYER
  5
225
330
2
100
AcDbSymbolTableRecord
100
AcDbLayerTableRecord
  2
DEFPOINTS
 70
     0
 62
     7
  6
CONTINUOUS
290
     0
370
    -3
390
16EB
  0
LAYER
  5
226
330
2
100
AcDbSymbolTableRecord
100
AcDbLayerTableRecord
  2
18
 70
     0
 62
     1
  6
CONTINUOUS
370
    -3
390
16EB
  0
LAYER
  5
425
330
2
100
AcDbSymbolTableRecord
100
AcDbLayerTableRecord
  2
50
 70
     0
 62
    33
  6
CONTINUOUS
370
    -3
390
16EB
  0
LAYER
  5
471
330
2
100
AcDbSymbolTableRecord
100
AcDbLayerTableRecord
  2
FENSTER
 70
     0
 62
     4
  6
CONTINUOUS
290
     0
370
    -3
390
16EB
  0
LAYER
  5
474
330
2
100
AcDbSymbolTableRecord
100
AcDbLayerTableRecord
  2
A4-BLATT
 70
     0
 62
     6
  6
CONTINUOUS
290
     0
370
    -3
390
16EB
  0
LAYER
  5
12F9
330
2
100
AcDbSymbolTableRecord
100
AcDbLayerTableRecord
  2
BLATTHILFSLINIEN
 70
     0
 62
   252
  6
CONTINUOUS
290
     0
370
    -3
390
16EB
  0
LAYER
  5
14EF
330
2
100
AcDbSymbolTableRecord
100
AcDbLayerTableRecord
  2
BLATTTEXT
 70
     0
 62
     7
  6
CONTINUOUS
370
    -3
390
16EB
  0
LAYER
  5
1A60
330
2
100
AcDbSymbolTableRecord
100
AcDbLayerTableRecord
  2
70
 70
     0
 62
     5
  6
CONTINUOUS
370
    -3
390
16EB
  0
LAYER
  5
3BCE
330
2
100
AcDbSymbolTableRecord
100
AcDbLayerTableRecord
  2
Anker
 70
     0
 62
     2
  6
CONTINUOUS
370
    -3
390
16EB
  0
LAYER
  5
6BAE
330
2
100
AcDbSymbolTableRecord
100
AcDbLayerTableRecord
  2
Hilfslinie
 70
     0
 62
     3
  6
CONTINUOUS
290
     0
370
    -3
390
16EB
  0
LAYER
  5
8A1A
330
2
100
AcDbSymbolTableRecord
100
AcDbLayerTableRecord
  2
LOGO
 70
     0
 62
     7
  6
CONTINUOUS
370
    -3
390
16EB
  0
ENDTAB
  0
TABLE
  2
STYLE
  5
3
330
0
100
AcDbSymbolTable
 70
    11
  0
STYLE
  5
F
330
3
100
AcDbSymbolTableRecord
100
AcDbTextStyleTableRecord
  2
STANDARD
 70
     0
 40
0.0
 41
1.0
 50
0.0
 71
     0
 42
25.0
  3
ARIALN.TTF
  4

1001
ACAD
1000
Arial Narrow
1071
       34
  0
STYLE
  5
428
330
3
100
AcDbSymbolTableRecord
100
AcDbTextStyleTableRecord
  2
VOEST
 70
     0
 40
0.0
 41
1.0
 50
0.0
 71
     0
 42
4.0
  3
ARIALN.TTF
  4

1001
ACAD
1000
Arial Narrow
1071
       34
  0
STYLE
  5
14E5
330
3
100
AcDbSymbolTableRecord
100
AcDbTextStyleTableRecord
  2
ARIALFETT
 70
     0
 40
0.0
 41
1.0
 50
0.0
 71
     0
 42
4.0
  3
ARIALN.TTF
  4

1001
ACAD
1000
Arial Narrow
1071
       34
  0
STYLE
  5
16D3
330
3
100
AcDbSymbolTableRecord
100
AcDbTextStyleTableRecord
  2
VOESTB
 70
     0
 40
0.0
 41
1.0
 50
0.0
 71
     0
 42
4.0
  3
ARIALNB.TTF
  4

1001
ACAD
1000
Arial Narrow
1071
 33554466
  0
STYLE
  5
1A75
330
3
100
AcDbSymbolTableRecord
100
AcDbTextStyleTableRecord
  2
AN150
 70
     0
 40
0.0
 41
1.5
 50
0.0
 71
     0
 42
4.0
  3
ARIALN.TTF
  4

1001
ACAD
1000
Arial Narrow
1071
       34
  0
STYLE
  5
5462
330
3
100
AcDbSymbolTableRecord
100
AcDbTextStyleTableRecord
  2
LOGO1
 70
     0
 40
0.0
 41
1.175
 50
0.0
 71
     0
 42
6.158564712355089
  3
swissb.ttf
  4

1001
ACAD
1000
Swis721 BT
1071
 33554466
  0
STYLE
  5
5463
330
3
100
AcDbSymbolTableRecord
100
AcDbTextStyleTableRecord
  2
LOGO3
 70
     0
 40
0.0
 41
1.175
 50
0.0
 71
     0
 42
6.158564712355089
  3
swissel.ttf
  4

1001
ACAD
1000
Swis721 LtEx BT
1071
       34
  0
STYLE
  5
5464
330
3
100
AcDbSymbolTableRecord
100
AcDbTextStyleTableRecord
  2
LOGO2
 70
     0
 40
0.0
 41
1.175
 50
0.0
 71
     0
 42
6.158564712355089
  3
swiss.ttf
  4

1001
ACAD
1000
Swis721 BT
1071
       34
  0
STYLE
  5
8A1B
330
3
100
AcDbSymbolTableRecord
100
AcDbTextStyleTableRecord
  2
CD_ESV
 70
     0
 40
0.0
 41
1.0
 50
0.0
 71
     0
 42
6.158564712355089
  3
swissel.ttf
  4

1001
ACAD
1000
Swis721 LtEx BT
1071
       34
  0
STYLE
  5
8A1C
330
3
100
AcDbSymbolTableRecord
100
AcDbTextStyleTableRecord
  2
CD_VA2
 70
     0
 40
0.0
 41
1.129999999999999
 50
0.0
 71
     0
 42
6.158564712355089
  3
swiss.ttf
  4

1001
ACAD
1000
Swis721 BT
1071
       34
  0
STYLE
  5
8A1D
330
3
100
AcDbSymbolTableRecord
100
AcDbTextStyleTableRecord
  2
CD_VA1
 70
     0
 40
1.27
 41
1.175
 50
0.0
 71
     0
 42
6.158564712355089
  3
swiss.ttf
  4

1001
ACAD
1000
Swis721 BT
1071
       34
  0
ENDTAB
  0
TABLE
  2
VIEW
  5
6
330
0
100
AcDbSymbolTable
 70
     0
  0
ENDTAB
  0
TABLE
  2
UCS
  5
7
330
0
100
AcDbSymbolTable
 70
     0
  0
ENDTAB
  0
TABLE
  2
APPID
  5
9
330
0
100
AcDbSymbolTable
 70
     8
  0
APPID
  5
10
330
9
100
AcDbSymbolTableRecord
100
AcDbRegAppTableRecord
  2
ACAD
 70
     0
  0
APPID
  5
24
330
9
100
AcDbSymbolTableRecord
100
AcDbRegAppTableRecord
  2
CONTENTTABDATA
 70
     0
  0
APPID
  5
25
330
9
100
AcDbSymbolTableRecord
100
AcDbRegAppTableRecord
  2
CONTENTCURRENTTAB
 70
     0
  0
APPID
  5
116
330
9
100
AcDbSymbolTableRecord
100
AcDbRegAppTableRecord
  2
CONTENTBLOCKICON
 70
     0
  0
APPID
  5
117
330
9
100
AcDbSymbolTableRecord
100
AcDbRegAppTableRecord
  2
CONTENTBLOCKDESCRIPTION
 70
     0
  0
APPID
  5
5646
330
9
100
AcDbSymbolTableRecord
100
AcDbRegAppTableRecord
  2
ACAD_DSTYLE_DIMJOGGED_JOGANGLE_SYMBOL
 70
     0
  0
APPID
  5
5647
330
9
100
AcDbSymbolTableRecord
100
AcDbRegAppTableRecord
  2
ACAD_PSEXT
 70
     0
  0
APPID
  5
5816
330
9
100
AcDbSymbolTableRecord
100
AcDbRegAppTableRecord
  2
ACAD_EXEMPT_FROM_CAD_STANDARDS
 70
     0
  0
ENDTAB
  0
TABLE
  2
DIMSTYLE
  5
A
330
0
100
AcDbSymbolTable
 70
     7
100
AcDbDimStyleTable
 71
     3
340
3BD1
340
EF9
340
1D2F
  0
DIMSTYLE
105
1D
330
A
100
AcDbSymbolTableRecord
100
AcDbDimStyleTableRecord
  2
STANDARD
 70
     0
340
F
  0
DIMSTYLE
105
EF9
330
A
100
AcDbSymbolTableRecord
100
AcDbDimStyleTableRecord
  2
TYPENBLATT_M10
 70
     0
 40
100.0
 41
0.25
 42
0.5
 43
0.5
 44
0.25
 73
     0
 74
     0
 77
     1
140
0.25
147
0.075
271
     0
340
428
  0
DIMSTYLE
105
EFA
330
A
100
AcDbSymbolTableRecord
100
AcDbDimStyleTableRecord
  2
TYPENBLATT_M50
 70
     0
 40
500.0
 41
0.25
 42
0.1
 43
0.5
 44
0.25
 73
     0
 74
     0
 77
     1
140
0.25
147
0.075
271
     0
340
428
  0
DIMSTYLE
105
1D2F
102
{ACAD_REACTORS
330
7578
330
7576
330
7577
330
7575
102
}
330
A
100
AcDbSymbolTableRecord
100
AcDbDimStyleTableRecord
  2
ISO-25
 70
     0
 40
10.0
 41
2.5
 42
0.625
 43
3.75
 44
1.25
 73
     0
 74
     0
 77
     1
 78
     8
140
2.5
141
2.5
143
0.03937007874016
147
0.625
171
     3
172
     1
271
     2
272
     2
274
     3
278
    44
283
     0
284
     8
340
F
  0
DIMSTYLE
105
3BD1
102
{ACAD_REACTORS
330
6CE3
330
6CEE
330
6CF4
330
6D06
330
6D0A
330
6D0D
330
6D19
330
6D1C
330
6CD4
330
8362
330
83F9
330
83FA
330
83FB
330
85A2
330
8595
330
8608
330
6C72
330
87DE
102
}
330
A
100
AcDbSymbolTableRecord
100
AcDbDimStyleTableRecord
  2
VAKF
 70
     0
 41
20.0
 42
20.0
 43
60.0
 44
10.0
 73
     0
 74
     0
140
25.0
147
2.0
271
     0
272
     0
340
F
  0
DIMSTYLE
105
8902
330
A
100
AcDbSymbolTableRecord
100
AcDbDimStyleTableRecord
  2
STIL10
 70
     0
 41
35.0
 42
35.0
 43
75.0
 44
17.5
 73
     0
 74
     0
140
35.0
141
0.0
147
5.0
271
     0
272
     0
340
428
  0
DIMSTYLE
105
8903
330
A
100
AcDbSymbolTableRecord
100
AcDbDimStyleTableRecord
  2
STIL2.5
 70
     0
 40
2.5
 41
5.0
 42
1.0
 43
1.0
 44
1.0
 73
     0
 74
     0
140
3.5
147
1.0
271
     0
272
     0
340
428
341
88FE
  0
ENDTAB
  0
TABLE
  2
BLOCK_RECORD
  5
1
330
0
100
AcDbSymbolTable
 70
    37
  0
BLOCK_RECORD
  5
18
102
{ACAD_XDICTIONARY
360
68CB
102
}
330
1
100
AcDbSymbolTableRecord
100
AcDbBlockTableRecord
  2
*MODEL_SPACE
340
16EE
  0
BLOCK_RECORD
  5
15
330
1
100
AcDbSymbolTableRecord
100
AcDbBlockTableRecord
  2
*PAPER_SPACE
340
16EF
  0
BLOCK_RECORD
  5
4F18
330
1
100
AcDbSymbolTableRecord
100
AcDbBlockTableRecord
  2
*Paper_Space0
340
4F19
  0
BLOCK_RECORD
  5
545C
330
1
100
AcDbSymbolTableRecord
100
AcDbBlockTableRecord
  2
VOESTALPINE LOGO
340
0
310
2800000020000000200000000100080000000000000400000000000000000000000000000000000000000000000080000080000000808000800000008000800080800000C0C0C000C0DCC000F0CAA6000020400000206000002080000020A0000020C0000020E00000400000004020000040400000406000004080000040A0
310
000040C0000040E00000600000006020000060400000606000006080000060A0000060C0000060E00000800000008020000080400000806000008080000080A0000080C0000080E00000A0000000A0200000A0400000A0600000A0800000A0A00000A0C00000A0E00000C0000000C0200000C0400000C0600000C0800000C0
310
A00000C0C00000C0E00000E0000000E0200000E0400000E0600000E0800000E0A00000E0C00000E0E00040000000400020004000400040006000400080004000A0004000C0004000E00040200000402020004020400040206000402080004020A0004020C0004020E000404000004040200040404000404060004040800040
310
40A0004040C0004040E00040600000406020004060400040606000406080004060A0004060C0004060E00040800000408020004080400040806000408080004080A0004080C0004080E00040A0000040A0200040A0400040A0600040A0800040A0A00040A0C00040A0E00040C0000040C0200040C0400040C0600040C08000
310
40C0A00040C0C00040C0E00040E0000040E0200040E0400040E0600040E0800040E0A00040E0C00040E0E00080000000800020008000400080006000800080008000A0008000C0008000E00080200000802020008020400080206000802080008020A0008020C0008020E00080400000804020008040400080406000804080
310
008040A0008040C0008040E00080600000806020008060400080606000806080008060A0008060C0008060E00080800000808020008080400080806000808080008080A0008080C0008080E00080A0000080A0200080A0400080A0600080A0800080A0A00080A0C00080A0E00080C0000080C0200080C0400080C0600080C0
310
800080C0A00080C0C00080C0E00080E0000080E0200080E0400080E0600080E0800080E0A00080E0C00080E0E000C0000000C0002000C0004000C0006000C0008000C000A000C000C000C000E000C0200000C0202000C0204000C0206000C0208000C020A000C020C000C020E000C0400000C0402000C0404000C0406000C0
310
408000C040A000C040C000C040E000C0600000C0602000C0604000C0606000C0608000C060A000C060C000C060E000C0800000C0802000C0804000C0806000C0808000C080A000C080C000C080E000C0A00000C0A02000C0A04000C0A06000C0A08000C0A0A000C0A0C000C0A0E000C0C00000C0C02000C0C04000C0C06000
310
C0C08000C0C0A000F0FBFF00A4A0A000808080000000FF0000FF000000FFFF00FF000000FF00FF00FFFF0000FFFFFF0000000000000000000000000000000000000000000000000000000000000000000000000000000000000000000000000000000000000000000000000000000000000000000000000000000000000000
310
00000000000000000000000000000000000000000000000000000000000000000000000000000000000000000000000000000000000000000000000000000000000000000000000000000000000000000000000000000000000000000000000000000000000000000000000000000000000000000000000000000000000000
310
00000000000000000000000000000000000000000000000000000000000000000000000000000000000000000000000000000000000000000000000000000000000000000000000000000000000000000000000000000000000000000000000000000000000000000000000000000000000000000000000000000000000000
310
000000000000000000000000000000000000000000000000000000000000000000000000000000000000000000000000000000000000000000000000000000000000000000000000000000000000000000000000000000000000000000000000000000000000000000000000000000000000000000FFFFFFFFFFFFFFFFFFFF
310
FFFFFFFFFFFFFFFFFFFFFFFFFF000000000000000000FFFF00FF00FF00FF00FFA2A2A2A2A2A2A2A2A200000000000000000000000000FFFFFFFFFFFFFFFFFFFFA2A2A2A2A2A2A2A2A2A20000000000000000000000FFFFFFFFFFFFFFFFFFFFFFA2A2A2A2A2A2A2A2A2A2000000000000000000000000000000000000000000
310
00000000000000000000000000000000000000000000000000000000000000000000000000000000000000000000000000000000000000000000000000000000000000000000000000000000000000000000000000000000000000000000000000000000000000000000000000000000000000000000000000000000000000
310
00000000000000000000000000000000000000000000000000000000000000000000000000000000000000000000000000000000000000000000000000000000000000000000000000000000000000000000000000000000000000000000000000000000000000000000000000000000000000000000000000000000000000
310
00000000000000000000000000000000000000000000000000000000000000000000000000000000000000000000000000000000000000000000000000000000000000000000000000000000000000000000000000000000000000000000000000000000000000000000000000000000000000000000000000000000000000
310
0000000000000000000000000000000000000000000000000000000000000000000000000000000000000000000000000000000000000000
102
{BLKREFS
331
5466
102
}
1001
ACAD
1000
DesignCenter Data
1002
{
1070
     1
1070
     4
1002
}
  0
BLOCK_RECORD
  5
5465
330
1
100
AcDbSymbolTableRecord
100
AcDbBlockTableRecord
  2
LOGO ACAD
340
0
1001
ACAD
1000
DesignCenter Data
1002
{
1070
     1
1070
     4
1002
}
  0
BLOCK_RECORD
  5
5612
330
1
100
AcDbSymbolTableRecord
100
AcDbBlockTableRecord
  2
Mutter
340
0
310
2800000020000000200000000100080000000000000400000000000000000000000000000000000000000000000080000080000000808000800000008000800080800000C0C0C000C0DCC000F0CAA6000020400000206000002080000020A0000020C0000020E00000400000004020000040400000406000004080000040A0
310
000040C0000040E00000600000006020000060400000606000006080000060A0000060C0000060E00000800000008020000080400000806000008080000080A0000080C0000080E00000A0000000A0200000A0400000A0600000A0800000A0A00000A0C00000A0E00000C0000000C0200000C0400000C0600000C0800000C0
310
A00000C0C00000C0E00000E0000000E0200000E0400000E0600000E0800000E0A00000E0C00000E0E00040000000400020004000400040006000400080004000A0004000C0004000E00040200000402020004020400040206000402080004020A0004020C0004020E000404000004040200040404000404060004040800040
310
40A0004040C0004040E00040600000406020004060400040606000406080004060A0004060C0004060E00040800000408020004080400040806000408080004080A0004080C0004080E00040A0000040A0200040A0400040A0600040A0800040A0A00040A0C00040A0E00040C0000040C0200040C0400040C0600040C08000
310
40C0A00040C0C00040C0E00040E0000040E0200040E0400040E0600040E0800040E0A00040E0C00040E0E00080000000800020008000400080006000800080008000A0008000C0008000E00080200000802020008020400080206000802080008020A0008020C0008020E00080400000804020008040400080406000804080
310
008040A0008040C0008040E00080600000806020008060400080606000806080008060A0008060C0008060E00080800000808020008080400080806000808080008080A0008080C0008080E00080A0000080A0200080A0400080A0600080A0800080A0A00080A0C00080A0E00080C0000080C0200080C0400080C0600080C0
310
800080C0A00080C0C00080C0E00080E0000080E0200080E0400080E0600080E0800080E0A00080E0C00080E0E000C0000000C0002000C0004000C0006000C0008000C000A000C000C000C000E000C0200000C0202000C0204000C0206000C0208000C020A000C020C000C020E000C0400000C0402000C0404000C0406000C0
310
408000C040A000C040C000C040E000C0600000C0602000C0604000C0606000C0608000C060A000C060C000C060E000C0800000C0802000C0804000C0806000C0808000C080A000C080C000C080E000C0A00000C0A02000C0A04000C0A06000C0A08000C0A0A000C0A0C000C0A0E000C0C00000C0C02000C0C04000C0C06000
310
C0C08000C0C0A000F0FBFF00A4A0A000808080000000FF0000FF000000FFFF00FF000000FF00FF00FFFF0000FFFFFF0000000000000000000000000000000000000000000000000000000000000000000000000000000000000000000000000000000000000000000000000000000000000000000000000000000000000000
310
00000000000000000000000000000000000000000000000000000000000000000000000000000000000000000000000000000000000000000000000000000000000000000000000000000000000000000000000000000000000000000000000000000000000000000000000000000000000000000000000000000000000000
310
0000000000000000000000000000000000000000000000000000000000000000000000000000000000000000000000000000000808080808080808080808080808080808080808080808080808080808000000F600000052080000000000000000F600000000000000000752000000F6000000F60000004908000000000000
310
0000F60000000000000000074900000008000000F600000049080000000000000000F60000000000000000074900000008000000F600000049080000000000000000F60000000000000000074900000008000000F600000049080000000000000000F60000000000000000074900000008000000F600000049080000000000
310
000000F60000000000000000074900000008000000F600000049080000000000000000F60000000000000000074900000008000000F600000049080000000000000000F60000000000000000074900000008000000F600000049080000000000000000F60000000000000000074900000008000000F6000000490800000000
310
00000000F60000000000000000074900000008000000F600000049080000000000000000F60000000000000000074900000008000000F600000049080000000000000000F60000000000000000074900000008000000F600000049080000000000000000F600000000000000000752000000F6000000F6F6F6F6F6F6F6F6F6
310
F6F6F6F6F6F6F6F6F6F6F6F6F6F6F6F6F6F6F6F60000000000000000000000000000000000000000000000000000000000000000000000000000000000000000000000000000000000000000000000000000000000000000000000000000000000000000000000000000000000000000000000000000000000000000000000
310
00000000000000000000000000000000000000000000000000000000000000000000000000000000000000000000000000000000000000000000000000000000000000000000000000000000000000000000000000000000000000000000000000000000000000000000000000000000000000000000000000000000000000
310
0000000000000000000000000000000000000000000000000000000000000000000000000000000000000000000000000000000000000000
1001
ACAD
1000
DesignCenter Data
1002
{
1070
     1
1070
     4
1002
}
  0
BLOCK_RECORD
  5
6D1F
330
1
100
AcDbSymbolTableRecord
100
AcDbBlockTableRecord
  2
*D8
340
0
  0
BLOCK_RECORD
  5
6D2C
330
1
100
AcDbSymbolTableRecord
100
AcDbBlockTableRecord
  2
*D9
340
0
  0
BLOCK_RECORD
  5
6D39
330
1
100
AcDbSymbolTableRecord
100
AcDbBlockTableRecord
  2
*D10
340
0
  0
BLOCK_RECORD
  5
6D50
330
1
100
AcDbSymbolTableRecord
100
AcDbBlockTableRecord
  2
*D11
340
0
  0
BLOCK_RECORD
  5
6D67
330
1
100
AcDbSymbolTableRecord
100
AcDbBlockTableRecord
  2
*D12
340
0
  0
BLOCK_RECORD
  5
6D81
330
1
100
AcDbSymbolTableRecord
100
AcDbBlockTableRecord
  2
*D13
340
0
  0
BLOCK_RECORD
  5
6DBC
330
1
100
AcDbSymbolTableRecord
100
AcDbBlockTableRecord
  2
*D15
340
0
  0
BLOCK_RECORD
  5
6DC9
330
1
100
AcDbSymbolTableRecord
100
AcDbBlockTableRecord
  2
*D16
340
0
  0
BLOCK_RECORD
  5
6DFE
330
1
100
AcDbSymbolTableRecord
100
AcDbBlockTableRecord
  2
*D17
340
0
  0
BLOCK_RECORD
  5
6E0B
330
1
100
AcDbSymbolTableRecord
100
AcDbBlockTableRecord
  2
*D18
340
0
  0
BLOCK_RECORD
  5
76B5
330
1
100
AcDbSymbolTableRecord
100
AcDbBlockTableRecord
  2
*D19
340
0
  0
BLOCK_RECORD
  5
76C1
330
1
100
AcDbSymbolTableRecord
100
AcDbBlockTableRecord
  2
*D20
340
0
  0
BLOCK_RECORD
  5
76CD
330
1
100
AcDbSymbolTableRecord
100
AcDbBlockTableRecord
  2
*D21
340
0
  0
BLOCK_RECORD
  5
76D9
330
1
100
AcDbSymbolTableRecord
100
AcDbBlockTableRecord
  2
*D22
340
0
  0
BLOCK_RECORD
  5
8363
330
1
100
AcDbSymbolTableRecord
100
AcDbBlockTableRecord
  2
*D25
340
0
  0
BLOCK_RECORD
  5
83FC
330
1
100
AcDbSymbolTableRecord
100
AcDbBlockTableRecord
  2
*D26
340
0
  0
BLOCK_RECORD
  5
8409
330
1
100
AcDbSymbolTableRecord
100
AcDbBlockTableRecord
  2
*D27
340
0
  0
BLOCK_RECORD
  5
8416
330
1
100
AcDbSymbolTableRecord
100
AcDbBlockTableRecord
  2
*D28
340
0
  0
BLOCK_RECORD
  5
8493
102
{ACAD_XDICTIONARY
360
8495
102
}
330
1
100
AcDbSymbolTableRecord
100
AcDbBlockTableRecord
  2
A$C46A15E4E
340
0
1001
ACAD
1000
DesignCenter Data
1002
{
1070
     1
1070
     0
1002
}
  0
BLOCK_RECORD
  5
8596
330
1
100
AcDbSymbolTableRecord
100
AcDbBlockTableRecord
  2
*D30
340
0
  0
BLOCK_RECORD
  5
85A3
330
1
100
AcDbSymbolTableRecord
100
AcDbBlockTableRecord
  2
*D31
340
0
  0
BLOCK_RECORD
  5
8609
330
1
100
AcDbSymbolTableRecord
100
AcDbBlockTableRecord
  2
*D33
340
0
  0
BLOCK_RECORD
  5
87DF
330
1
100
AcDbSymbolTableRecord
100
AcDbBlockTableRecord
  2
*D34
340
0
  0
BLOCK_RECORD
  5
88FE
330
1
100
AcDbSymbolTableRecord
100
AcDbBlockTableRecord
  2
_DotSmall
340
0
  0
BLOCK_RECORD
  5
89FE
330
1
100
AcDbSymbolTableRecord
100
AcDbBlockTableRecord
  2
CD_A4
340
0
310
2800000020000000200000000100080000000000000400000000000000000000000000000000000000000000000080000080000000808000800000008000800080800000C0C0C000C0DCC000F0CAA6000020400000206000002080000020A0000020C0000020E00000400000004020000040400000406000004080000040A0
310
000040C0000040E00000600000006020000060400000606000006080000060A0000060C0000060E00000800000008020000080400000806000008080000080A0000080C0000080E00000A0000000A0200000A0400000A0600000A0800000A0A00000A0C00000A0E00000C0000000C0200000C0400000C0600000C0800000C0
310
A00000C0C00000C0E00000E0000000E0200000E0400000E0600000E0800000E0A00000E0C00000E0E00040000000400020004000400040006000400080004000A0004000C0004000E00040200000402020004020400040206000402080004020A0004020C0004020E000404000004040200040404000404060004040800040
310
40A0004040C0004040E00040600000406020004060400040606000406080004060A0004060C0004060E00040800000408020004080400040806000408080004080A0004080C0004080E00040A0000040A0200040A0400040A0600040A0800040A0A00040A0C00040A0E00040C0000040C0200040C0400040C0600040C08000
310
40C0A00040C0C00040C0E00040E0000040E0200040E0400040E0600040E0800040E0A00040E0C00040E0E00080000000800020008000400080006000800080008000A0008000C0008000E00080200000802020008020400080206000802080008020A0008020C0008020E00080400000804020008040400080406000804080
310
008040A0008040C0008040E00080600000806020008060400080606000806080008060A0008060C0008060E00080800000808020008080400080806000808080008080A0008080C0008080E00080A0000080A0200080A0400080A0600080A0800080A0A00080A0C00080A0E00080C0000080C0200080C0400080C0600080C0
310
800080C0A00080C0C00080C0E00080E0000080E0200080E0400080E0600080E0800080E0A00080E0C00080E0E000C0000000C0002000C0004000C0006000C0008000C000A000C000C000C000E000C0200000C0202000C0204000C0206000C0208000C020A000C020C000C020E000C0400000C0402000C0404000C0406000C0
310
408000C040A000C040C000C040E000C0600000C0602000C0604000C0606000C0608000C060A000C060C000C060E000C0800000C0802000C0804000C0806000C0808000C080A000C080C000C080E000C0A00000C0A02000C0A04000C0A06000C0A08000C0A0A000C0A0C000C0A0E000C0C00000C0C02000C0C04000C0C06000
310
C0C08000C0C0A000F0FBFF00A4A0A000808080000000FF0000FF000000FFFF00FF000000FF00FF00FFFF0000FFFFFF00FFFFFFFFFFFFFFFFFFFFFFFFFFFFFFFFFFFFFFFFFFFFFFFFFFFFFFFFFFFFFFFFFFFFFFFFFFFFFDFDFDFDFDFDFDFDFDFDFDFDFDFDFDFDFDFDFDFDFFFFFFFFFFFFFFFFFFFFFFFFFDFFFFFFFFFFFFFFFF
310
FFFFFFFFFFFFFFFFFFFFFDFFFFFFFFFFFFFFFFFFFFFFFFFD0000000000FFFFFFFFFFFFFF000000000000FDFFFFFFFFFFFFFFFFFFFFFFFFFDFFFFFFFFFFFFFFFFFFFFFFFF000000E0E0FFFDFFFFFFFFFFFFFFFFFFFFFFFFFDFFFFFFFFFFFFFFFFFFFFFFFFFFFFFFFFFFFFFDFFFFFFFFFFFFFFFFFFFFFFFFFDFFFFFFFFFFFFFF
310
FFFFFFFFFFFFFFFFFFFFFFFDFFFFFFFFFFFFFFFFFFFFFFFFFDFFFFFFFFFFFFFFFFFFFFFFFFFFFFFFFFFFFFFDFFFFFFFFFFFFFFFFFFFFFFFFFDFFFFFFFFFFFFFFFFFFFFFFFFFFFFFFFFFFFFFDFFFFFFFFFFFFFFFFFFFFFFFFFDFFFFFFFFFFFFFFFFFFFFFFFFFFFFFFFFFFFFFDFFFFFFFFFFFFFFFFFFFFFFFFFDFFFFFFFFFFFF
310
FFFFFFFFFFFFFFFFFFFFFFFFFDFFFFFFFFFFFFFFFFFFFFFFFFFDFFFFFFFFFFFFFFFFFFFFFFFFFFFFFFFFFFFFFDFFFFFFFFFFFFFFFFFFFFFFFFFDFFFFFFFFFFFFFFFFFFFFFFFFFFFFFFFFFFFFFDFFFFFFFFFFFFFFFFFFFFFFFFFDFFFFFFFFFFFFFFFFFFFFFFFFFFFFFFFFFFFFFDFFFFFFFFFFFFFFFFFFFFFFFFFDFFFFFFFFFF
310
FFFFFFFFFFFFFFFFFFFFFFFFFFFDFFFFFFFFFFFFFFFFFFFFFFFFFDFFFFFFFFFFFFFFFFFFFFFFFFFFFFFFFFFFFFFDFFFFFFFFFFFFFFFFFFFFFFFFFDFFFFFFFFFFFFFFFFFFFFFFFFFFFFFFFFFFFFFDFFFFFFFFFFFFFFFFFFFFFFFFFDFFFFFFFFFFFFFFFFFFFFFFFFFFFFFFFFFFFFFDFFFFFFFFFFFFFFFFFFFFFFFFFDFFFFFFFF
310
FFFFFFFFFFFFFFFFFFFFFFFFFFFFFDFFFFFFFFFFFFFFFFFFFFFFFFFDFFFFFFFFFFFFFFFFFFFFFFFFFFFFFFFFFFFFFDFFFFFFFFFFFFFFFFFFFFFFFFFDFFFFFFFFFFFFFFFFFFFFFFFFFFFFFFFFFFFFFDFFFFFFFFFFFFFFFFFFFFFFFFFDFFFFFFFFFFFFFFFFFFFFFFFFFFFFFFFFFFFFFDFFFFFFFFFFFFFFFFFFFFFFFFFDFFFFFF
310
FFFFFFFFFFFFFFFFFFFFFFFFFFFFFFFDFFFFFFFFFFFFFFFFFFFFFFFFFDFFFFFFFFFFFFFFFFFFFFFFFFFFFFFFFFFFFFFDFFFFFFFFFFFFFFFFFFFFFFFFFDFFFFFFFFFFFFFFFFFFFFFFFFFFFFFFFFFFFFFDFFFFFFFFFFFFFFFFFFFFFFFFFDFFFFFFFFFFFFFFFFFFFFFFFFFFFFFFFFFFFFFDFFFFFFFFFFFFFFFFFFFFFFFFFDFFFF
310
FFFFFFFFFFFFFFFFFFFFFFFFFFFFFFFFFDFFFFFFFFFFFFFFFFFFFFFFFFFDFFFFFFFFFFFFFFFFFFFFFFFFFFFFFFFFFFFFFDFFFFFFFFFFFFFFFFFFFFFFFFFDFFFFFFFFFFFFFFFFFFFFFFFFFFFFFFFFFFFFFDFFFFFFFFFFFFFFFFFFFFFFFFFDFFFFFFFFFFFFFFFFFFFFFFFFFFFFFFFFFFFFFDFFFFFFFFFFFFFFFFFFFFFFFFFDFD
310
FDFDFDFDFDFDFDFDFDFDFDFDFDFDFDFDFDFDFFFFFFFFFFFFFFFFFFFFFFFFFFFFFFFFFFFFFFFFFFFFFFFFFFFFFFFFFFFFFFFFFFFFFFFFFFFF
1001
ACAD
1000
DesignCenter Data
1002
{
1070
     1
1070
     4
1002
}
  0
ENDTAB
  0
ENDSEC
  0
SECTION
  2
BLOCKS
  0
BLOCK
  5
19
330
18
100
AcDbEntity
  8
0
100
AcDbBlockBegin
  2
*MODEL_SPACE
 70
     0
 10
0.0
 20
0.0
 30
0.0
  3
*MODEL_SPACE
  1

  0
ENDBLK
  5
1A
330
18
100
AcDbEntity
  8
0
100
AcDbBlockEnd
  0
BLOCK
  5
16
330
15
100
AcDbEntity
 67
     1
  8
0
100
AcDbBlockBegin
  2
*PAPER_SPACE
 70
     0
 10
0.0
 20
0.0
 30
0.0
  3
*PAPER_SPACE
  1

  0
ENDBLK
  5
17
330
15
100
AcDbEntity
 67
     1
  8
0
100
AcDbBlockEnd
  0
BLOCK
  5
4F1A
330
4F18
100
AcDbEntity
 67
     1
  8
0
100
AcDbBlockBegin
  2
*Paper_Space0
 70
     0
 10
0.0
 20
0.0
 30
0.0
  3
*Paper_Space0
  1

  0
VIEWPORT
  5
4F1F
102
{ACAD_XDICTIONARY
360
8BF6
102
}
330
4F18
100
AcDbEntity
 67
     1
  8
0
100
AcDbViewport
 10
146.9437027306674
 20
173.701544294992
 30
0.0
 40
484.5920535704358
 41
375.6949628804503
 68
     0
 69
     0
 12
146.9437027306674
 22
173.701544294992
 13
0.0
 23
0.0
 14
10.0
 24
10.0
 15
10.0
 25
10.0
 16
0.0
 26
0.0
 36
1.0
 17
0.0
 27
0.0
 37
0.0
 42
50.0
 43
0.0
 44
0.0
 45
375.6949628804503
 50
0.0
 51
0.0
 72
   100
 90
    32800
  1

281
     0
 71
     1
 74
     0
110
0.0
120
0.0
130
0.0
111
1.0
121
0.0
131
0.0
112
0.0
122
1.0
132
0.0
 79
     0
146
0.0
  0
VIEWPORT
  5
4F21
102
{ACAD_XDICTIONARY
360
8BF8
102
}
330
4F18
100
AcDbEntity
 67
     1
  8
FENSTER
100
AcDbViewport
 10
97.5909376048906
 20
140.3690668988315
 30
0.0
 40
184.6742653852026
 41
265.3327712944904
 68
     0
 69
     0
 12
8556.13513744497
 22
-4621.937143434144
 13
0.0
 23
0.0
 14
0.5
 24
0.5
 15
0.5
 25
0.5
 16
0.0
 26
0.0
 36
1.0
 17
0.0
 27
0.0
 37
0.0
 42
50.0
 43
0.0
 44
0.0
 45
1257.919514507795
 50
0.0
 51
0.0
 72
   100
 90
    32800
  1

281
     0
 71
     1
 74
     0
110
0.0
120
0.0
130
0.0
111
1.0
121
0.0
131
0.0
112
0.0
122
1.0
132
0.0
 79
     0
146
0.0
  0
ENDBLK
  5
4F1B
330
4F18
100
AcDbEntity
 67
     1
  8
0
100
AcDbBlockEnd
  0
BLOCK
  5
545D
330
545C
100
AcDbEntity
  8
0
100
AcDbBlockBegin
  2
VOESTALPINE LOGO
 70
     0
 10
0.0
 20
0.0
 30
0.0
  3
VOESTALPINE LOGO
  1

  0
TEXT
  5
545E
330
545C
100
AcDbEntity
  8
0
 62
   155
100
AcDbText
 10
-2.022376810040597
 20
1.345163130846486
 30
0.0
 40
4.761899999999999
  1
alpine
 41
1.29
  7
LOGO2
100
AcDbText
  0
TEXT
  5
545F
330
545C
100
AcDbEntity
  8
0
 62
     7
100
AcDbText
 10
-24.96332103124969
 20
-3.319987708589252
 30
0.0
 40
2.050802049214244
  1
KREMS FINALTECHNIK GMBH
 41
1.219999999999999
  7
LOGO3
100
AcDbText
  0
TEXT
  5
5460
330
545C
100
AcDbEntity
  8
0
 62
     7
100
AcDbText
 10
-25.59751279130563
 20
1.29203428188444
 30
0.0
 40
4.761899999999999
  1
voest
 41
1.379999999999999
  7
LOGO1
100
AcDbText
  0
ENDBLK
  5
5461
330
545C
100
AcDbEntity
  8
0
100
AcDbBlockEnd
  0
BLOCK
  5
5467
330
5465
100
AcDbEntity
  8
0
100
AcDbBlockBegin
  2
LOGO ACAD
 70
     0
 10
0.0
 20
0.0
 30
0.0
  3
LOGO ACAD
  1

  0
INSERT
  5
5466
330
5465
100
AcDbEntity
  8
0
100
AcDbBlockReference
  2
VOESTALPINE LOGO
 10
25.66052293085149
 20
-5.598002378525222
 30
0.0
  0
ENDBLK
  5
5468
330
5465
100
AcDbEntity
  8
0
100
AcDbBlockEnd
  0
BLOCK
  5
5613
330
5612
100
AcDbEntity
  8
0
100
AcDbBlockBegin
  2
Mutter
 70
     0
 10
0.0
 20
0.0
 30
0.0
  3
Mutter
  1

  0
LINE
  5
5614
330
5612
100
AcDbEntity
  8
25
100
AcDbLine
 10
-215.6534178979437
 20
333.7536291957023
 30
0.0
 11
-215.6534178979437
 21
317.9536291957023
 31
0.0
  0
LINE
  5
5615
330
5612
100
AcDbEntity
  8
25
100
AcDbLine
 10
-236.4710140468278
 20
333.7536291957023
 30
0.0
 11
-236.4710140468278
 21
317.9536291957023
 31
0.0
  0
LINE
  5
5616
330
5612
100
AcDbEntity
  8
25
100
AcDbLine
 10
-226.0622159723857
 20
333.7536291957023
 30
0.0
 11
-226.0622159723857
 21
317.9536291957023
 31
0.0
  0
LINE
  5
5617
330
5612
100
AcDbEntity
  8
25
100
AcDbLine
 10
-210.0622159723857
 20
333.7536291957023
 30
0.0
 11
-210.0622159723857
 21
317.9536291957023
 31
0.0
  0
LINE
  5
5618
330
5612
100
AcDbEntity
  8
25
100
AcDbLine
 10
-242.0622159723857
 20
333.7536291957023
 30
0.0
 11
-242.0622159723857
 21
317.9536291957023
 31
0.0
  0
LINE
  5
5619
330
5612
100
AcDbEntity
  8
25
100
AcDbLine
 10
-242.0622159723857
 20
317.9536291957023
 30
0.0
 11
-210.0622159723857
 21
317.9536291957023
 31
0.0
  0
LINE
  5
561A
330
5612
100
AcDbEntity
  8
25
100
AcDbLine
 10
-242.0622159723857
 20
333.7536291957023
 30
0.0
 11
-210.0622159723857
 21
333.7536291957023
 31
0.0
  0
ENDBLK
  5
561B
330
5612
100
AcDbEntity
  8
0
100
AcDbBlockEnd
  0
BLOCK
  5
6D2A
330
6D1F
100
AcDbEntity
  8
0
100
AcDbBlockBegin
  2
*D8
 70
     1
 10
0.0
 20
0.0
 30
0.0
  3
*D8
  1

  0
LINE
  5
8698
330
6D1F
100
AcDbEntity
  8
KOTIERUNG
 62
     0
370
    -2
100
AcDbLine
 10
5657.382643705911
 20
-3462.420700510179
 30
0.0
 11
5575.682817704199
 21
-3465.688693550248
 31
0.0
  0
LINE
  5
8699
330
6D1F
100
AcDbEntity
  8
KOTIERUNG
 62
     0
370
    -2
100
AcDbLine
 10
5664.804462733332
 20
-3662.283763800231
 30
0.0
 11
5583.676425373977
 21
-3665.528885294607
 31
0.0
  0
LINE
  5
869A
330
6D1F
100
AcDbEntity
  8
KOTIERUNG
 62
     0
370
    -2
100
AcDbLine
 10
5586.474188058395
 20
-3485.273032341196
 30
0.0
 11
5587.909292139318
 21
-3521.150634364249
 31
0.0
  0
LINE
  5
869B
330
6D1F
100
AcDbEntity
  8
KOTIERUNG
 62
     0
370
    -2
100
AcDbLine
 10
5592.869074194218
 20
-3645.145185736683
 30
0.0
 11
5591.433970113295
 21
-3609.267583713628
 31
0.0
  0
SOLID
  5
869C
330
6D1F
100
AcDbEntity
  8
KOTIERUNG
 62
     0
100
AcDbTrace
 10
5589.804857920801
 20
-3485.139805546699
 30
0.0
 11
5583.143518195989
 21
-3485.406259135692
 31
0.0
 12
5585.674827291417
 22
-3465.28901316676
 32
0.0
 13
5585.674827291417
 23
-3465.28901316676
 33
0.0
  0
SOLID
  5
869D
330
6D1F
100
AcDbEntity
  8
KOTIERUNG
 62
     0
100
AcDbTrace
 10
5596.199744056622
 20
-3645.011958942186
 30
0.0
 11
5589.538404331811
 21
-3645.278412531179
 31
0.0
 12
5593.668434961195
 22
-3665.129204911119
 32
0.0
 13
5593.668434961195
 23
-3665.129204911119
 33
0.0
  0
MTEXT
  5
869E
330
6D1F
100
AcDbEntity
  8
KOTIERUNG
 62
     0
100
AcDbMText
 10
5589.671631126306
 20
-3565.209109038939
 30
0.0
 40
25.0
 41
0.0
 71
     5
 72
     1
  1
\A1;200{\H18.750000;±10}
 11
0.0399680383488897
 21
-0.9992009587217886
 31
0.0
 73
     1
 44
1.0
1001
ACAD
1000
MTEXTBEGIN
1070
    73
1070
     1
1070
    44
1040
1.0
1070
    74
1070
     0
1000
MTEXTEND
  0
POINT
  5
869F
330
6D1F
100
AcDbEntity
  8
DEFPOINTS
 62
     0
100
AcDbPoint
 10
5677.366662880348
 20
-3461.621339743201
 30
0.0
  0
POINT
  5
86A0
330
6D1F
100
AcDbEntity
  8
DEFPOINTS
 62
     0
100
AcDbPoint
 10
5684.788481907768
 20
-3661.484403033254
 30
0.0
  0
POINT
  5
86A1
330
6D1F
100
AcDbEntity
  8
DEFPOINTS
 62
     0
100
AcDbPoint
 10
5593.668434961195
 20
-3665.129204911119
 30
0.0
  0
ENDBLK
  5
6D2B
330
6D1F
100
AcDbEntity
  8
0
100
AcDbBlockEnd
  0
BLOCK
  5
6D37
330
6D2C
100
AcDbEntity
  8
0
100
AcDbBlockBegin
  2
*D9
 70
     1
 10
0.0
 20
0.0
 30
0.0
  3
*D9
  1

  0
LINE
  5
7AFC
330
6D2C
100
AcDbEntity
  8
KOTIERUNG
 62
     0
370
    -2
100
AcDbLine
 10
5675.35228013734
 20
-3460.90191505292
 30
0.0
 11
5109.193503028873
 21
-3460.90191505292
 31
0.0
  0
LINE
  5
7AFD
330
6D2C
100
AcDbEntity
  8
KOTIERUNG
 62
     0
370
    -2
100
AcDbLine
 10
4902.620003934195
 20
-4974.991781941099
 30
0.0
 11
5129.193503028873
 21
-4974.991781941099
 31
0.0
  0
LINE
  5
7AFE
330
6D2C
100
AcDbEntity
  8
KOTIERUNG
 62
     0
370
    -2
100
AcDbLine
 10
5119.193503028873
 20
-3480.90191505292
 30
0.0
 11
5119.193503028873
 21
-4167.023332125932
 31
0.0
  0
LINE
  5
7AFF
330
6D2C
100
AcDbEntity
  8
KOTIERUNG
 62
     0
370
    -2
100
AcDbLine
 10
5119.193503028873
 20
-4954.991781941099
 30
0.0
 11
5119.193503028873
 21
-4268.870364868086
 31
0.0
  0
SOLID
  5
7B00
330
6D2C
100
AcDbEntity
  8
KOTIERUNG
 62
     0
100
AcDbTrace
 10
5115.86016969554
 20
-3480.90191505292
 30
0.0
 11
5122.526836362206
 21
-3480.90191505292
 31
0.0
 12
5119.193503028873
 22
-3460.90191505292
 32
0.0
 13
5119.193503028873
 23
-3460.90191505292
 33
0.0
  0
SOLID
  5
7B01
330
6D2C
100
AcDbEntity
  8
KOTIERUNG
 62
     0
100
AcDbTrace
 10
5115.86016969554
 20
-4954.991781941099
 30
0.0
 11
5122.526836362206
 21
-4954.991781941099
 31
0.0
 12
5119.193503028873
 22
-4974.991781941099
 32
0.0
 13
5119.193503028873
 23
-4974.991781941099
 33
0.0
  0
MTEXT
  5
7B02
330
6D2C
100
AcDbEntity
  8
KOTIERUNG
 62
     0
100
AcDbMText
 10
5119.193503028874
 20
-4217.946848497009
 30
0.0
 40
25.0
 41
0.0
 71
     5
 72
     1
  1
\A1;1500{\H0.75x;±40}
 11
0.0000000000000001
 21
1.0
 31
0.0
 73
     1
 44
1.0
1001
ACAD
1000
MTEXTBEGIN
1070
    73
1070
     1
1070
    44
1040
1.0
1070
    74
1070
     0
1000
MTEXTEND
  0
POINT
  5
7B03
330
6D2C
100
AcDbEntity
  8
DEFPOINTS
 62
     0
100
AcDbPoint
 10
5695.35228013734
 20
-3460.90191505292
 30
0.0
  0
POINT
  5
7B04
330
6D2C
100
AcDbEntity
  8
DEFPOINTS
 62
     0
100
AcDbPoint
 10
4882.620003934195
 20
-4974.991781941099
 30
0.0
  0
POINT
  5
7B05
330
6D2C
100
AcDbEntity
  8
DEFPOINTS
 62
     0
100
AcDbPoint
 10
5119.193503028873
 20
-4974.991781941099
 30
0.0
  0
ENDBLK
  5
6D38
330
6D2C
100
AcDbEntity
  8
0
100
AcDbBlockEnd
  0
BLOCK
  5
6D44
330
6D39
100
AcDbEntity
  8
0
100
AcDbBlockBegin
  2
*D10
 70
     1
 10
0.0
 20
0.0
 30
0.0
  3
*D10
  1

  0
LINE
  5
79D9
330
6D39
100
AcDbEntity
  8
KOTIERUNG
 62
     0
370
    -2
100
AcDbLine
 10
5819.0516819581
 20
-5100.684914129739
 30
0.0
 11
6024.206262196014
 21
-5100.684914129739
 31
0.0
  0
LINE
  5
79DA
330
6D39
100
AcDbEntity
  8
KOTIERUNG
 62
     0
370
    -2
100
AcDbLine
 10
5819.05168195807
 20
-5520.684914129777
 30
0.0
 11
6024.206262196014
 21
-5520.684914129777
 31
0.0
  0
LINE
  5
79DB
330
6D39
100
AcDbEntity
  8
KOTIERUNG
 62
     0
370
    -2
100
AcDbLine
 10
6014.206262196014
 20
-5120.684914129739
 30
0.0
 11
6014.206262196014
 21
-5285.663086026075
 31
0.0
  0
LINE
  5
79DC
330
6D39
100
AcDbEntity
  8
KOTIERUNG
 62
     0
370
    -2
100
AcDbLine
 10
6014.206262196014
 20
-5500.684914129777
 30
0.0
 11
6014.206262196014
 21
-5335.70674223344
 31
0.0
  0
SOLID
  5
79DD
330
6D39
100
AcDbEntity
  8
KOTIERUNG
 62
     0
100
AcDbTrace
 10
6010.872928862681
 20
-5120.684914129739
 30
0.0
 11
6017.539595529347
 21
-5120.684914129739
 31
0.0
 12
6014.206262196014
 22
-5100.684914129739
 32
0.0
 13
6014.206262196014
 23
-5100.684914129739
 33
0.0
  0
SOLID
  5
79DE
330
6D39
100
AcDbEntity
  8
KOTIERUNG
 62
     0
100
AcDbTrace
 10
6010.872928862681
 20
-5500.684914129777
 30
0.0
 11
6017.539595529347
 21
-5500.684914129777
 31
0.0
 12
6014.206262196014
 22
-5520.684914129777
 32
0.0
 13
6014.206262196014
 23
-5520.684914129777
 33
0.0
  0
MTEXT
  5
79DF
330
6D39
100
AcDbEntity
  8
KOTIERUNG
 62
     0
100
AcDbMText
 10
6014.206262196015
 20
-5310.684914129757
 30
0.0
 40
25.0
 41
0.0
 71
     5
 72
     1
  1
\A1;420
 11
0.0000000000000001
 21
1.0
 31
0.0
 73
     1
 44
1.0
1001
ACAD
1000
MTEXTBEGIN
1070
    73
1070
     1
1070
    44
1040
1.0
1070
    74
1070
     0
1000
MTEXTEND
  0
POINT
  5
79E0
330
6D39
100
AcDbEntity
  8
DEFPOINTS
 62
     0
100
AcDbPoint
 10
5799.051681958101
 20
-5100.684914129739
 30
0.0
  0
POINT
  5
79E1
330
6D39
100
AcDbEntity
  8
DEFPOINTS
 62
     0
100
AcDbPoint
 10
5799.051681958069
 20
-5520.684914129777
 30
0.0
  0
POINT
  5
79E2
330
6D39
100
AcDbEntity
  8
DEFPOINTS
 62
     0
100
AcDbPoint
 10
6014.206262196014
 20
-5520.684914129777
 30
0.0
  0
ENDBLK
  5
6D45
330
6D39
100
AcDbEntity
  8
0
100
AcDbBlockEnd
  0
BLOCK
  5
6D5B
330
6D50
100
AcDbEntity
  8
0
100
AcDbBlockBegin
  2
*D11
 70
     1
 10
0.0
 20
0.0
 30
0.0
  3
*D11
  1

  0
LINE
  5
87D3
330
6D50
100
AcDbEntity
  8
KOTIERUNG
 62
     0
370
    -2
100
AcDbLine
 10
5690.764105927852
 20
-3397.034272483721
 30
0.0
 11
5573.124893760407
 21
-3401.739840970421
 31
0.0
  0
LINE
  5
87D4
330
6D50
100
AcDbEntity
  8
KOTIERUNG
 62
     0
370
    -2
100
AcDbLine
 10
5656.810824735537
 20
-3462.443567840305
 30
0.0
 11
5575.682847598622
 21
-3465.688686925783
 31
0.0
  0
LINE
  5
87D5
330
6D50
100
AcDbEntity
  8
KOTIERUNG
 62
     0
370
    -2
100
AcDbLine
 10
5583.916264114603
 20
-3421.324179761369
 30
0.0
 11
5584.875496418863
 21
-3445.304987367858
 31
0.0
  0
LINE
  5
87D6
330
6D50
100
AcDbEntity
  8
KOTIERUNG
 62
     0
370
    -2
100
AcDbLine
 10
5584.395880266733
 20
-3433.314583564614
 30
0.0
 11
5546.812432139225
 21
-3423.315007331415
 31
0.0
  0
LINE
  5
87D7
330
6D50
100
AcDbEntity
  8
KOTIERUNG
 62
     0
370
    -2
100
AcDbLine
 10
5546.812432139225
 20
-3423.315007331415
 30
0.0
 11
5546.65255998583
 21
-3419.318203496528
 31
0.0
  0
MTEXT
  5
87D8
330
6D50
100
AcDbEntity
  8
KOTIERUNG
 62
     0
100
AcDbMText
 10
5545.212950640012
 20
-3383.327969851081
 30
0.0
 40
25.0
 41
0.0
 71
     5
 72
     1
  1
\A1;64{\H18.750000;±10}
 11
0.0399680383488897
 21
-0.9992009587217886
 31
0.0
 73
     1
 44
1.0
1001
ACAD
1000
MTEXTBEGIN
1070
    73
1070
     1
1070
    44
1040
1.0
1070
    74
1070
     0
1000
MTEXTEND
  0
SOLID
  5
87D9
330
6D50
100
AcDbEntity
  8
KOTIERUNG
 62
     0
100
AcDbTrace
 10
5587.246933977009
 20
-3421.190952966873
 30
0.0
 11
5580.585594252198
 21
-3421.457406555865
 31
0.0
 12
5583.116903347626
 22
-3401.340160586932
 32
0.0
 13
5583.116903347626
 23
-3401.340160586932
 33
0.0
  0
SOLID
  5
87DA
330
6D50
100
AcDbEntity
  8
KOTIERUNG
 62
     0
100
AcDbTrace
 10
5588.206166281269
 20
-3445.171760573361
 30
0.0
 11
5581.544826556458
 21
-3445.438214162354
 31
0.0
 12
5585.674857185841
 22
-3465.289006542294
 32
0.0
 13
5585.674857185841
 23
-3465.289006542294
 33
0.0
  0
POINT
  5
87DB
330
6D50
100
AcDbEntity
  8
DEFPOINTS
 62
     0
100
AcDbPoint
 10
5710.748125102288
 20
-3396.234911716744
 30
0.0
  0
POINT
  5
87DC
330
6D50
100
AcDbEntity
  8
DEFPOINTS
 62
     0
100
AcDbPoint
 10
5676.794843909974
 20
-3461.644207073327
 30
0.0
  0
POINT
  5
87DD
330
6D50
100
AcDbEntity
  8
DEFPOINTS
 62
     0
100
AcDbPoint
 10
5585.674857185841
 20
-3465.289006542294
 30
0.0
  0
ENDBLK
  5
6D5C
330
6D50
100
AcDbEntity
  8
0
100
AcDbBlockEnd
  0
BLOCK
  5
6D72
330
6D67
100
AcDbEntity
  8
0
100
AcDbBlockBegin
  2
*D12
 70
     1
 10
0.0
 20
0.0
 30
0.0
  3
*D12
  1

  0
LINE
  5
8B8B
330
6D67
100
AcDbEntity
  8
KOTIERUNG
 62
     0
370
    -2
100
AcDbLine
 10
5335.70163728152
 20
-4104.991781941098
 30
0.0
 11
5180.368313023006
 21
-4104.991781941098
 31
0.0
  0
LINE
  5
8B8C
330
6D67
100
AcDbEntity
  8
KOTIERUNG
 62
     0
370
    -2
100
AcDbLine
 10
4902.620003934195
 20
-4974.991781941099
 30
0.0
 11
5200.368313023005
 21
-4974.991781941099
 31
0.0
  0
LINE
  5
8B8D
330
6D67
100
AcDbEntity
  8
KOTIERUNG
 62
     0
370
    -2
100
AcDbLine
 10
5190.368313023006
 20
-4124.991781941099
 30
0.0
 11
5190.368313023006
 21
-4378.307561644986
 31
0.0
  0
LINE
  5
8B8E
330
6D67
100
AcDbEntity
  8
KOTIERUNG
 62
     0
370
    -2
100
AcDbLine
 10
5190.368313023006
 20
-4954.991781941099
 30
0.0
 11
5190.368313023006
 21
-4466.153912258902
 31
0.0
  0
SOLID
  5
8B8F
330
6D67
100
AcDbEntity
  8
KOTIERUNG
 62
     0
100
AcDbTrace
 10
5187.034979689673
 20
-4124.991781941099
 30
0.0
 11
5193.701646356339
 21
-4124.991781941099
 31
0.0
 12
5190.368313023006
 22
-4104.991781941098
 32
0.0
 13
5190.368313023006
 23
-4104.991781941098
 33
0.0
  0
SOLID
  5
8B90
330
6D67
100
AcDbEntity
  8
KOTIERUNG
 62
     0
100
AcDbTrace
 10
5187.034979689673
 20
-4954.991781941099
 30
0.0
 11
5193.701646356339
 21
-4954.991781941099
 31
0.0
 12
5190.368313023006
 22
-4974.991781941099
 32
0.0
 13
5190.368313023006
 23
-4974.991781941099
 33
0.0
  0
MTEXT
  5
8B91
330
6D67
100
AcDbEntity
  8
KOTIERUNG
 62
     0
100
AcDbMText
 10
5190.368313023006
 20
-4422.230736951944
 30
0.0
 40
25.0
 41
0.0
 71
     5
 72
     1
  1
\A1;870{\H18.750000;±40}
 11
0.0000000000000001
 21
1.0
 31
0.0
 73
     1
 44
1.0
1001
ACAD
1000
MTEXTBEGIN
1070
    73
1070
     1
1070
    44
1040
1.0
1070
    74
1070
     0
1000
MTEXTEND
  0
POINT
  5
8B92
330
6D67
100
AcDbEntity
  8
DEFPOINTS
 62
     0
100
AcDbPoint
 10
5355.701637281519
 20
-4104.991781941098
 30
0.0
  0
POINT
  5
8B93
330
6D67
100
AcDbEntity
  8
DEFPOINTS
 62
     0
100
AcDbPoint
 10
4882.620003934195
 20
-4974.991781941099
 30
0.0
  0
POINT
  5
8B94
330
6D67
100
AcDbEntity
  8
DEFPOINTS
 62
     0
100
AcDbPoint
 10
5190.368313023006
 20
-4974.991781941099
 30
0.0
  0
ENDBLK
  5
6D73
330
6D67
100
AcDbEntity
  8
0
100
AcDbBlockEnd
  0
BLOCK
  5
6D8C
330
6D81
100
AcDbEntity
  8
0
100
AcDbBlockBegin
  2
*D13
 70
     1
 10
0.0
 20
0.0
 30
0.0
  3
*D13
  1

  0
LINE
  5
84A3
330
6D81
100
AcDbEntity
  8
KOTIERUNG
 62
     0
370
    -2
100
AcDbLine
 10
5267.620003934195
 20
-4181.467019461444
 30
0.0
 11
5267.620003934195
 21
-3864.440132887918
 31
0.0
  0
LINE
  5
84A4
330
6D81
100
AcDbEntity
  8
KOTIERUNG
 62
     0
370
    -2
100
AcDbLine
 10
5932.980489009426
 20
-4828.765367334252
 30
0.0
 11
5932.980489009426
 21
-3864.440132887918
 31
0.0
  0
LINE
  5
84A5
330
6D81
100
AcDbEntity
  8
KOTIERUNG
 62
     0
370
    -2
100
AcDbLine
 10
5287.620003934194
 20
-3874.440132887918
 30
0.0
 11
5556.317384943842
 21
-3874.440132887918
 31
0.0
  0
LINE
  5
84A6
330
6D81
100
AcDbEntity
  8
KOTIERUNG
 62
     0
370
    -2
100
AcDbLine
 10
5912.980489009425
 20
-3874.440132887918
 30
0.0
 11
5644.283107999778
 21
-3874.440132887918
 31
0.0
  0
SOLID
  5
84A7
330
6D81
100
AcDbEntity
  8
KOTIERUNG
 62
     0
100
AcDbTrace
 10
5287.620003934194
 20
-3871.106799554584
 30
0.0
 11
5287.620003934194
 21
-3877.773466221251
 31
0.0
 12
5267.620003934195
 22
-3874.440132887918
 32
0.0
 13
5267.620003934195
 23
-3874.440132887918
 33
0.0
  0
SOLID
  5
84A8
330
6D81
100
AcDbEntity
  8
KOTIERUNG
 62
     0
100
AcDbTrace
 10
5912.980489009425
 20
-3871.106799554584
 30
0.0
 11
5912.980489009425
 21
-3877.773466221251
 31
0.0
 12
5932.980489009426
 22
-3874.440132887918
 32
0.0
 13
5932.980489009426
 23
-3874.440132887918
 33
0.0
  0
MTEXT
  5
84A9
330
6D81
100
AcDbEntity
  8
KOTIERUNG
 62
     0
100
AcDbMText
 10
5600.30024647181
 20
-3874.440132887918
 30
0.0
 40
25.0
 41
0.0
 71
     5
 72
     1
  1
\A1;665{\H18.750000;±20}
 73
     1
 44
1.0
1001
ACAD
1000
MTEXTBEGIN
1070
    73
1070
     1
1070
    44
1040
1.0
1070
    74
1070
     0
1000
MTEXTEND
  0
POINT
  5
84AA
330
6D81
100
AcDbEntity
  8
DEFPOINTS
 62
     0
100
AcDbPoint
 10
5267.620003934195
 20
-4201.467019461444
 30
0.0
  0
POINT
  5
84AB
330
6D81
100
AcDbEntity
  8
DEFPOINTS
 62
     0
100
AcDbPoint
 10
5932.980489009426
 20
-4848.765367334252
 30
0.0
  0
POINT
  5
84AC
330
6D81
100
AcDbEntity
  8
DEFPOINTS
 62
     0
100
AcDbPoint
 10
5932.980489009426
 20
-3874.440132887918
 30
0.0
  0
ENDBLK
  5
6D8D
330
6D81
100
AcDbEntity
  8
0
100
AcDbBlockEnd
  0
BLOCK
  5
6DC7
330
6DBC
100
AcDbEntity
  8
0
100
AcDbBlockBegin
  2
*D15
 70
     1
 10
0.0
 20
0.0
 30
0.0
  3
*D15
  1

  0
LINE
  5
8841
330
6DBC
100
AcDbEntity
  8
KOTIERUNG
 62
     0
370
    -2
100
AcDbLine
 10
5709.051681958099
 20
-5160.594914129737
 30
0.0
 11
5974.70435367665
 21
-5160.594914129737
 31
0.0
  0
LINE
  5
8842
330
6DBC
100
AcDbEntity
  8
KOTIERUNG
 62
     0
370
    -2
100
AcDbLine
 10
5634.051681958099
 20
-5310.684914129739
 30
0.0
 11
5974.70435367665
 21
-5310.684914129739
 31
0.0
  0
LINE
  5
8843
330
6DBC
100
AcDbEntity
  8
KOTIERUNG
 62
     0
370
    -2
100
AcDbLine
 10
5964.70435367665
 20
-5180.594914129737
 30
0.0
 11
5964.70435367665
 21
-5211.990869109275
 31
0.0
  0
LINE
  5
8844
330
6DBC
100
AcDbEntity
  8
KOTIERUNG
 62
     0
370
    -2
100
AcDbLine
 10
5964.70435367665
 20
-5290.684914129739
 30
0.0
 11
5964.70435367665
 21
-5259.288959150201
 31
0.0
  0
SOLID
  5
8845
330
6DBC
100
AcDbEntity
  8
KOTIERUNG
 62
     0
100
AcDbTrace
 10
5961.371020343317
 20
-5180.594914129737
 30
0.0
 11
5968.037687009983
 21
-5180.594914129737
 31
0.0
 12
5964.70435367665
 22
-5160.594914129737
 32
0.0
 13
5964.70435367665
 23
-5160.594914129737
 33
0.0
  0
SOLID
  5
8846
330
6DBC
100
AcDbEntity
  8
KOTIERUNG
 62
     0
100
AcDbTrace
 10
5961.371020343317
 20
-5290.684914129739
 30
0.0
 11
5968.037687009983
 21
-5290.684914129739
 31
0.0
 12
5964.70435367665
 22
-5310.684914129739
 32
0.0
 13
5964.70435367665
 23
-5310.684914129739
 33
0.0
  0
MTEXT
  5
8847
330
6DBC
100
AcDbEntity
  8
KOTIERUNG
 62
     0
100
AcDbMText
 10
5964.704353676651
 20
-5235.639914129738
 30
0.0
 40
25.0
 41
0.0
 71
     5
 72
     1
  1
\A1;150
 11
0.0000000000000001
 21
1.0
 31
0.0
 73
     1
 44
1.0
1001
ACAD
1000
MTEXTBEGIN
1070
    73
1070
     1
1070
    44
1040
1.0
1070
    74
1070
     0
1000
MTEXTEND
  0
POINT
  5
8848
330
6DBC
100
AcDbEntity
  8
DEFPOINTS
 62
     0
100
AcDbPoint
 10
5689.051681958098
 20
-5160.594914129737
 30
0.0
  0
POINT
  5
8849
330
6DBC
100
AcDbEntity
  8
DEFPOINTS
 62
     0
100
AcDbPoint
 10
5614.051681958098
 20
-5310.684914129739
 30
0.0
  0
POINT
  5
884A
330
6DBC
100
AcDbEntity
  8
DEFPOINTS
 62
     0
100
AcDbPoint
 10
5964.70435367665
 20
-5310.684914129739
 30
0.0
  0
ENDBLK
  5
6DC8
330
6DBC
100
AcDbEntity
  8
0
100
AcDbBlockEnd
  0
BLOCK
  5
6DD4
330
6DC9
100
AcDbEntity
  8
0
100
AcDbBlockBegin
  2
*D16
 70
     1
 10
0.0
 20
0.0
 30
0.0
  3
*D16
  1

  0
LINE
  5
884B
330
6DC9
100
AcDbEntity
  8
KOTIERUNG
 62
     0
370
    -2
100
AcDbLine
 10
5634.051681958099
 20
-5310.684914129739
 30
0.0
 11
5974.70435367665
 21
-5310.684914129739
 31
0.0
  0
LINE
  5
884C
330
6DC9
100
AcDbEntity
  8
KOTIERUNG
 62
     0
370
    -2
100
AcDbLine
 10
5709.051681958099
 20
-5460.684914129739
 30
0.0
 11
5974.70435367665
 21
-5460.684914129739
 31
0.0
  0
LINE
  5
884D
330
6DC9
100
AcDbEntity
  8
KOTIERUNG
 62
     0
370
    -2
100
AcDbLine
 10
5964.70435367665
 20
-5330.684914129739
 30
0.0
 11
5964.70435367665
 21
-5362.035869109275
 31
0.0
  0
LINE
  5
884E
330
6DC9
100
AcDbEntity
  8
KOTIERUNG
 62
     0
370
    -2
100
AcDbLine
 10
5964.70435367665
 20
-5440.684914129739
 30
0.0
 11
5964.70435367665
 21
-5409.333959150202
 31
0.0
  0
SOLID
  5
884F
330
6DC9
100
AcDbEntity
  8
KOTIERUNG
 62
     0
100
AcDbTrace
 10
5961.371020343317
 20
-5330.684914129739
 30
0.0
 11
5968.037687009983
 21
-5330.684914129739
 31
0.0
 12
5964.70435367665
 22
-5310.684914129739
 32
0.0
 13
5964.70435367665
 23
-5310.684914129739
 33
0.0
  0
SOLID
  5
8850
330
6DC9
100
AcDbEntity
  8
KOTIERUNG
 62
     0
100
AcDbTrace
 10
5961.371020343317
 20
-5440.684914129739
 30
0.0
 11
5968.037687009983
 21
-5440.684914129739
 31
0.0
 12
5964.70435367665
 22
-5460.684914129739
 32
0.0
 13
5964.70435367665
 23
-5460.684914129739
 33
0.0
  0
MTEXT
  5
8851
330
6DC9
100
AcDbEntity
  8
KOTIERUNG
 62
     0
100
AcDbMText
 10
5964.704353676651
 20
-5385.684914129738
 30
0.0
 40
25.0
 41
0.0
 71
     5
 72
     1
  1
\A1;150
 11
0.0000000000000001
 21
1.0
 31
0.0
 73
     1
 44
1.0
1001
ACAD
1000
MTEXTBEGIN
1070
    73
1070
     1
1070
    44
1040
1.0
1070
    74
1070
     0
1000
MTEXTEND
  0
POINT
  5
8852
330
6DC9
100
AcDbEntity
  8
DEFPOINTS
 62
     0
100
AcDbPoint
 10
5614.051681958098
 20
-5310.684914129739
 30
0.0
  0
POINT
  5
8853
330
6DC9
100
AcDbEntity
  8
DEFPOINTS
 62
     0
100
AcDbPoint
 10
5689.051681958098
 20
-5460.684914129739
 30
0.0
  0
POINT
  5
8854
330
6DC9
100
AcDbEntity
  8
DEFPOINTS
 62
     0
100
AcDbPoint
 10
5964.70435367665
 20
-5460.684914129739
 30
0.0
  0
ENDBLK
  5
6DD5
330
6DC9
100
AcDbEntity
  8
0
100
AcDbBlockEnd
  0
BLOCK
  5
6E09
330
6DFE
100
AcDbEntity
  8
0
100
AcDbBlockBegin
  2
*D17
 70
     1
 10
0.0
 20
0.0
 30
0.0
  3
*D17
  1

  0
LINE
  5
8BA3
330
6DFE
100
AcDbEntity
  8
KOTIERUNG
 62
     0
370
    -2
100
AcDbLine
 10
4882.620003934196
 20
-4954.9917819411
 30
0.0
 11
4882.620003934196
 21
-4707.009256919657
 31
0.0
  0
LINE
  5
8BA4
330
6DFE
100
AcDbEntity
  8
KOTIERUNG
 62
     0
370
    -2
100
AcDbLine
 10
5267.620003934196
 20
-4221.467019461445
 30
0.0
 11
5267.620003934196
 21
-4727.009256919656
 31
0.0
  0
LINE
  5
8BA5
330
6DFE
100
AcDbEntity
  8
KOTIERUNG
 62
     0
370
    -2
100
AcDbLine
 10
4902.620003934195
 20
-4717.009256919657
 30
0.0
 11
5050.39660693556
 21
-4717.009256919657
 31
0.0
  0
LINE
  5
8BA6
330
6DFE
100
AcDbEntity
  8
KOTIERUNG
 62
     0
370
    -2
100
AcDbLine
 10
5247.620003934196
 20
-4717.009256919657
 30
0.0
 11
5099.843400932831
 21
-4717.009256919657
 31
0.0
  0
SOLID
  5
8BA7
330
6DFE
100
AcDbEntity
  8
KOTIERUNG
 62
     0
100
AcDbTrace
 10
4902.620003934195
 20
-4713.675923586324
 30
0.0
 11
4902.620003934195
 21
-4720.34259025299
 31
0.0
 12
4882.620003934196
 22
-4717.009256919657
 32
0.0
 13
4882.620003934196
 23
-4717.009256919657
 33
0.0
  0
SOLID
  5
8BA8
330
6DFE
100
AcDbEntity
  8
KOTIERUNG
 62
     0
100
AcDbTrace
 10
5247.620003934196
 20
-4713.675923586324
 30
0.0
 11
5247.620003934196
 21
-4720.34259025299
 31
0.0
 12
5267.620003934196
 22
-4717.009256919657
 32
0.0
 13
5267.620003934196
 23
-4717.009256919657
 33
0.0
  0
MTEXT
  5
8BA9
330
6DFE
100
AcDbEntity
  8
KOTIERUNG
 62
     0
100
AcDbMText
 10
5075.120003934196
 20
-4717.009256919657
 30
0.0
 40
25.0
 41
0.0
 71
     5
 72
     1
  1
\A1;385
 73
     1
 44
1.0
1001
ACAD
1000
MTEXTBEGIN
1070
    73
1070
     1
1070
    44
1040
1.0
1070
    74
1070
     0
1000
MTEXTEND
  0
POINT
  5
8BAA
330
6DFE
100
AcDbEntity
  8
DEFPOINTS
 62
     0
100
AcDbPoint
 10
4882.620003934196
 20
-4974.991781941099
 30
0.0
  0
POINT
  5
8BAB
330
6DFE
100
AcDbEntity
  8
DEFPOINTS
 62
     0
100
AcDbPoint
 10
5267.620003934196
 20
-4201.467019461445
 30
0.0
  0
POINT
  5
8BAC
330
6DFE
100
AcDbEntity
  8
DEFPOINTS
 62
     0
100
AcDbPoint
 10
5267.620003934196
 20
-4717.009256919657
 30
0.0
  0
ENDBLK
  5
6E0A
330
6DFE
100
AcDbEntity
  8
0
100
AcDbBlockEnd
  0
BLOCK
  5
6E16
330
6E0B
100
AcDbEntity
  8
0
100
AcDbBlockBegin
  2
*D18
 70
     1
 10
0.0
 20
0.0
 30
0.0
  3
*D18
  1

  0
LINE
  5
8BAD
330
6E0B
100
AcDbEntity
  8
KOTIERUNG
 62
     0
370
    -2
100
AcDbLine
 10
4882.620003934195
 20
-4954.991781941099
 30
0.0
 11
4882.620003934195
 21
-4779.42984802465
 31
0.0
  0
LINE
  5
8BAE
330
6E0B
100
AcDbEntity
  8
KOTIERUNG
 62
     0
370
    -2
100
AcDbLine
 10
5614.834903531591
 20
-4856.503185957203
 30
0.0
 11
5614.834903531591
 21
-4779.42984802465
 31
0.0
  0
LINE
  5
8BAF
330
6E0B
100
AcDbEntity
  8
KOTIERUNG
 62
     0
370
    -2
100
AcDbLine
 10
4902.620003934195
 20
-4789.42984802465
 30
0.0
 11
5204.355502673056
 21
-4789.42984802465
 31
0.0
  0
LINE
  5
8BB0
330
6E0B
100
AcDbEntity
  8
KOTIERUNG
 62
     0
370
    -2
100
AcDbLine
 10
5594.834903531591
 20
-4789.42984802465
 30
0.0
 11
5253.307753696248
 21
-4789.42984802465
 31
0.0
  0
SOLID
  5
8BB1
330
6E0B
100
AcDbEntity
  8
KOTIERUNG
 62
     0
100
AcDbTrace
 10
4902.620003934195
 20
-4786.096514691318
 30
0.0
 11
4902.620003934195
 21
-4792.763181357983
 31
0.0
 12
4882.620003934195
 22
-4789.42984802465
 32
0.0
 13
4882.620003934195
 23
-4789.42984802465
 33
0.0
  0
SOLID
  5
8BB2
330
6E0B
100
AcDbEntity
  8
KOTIERUNG
 62
     0
100
AcDbTrace
 10
5594.834903531591
 20
-4786.096514691318
 30
0.0
 11
5594.834903531591
 21
-4792.763181357983
 31
0.0
 12
5614.834903531591
 22
-4789.42984802465
 32
0.0
 13
5614.834903531591
 23
-4789.42984802465
 33
0.0
  0
MTEXT
  5
8BB3
330
6E0B
100
AcDbEntity
  8
KOTIERUNG
 62
     0
100
AcDbMText
 10
5228.831628184652
 20
-4789.42984802465
 30
0.0
 40
25.0
 41
0.0
 71
     5
 72
     1
  1
\A1;732
 73
     1
 44
1.0
1001
ACAD
1000
MTEXTBEGIN
1070
    73
1070
     1
1070
    44
1040
1.0
1070
    74
1070
     0
1000
MTEXTEND
  0
POINT
  5
8BB4
330
6E0B
100
AcDbEntity
  8
DEFPOINTS
 62
     0
100
AcDbPoint
 10
4882.620003934195
 20
-4974.991781941099
 30
0.0
  0
POINT
  5
8BB5
330
6E0B
100
AcDbEntity
  8
DEFPOINTS
 62
     0
100
AcDbPoint
 10
5614.834903531591
 20
-4876.503185957203
 30
0.0
  0
POINT
  5
8BB6
330
6E0B
100
AcDbEntity
  8
DEFPOINTS
 62
     0
100
AcDbPoint
 10
5614.834903531591
 20
-4789.42984802465
 30
0.0
  0
ENDBLK
  5
6E17
330
6E0B
100
AcDbEntity
  8
0
100
AcDbBlockEnd
  0
BLOCK
  5
76BF
330
76B5
100
AcDbEntity
  8
0
100
AcDbBlockBegin
  2
*D19
 70
     1
 10
0.0
 20
0.0
 30
0.0
  3
*D19
  1

  0
LINE
  5
870D
330
76B5
100
AcDbEntity
  8
KOTIERUNG
 62
     0
370
    -2
100
AcDbLine
 10
12394.6758670645
 20
-222.693924009443
 30
0.0
 11
12394.6758670645
 21
-27.82107090936779
 31
0.0
  0
LINE
  5
870E
330
76B5
100
AcDbEntity
  8
KOTIERUNG
 62
     0
370
    -2
100
AcDbLine
 10
11061.34253406451
 20
-222.693924009443
 30
0.0
 11
11061.34253406451
 21
-27.82107090936779
 31
0.0
  0
LINE
  5
870F
330
76B5
100
AcDbEntity
  8
KOTIERUNG
 62
     0
370
    -2
100
AcDbLine
 10
12294.67586706451
 20
-77.82107090936779
 30
0.0
 11
11161.34253406451
 21
-77.82107090936779
 31
0.0
  0
SOLID
  5
8710
330
76B5
100
AcDbEntity
  8
KOTIERUNG
 62
     0
100
AcDbTrace
 10
12294.67586706451
 20
-61.15440424270112
 30
0.0
 11
12294.67586706451
 21
-94.48773757603445
 31
0.0
 12
12394.6758670645
 22
-77.82107090936779
 32
0.0
 13
12394.6758670645
 23
-77.82107090936779
 33
0.0
  0
SOLID
  5
8711
330
76B5
100
AcDbEntity
  8
KOTIERUNG
 62
     0
100
AcDbTrace
 10
11161.34253406451
 20
-61.15440424270112
 30
0.0
 11
11161.34253406451
 21
-94.48773757603445
 31
0.0
 12
11061.34253406451
 22
-77.82107090936779
 32
0.0
 13
11061.34253406451
 23
-77.82107090936779
 33
0.0
  0
MTEXT
  5
8712
330
76B5
100
AcDbEntity
  8
KOTIERUNG
 62
     0
100
AcDbMText
 10
11714.59279269951
 20
-1.763772137198614
 30
0.0
 40
100.0
 41
0.0
 71
     5
 72
     1
  1
1333
 73
     1
 44
1.0
1001
ACAD
1000
MTEXTBEGIN
1070
    73
1070
     1
1070
    44
1040
1.0
1070
    74
1070
     0
1000
MTEXTEND
  0
POINT
  5
8713
330
76B5
100
AcDbEntity
  8
DEFPOINTS
 62
     0
100
AcDbPoint
 10
12394.6758670645
 20
-247.693924009443
 30
0.0
  0
POINT
  5
8714
330
76B5
100
AcDbEntity
  8
DEFPOINTS
 62
     0
100
AcDbPoint
 10
11061.34253406451
 20
-247.693924009443
 30
0.0
  0
POINT
  5
8715
330
76B5
100
AcDbEntity
  8
DEFPOINTS
 62
     0
100
AcDbPoint
 10
11061.34253406451
 20
-77.82107090936779
 30
0.0
  0
ENDBLK
  5
76C0
330
76B5
100
AcDbEntity
  8
0
100
AcDbBlockEnd
  0
BLOCK
  5
76CB
330
76C1
100
AcDbEntity
  8
0
100
AcDbBlockBegin
  2
*D20
 70
     1
 10
0.0
 20
0.0
 30
0.0
  3
*D20
  1

  0
LINE
  5
8716
330
76C1
100
AcDbEntity
  8
KOTIERUNG
 62
     0
370
    -2
100
AcDbLine
 10
11061.34253406451
 20
-222.693924009443
 30
0.0
 11
11061.34253406451
 21
-27.82107090936688
 31
0.0
  0
LINE
  5
8717
330
76C1
100
AcDbEntity
  8
KOTIERUNG
 62
     0
370
    -2
100
AcDbLine
 10
9728.009201064507
 20
-222.6939240094421
 30
0.0
 11
9728.009201064507
 21
-27.82107090936688
 31
0.0
  0
LINE
  5
8718
330
76C1
100
AcDbEntity
  8
KOTIERUNG
 62
     0
370
    -2
100
AcDbLine
 10
10961.34253406451
 20
-77.82107090936688
 30
0.0
 11
9828.009201064507
 21
-77.82107090936688
 31
0.0
  0
SOLID
  5
8719
330
76C1
100
AcDbEntity
  8
KOTIERUNG
 62
     0
100
AcDbTrace
 10
10961.34253406451
 20
-61.15440424270022
 30
0.0
 11
10961.34253406451
 21
-94.48773757603353
 31
0.0
 12
11061.34253406451
 22
-77.82107090936688
 32
0.0
 13
11061.34253406451
 23
-77.82107090936688
 33
0.0
  0
SOLID
  5
871A
330
76C1
100
AcDbEntity
  8
KOTIERUNG
 62
     0
100
AcDbTrace
 10
9828.009201064507
 20
-61.15440424270022
 30
0.0
 11
9828.009201064507
 21
-94.48773757603353
 31
0.0
 12
9728.009201064507
 22
-77.82107090936688
 32
0.0
 13
9728.009201064507
 23
-77.82107090936688
 33
0.0
  0
MTEXT
  5
871B
330
76C1
100
AcDbEntity
  8
KOTIERUNG
 62
     0
100
AcDbMText
 10
10394.6758675645
 20
-1.763772137197705
 30
0.0
 40
100.0
 41
0.0
 71
     5
 72
     1
  1
1333
 73
     1
 44
1.0
1001
ACAD
1000
MTEXTBEGIN
1070
    73
1070
     1
1070
    44
1040
1.0
1070
    74
1070
     0
1000
MTEXTEND
  0
POINT
  5
871C
330
76C1
100
AcDbEntity
  8
DEFPOINTS
 62
     0
100
AcDbPoint
 10
11061.34253406451
 20
-247.693924009443
 30
0.0
  0
POINT
  5
871D
330
76C1
100
AcDbEntity
  8
DEFPOINTS
 62
     0
100
AcDbPoint
 10
9728.009201064507
 20
-247.6939240094421
 30
0.0
  0
POINT
  5
871E
330
76C1
100
AcDbEntity
  8
DEFPOINTS
 62
     0
100
AcDbPoint
 10
9728.009201064507
 20
-77.82107090936688
 30
0.0
  0
ENDBLK
  5
76CC
330
76C1
100
AcDbEntity
  8
0
100
AcDbBlockEnd
  0
BLOCK
  5
76D7
330
76CD
100
AcDbEntity
  8
0
100
AcDbBlockBegin
  2
*D21
 70
     1
 10
0.0
 20
0.0
 30
0.0
  3
*D21
  1

  0
LINE
  5
871F
330
76CD
100
AcDbEntity
  8
KOTIERUNG
 62
     0
370
    -2
100
AcDbLine
 10
9728.009201064507
 20
-222.6939240094421
 30
0.0
 11
9728.009201064507
 21
-27.82107090936597
 31
0.0
  0
LINE
  5
8720
330
76CD
100
AcDbEntity
  8
KOTIERUNG
 62
     0
370
    -2
100
AcDbLine
 10
8394.675868064508
 20
-222.6939240094412
 30
0.0
 11
8394.675868064508
 21
-27.82107090936597
 31
0.0
  0
LINE
  5
8721
330
76CD
100
AcDbEntity
  8
KOTIERUNG
 62
     0
370
    -2
100
AcDbLine
 10
9628.009201064507
 20
-77.82107090936597
 30
0.0
 11
8494.675868064508
 21
-77.82107090936597
 31
0.0
  0
SOLID
  5
8722
330
76CD
100
AcDbEntity
  8
KOTIERUNG
 62
     0
100
AcDbTrace
 10
9628.009201064507
 20
-61.1544042426993
 30
0.0
 11
9628.009201064507
 21
-94.48773757603262
 31
0.0
 12
9728.009201064507
 22
-77.82107090936597
 32
0.0
 13
9728.009201064507
 23
-77.82107090936597
 33
0.0
  0
SOLID
  5
8723
330
76CD
100
AcDbEntity
  8
KOTIERUNG
 62
     0
100
AcDbTrace
 10
8494.675868064508
 20
-61.1544042426993
 30
0.0
 11
8494.675868064508
 21
-94.48773757603262
 31
0.0
 12
8394.675868064508
 22
-77.82107090936597
 32
0.0
 13
8394.675868064508
 23
-77.82107090936597
 33
0.0
  0
MTEXT
  5
8724
330
76CD
100
AcDbEntity
  8
KOTIERUNG
 62
     0
100
AcDbMText
 10
9061.342534564508
 20
-1.763772137196795
 30
0.0
 40
100.0
 41
0.0
 71
     5
 72
     1
  1
1333
 73
     1
 44
1.0
1001
ACAD
1000
MTEXTBEGIN
1070
    73
1070
     1
1070
    44
1040
1.0
1070
    74
1070
     0
1000
MTEXTEND
  0
POINT
  5
8725
330
76CD
100
AcDbEntity
  8
DEFPOINTS
 62
     0
100
AcDbPoint
 10
9728.009201064507
 20
-247.6939240094421
 30
0.0
  0
POINT
  5
8726
330
76CD
100
AcDbEntity
  8
DEFPOINTS
 62
     0
100
AcDbPoint
 10
8394.675868064508
 20
-247.6939240094412
 30
0.0
  0
POINT
  5
8727
330
76CD
100
AcDbEntity
  8
DEFPOINTS
 62
     0
100
AcDbPoint
 10
8394.675868064508
 20
-77.82107090936597
 30
0.0
  0
ENDBLK
  5
76D8
330
76CD
100
AcDbEntity
  8
0
100
AcDbBlockEnd
  0
BLOCK
  5
76E3
330
76D9
100
AcDbEntity
  8
0
100
AcDbBlockBegin
  2
*D22
 70
     1
 10
0.0
 20
0.0
 30
0.0
  3
*D22
  1

  0
LINE
  5
7B87
330
76D9
100
AcDbEntity
  8
KOTIERUNG
 62
     0
370
    -2
100
AcDbLine
 10
12394.6758670645
 20
-222.693924009443
 30
0.0
 11
12394.6758670645
 21
232.290404824545
 31
0.0
  0
LINE
  5
7B88
330
76D9
100
AcDbEntity
  8
KOTIERUNG
 62
     0
370
    -2
100
AcDbLine
 10
8394.675868064508
 20
-222.6939240094412
 30
0.0
 11
8394.675868064508
 21
232.290404824545
 31
0.0
  0
LINE
  5
7B89
330
76D9
100
AcDbEntity
  8
KOTIERUNG
 62
     0
370
    -2
100
AcDbLine
 10
12294.67586706451
 20
182.290404824545
 30
0.0
 11
8494.675868064508
 21
182.290404824545
 31
0.0
  0
SOLID
  5
7B8A
330
76D9
100
AcDbEntity
  8
KOTIERUNG
 62
     0
100
AcDbTrace
 10
12294.67586706451
 20
198.9570714912117
 30
0.0
 11
12294.67586706451
 21
165.6237381578783
 31
0.0
 12
12394.6758670645
 22
182.290404824545
 32
0.0
 13
12394.6758670645
 23
182.290404824545
 33
0.0
  0
SOLID
  5
7B8B
330
76D9
100
AcDbEntity
  8
KOTIERUNG
 62
     0
100
AcDbTrace
 10
8494.675868064508
 20
198.9570714912117
 30
0.0
 11
8494.675868064508
 21
165.6237381578783
 31
0.0
 12
8394.675868064508
 22
182.290404824545
 32
0.0
 13
8394.675868064508
 23
182.290404824545
 33
0.0
  0
MTEXT
  5
7B8C
330
76D9
100
AcDbEntity
  8
KOTIERUNG
 62
     0
100
AcDbMText
 10
10394.6758675645
 20
258.3477035967142
 30
0.0
 40
100.0
 41
0.0
 71
     5
 72
     1
  1
4000±7
 73
     1
 44
1.0
1001
ACAD
1000
MTEXTBEGIN
1070
    73
1070
     1
1070
    44
1040
1.0
1070
    74
1070
     0
1000
MTEXTEND
  0
POINT
  5
7B8D
330
76D9
100
AcDbEntity
  8
DEFPOINTS
 62
     0
100
AcDbPoint
 10
12394.6758670645
 20
-247.693924009443
 30
0.0
  0
POINT
  5
7B8E
330
76D9
100
AcDbEntity
  8
DEFPOINTS
 62
     0
100
AcDbPoint
 10
8394.675868064508
 20
-247.6939240094412
 30
0.0
  0
POINT
  5
7B8F
330
76D9
100
AcDbEntity
  8
DEFPOINTS
 62
     0
100
AcDbPoint
 10
8394.675868064508
 20
182.290404824545
 30
0.0
  0
ENDBLK
  5
76E4
330
76D9
100
AcDbEntity
  8
0
100
AcDbBlockEnd
  0
BLOCK
  5
836D
330
8363
100
AcDbEntity
  8
0
100
AcDbBlockBegin
  2
*D25
 70
     1
 10
0.0
 20
0.0
 30
0.0
  3
*D25
  1

  0
LINE
  5
838B
330
8363
100
AcDbEntity
  8
KOTIERUNG
 62
     0
370
    -2
100
AcDbLine
 10
5722.698647246423
 20
-5002.292594641857
 30
0.0
 11
5759.932761357988
 21
-5000.803230077393
 31
0.0
  0
LINE
  5
838C
330
8363
100
AcDbEntity
  8
KOTIERUNG
 62
     0
370
    -2
100
AcDbLine
 10
5745.544267552394
 20
-4891.290805001485
 30
0.0
 11
5746.397623339801
 21
-4912.624699686664
 31
0.0
  0
LINE
  5
838D
330
8363
100
AcDbEntity
  8
KOTIERUNG
 62
     0
370
    -2
100
AcDbLine
 10
5749.141391003792
 20
-4981.218891286445
 30
0.0
 11
5748.288035216386
 21
-4959.884996601268
 31
0.0
  0
SOLID
  5
838E
330
8363
100
AcDbEntity
  8
KOTIERUNG
 62
     0
100
AcDbTrace
 10
5748.874937414799
 20
-4891.157578206989
 30
0.0
 11
5742.213597689988
 21
-4891.424031795981
 31
0.0
 12
5744.744906785416
 22
-4871.306785827049
 32
0.0
 13
5744.744906785416
 23
-4871.306785827049
 33
0.0
  0
SOLID
  5
838F
330
8363
100
AcDbEntity
  8
KOTIERUNG
 62
     0
100
AcDbTrace
 10
5752.472060866199
 20
-4981.085664491949
 30
0.0
 11
5745.810721141388
 21
-4981.352118080942
 31
0.0
 12
5749.940751770771
 22
-5001.202910460882
 32
0.0
 13
5749.940751770771
 23
-5001.202910460882
 33
0.0
  0
MTEXT
  5
8390
330
8363
100
AcDbEntity
  8
KOTIERUNG
 62
     0
100
AcDbMText
 10
5747.342829278093
 20
-4936.254848143966
 30
0.0
 40
25.0
 41
0.0
 71
     5
 72
     1
  1
\A1;130
 11
0.0399680383488817
 21
-0.9992009587217889
 31
0.0
 73
     1
 44
1.0
1001
ACAD
1000
MTEXTBEGIN
1070
    73
1070
     1
1070
    44
1040
1.0
1070
    74
1070
     0
1000
MTEXTEND
  0
POINT
  5
8391
330
8363
100
AcDbEntity
  8
DEFPOINTS
 62
     0
100
AcDbPoint
 10
5697.518783086632
 20
-4873.195830775001
 30
0.0
  0
POINT
  5
8392
330
8363
100
AcDbEntity
  8
DEFPOINTS
 62
     0
100
AcDbPoint
 10
5702.714628071987
 20
-5003.091955408834
 30
0.0
  0
POINT
  5
8393
330
8363
100
AcDbEntity
  8
DEFPOINTS
 62
     0
100
AcDbPoint
 10
5749.940751770771
 20
-5001.202910460882
 30
0.0
  0
ENDBLK
  5
836E
330
8363
100
AcDbEntity
  8
0
100
AcDbBlockEnd
  0
BLOCK
  5
8407
330
83FC
100
AcDbEntity
  8
0
100
AcDbBlockBegin
  2
*D26
 70
     1
 10
0.0
 20
0.0
 30
0.0
  3
*D26
  1

  0
LINE
  5
8441
330
83FC
100
AcDbEntity
  8
KOTIERUNG
 62
     0
370
    -2
100
AcDbLine
 10
5554.051681958096
 20
-5330.684914129739
 30
0.0
 11
5554.051681958096
 21
-5571.530420167764
 31
0.0
  0
LINE
  5
8442
330
83FC
100
AcDbEntity
  8
KOTIERUNG
 62
     0
370
    -2
100
AcDbLine
 10
5934.051681958099
 20
-5330.684914129739
 30
0.0
 11
5934.051681958099
 21
-5571.530420167764
 31
0.0
  0
LINE
  5
8443
330
83FC
100
AcDbEntity
  8
KOTIERUNG
 62
     0
370
    -2
100
AcDbLine
 10
5574.051681958096
 20
-5561.530420167764
 30
0.0
 11
5717.564678662086
 21
-5561.530420167764
 31
0.0
  0
LINE
  5
8444
330
83FC
100
AcDbEntity
  8
KOTIERUNG
 62
     0
370
    -2
100
AcDbLine
 10
5914.0516819581
 20
-5561.530420167764
 30
0.0
 11
5766.789780981323
 21
-5561.530420167764
 31
0.0
  0
SOLID
  5
8445
330
83FC
100
AcDbEntity
  8
KOTIERUNG
 62
     0
100
AcDbTrace
 10
5574.051681958096
 20
-5558.197086834431
 30
0.0
 11
5574.051681958096
 21
-5564.863753501097
 31
0.0
 12
5554.051681958096
 22
-5561.530420167764
 32
0.0
 13
5554.051681958096
 23
-5561.530420167764
 33
0.0
  0
SOLID
  5
8446
330
83FC
100
AcDbEntity
  8
KOTIERUNG
 62
     0
100
AcDbTrace
 10
5914.0516819581
 20
-5558.197086834431
 30
0.0
 11
5914.0516819581
 21
-5564.863753501097
 31
0.0
 12
5934.051681958099
 22
-5561.530420167764
 32
0.0
 13
5934.051681958099
 23
-5561.530420167764
 33
0.0
  0
MTEXT
  5
8447
330
83FC
100
AcDbEntity
  8
KOTIERUNG
 62
     0
100
AcDbMText
 10
5742.177229821705
 20
-5561.530420167764
 30
0.0
 40
25.0
 41
0.0
 71
     5
 72
     1
  1
\A1;380
 73
     1
 44
1.0
1001
ACAD
1000
MTEXTBEGIN
1070
    73
1070
     1
1070
    44
1040
1.0
1070
    74
1070
     0
1000
MTEXTEND
  0
POINT
  5
8448
330
83FC
100
AcDbEntity
  8
DEFPOINTS
 62
     0
100
AcDbPoint
 10
5554.051681958096
 20
-5310.684914129739
 30
0.0
  0
POINT
  5
8449
330
83FC
100
AcDbEntity
  8
DEFPOINTS
 62
     0
100
AcDbPoint
 10
5934.051681958099
 20
-5310.684914129739
 30
0.0
  0
POINT
  5
844A
330
83FC
100
AcDbEntity
  8
DEFPOINTS
 62
     0
100
AcDbPoint
 10
5934.051681958099
 20
-5561.530420167764
 30
0.0
  0
ENDBLK
  5
8408
330
83FC
100
AcDbEntity
  8
0
100
AcDbBlockEnd
  0
BLOCK
  5
8414
330
8409
100
AcDbEntity
  8
0
100
AcDbBlockBegin
  2
*D27
 70
     1
 10
0.0
 20
0.0
 30
0.0
  3
*D27
  1

  0
LINE
  5
844B
330
8409
100
AcDbEntity
  8
KOTIERUNG
 62
     0
370
    -2
100
AcDbLine
 10
5554.051681958094
 20
-5330.684914129739
 30
0.0
 11
5554.051681958094
 21
-5393.217382765346
 31
0.0
  0
LINE
  5
844C
330
8409
100
AcDbEntity
  8
KOTIERUNG
 62
     0
370
    -2
100
AcDbLine
 10
5614.051681958091
 20
-5330.684914129739
 30
0.0
 11
5614.051681958091
 21
-5393.217382765346
 31
0.0
  0
LINE
  5
844D
330
8409
100
AcDbEntity
  8
KOTIERUNG
 62
     0
370
    -2
100
AcDbLine
 10
5574.051681958095
 20
-5383.217382765346
 30
0.0
 11
5594.051681958091
 21
-5383.217382765346
 31
0.0
  0
LINE
  5
844E
330
8409
100
AcDbEntity
  8
KOTIERUNG
 62
     0
370
    -2
100
AcDbLine
 10
5530.052421902162
 20
-5383.217382765346
 30
0.0
 11
5554.051681958094
 21
-5383.217382765346
 31
0.0
  0
MTEXT
  5
844F
330
8409
100
AcDbEntity
  8
KOTIERUNG
 62
     0
100
AcDbMText
 10
5513.344031724809
 20
-5383.217382765346
 30
0.0
 40
25.0
 41
0.0
 71
     5
 72
     1
  1
\A1;60
 73
     1
 44
1.0
1001
ACAD
1000
MTEXTBEGIN
1070
    73
1070
     1
1070
    44
1040
1.0
1070
    74
1070
     0
1000
MTEXTEND
  0
SOLID
  5
8450
330
8409
100
AcDbEntity
  8
KOTIERUNG
 62
     0
100
AcDbTrace
 10
5574.051681958095
 20
-5379.884049432013
 30
0.0
 11
5574.051681958095
 21
-5386.550716098679
 31
0.0
 12
5554.051681958094
 22
-5383.217382765346
 32
0.0
 13
5554.051681958094
 23
-5383.217382765346
 33
0.0
  0
SOLID
  5
8451
330
8409
100
AcDbEntity
  8
KOTIERUNG
 62
     0
100
AcDbTrace
 10
5594.051681958091
 20
-5379.884049432013
 30
0.0
 11
5594.051681958091
 21
-5386.550716098679
 31
0.0
 12
5614.051681958091
 22
-5383.217382765346
 32
0.0
 13
5614.051681958091
 23
-5383.217382765346
 33
0.0
  0
POINT
  5
8452
330
8409
100
AcDbEntity
  8
DEFPOINTS
 62
     0
100
AcDbPoint
 10
5554.051681958094
 20
-5310.684914129739
 30
0.0
  0
POINT
  5
8453
330
8409
100
AcDbEntity
  8
DEFPOINTS
 62
     0
100
AcDbPoint
 10
5614.051681958091
 20
-5310.684914129739
 30
0.0
  0
POINT
  5
8454
330
8409
100
AcDbEntity
  8
DEFPOINTS
 62
     0
100
AcDbPoint
 10
5614.051681958091
 20
-5383.217382765346
 30
0.0
  0
ENDBLK
  5
8415
330
8409
100
AcDbEntity
  8
0
100
AcDbBlockEnd
  0
BLOCK
  5
8421
330
8416
100
AcDbEntity
  8
0
100
AcDbBlockBegin
  2
*D28
 70
     1
 10
0.0
 20
0.0
 30
0.0
  3
*D28
  1

  0
LINE
  5
8455
330
8416
100
AcDbEntity
  8
KOTIERUNG
 62
     0
370
    -2
100
AcDbLine
 10
5614.051681958095
 20
-5330.684914129739
 30
0.0
 11
5614.051681958095
 21
-5393.217382765346
 31
0.0
  0
LINE
  5
8456
330
8416
100
AcDbEntity
  8
KOTIERUNG
 62
     0
370
    -2
100
AcDbLine
 10
5689.051681958098
 20
-5440.684914129739
 30
0.0
 11
5689.051681958098
 21
-5373.217382765346
 31
0.0
  0
LINE
  5
8457
330
8416
100
AcDbEntity
  8
KOTIERUNG
 62
     0
370
    -2
100
AcDbLine
 10
5634.051681958094
 20
-5383.217382765346
 30
0.0
 11
5669.051681958098
 21
-5383.217382765346
 31
0.0
  0
LINE
  5
8458
330
8416
100
AcDbEntity
  8
KOTIERUNG
 62
     0
370
    -2
100
AcDbLine
 10
5689.051681958098
 20
-5383.217382765346
 30
0.0
 11
5709.051681958099
 21
-5383.217382765346
 31
0.0
  0
SOLID
  5
8459
330
8416
100
AcDbEntity
  8
KOTIERUNG
 62
     0
100
AcDbTrace
 10
5634.051681958094
 20
-5379.884049432013
 30
0.0
 11
5634.051681958094
 21
-5386.550716098679
 31
0.0
 12
5614.051681958095
 22
-5383.217382765346
 32
0.0
 13
5614.051681958095
 23
-5383.217382765346
 33
0.0
  0
SOLID
  5
845A
330
8416
100
AcDbEntity
  8
KOTIERUNG
 62
     0
100
AcDbTrace
 10
5669.051681958098
 20
-5379.884049432013
 30
0.0
 11
5669.051681958098
 21
-5386.550716098679
 31
0.0
 12
5689.051681958098
 22
-5383.217382765346
 32
0.0
 13
5689.051681958098
 23
-5383.217382765346
 33
0.0
  0
MTEXT
  5
845B
330
8416
100
AcDbEntity
  8
KOTIERUNG
 62
     0
100
AcDbMText
 10
5725.725965723447
 20
-5383.217382765346
 30
0.0
 40
25.0
 41
0.0
 71
     5
 72
     1
  1
\A1;75
 73
     1
 44
1.0
1001
ACAD
1000
MTEXTBEGIN
1070
    73
1070
     1
1070
    44
1040
1.0
1070
    74
1070
     0
1000
MTEXTEND
  0
POINT
  5
845C
330
8416
100
AcDbEntity
  8
DEFPOINTS
 62
     0
100
AcDbPoint
 10
5614.051681958095
 20
-5310.684914129739
 30
0.0
  0
POINT
  5
845D
330
8416
100
AcDbEntity
  8
DEFPOINTS
 62
     0
100
AcDbPoint
 10
5689.051681958098
 20
-5460.684914129739
 30
0.0
  0
POINT
  5
845E
330
8416
100
AcDbEntity
  8
DEFPOINTS
 62
     0
100
AcDbPoint
 10
5689.051681958098
 20
-5383.217382765346
 30
0.0
  0
ENDBLK
  5
8422
330
8416
100
AcDbEntity
  8
0
100
AcDbBlockEnd
  0
BLOCK
  5
8497
330
8493
100
AcDbEntity
  8
0
100
AcDbBlockBegin
  2
A$C46A15E4E
 70
     0
 10
0.0
 20
0.0
 30
0.0
  3
A$C46A15E4E
  1

  0
MTEXT
  5
8494
330
8493
100
AcDbEntity
  8
KOTIERUNG
100
AcDbMText
 10
2.295406929014461
 20
33.85992476535193
 30
0.0
 40
25.0
 41
81.35852964131482
 71
     1
 72
     5
  1
2,5%
  7
VOEST
 11
0.9996876464081227
 21
0.0249921911602045
 31
0.0
 73
     1
 44
1.0
1001
ACAD
1000
MTEXTBEGIN
1070
    73
1070
     1
1070
    44
1040
1.0
1070
    74
1070
     0
1000
MTEXTEND
  0
ENDBLK
  5
8498
330
8493
100
AcDbEntity
  8
0
100
AcDbBlockEnd
  0
BLOCK
  5
85A0
330
8596
100
AcDbEntity
  8
0
100
AcDbBlockBegin
  2
*D30
 70
     1
 10
0.0
 20
0.0
 30
0.0
  3
*D30
  1

  0
LINE
  5
86DB
330
8596
100
AcDbEntity
  8
KOTIERUNG
 62
     0
370
    -2
100
AcDbLine
 10
5278.853403868356
 20
-4483.361593956639
 30
0.0
 11
5286.877596864812
 21
-4683.966416883627
 31
0.0
  0
LINE
  5
86DC
330
8596
100
AcDbEntity
  8
KOTIERUNG
 62
     0
370
    -2
100
AcDbLine
 10
5753.473958047464
 20
-4464.376771601672
 30
0.0
 11
5761.49815104392
 21
-4664.981594528661
 31
0.0
  0
LINE
  5
86DD
330
8596
100
AcDbEntity
  8
KOTIERUNG
 62
     0
370
    -2
100
AcDbLine
 10
5306.461935651497
 20
-4673.175046521695
 30
0.0
 11
5479.49116477592
 21
-4666.253877288252
 31
0.0
  0
LINE
  5
86DE
330
8596
100
AcDbEntity
  8
KOTIERUNG
 62
     0
370
    -2
100
AcDbLine
 10
5741.114451482363
 20
-4655.788945716472
 30
0.0
 11
5568.08522235794
 21
-4662.710114949915
 31
0.0
  0
SOLID
  5
86DF
330
8596
100
AcDbEntity
  8
KOTIERUNG
 62
     0
100
AcDbTrace
 10
5306.328708855684
 20
-4669.844376659343
 30
0.0
 11
5306.595162447308
 21
-4676.505716384049
 31
0.0
 12
5286.477916477377
 22
-4673.974407296568
 32
0.0
 13
5286.477916477377
 23
-4673.974407296568
 33
0.0
  0
SOLID
  5
86E0
330
8596
100
AcDbEntity
  8
KOTIERUNG
 62
     0
100
AcDbTrace
 10
5740.981224686551
 20
-4652.45827585412
 30
0.0
 11
5741.247678278175
 21
-4659.119615578827
 31
0.0
 12
5761.098470656484
 22
-4654.989584941601
 32
0.0
 13
5761.098470656484
 23
-4654.989584941601
 33
0.0
  0
MTEXT
  5
86E1
330
8596
100
AcDbEntity
  8
KOTIERUNG
 62
     0
100
AcDbMText
 10
5523.78819356693
 20
-4664.481996119084
 30
0.0
 40
25.0
 41
0.0
 71
     5
 72
     1
  1
\A1;475{\H18.750000;±20}
 11
0.9992009587059998
 21
0.039968038743614
 31
0.0
 73
     1
 44
1.0
1001
ACAD
1000
MTEXTBEGIN
1070
    73
1070
     1
1070
    44
1040
1.0
1070
    74
1070
     0
1000
MTEXTEND
  0
POINT
  5
86E2
330
8596
100
AcDbEntity
  8
DEFPOINTS
 62
     0
100
AcDbPoint
 10
5278.054043093483
 20
-4463.377574782519
 30
0.0
  0
POINT
  5
86E3
330
8596
100
AcDbEntity
  8
DEFPOINTS
 62
     0
100
AcDbPoint
 10
5752.674597272591
 20
-4444.392752427552
 30
0.0
  0
POINT
  5
86E4
330
8596
100
AcDbEntity
  8
DEFPOINTS
 62
     0
100
AcDbPoint
 10
5761.098470656484
 20
-4654.989584941601
 30
0.0
  0
ENDBLK
  5
85A1
330
8596
100
AcDbEntity
  8
0
100
AcDbBlockEnd
  0
BLOCK
  5
85AD
330
85A3
100
AcDbEntity
  8
0
100
AcDbBlockBegin
  2
*D31
 70
     1
 10
0.0
 20
0.0
 30
0.0
  3
*D31
  1

  0
LINE
  5
86D1
330
85A3
100
AcDbEntity
  8
KOTIERUNG
 62
     0
370
    -2
100
AcDbLine
 10
5753.473958047464
 20
-4464.376771601672
 30
0.0
 11
5761.49815104392
 21
-4664.981594528661
 31
0.0
  0
LINE
  5
86D2
330
85A3
100
AcDbEntity
  8
KOTIERUNG
 62
     0
370
    -2
100
AcDbLine
 10
5867.382709466422
 20
-4459.820421499843
 30
0.0
 11
5875.406902462879
 21
-4660.425244426831
 31
0.0
  0
LINE
  5
86D3
330
85A3
100
AcDbEntity
  8
KOTIERUNG
 62
     0
370
    -2
100
AcDbLine
 10
5781.082489830605
 20
-4654.190224166729
 30
0.0
 11
5792.236599661757
 21
-4653.74405976907
 31
0.0
  0
LINE
  5
86D4
330
85A3
100
AcDbEntity
  8
KOTIERUNG
 62
     0
370
    -2
100
AcDbLine
 10
5855.023202901322
 20
-4651.232595614643
 30
0.0
 11
5839.496896575615
 21
-4651.853647873815
 31
0.0
  0
SOLID
  5
86D5
330
85A3
100
AcDbEntity
  8
KOTIERUNG
 62
     0
100
AcDbTrace
 10
5780.949263034792
 20
-4650.859554304377
 30
0.0
 11
5781.215716626417
 21
-4657.520894029082
 31
0.0
 12
5761.098470656484
 22
-4654.989584941602
 32
0.0
 13
5761.098470656484
 23
-4654.989584941602
 33
0.0
  0
SOLID
  5
86D6
330
85A3
100
AcDbEntity
  8
KOTIERUNG
 62
     0
100
AcDbTrace
 10
5854.889976105511
 20
-4647.90192575229
 30
0.0
 11
5855.156429697135
 21
-4654.563265476996
 31
0.0
 12
5875.007222075442
 22
-4650.433234839771
 32
0.0
 13
5875.007222075442
 23
-4650.433234839771
 33
0.0
  0
MTEXT
  5
86D7
330
85A3
100
AcDbEntity
  8
KOTIERUNG
 62
     0
100
AcDbMText
 10
5815.866748118686
 20
-4652.798853821442
 30
0.0
 40
25.0
 41
0.0
 71
     5
 72
     1
  1
\A1;114
 11
0.9992009587059998
 21
0.0399680387436135
 31
0.0
 73
     1
 44
1.0
1001
ACAD
1000
MTEXTBEGIN
1070
    73
1070
     1
1070
    44
1040
1.0
1070
    74
1070
     0
1000
MTEXTEND
  0
POINT
  5
86D8
330
85A3
100
AcDbEntity
  8
DEFPOINTS
 62
     0
100
AcDbPoint
 10
5752.674597272591
 20
-4444.392752427552
 30
0.0
  0
POINT
  5
86D9
330
85A3
100
AcDbEntity
  8
DEFPOINTS
 62
     0
100
AcDbPoint
 10
5866.58334869155
 20
-4439.836402325723
 30
0.0
  0
POINT
  5
86DA
330
85A3
100
AcDbEntity
  8
DEFPOINTS
 62
     0
100
AcDbPoint
 10
5875.007222075442
 20
-4650.433234839771
 30
0.0
  0
ENDBLK
  5
85AE
330
85A3
100
AcDbEntity
  8
0
100
AcDbBlockEnd
  0
BLOCK
  5
8614
330
8609
100
AcDbEntity
  8
0
100
AcDbBlockBegin
  2
*D33
 70
     1
 10
0.0
 20
0.0
 30
0.0
  3
*D33
  1

  0
LINE
  5
862A
330
8609
100
AcDbEntity
  8
KOTIERUNG
 62
     0
370
    -2
100
AcDbLine
 10
5932.980489009426
 20
-4868.765367334252
 30
0.0
 11
5932.980489009426
 21
-4932.384856956502
 31
0.0
  0
LINE
  5
862B
330
8609
100
AcDbEntity
  8
KOTIERUNG
 62
     0
370
    -2
100
AcDbLine
 10
5882.9405074537
 20
-4870.766974816136
 30
0.0
 11
5882.9405074537
 21
-4932.384856956502
 31
0.0
  0
LINE
  5
862C
330
8609
100
AcDbEntity
  8
KOTIERUNG
 62
     0
370
    -2
100
AcDbLine
 10
5912.980489009425
 20
-4922.384856956501
 30
0.0
 11
5902.9405074537
 21
-4922.384856956501
 31
0.0
  0
LINE
  5
862D
330
8609
100
AcDbEntity
  8
KOTIERUNG
 62
     0
370
    -2
100
AcDbLine
 10
5882.9405074537
 20
-4922.384856956501
 30
0.0
 11
5862.9405074537
 21
-4922.384856956501
 31
0.0
  0
SOLID
  5
862E
330
8609
100
AcDbEntity
  8
KOTIERUNG
 62
     0
100
AcDbTrace
 10
5912.980489009425
 20
-4919.051523623169
 30
0.0
 11
5912.980489009425
 21
-4925.718190289835
 31
0.0
 12
5932.980489009426
 22
-4922.384856956501
 32
0.0
 13
5932.980489009426
 23
-4922.384856956501
 33
0.0
  0
SOLID
  5
862F
330
8609
100
AcDbEntity
  8
KOTIERUNG
 62
     0
100
AcDbTrace
 10
5902.9405074537
 20
-4919.051523623169
 30
0.0
 11
5902.9405074537
 21
-4925.718190289835
 31
0.0
 12
5882.9405074537
 22
-4922.384856956501
 32
0.0
 13
5882.9405074537
 23
-4922.384856956501
 33
0.0
  0
MTEXT
  5
8630
330
8609
100
AcDbEntity
  8
KOTIERUNG
 62
     0
100
AcDbMText
 10
5846.291803497356
 20
-4922.384856956501
 30
0.0
 40
25.0
 41
0.0
 71
     5
 72
     1
  1
\A1;50
 73
     1
 44
1.0
1001
ACAD
1000
MTEXTBEGIN
1070
    73
1070
     1
1070
    44
1040
1.0
1070
    74
1070
     0
1000
MTEXTEND
  0
POINT
  5
8631
330
8609
100
AcDbEntity
  8
DEFPOINTS
 62
     0
100
AcDbPoint
 10
5932.980489009426
 20
-4848.765367334252
 30
0.0
  0
POINT
  5
8632
330
8609
100
AcDbEntity
  8
DEFPOINTS
 62
     0
100
AcDbPoint
 10
5882.9405074537
 20
-4850.766974816136
 30
0.0
  0
POINT
  5
8633
330
8609
100
AcDbEntity
  8
DEFPOINTS
 62
     0
100
AcDbPoint
 10
5882.9405074537
 20
-4922.384856956501
 30
0.0
  0
ENDBLK
  5
8615
330
8609
100
AcDbEntity
  8
0
100
AcDbBlockEnd
  0
BLOCK
  5
87EA
330
87DF
100
AcDbEntity
  8
0
100
AcDbBlockBegin
  2
*D34
 70
     1
 10
0.0
 20
0.0
 30
0.0
  3
*D34
  1

  0
ARC
  5
87E0
330
87DF
100
AcDbEntity
  8
KOTIERUNG
 62
     0
370
    -2
100
AcDbCircle
 10
5777.105362655923
 20
-4855.000397992715
 30
0.0
 40
78.74388871774851
100
AcDbArc
 50
16.88246014779665
 51
30.17067013515661
  0
ARC
  5
87E1
330
87DF
100
AcDbEntity
  8
KOTIERUNG
 62
     0
370
    -2
100
AcDbCircle
 10
5777.105362655923
 20
-4855.000397992715
 30
0.0
 40
78.74388871774851
100
AcDbArc
 50
64.41056799770933
 51
77.69877798506934
  0
SOLID
  5
87E2
330
87DF
100
AcDbEntity
  8
KOTIERUNG
 62
     0
100
AcDbTrace
 10
5855.742373058543
 20
-4831.577318874899
 30
0.0
 11
5849.168805138567
 21
-4832.687566255392
 31
0.0
 12
5855.786331240033
 22
-4851.853146325076
 32
0.0
 13
5855.786331240033
 23
-4851.853146325076
 33
0.0
  0
SOLID
  5
87E3
330
87DF
100
AcDbEntity
  8
KOTIERUNG
 62
     0
100
AcDbTrace
 10
5793.591018189801
 20
-4781.385009898882
 30
0.0
 11
5794.172671001118
 21
-4774.743765704341
 31
0.0
 12
5773.958112011834
 22
-4776.319429367663
 32
0.0
 13
5773.958112011834
 23
-4776.319429367663
 33
0.0
  0
MTEXT
  5
87E4
330
87DF
100
AcDbEntity
  8
KOTIERUNG
 62
     0
100
AcDbMText
 10
5830.51576647214
 20
-4797.13910890768
 30
0.0
 40
25.0
 41
0.0
 71
     5
 72
     1
  1
\A1;90°
 11
0.7348035514531521
 21
-0.6782799870052446
 31
0.0
 73
     1
 44
1.0
1001
ACAD
1000
MTEXTBEGIN
1070
    73
1070
     1
1070
    44
1040
1.0
1070
    74
1070
     0
1000
MTEXTEND
  0
POINT
  5
87E5
330
87DF
100
AcDbEntity
  8
DEFPOINTS
 62
     0
100
AcDbPoint
 10
5843.671454592719
 20
-4812.934314093032
 30
0.0
  0
POINT
  5
87E6
330
87DF
100
AcDbEntity
  8
DEFPOINTS
 62
     0
100
AcDbPoint
 10
5777.105362655924
 20
-4855.000397992716
 30
0.0
  0
POINT
  5
87E7
330
87DF
100
AcDbEntity
  8
DEFPOINTS
 62
     0
100
AcDbPoint
 10
5554.283328138117
 20
-4863.913315974567
 30
0.0
  0
POINT
  5
87E8
330
87DF
100
AcDbEntity
  8
DEFPOINTS
 62
     0
100
AcDbPoint
 10
5932.980489009427
 20
-4848.765367334253
 30
0.0
  0
POINT
  5
87E9
330
87DF
100
AcDbEntity
  8
DEFPOINTS
 62
     0
100
AcDbPoint
 10
5718.741732716085
 20
-3395.915166008857
 30
0.0
  0
ENDBLK
  5
87EB
330
87DF
100
AcDbEntity
  8
0
100
AcDbBlockEnd
  0
BLOCK
  5
88FF
330
88FE
100
AcDbEntity
  8
0
100
AcDbBlockBegin
  2
_DotSmall
 70
     0
 10
0.0
 20
0.0
 30
0.0
  3
_DotSmall
  1

  0
LWPOLYLINE
  5
8900
330
88FE
100
AcDbEntity
  8
0
 62
     0
100
AcDbPolyline
 90
        2
 70
     1
 43
0.5
 10
-0.0625
 20
0.0
 42
1.0
 10
0.0625
 20
0.0
 42
1.0
  0
ENDBLK
  5
8901
330
88FE
100
AcDbEntity
  8
0
100
AcDbBlockEnd
  0
BLOCK
  5
89FF
330
89FE
100
AcDbEntity
  8
0
100
AcDbBlockBegin
  2
CD_A4
 70
     0
 10
0.0
 20
0.0
 30
0.0
  3
CD_A4
  1

  0
TEXT
  5
8A00
330
89FE
100
AcDbEntity
  8
0
 62
     7
100
AcDbText
 10
-18.52679228365312
 20
19.01704678811409
 30
0.0
 40
1.614703695530173
  1
.
  7
CD_ESV
100
AcDbText
  0
TEXT
  5
8A01
330
89FE
100
AcDbEntity
  8
0
 62
     7
100
AcDbText
 10
-27.82115967324094
 20
18.46491791305641
 30
0.0
 40
1.614703695530173
  1
V
  7
CD_ESV
100
AcDbText
  0
TEXT
  5
8A02
330
89FE
100
AcDbEntity
  8
0
 62
     7
100
AcDbText
 10
-26.11947845062557
 20
18.46491791305641
 30
0.0
 40
1.614703695530173
  1
O
  7
CD_ESV
100
AcDbText
  0
TEXT
  5
8A03
330
89FE
100
AcDbEntity
  8
0
 62
     7
100
AcDbText
 10
-23.98205622919395
 20
18.46491791305641
 30
0.0
 40
1.614703695530173
  1
R
  7
CD_ESV
100
AcDbText
  0
TEXT
  5
8A04
330
89FE
100
AcDbEntity
  8
0
 62
     7
100
AcDbText
 10
-22.08581701238902
 20
18.46491791305641
 30
0.0
 40
1.614703695530173
  1
A
  7
CD_ESV
100
AcDbText
  0
TEXT
  5
8A05
330
89FE
100
AcDbEntity
  8
0
 62
     7
100
AcDbText
 10
-20.2634094034847
 20
18.46491791305641
 30
0.0
 40
1.614703695530173
  1
U
  7
CD_ESV
100
AcDbText
  0
TEXT
  5
8A06
330
89FE
100
AcDbEntity
  8
0
 62
     7
100
AcDbText
 10
-18.22330695802432
 20
18.46491791305641
 30
0.0
 40
1.614703695530173
  1
S
  7
CD_ESV
100
AcDbText
  0
TEXT
  5
8A07
330
89FE
100
AcDbEntity
  8
0
 62
     7
100
AcDbText
 10
-16.58080808382581
 20
18.46491791305641
 30
0.0
 40
1.614703695530173
  1
.
  7
CD_ESV
100
AcDbText
  0
LWPOLYLINE
  5
8A08
330
89FE
100
AcDbEntity
  8
A4-BLATT
100
AcDbPolyline
 90
        4
 70
     1
 43
0.0
 10
-212.1350821386582
 20
4.464917913056408
 10
-2.135082138658248
 20
4.464917913056408
 10
-2.135082138658248
 20
301.4649179130564
 10
-212.1350821386582
 20
301.4649179130564
  0
MTEXT
  5
8A09
330
89FE
100
AcDbEntity
  8
LOGO
100
AcDbMText
 10
-198.1350821386582
 20
22.02701952438747
 30
0.0
 40
1.6
 41
78.84526418875953
 71
     7
 72
     5
  1
{\fArial Black|b0|i0|c0|p34;voestalpine Krems Finaltechnik GmbH}
 73
     1
 44
1.0
1001
ACAD
1000
ACAD_MTEXT_DEFINED_HEIGHT_BEGIN
1070
    46
1040
0.0
1000
ACAD_MTEXT_DEFINED_HEIGHT_END
1000
MTEXTBEGIN
1070
    73
1070
     1
1070
    44
1040
1.0
1070
    74
1070
     0
1000
MTEXTEND
  0
MTEXT
  5
8A0A
330
89FE
100
AcDbEntity
  8
LOGO
100
AcDbMText
 10
-198.1350821386582
 20
18.05449760196632
 30
0.0
 40
1.6
 41
78.84526418875953
 71
     7
 72
     5
  1
{\fArial|b0|i0|c0|p34;www.voestalpine.com/strassensicherheit}
 73
     1
 44
1.0
1001
ACAD
1000
ACAD_MTEXT_DEFINED_HEIGHT_BEGIN
1070
    46
1040
0.0
1000
ACAD_MTEXT_DEFINED_HEIGHT_END
1000
MTEXTBEGIN
1070
    73
1070
     1
1070
    44
1040
1.0
1070
    74
1070
     0
1000
MTEXTEND
  0
TEXT
  5
8A0B
330
89FE
100
AcDbEntity
  8
0
 62
   142
100
AcDbText
 10
-50.47586118658975
 20
23.16886981025519
 30
0.0
 40
5.129058797566433
  1
alpine
 41
1.129999999999999
  7
CD_VA2
100
AcDbText
  0
TEXT
  5
8A0C
330
89FE
100
AcDbEntity
  8
0
 62
     7
100
AcDbText
 10
-72.14749443958854
 20
23.12142625332164
 30
0.0
 40
5.129058797566433
  1
voest
 41
1.27
  7
CD_VA1
100
AcDbText
  0
TEXT
  5
8A0D
330
89FE
100
AcDbEntity
  8
0
 62
     7
100
AcDbText
 10
-50.18537645068673
 20
18.46491791305641
 30
0.0
 40
1.614703695530173
  1
E
  7
CD_ESV
100
AcDbText
  0
TEXT
  5
8A0E
330
89FE
100
AcDbEntity
  8
0
 62
     7
100
AcDbText
 10
-47.53239351756493
 20
18.46491791305641
 30
0.0
 40
1.614703695530173
  1
N
  7
CD_ESV
100
AcDbText
  0
TEXT
  5
8A0F
330
89FE
100
AcDbEntity
  8
0
 62
     7
100
AcDbText
 10
-45.3887891720046
 20
18.46491791305641
 30
0.0
 40
1.614703695530173
  1
E
  7
CD_ESV
100
AcDbText
  0
TEXT
  5
8A10
330
89FE
100
AcDbEntity
  8
0
 62
     7
100
AcDbText
 10
-43.57150552766793
 20
18.46491791305641
 30
0.0
 40
1.614703695530173
  1
N
  7
CD_ESV
100
AcDbText
  0
TEXT
  5
8A11
330
89FE
100
AcDbEntity
  8
0
 62
     7
100
AcDbText
 10
-40.54444762169376
 20
18.46491791305641
 30
0.0
 40
1.614703695530173
  1
S
  7
CD_ESV
100
AcDbText
  0
TEXT
  5
8A12
330
89FE
100
AcDbEntity
  8
0
 62
     7
100
AcDbText
 10
-38.6833890734587
 20
18.46491791305641
 30
0.0
 40
1.614703695530173
  1
C
  7
CD_ESV
100
AcDbText
  0
TEXT
  5
8A13
330
89FE
100
AcDbEntity
  8
0
 62
     7
100
AcDbText
 10
-36.57865966060124
 20
18.46491791305641
 30
0.0
 40
1.614703695530173
  1
H
 41
1.08
  7
CD_ESV
100
AcDbText
  0
TEXT
  5
8A14
330
89FE
100
AcDbEntity
  8
0
 62
     7
100
AcDbText
 10
-34.39681750871401
 20
18.46491791305641
 30
0.0
 40
1.614703695530173
  1
R
  7
CD_ESV
100
AcDbText
  0
TEXT
  5
8A15
330
89FE
100
AcDbEntity
  8
0
 62
     7
100
AcDbText
 10
-32.37413101265705
 20
18.46491791305641
 30
0.0
 40
1.614703695530173
  1
I
  7
CD_ESV
100
AcDbText
  0
TEXT
  5
8A16
330
89FE
100
AcDbEntity
  8
0
 62
     7
100
AcDbText
 10
-31.66925189695877
 20
18.46491791305641
 30
0.0
 40
1.614703695530173
  1
T
  7
CD_ESV
100
AcDbText
  0
TEXT
  5
8A17
330
89FE
100
AcDbEntity
  8
0
 62
     7
100
AcDbText
 10
-30.30865216702043
 20
18.46491791305641
 30
0.0
 40
1.614703695530173
  1
T
  7
CD_ESV
100
AcDbText
  0
TEXT
  5
8A18
330
89FE
100
AcDbEntity
  8
0
 62
     7
100
AcDbText
 10
-48.34564839841846
 20
18.46491791305641
 30
0.0
 40
1.614703695530173
  1
I
  7
CD_ESV
100
AcDbText
  0
ENDBLK
  5
8A19
330
89FE
100
AcDbEntity
  8
0
100
AcDbBlockEnd
  0
ENDSEC
  0
SECTION
  2
ENTITIES
  0
MTEXT
  5
10E0
330
18
100
AcDbEntity
  8
KOTIERUNG
100
AcDbMText
 10
7495.698312492914
 20
470.9395909145314
 30
0.0
 40
25.0
 41
0.0
 71
     4
 72
     1
  1
\A1;
  7
VOEST
 73
     1
 44
1.0
1001
ACAD
1000
MTEXTBEGIN
1070
    73
1070
     1
1070
    44
1040
1.0
1070
    74
1070
     0
1000
MTEXTEND
  0
MTEXT
  5
688D
330
18
100
AcDbEntity
  8
KOTIERUNG
100
AcDbMText
 10
8497.757017890956
 20
-3992.158941937873
 30
0.0
 40
25.0
 41
0.0
 71
     9
 72
     1
  1
\A1;
 73
     1
 44
1.0
1001
ACAD
1000
MTEXTBEGIN
1070
    73
1070
     1
1070
    44
1040
1.0
1070
    74
1070
     0
1000
MTEXTEND
  0
LWPOLYLINE
  5
68EC
330
18
100
AcDbEntity
  8
25
100
AcDbPolyline
 90
        3
 70
     0
 10
10874.0976456909
 20
-1187.193751995099
 40
0.0
 41
0.0
 10
9904.382888056989
 20
-1187.193751995099
 40
50.0
 41
0.0
 10
9820.849409350591
 20
-1187.193751995099
 40
0.0
 41
0.0
  0
TEXT
  5
68ED
330
18
100
AcDbEntity
  8
25
100
AcDbText
 10
9946.886793880265
 20
-1143.62735785744
 30
0.0
 40
125.0
  1
Fahrtrichtung
  7
ARIALFETT
100
AcDbText
  0
DIMENSION
  5
6C72
330
18
100
AcDbEntity
  8
KOTIERUNG
100
AcDbDimension
  2
*D8
 10
5593.668434961195
 20
-3665.129204911119
 30
0.0
 11
5589.671631126306
 21
-3565.209109038939
 31
0.0
 70
    32
 71
     5
 42
200.0000000000009
  3
VAKF
100
AcDbAlignedDimension
 13
5677.366662880348
 23
-3461.621339743201
 33
0.0
 14
5684.788481907768
 24
-3661.484403033254
 34
0.0
 50
92.29061004263956
100
AcDbRotatedDimension
1001
ACAD
1000
DSTYLE
1002
{
1070
    47
1040
10.0
1070
    48
1040
10.0
1070
    71
1070
     1
1070
   146
1040
0.75
1070
   279
1070
     1
1002
}
  0
LWPOLYLINE
  5
6C77
330
18
100
AcDbEntity
  8
KOTIERUNG
100
AcDbPolyline
 90
        2
 70
     0
 43
0.0
 10
5710.74812582723
 20
-3396.234911687745
 10
5824.657034322882
 20
-3391.678535350351
  0
LINE
  5
6C8E
330
18
100
AcDbEntity
  8
35
100
AcDbLine
 10
5742.482648706511
 20
-4189.596512071839
 30
0.0
 11
5752.47465829373
 21
-4439.396751752285
 31
0.0
  0
LINE
  5
6C8F
330
18
100
AcDbEntity
  8
35
100
AcDbLine
 10
5417.742337121945
 20
-4202.586124535222
 30
0.0
 11
5427.734346709163
 21
-4452.386364215668
 31
0.0
  0
LINE
  5
6C90
330
18
100
AcDbEntity
  8
35
100
AcDbLine
 10
5752.47465829373
 20
-4439.396751752285
 30
0.0
 11
5427.734346709163
 21
-4452.386364215668
 31
0.0
  0
LINE
  5
6C91
330
18
100
AcDbEntity
  8
35
100
AcDbLine
 10
5742.482648706511
 20
-4189.596512071839
 30
0.0
 11
5417.742337121945
 21
-4202.586124535222
 31
0.0
  0
ELLIPSE
  5
6CC9
330
18
100
AcDbEntity
  8
25
100
AcDbEllipse
 10
5703.345917477837
 20
-3660.742094580477
 30
0.0
 11
17.98561704019062
 21
0.719430110298978
 31
0.0
210
0.0
220
0.0
230
-0.9999999999999998
 40
0.8888888888888889
 41
0.0
 42
6.283185307179586
  0
ELLIPSE
  5
6CCA
330
18
100
AcDbEntity
  8
25
100
AcDbEllipse
 10
5695.352271853129
 20
-3460.901904354317
 30
0.0
 11
17.98561704019062
 21
0.719430110298978
 31
0.0
210
0.0
220
0.0
230
-0.9999999999999998
 40
0.8888888888888889
 41
0.0
 42
6.283185307179586
  0
DIMENSION
  5
6CD4
330
18
100
AcDbEntity
  8
KOTIERUNG
100
AcDbDimension
  2
*D11
 10
5585.674857185841
 20
-3465.289006542294
 30
0.0
 11
5546.572623909131
 21
-3417.319801579085
 31
0.0
 70
   160
 71
     5
 42
63.9999845848497
  3
VAKF
100
AcDbAlignedDimension
 13
5710.748125102288
 23
-3396.234911716744
 33
0.0
 14
5676.794843909973
 24
-3461.644207073327
 34
0.0
 50
92.29061004263956
100
AcDbRotatedDimension
1001
ACAD
1000
DSTYLE
1002
{
1070
    47
1040
10.0
1070
    48
1040
10.0
1070
    71
1070
     1
1070
   146
1040
0.75
1070
   279
1070
     1
1002
}
  0
LINE
  5
6CD7
330
18
100
AcDbEntity
  8
25
100
AcDbLine
 10
5777.105362655922
 20
-4855.000397992715
 30
0.0
 11
5718.741732716083
 21
-3395.915166008856
 31
0.0
  0
LINE
  5
6CD8
330
18
100
AcDbEntity
  8
25
100
AcDbLine
 10
5769.111755075751
 20
-4855.320143608966
 30
0.0
 11
5710.748125102288
 21
-3396.234911716744
 31
0.0
  0
LWPOLYLINE
  5
6CD9
330
18
100
AcDbEntity
  8
KOTIERUNG
100
AcDbPolyline
 90
        2
 70
     0
 43
0.0
 10
5883.020443854999
 20
-4850.763777346954
 10
5824.657033598949
 20
-3391.678535379308
  0
LINE
  5
6CDA
330
18
100
AcDbEntity
  8
25
100
AcDbLine
 10
5875.027055511038
 20
-4851.083514193721
 30
0.0
 11
5816.663425985176
 21
-3391.998281087195
 31
0.0
  0
DIMENSION
  5
6CE3
330
18
100
AcDbEntity
  8
KOTIERUNG
100
AcDbDimension
  2
*D9
 10
5119.193503028873
 20
-4974.991781941099
 30
0.0
 11
5119.193503028874
 21
-4217.946848497009
 31
0.0
 70
    32
  1
1500{\H0.75x;±40}
 71
     5
 42
1514.089866888179
  3
VAKF
100
AcDbAlignedDimension
 13
5695.35228013734
 23
-3460.90191505292
 33
0.0
 14
4882.620003934195
 24
-4974.991781941099
 34
0.0
 50
90.0
100
AcDbRotatedDimension
  0
LWPOLYLINE
  5
6CE6
102
{ACAD_REACTORS
330
6CF6
102
}
330
18
100
AcDbEntity
  8
35
100
AcDbPolyline
 90
        4
 70
     1
 43
0.0
 10
5933.580012042694
 20
-4863.753381616758
 10
5554.88285117138
 20
-4878.901330257075
 10
5554.283328138117
 20
-4863.913315974567
 10
5932.980489009426
 20
-4848.765367334252
  0
LINE
  5
6CE8
330
18
100
AcDbEntity
  8
18
100
AcDbLine
 10
5675.186641542918
 20
-4859.077118320922
 30
0.0
 11
5675.786161949119
 21
-4874.065132708511
 31
0.0
  0
LINE
  5
6CE9
330
18
100
AcDbEntity
  8
18
100
AcDbLine
 10
5703.164268399742
 20
-4857.958013562686
 30
0.0
 11
5703.763788805943
 21
-4872.946027950274
 31
0.0
  0
LINE
  5
6CEA
330
18
100
AcDbEntity
  8
18
100
AcDbLine
 10
5600.246569604976
 20
-4862.074720351931
 30
0.0
 11
5600.846090011178
 21
-4877.062734739521
 31
0.0
  0
LINE
  5
6CEB
330
18
100
AcDbEntity
  8
18
100
AcDbLine
 10
5628.224196461808
 20
-4860.955615593688
 30
0.0
 11
5628.823716868009
 21
-4875.943629981277
 31
0.0
  0
LINE
  5
6CEC
330
18
100
AcDbEntity
  8
18
100
AcDbLine
 10
5784.116006275528
 20
-4855.132108055457
 30
0.0
 11
5784.715526681728
 21
-4870.120122443046
 31
0.0
  0
LINE
  5
6CED
330
18
100
AcDbEntity
  8
18
100
AcDbLine
 10
5798.104819703944
 20
-4854.572555676336
 30
0.0
 11
5798.704340110144
 21
-4869.560570063924
 31
0.0
  0
DIMENSION
  5
6CEE
330
18
100
AcDbEntity
  8
KOTIERUNG
100
AcDbDimension
  2
*D12
 10
5190.368313023006
 20
-4974.991781941099
 30
0.0
 11
5190.368313023006
 21
-4422.230736951944
 31
0.0
 70
   160
 71
     5
 42
870.0
  3
VAKF
100
AcDbAlignedDimension
 13
5355.701637281519
 23
-4104.991781941098
 33
0.0
 14
4882.620003934195
 24
-4974.991781941099
 34
0.0
 50
90.0
100
AcDbRotatedDimension
1001
ACAD
1000
DSTYLE
1002
{
1070
    47
1040
40.0
1070
    48
1040
40.0
1070
    71
1070
     1
1070
   146
1040
0.75
1002
}
  0
DIMENSION
  5
6CF4
102
{ACAD_XDICTIONARY
360
6CF5
102
}
102
{ACAD_REACTORS
330
6CF6
102
}
330
18
100
AcDbEntity
  8
KOTIERUNG
100
AcDbDimension
  2
*D13
 10
5932.980489009426
 20
-3874.440132887918
 30
0.0
 11
5600.30024647181
 21
-3874.440132887918
 31
0.0
 70
   160
 71
     5
 42
665.3604850752308
  3
VAKF
100
AcDbAlignedDimension
 13
5267.620003934195
 23
-4201.467019461444
 33
0.0
 14
5932.980489009426
 24
-4848.765367334252
 34
0.0
100
AcDbRotatedDimension
1001
ACAD
1000
DSTYLE
1002
{
1070
    47
1040
20.0
1070
    48
1040
20.0
1070
    71
1070
     1
1070
   146
1040
0.75
1002
}
  0
LWPOLYLINE
  5
6CFB
330
18
100
AcDbEntity
  8
35
100
AcDbPolyline
 90
       12
 70
     1
 43
0.0
 10
5927.717313418096
 20
-5337.517729859737
 42
0.236067977499804
 10
5927.717313418096
 20
-5283.852098399741
 10
5852.717313418096
 20
-5133.85209839974
 42
0.2840790438404168
 10
5799.051681958099
 20
-5100.684914129739
 10
5689.051681958098
 20
-5100.684914129739
 42
0.2840790438404123
 10
5635.386050498102
 20
-5133.85209839974
 10
5560.386050498102
 20
-5283.852098399741
 42
0.2360679774998042
 10
5560.386050498102
 20
-5337.517729859737
 10
5635.386050498102
 20
-5487.517729859737
 42
0.2840790438405397
 10
5689.051681958128
 20
-5520.684914129775
 10
5799.051681958069
 20
-5520.684914129775
 42
0.2840790438405396
 10
5852.717313418096
 20
-5487.517729859737
  0
LWPOLYLINE
  5
6CFC
330
18
100
AcDbEntity
  8
35
100
AcDbPolyline
 90
       16
 70
     1
 43
0.0
 10
5777.051681958099
 20
-5250.684914129746
 10
5769.051681958099
 20
-5250.684914129746
 10
5769.051681958099
 20
-5370.684914129746
 10
5777.051681958099
 20
-5370.684914129746
 10
5777.051681958099
 20
-5325.184914129746
 42
-0.4142135623730857
 10
5789.051681958099
 20
-5313.184914129746
 10
5863.051681958106
 20
-5313.184914129746
 42
-0.4142135623731043
 10
5875.051681958106
 20
-5325.184914129746
 10
5875.051681958098
 20
-5370.684914129746
 10
5883.051681958099
 20
-5370.684914129746
 10
5883.051681958099
 20
-5250.684914129746
 10
5875.051681958098
 20
-5250.684914129746
 10
5875.051681958098
 20
-5296.184914129746
 42
-0.4142135623731229
 10
5863.051681958099
 20
-5308.184914129746
 10
5789.051681958099
 20
-5308.184914129746
 42
-0.4142135623730766
 10
5777.051681958099
 20
-5296.184914129746
  0
LWPOLYLINE
  5
6D00
330
18
100
AcDbEntity
  8
18
100
AcDbPolyline
 90
        5
 70
     0
 43
0.0
 10
5798.051681958099
 20
-5308.184914129746
 10
5798.051681958099
 20
-5303.684914129739
 42
0.4142135623730951
 10
5791.051681958099
 20
-5296.684914129738
 42
0.4142135623730951
 10
5784.051681958099
 20
-5303.684914129739
 10
5784.051681958099
 20
-5307.093626244383
  0
LWPOLYLINE
  5
6D01
330
18
100
AcDbEntity
  8
18
100
AcDbPolyline
 90
        6
 70
     0
 43
0.0
 10
5784.051681958099
 20
-5314.276202015109
 10
5784.051681958099
 20
-5317.684914129738
 42
0.4142135623730951
 10
5791.051681958099
 20
-5324.684914129739
 10
5791.051681958099
 20
-5324.684914129739
 42
0.4142135623730951
 10
5798.051681958099
 20
-5317.684914129738
 10
5798.051681958099
 20
-5313.184914129746
  0
DIMENSION
  5
6D06
330
18
100
AcDbEntity
  8
KOTIERUNG
100
AcDbDimension
  2
*D10
 10
6014.206262196014
 20
-5520.684914129777
 30
0.0
 11
6014.206262196015
 21
-5310.684914129757
 31
0.0
 70
    32
 71
     5
 42
420.0000000000382
  3
VAKF
100
AcDbAlignedDimension
 13
5799.051681958101
 23
-5100.684914129739
 33
0.0
 14
5799.051681958069
 24
-5520.684914129777
 34
0.0
 50
90.0
100
AcDbRotatedDimension
  0
DIMENSION
  5
6D0A
330
18
100
AcDbEntity
  8
KOTIERUNG
100
AcDbDimension
  2
*D15
 10
5964.70435367665
 20
-5310.684914129739
 30
0.0
 11
5964.704353676651
 21
-5235.639914129738
 31
0.0
 70
    32
 71
     5
 42
150.0900000000019
  3
VAKF
100
AcDbAlignedDimension
 13
5689.051681958098
 23
-5160.594914129737
 33
0.0
 14
5614.051681958098
 24
-5310.684914129739
 34
0.0
 50
90.0
100
AcDbRotatedDimension
  0
DIMENSION
  5
6D0D
330
18
100
AcDbEntity
  8
KOTIERUNG
100
AcDbDimension
  2
*D16
 10
5964.70435367665
 20
-5460.684914129739
 30
0.0
 11
5964.704353676651
 21
-5385.684914129738
 31
0.0
 70
    32
 71
     5
 42
150.0
  3
VAKF
100
AcDbAlignedDimension
 13
5614.051681958098
 23
-5310.684914129739
 33
0.0
 14
5689.051681958098
 24
-5460.684914129739
 34
0.0
 50
90.0
100
AcDbRotatedDimension
  0
DIMENSION
  5
6D19
330
18
100
AcDbEntity
  8
KOTIERUNG
100
AcDbDimension
  2
*D17
 10
5267.620003934196
 20
-4717.009256919657
 30
0.0
 11
5075.120003934196
 21
-4717.009256919657
 31
0.0
 70
   160
 71
     5
 42
385.0
  3
VAKF
100
AcDbAlignedDimension
 13
4882.620003934196
 23
-4974.991781941099
 33
0.0
 14
5267.620003934196
 24
-4201.467019461445
 34
0.0
100
AcDbRotatedDimension
  0
DIMENSION
  5
6D1C
330
18
100
AcDbEntity
  8
KOTIERUNG
100
AcDbDimension
  2
*D18
 10
5614.834903531591
 20
-4789.42984802465
 30
0.0
 11
5228.831628184652
 21
-4789.42984802465
 31
0.0
 70
   160
 71
     5
 42
732.2148995973966
  3
VAKF
100
AcDbAlignedDimension
 13
4882.620003934195
 23
-4974.991781941099
 33
0.0
 14
5614.834903531591
 24
-4876.503185957203
 34
0.0
100
AcDbRotatedDimension
  0
LWPOLYLINE
  5
7562
330
18
100
AcDbEntity
  8
18
100
AcDbPolyline
 90
       10
 70
     0
 43
0.0
 10
12184.67586606447
 20
-470.1194475529759
 10
12184.67586606447
 20
-437.6939240094457
 10
12184.67586606447
 20
-382.6939240094748
 42
-0.2840790438405396
 10
12217.84305033451
 20
-329.0282925494498
 10
12367.84305033451
 20
-254.0282925494498
 42
-0.2360679774998041
 10
12421.5086817945
 20
-254.0282925494498
 10
12571.5086817945
 20
-329.0282925494498
 42
-0.2840790438404168
 10
12604.6758660645
 20
-382.6939240094466
 10
12604.6758660645
 20
-437.6939240094466
 10
12604.6758660645
 20
-470.1194475529759
  0
LWPOLYLINE
  5
7563
330
18
100
AcDbEntity
  8
18
100
AcDbPolyline
 90
        3
 70
     0
 43
0.0
 10
12603.15454364312
 20
-506.1194321434363
 42
-0.2240078764315906
 10
12571.50868179447
 20
-546.3595554694434
 10
12556.07879697446
 20
-554.0744978794459
  0
LWPOLYLINE
  5
7564
330
18
100
AcDbEntity
  8
18
100
AcDbPolyline
 90
        4
 70
     0
 43
0.0
 10
12551.51762306099
 20
-556.3550848361797
 10
12421.50868179447
 20
-621.3595554694434
 42
-0.2360679774998041
 10
12367.84305033447
 20
-621.3595554694434
 10
12243.44088119426
 20
-559.1584708993391
  0
LWPOLYLINE
  5
7565
330
18
100
AcDbEntity
  8
18
100
AcDbPolyline
 90
        3
 70
     0
 43
0.0
 10
12238.89135808236
 20
-556.883709343389
 10
12217.84305033447
 20
-546.3595554694434
 42
-0.2240078764315844
 10
12186.19718848585
 20
-506.1194321434355
  0
CIRCLE
  5
7566
330
18
100
AcDbEntity
  8
18
100
AcDbCircle
 10
12394.67586606447
 20
-567.0122415744668
 30
0.0
 40
11.0
  0
LINE
  5
7567
330
18
100
AcDbEntity
  8
35
100
AcDbLine
 10
13093.93608651034
 20
-913.4439165103922
 30
0.0
 11
7825.231680467362
 21
-913.4439165103897
 31
0.0
  0
LINE
  5
7568
330
18
100
AcDbEntity
  8
35
100
AcDbLine
 10
13093.93608651033
 20
-823.4770172744863
 30
0.0
 11
7842.859740756079
 21
-823.4770172744841
 31
0.0
  0
LWPOLYLINE
  5
7569
330
18
100
AcDbEntity
  8
25
100
AcDbPolyline
 90
       16
 70
     1
 43
0.0
 10
12454.6758660645
 20
-462.119447552976
 10
12454.6758660645
 20
-470.1194475529759
 10
12334.6758660645
 20
-470.1194475529759
 10
12334.6758660645
 20
-462.119447552976
 10
12380.1758660645
 20
-462.119447552976
 42
0.4157891313627406
 10
12392.1758660645
 20
-450.2105654900646
 10
12392.1758660645
 20
-376.2105654900574
 42
0.4142135623731043
 10
12380.1758660645
 20
-364.2105654900575
 10
12334.6758660645
 20
-364.2105654900647
 10
12334.6758660645
 20
-356.2105654900647
 10
12454.6758660645
 20
-356.2105654900647
 10
12454.6758660645
 20
-364.2105654900647
 10
12409.1758660645
 20
-364.2105654900647
 42
0.4142135623731229
 10
12397.1758660645
 20
-376.2105654900647
 10
12397.1758660645
 20
-450.2105654900646
 42
0.4157891313627315
 10
12409.1758660645
 20
-462.119447552976
  0
LINE
  5
756A
330
18
100
AcDbEntity
  8
18
100
AcDbLine
 10
12454.6758660645
 20
-404.6939240094466
 30
0.0
 11
12454.6758660645
 21
-462.119447552976
 31
0.0
  0
LINE
  5
756B
330
18
100
AcDbEntity
  8
18
100
AcDbLine
 10
12334.6758660645
 20
-462.119447552976
 30
0.0
 11
12334.6758660645
 21
-404.6939240094466
 31
0.0
  0
LINE
  5
756C
330
18
100
AcDbEntity
  8
18
100
AcDbLine
 10
12334.6758660645
 20
-404.6939240094466
 30
0.0
 11
12380.1758660645
 21
-404.6939240094466
 31
0.0
  0
ARC
  5
756D
330
18
100
AcDbEntity
  8
18
100
AcDbCircle
 10
12380.1758660645
 20
-392.6939240094466
 30
0.0
 40
12.0
100
AcDbArc
 50
270.0
 51
0.0
  0
LINE
  5
756E
330
18
100
AcDbEntity
  8
18
100
AcDbLine
 10
12334.6758660645
 20
-356.2105654900647
 30
0.0
 11
12334.6758660645
 21
-298.6939240094466
 31
0.0
  0
LINE
  5
756F
330
18
100
AcDbEntity
  8
18
100
AcDbLine
 10
12334.6758660645
 20
-298.6939240094466
 30
0.0
 11
12454.6758660645
 21
-298.6939240094466
 31
0.0
  0
LINE
  5
7570
330
18
100
AcDbEntity
  8
18
100
AcDbLine
 10
12454.6758660645
 20
-298.6939240094466
 30
0.0
 11
12454.6758660645
 21
-356.2105654900647
 31
0.0
  0
ARC
  5
7571
330
18
100
AcDbEntity
  8
18
100
AcDbCircle
 10
12409.1758660645
 20
-392.6939240094457
 30
0.0
 40
12.0000000000004
100
AcDbArc
 50
180.0
 51
270.0
  0
LINE
  5
7572
330
18
100
AcDbEntity
  8
18
100
AcDbLine
 10
12409.1758660645
 20
-404.6939240094466
 30
0.0
 11
12454.6758660645
 21
-404.6939240094466
 31
0.0
  0
LINE
  5
7573
330
18
100
AcDbEntity
  8
35
100
AcDbLine
 10
12339.67586606452
 20
-765.5198159954438
 30
0.0
 11
12339.67586606452
 21
-823.4770172744834
 31
0.0
  0
LINE
  5
7574
330
18
100
AcDbEntity
  8
35
100
AcDbLine
 10
12449.67586606452
 20
-765.5198159954438
 30
0.0
 11
12449.67586606452
 21
-823.4770172744834
 31
0.0
  0
DIMENSION
  5
7575
330
18
100
AcDbEntity
  8
KOTIERUNG
100
AcDbDimension
  2
*D19
 10
11061.34253406451
 20
-77.82107090936779
 30
0.0
 11
11714.59279269951
 21
-77.82107090936779
 31
0.0
 70
   160
 71
     5
 42
1333.333332999999
  3
ISO-25
100
AcDbAlignedDimension
 13
12394.6758670645
 23
-247.693924009443
 33
0.0
 14
11061.34253406451
 24
-247.693924009443
 34
0.0
 50
180.0
100
AcDbRotatedDimension
1001
ACAD
1000
DSTYLE
1002
{
1070
    40
1040
40.0
1070
    47
1040
7.0
1070
    48
1040
7.0
1070
   271
1070
     0
1002
}
  0
DIMENSION
  5
7576
330
18
100
AcDbEntity
  8
KOTIERUNG
100
AcDbDimension
  2
*D20
 10
9728.009201064507
 20
-77.82107090936688
 30
0.0
 11
10394.6758675645
 21
-1.763772137197705
 31
0.0
 70
    32
 71
     5
 42
1333.333333000002
  3
ISO-25
100
AcDbAlignedDimension
 13
11061.34253406451
 23
-247.693924009443
 33
0.0
 14
9728.009201064507
 24
-247.6939240094421
 34
0.0
 50
180.0
100
AcDbRotatedDimension
1001
ACAD
1000
DSTYLE
1002
{
1070
    40
1040
40.0
1070
    47
1040
7.0
1070
    48
1040
7.0
1070
   271
1070
     0
1002
}
  0
DIMENSION
  5
7577
330
18
100
AcDbEntity
  8
KOTIERUNG
100
AcDbDimension
  2
*D21
 10
8394.675868064508
 20
-77.82107090936597
 30
0.0
 11
9061.342534564508
 21
-1.763772137196795
 31
0.0
 70
    32
 71
     5
 42
1333.333332999999
  3
ISO-25
100
AcDbAlignedDimension
 13
9728.009201064507
 23
-247.6939240094421
 33
0.0
 14
8394.675868064508
 24
-247.6939240094412
 34
0.0
 50
180.0
100
AcDbRotatedDimension
1001
ACAD
1000
DSTYLE
1002
{
1070
    40
1040
40.0
1070
    47
1040
7.0
1070
    48
1040
7.0
1070
   271
1070
     0
1002
}
  0
DIMENSION
  5
7578
330
18
100
AcDbEntity
  8
KOTIERUNG
100
AcDbDimension
  2
*D22
 10
8394.675868064508
 20
182.290404824545
 30
0.0
 11
10394.6758675645
 21
258.3477035967142
 31
0.0
 70
    32
 71
     5
 42
3999.999999
  3
ISO-25
100
AcDbAlignedDimension
 13
12394.6758670645
 23
-247.693924009443
 33
0.0
 14
8394.675868064508
 24
-247.6939240094412
 34
0.0
 50
180.0
100
AcDbRotatedDimension
1001
ACAD
1000
DSTYLE
1002
{
1070
    40
1040
40.0
1070
    47
1040
7.0
1070
    48
1040
7.0
1070
    71
1070
     1
1002
}
  0
LINE
  5
757F
330
18
100
AcDbEntity
  8
35
100
AcDbLine
 10
13093.93608651033
 20
-506.1194321434368
 30
0.0
 11
9142.255850425245
 21
-506.1194321434345
 31
0.0
  0
LINE
  5
7580
330
18
100
AcDbEntity
  8
35
100
AcDbLine
 10
8900.255850425244
 20
-506.1194321434345
 30
0.0
 11
7905.042595686997
 21
-506.1194321434337
 31
0.0
  0
LINE
  5
7581
330
18
100
AcDbEntity
  8
35
100
AcDbLine
 10
13093.93608651033
 20
-470.1194475529764
 30
0.0
 11
9142.255850425245
 21
-470.1194475529741
 31
0.0
  0
LINE
  5
7582
330
18
100
AcDbEntity
  8
35
100
AcDbLine
 10
8900.25585042524
 20
-470.1194475529741
 30
0.0
 11
7912.096411080695
 21
-470.1194475529734
 31
0.0
  0
ARC
  5
7586
330
18
100
AcDbEntity
  8
25
100
AcDbCircle
 10
12387.35466584585
 20
-600.5198159954293
 30
0.0
 40
175.000000000001
100
AcDbArc
 50
293.8955081862299
 51
32.64489694839163
  0
LINE
  5
7587
330
18
100
AcDbEntity
  8
25
100
AcDbLine
 10
12458.24190023956
 20
-760.519815995462
 30
0.0
 11
12342.17586606462
 21
-760.5198159954547
 31
0.0
  0
LINE
  5
7589
330
18
100
AcDbEntity
  8
25
100
AcDbLine
 10
12452.17586606451
 20
-760.5198159954402
 30
0.0
 11
12337.17586606449
 21
-760.5198159954402
 31
0.0
  0
ARC
  5
758A
330
18
100
AcDbEntity
  8
25
100
AcDbCircle
 10
12406.9970662833
 20
-605.5198159954329
 30
0.0
 40
169.9999999999956
100
AcDbArc
 50
144.2176258613281
 51
245.7503713975566
  0
LINE
  5
758D
330
18
100
AcDbEntity
  8
25
100
AcDbLine
 10
12438.6758660645
 20
-515.6917157287239
 30
0.0
 11
12438.6758660645
 21
-470.0601948571252
 31
0.0
  0
LINE
  5
758E
330
18
100
AcDbEntity
  8
25
100
AcDbLine
 10
12420.6758660645
 20
-515.6917157287239
 30
0.0
 11
12420.6758660645
 21
-470.0601948571252
 31
0.0
  0
ARC
  5
758F
330
18
100
AcDbEntity
  8
25
100
AcDbCircle
 10
12429.6758660645
 20
-515.6917157287239
 30
0.0
 40
9.000000000000003
100
AcDbArc
 50
180.0
 51
0.0
  0
LINE
  5
7590
330
18
100
AcDbEntity
  8
25
100
AcDbLine
 10
12350.6758660645
 20
-515.6917157287239
 30
0.0
 11
12350.6758660645
 21
-470.0601948571252
 31
0.0
  0
LINE
  5
7591
330
18
100
AcDbEntity
  8
25
100
AcDbLine
 10
12368.6758660645
 20
-515.6917157287239
 30
0.0
 11
12368.6758660645
 21
-470.0601948571252
 31
0.0
  0
ARC
  5
7592
330
18
100
AcDbEntity
  8
25
100
AcDbCircle
 10
12359.6758660645
 20
-515.6917157287239
 30
0.0
 40
9.000000000000003
100
AcDbArc
 50
180.0
 51
0.0
  0
LWPOLYLINE
  5
7596
330
18
100
AcDbEntity
  8
25
100
AcDbPolyline
 90
        2
 70
     0
 43
0.0
 10
12334.6758660645
 20
-446.4321352968458
 42
0.0762059792833271
 10
12292.7262338109
 20
-470.119447552975
 42
0.0762059792833271
  0
LWPOLYLINE
  5
7597
330
18
100
AcDbEntity
  8
25
100
AcDbPolyline
 90
        3
 70
     0
 43
0.0
 10
12454.6758660645
 20
-440.8592011001679
 10
12458.24190023963
 20
-440.8971334351285
 42
-0.0910589647763963
 10
12507.67337612208
 20
-470.119447552975
 42
-0.0910589647763963
  0
LWPOLYLINE
  5
7598
330
18
100
AcDbEntity
  8
18
100
AcDbPolyline
 90
       10
 70
     0
 43
0.0
 10
10851.34253306448
 20
-470.1194475529842
 10
10851.34253306448
 20
-437.6939240094539
 10
10851.34253306448
 20
-382.693924009483
 42
-0.2840790438405396
 10
10884.50971733452
 20
-329.0282925494571
 10
11034.50971733452
 20
-254.0282925494571
 42
-0.2360679774998041
 10
11088.17534879451
 20
-254.0282925494571
 10
11238.17534879451
 20
-329.0282925494571
 42
-0.2840790438404168
 10
11271.34253306451
 20
-382.6939240094548
 10
11271.34253306451
 20
-437.6939240094547
 10
11271.34253306451
 20
-470.1194475529842
  0
LWPOLYLINE
  5
7599
330
18
100
AcDbEntity
  8
18
100
AcDbPolyline
 90
        3
 70
     0
 43
0.0
 10
11269.82121064313
 20
-506.1194321434436
 42
-0.2240078764315906
 10
11238.17534879448
 20
-546.3595554694506
 10
11222.74546397447
 20
-554.0744978794541
  0
LWPOLYLINE
  5
759A
330
18
100
AcDbEntity
  8
18
100
AcDbPolyline
 90
        4
 70
     0
 43
0.0
 10
11218.184290061
 20
-556.3550848361869
 10
11088.17534879448
 20
-621.3595554694506
 42
-0.2360679774998041
 10
11034.50971733448
 20
-621.3595554694506
 10
10910.10754819427
 20
-559.1584708993472
  0
LWPOLYLINE
  5
759B
330
18
100
AcDbEntity
  8
18
100
AcDbPolyline
 90
        3
 70
     0
 43
0.0
 10
10905.55802508237
 20
-556.8837093433963
 10
10884.50971733448
 20
-546.3595554694506
 42
-0.2240078764315844
 10
10852.86385548586
 20
-506.1194321434436
  0
CIRCLE
  5
759C
330
18
100
AcDbEntity
  8
18
100
AcDbCircle
 10
11061.34253306448
 20
-567.012241574474
 30
0.0
 40
11.0
  0
LWPOLYLINE
  5
759D
330
18
100
AcDbEntity
  8
25
100
AcDbPolyline
 90
       16
 70
     1
 43
0.0
 10
11121.34253306451
 20
-462.1194475529842
 10
11121.34253306451
 20
-470.1194475529842
 10
11001.34253306451
 20
-470.1194475529842
 10
11001.34253306451
 20
-462.1194475529842
 10
11046.84253306451
 20
-462.1194475529842
 42
0.4157891313627406
 10
11058.84253306451
 20
-450.2105654900729
 10
11058.84253306451
 20
-376.2105654900656
 42
0.4142135623731043
 10
11046.84253306451
 20
-364.2105654900656
 10
11001.34253306451
 20
-364.2105654900729
 10
11001.34253306451
 20
-356.2105654900729
 10
11121.34253306451
 20
-356.2105654900729
 10
11121.34253306451
 20
-364.2105654900729
 10
11075.84253306451
 20
-364.2105654900729
 42
0.4142135623731229
 10
11063.84253306451
 20
-376.2105654900729
 10
11063.84253306451
 20
-450.2105654900729
 42
0.4157891313627315
 10
11075.84253306451
 20
-462.1194475529842
  0
LINE
  5
759E
330
18
100
AcDbEntity
  8
18
100
AcDbLine
 10
11121.34253306451
 20
-404.6939240094538
 30
0.0
 11
11121.34253306451
 21
-462.1194475529842
 31
0.0
  0
LINE
  5
759F
330
18
100
AcDbEntity
  8
18
100
AcDbLine
 10
11001.34253306451
 20
-462.1194475529842
 30
0.0
 11
11001.34253306451
 21
-404.6939240094538
 31
0.0
  0
LINE
  5
75A0
330
18
100
AcDbEntity
  8
18
100
AcDbLine
 10
11001.34253306451
 20
-404.6939240094538
 30
0.0
 11
11046.84253306451
 21
-404.6939240094538
 31
0.0
  0
ARC
  5
75A1
330
18
100
AcDbEntity
  8
18
100
AcDbCircle
 10
11046.84253306451
 20
-392.6939240094539
 30
0.0
 40
12.0
100
AcDbArc
 50
270.0
 51
0.0
  0
LINE
  5
75A2
330
18
100
AcDbEntity
  8
18
100
AcDbLine
 10
11001.34253306451
 20
-356.2105654900729
 30
0.0
 11
11001.34253306451
 21
-298.6939240094539
 31
0.0
  0
LINE
  5
75A3
330
18
100
AcDbEntity
  8
18
100
AcDbLine
 10
11001.34253306451
 20
-298.6939240094539
 30
0.0
 11
11121.34253306451
 21
-298.6939240094539
 31
0.0
  0
LINE
  5
75A4
330
18
100
AcDbEntity
  8
18
100
AcDbLine
 10
11121.34253306451
 20
-298.6939240094539
 30
0.0
 11
11121.34253306451
 21
-356.2105654900729
 31
0.0
  0
ARC
  5
75A5
330
18
100
AcDbEntity
  8
18
100
AcDbCircle
 10
11075.84253306451
 20
-392.6939240094539
 30
0.0
 40
12.0000000000004
100
AcDbArc
 50
180.0
 51
270.0
  0
LINE
  5
75A6
330
18
100
AcDbEntity
  8
18
100
AcDbLine
 10
11075.84253306451
 20
-404.6939240094538
 30
0.0
 11
11121.34253306451
 21
-404.6939240094538
 31
0.0
  0
LINE
  5
75A7
330
18
100
AcDbEntity
  8
35
100
AcDbLine
 10
11006.34253306453
 20
-765.5198159954521
 30
0.0
 11
11006.34253306453
 21
-823.4770172744916
 31
0.0
  0
LINE
  5
75A8
330
18
100
AcDbEntity
  8
35
100
AcDbLine
 10
11116.34253306453
 20
-765.5198159954521
 30
0.0
 11
11116.34253306453
 21
-823.4770172744916
 31
0.0
  0
ARC
  5
75AC
330
18
100
AcDbEntity
  8
25
100
AcDbCircle
 10
11054.02133284586
 20
-600.5198159954375
 30
0.0
 40
175.000000000001
100
AcDbArc
 50
293.8955081862299
 51
32.64489694839163
  0
LINE
  5
75AD
330
18
100
AcDbEntity
  8
25
100
AcDbLine
 10
11124.90856723957
 20
-760.5198159954702
 30
0.0
 11
11008.84253306463
 21
-760.5198159954629
 31
0.0
  0
LINE
  5
75AF
330
18
100
AcDbEntity
  8
25
100
AcDbLine
 10
11118.84253306452
 20
-760.5198159954484
 30
0.0
 11
11003.8425330645
 21
-760.5198159954484
 31
0.0
  0
ARC
  5
75B0
330
18
100
AcDbEntity
  8
25
100
AcDbCircle
 10
11073.66373328331
 20
-605.5198159954411
 30
0.0
 40
169.9999999999956
100
AcDbArc
 50
144.2176258613281
 51
245.7503713975566
  0
LINE
  5
75B3
330
18
100
AcDbEntity
  8
25
100
AcDbLine
 10
11105.34253306451
 20
-515.691715728732
 30
0.0
 11
11105.34253306451
 21
-470.0601948571334
 31
0.0
  0
LINE
  5
75B4
330
18
100
AcDbEntity
  8
25
100
AcDbLine
 10
11087.34253306451
 20
-515.691715728732
 30
0.0
 11
11087.34253306451
 21
-470.0601948571334
 31
0.0
  0
ARC
  5
75B5
330
18
100
AcDbEntity
  8
25
100
AcDbCircle
 10
11096.34253306451
 20
-515.691715728732
 30
0.0
 40
9.000000000000003
100
AcDbArc
 50
180.0
 51
0.0
  0
LINE
  5
75B6
330
18
100
AcDbEntity
  8
25
100
AcDbLine
 10
11017.34253306451
 20
-515.691715728732
 30
0.0
 11
11017.34253306451
 21
-470.0601948571334
 31
0.0
  0
LINE
  5
75B7
330
18
100
AcDbEntity
  8
25
100
AcDbLine
 10
11035.34253306451
 20
-515.691715728732
 30
0.0
 11
11035.34253306451
 21
-470.0601948571334
 31
0.0
  0
ARC
  5
75B8
330
18
100
AcDbEntity
  8
25
100
AcDbCircle
 10
11026.34253306451
 20
-515.691715728732
 30
0.0
 40
9.000000000000003
100
AcDbArc
 50
180.0
 51
0.0
  0
LWPOLYLINE
  5
75BB
330
18
100
AcDbEntity
  8
25
100
AcDbPolyline
 90
        2
 70
     0
 43
0.0
 10
11001.34253306451
 20
-446.4321352968531
 42
0.0762059792833271
 10
10959.39290081092
 20
-470.1194475529823
 42
0.0762059792833271
  0
LWPOLYLINE
  5
75BC
330
18
100
AcDbEntity
  8
25
100
AcDbPolyline
 90
        3
 70
     0
 43
0.0
 10
11121.34253306451
 20
-440.859201100176
 10
11124.90856723964
 20
-440.8971334351368
 42
-0.0910589647763963
 10
11174.34004312209
 20
-470.1194475529832
 42
-0.0910589647763963
  0
LWPOLYLINE
  5
75BD
330
18
100
AcDbEntity
  8
18
100
AcDbPolyline
 90
       10
 70
     0
 43
0.0
 10
9518.009200064481
 20
-470.119447552975
 10
9518.009200064481
 20
-437.6939240094448
 10
9518.009200064481
 20
-382.6939240094739
 42
-0.2840790438405396
 10
9551.176384334517
 20
-329.028292549448
 10
9701.176384334518
 20
-254.028292549448
 42
-0.2360679774998041
 10
9754.842015794515
 20
-254.028292549448
 10
9904.842015794514
 20
-329.028292549448
 42
-0.2840790438404168
 10
9938.009200064517
 20
-382.6939240094448
 10
9938.009200064517
 20
-437.6939240094448
 10
9938.009200064517
 20
-470.119447552975
  0
LWPOLYLINE
  5
75BE
330
18
100
AcDbEntity
  8
18
100
AcDbPolyline
 90
        3
 70
     0
 43
0.0
 10
9936.487877643131
 20
-506.1194321434345
 42
-0.2240078764315906
 10
9904.842015794478
 20
-546.3595554694416
 10
9889.412130974474
 20
-554.074497879445
  0
LWPOLYLINE
  5
75BF
330
18
100
AcDbEntity
  8
18
100
AcDbPolyline
 90
        4
 70
     0
 43
0.0
 10
9884.850957061008
 20
-556.3550848361778
 10
9754.84201579448
 20
-621.3595554694416
 42
-0.2360679774998041
 10
9701.176384334482
 20
-621.3595554694416
 10
9576.774215194275
 20
-559.1584708993382
  0
LWPOLYLINE
  5
75C0
330
18
100
AcDbEntity
  8
18
100
AcDbPolyline
 90
        3
 70
     0
 43
0.0
 10
9572.224692082375
 20
-556.8837093433871
 10
9551.176384334482
 20
-546.3595554694416
 42
-0.2240078764315844
 10
9519.53052248586
 20
-506.1194321434345
  0
CIRCLE
  5
75C1
330
18
100
AcDbEntity
  8
18
100
AcDbCircle
 10
9728.00920006448
 20
-567.0122415744649
 30
0.0
 40
11.0
  0
LWPOLYLINE
  5
75C2
330
18
100
AcDbEntity
  8
25
100
AcDbPolyline
 90
       16
 70
     1
 43
0.0
 10
9788.009200064509
 20
-462.119447552975
 10
9788.009200064509
 20
-470.119447552975
 10
9668.00920006451
 20
-470.119447552975
 10
9668.00920006451
 20
-462.119447552975
 10
9713.509200064509
 20
-462.119447552975
 42
0.4157891313627406
 10
9725.509200064509
 20
-450.2105654900637
 10
9725.509200064509
 20
-376.2105654900565
 42
0.4142135623731043
 10
9713.509200064509
 20
-364.2105654900565
 10
9668.00920006451
 20
-364.2105654900638
 10
9668.00920006451
 20
-356.2105654900638
 10
9788.009200064509
 20
-356.2105654900638
 10
9788.009200064509
 20
-364.2105654900638
 10
9742.50920006451
 20
-364.2105654900638
 42
0.4142135623731229
 10
9730.50920006451
 20
-376.2105654900638
 10
9730.50920006451
 20
-450.2105654900637
 42
0.4157891313627315
 10
9742.50920006451
 20
-462.119447552975
  0
LINE
  5
75C3
330
18
100
AcDbEntity
  8
18
100
AcDbLine
 10
9788.009200064509
 20
-404.6939240094448
 30
0.0
 11
9788.009200064509
 21
-462.119447552975
 31
0.0
  0
LINE
  5
75C4
330
18
100
AcDbEntity
  8
18
100
AcDbLine
 10
9668.00920006451
 20
-462.119447552975
 30
0.0
 11
9668.00920006451
 21
-404.6939240094448
 31
0.0
  0
LINE
  5
75C5
330
18
100
AcDbEntity
  8
18
100
AcDbLine
 10
9668.00920006451
 20
-404.6939240094448
 30
0.0
 11
9713.509200064509
 21
-404.6939240094448
 31
0.0
  0
ARC
  5
75C6
330
18
100
AcDbEntity
  8
18
100
AcDbCircle
 10
9713.509200064509
 20
-392.6939240094448
 30
0.0
 40
12.0
100
AcDbArc
 50
270.0
 51
0.0
  0
LINE
  5
75C7
330
18
100
AcDbEntity
  8
18
100
AcDbLine
 10
9668.00920006451
 20
-356.2105654900638
 30
0.0
 11
9668.00920006451
 21
-298.6939240094448
 31
0.0
  0
LINE
  5
75C8
330
18
100
AcDbEntity
  8
18
100
AcDbLine
 10
9668.00920006451
 20
-298.6939240094448
 30
0.0
 11
9788.009200064509
 21
-298.6939240094448
 31
0.0
  0
LINE
  5
75C9
330
18
100
AcDbEntity
  8
18
100
AcDbLine
 10
9788.009200064509
 20
-298.6939240094448
 30
0.0
 11
9788.009200064509
 21
-356.2105654900638
 31
0.0
  0
ARC
  5
75CA
330
18
100
AcDbEntity
  8
18
100
AcDbCircle
 10
9742.50920006451
 20
-392.6939240094448
 30
0.0
 40
12.0000000000004
100
AcDbArc
 50
180.0
 51
270.0
  0
LINE
  5
75CB
330
18
100
AcDbEntity
  8
18
100
AcDbLine
 10
9742.50920006451
 20
-404.6939240094448
 30
0.0
 11
9788.009200064509
 21
-404.6939240094448
 31
0.0
  0
LINE
  5
75CC
330
18
100
AcDbEntity
  8
35
100
AcDbLine
 10
9673.00920006453
 20
-765.5198159954429
 30
0.0
 11
9673.00920006453
 21
-823.4770172744825
 31
0.0
  0
LINE
  5
75CD
330
18
100
AcDbEntity
  8
35
100
AcDbLine
 10
9783.00920006453
 20
-765.5198159954429
 30
0.0
 11
9783.00920006453
 21
-823.4770172744825
 31
0.0
  0
ARC
  5
75D1
330
18
100
AcDbEntity
  8
25
100
AcDbCircle
 10
9720.687999845861
 20
-600.5198159954284
 30
0.0
 40
175.000000000001
100
AcDbArc
 50
293.8955081862299
 51
32.64489694839163
  0
LINE
  5
75D2
330
18
100
AcDbEntity
  8
25
100
AcDbLine
 10
9791.575234239576
 20
-760.5198159954611
 30
0.0
 11
9675.509200064633
 21
-760.5198159954539
 31
0.0
  0
LINE
  5
75D4
330
18
100
AcDbEntity
  8
25
100
AcDbLine
 10
9785.50920006452
 20
-760.5198159954393
 30
0.0
 11
9670.509200064499
 21
-760.5198159954393
 31
0.0
  0
ARC
  5
75D5
330
18
100
AcDbEntity
  8
25
100
AcDbCircle
 10
9740.330400283312
 20
-605.519815995432
 30
0.0
 40
169.9999999999956
100
AcDbArc
 50
144.2176258613281
 51
245.7503713975566
  0
LINE
  5
75D8
330
18
100
AcDbEntity
  8
25
100
AcDbLine
 10
9772.009200064509
 20
-515.691715728723
 30
0.0
 11
9772.009200064509
 21
-470.0601948571243
 31
0.0
  0
LINE
  5
75D9
330
18
100
AcDbEntity
  8
25
100
AcDbLine
 10
9754.009200064508
 20
-515.691715728723
 30
0.0
 11
9754.009200064508
 21
-470.0601948571243
 31
0.0
  0
ARC
  5
75DA
330
18
100
AcDbEntity
  8
25
100
AcDbCircle
 10
9763.009200064509
 20
-515.691715728723
 30
0.0
 40
9.000000000000003
100
AcDbArc
 50
180.0
 51
0.0
  0
LINE
  5
75DB
330
18
100
AcDbEntity
  8
25
100
AcDbLine
 10
9684.009200064508
 20
-515.691715728723
 30
0.0
 11
9684.009200064508
 21
-470.0601948571243
 31
0.0
  0
LINE
  5
75DC
330
18
100
AcDbEntity
  8
25
100
AcDbLine
 10
9702.009200064509
 20
-515.691715728723
 30
0.0
 11
9702.009200064509
 21
-470.0601948571243
 31
0.0
  0
ARC
  5
75DD
330
18
100
AcDbEntity
  8
25
100
AcDbCircle
 10
9693.009200064508
 20
-515.691715728723
 30
0.0
 40
9.000000000000003
100
AcDbArc
 50
180.0
 51
0.0
  0
LWPOLYLINE
  5
75E0
330
18
100
AcDbEntity
  8
25
100
AcDbPolyline
 90
        2
 70
     0
 43
0.0
 10
9668.00920006451
 20
-446.4321352968441
 42
0.0762059792833271
 10
9626.059567810917
 20
-470.1194475529733
 42
0.0762059792833271
  0
LWPOLYLINE
  5
75E1
330
18
100
AcDbEntity
  8
25
100
AcDbPolyline
 90
        3
 70
     0
 43
0.0
 10
9788.009200064509
 20
-440.8592011001669
 10
9791.575234239644
 20
-440.8971334351276
 42
-0.0910589647763963
 10
9841.006710122091
 20
-470.1194475529741
 42
-0.0910589647763963
  0
LWPOLYLINE
  5
75E2
330
18
100
AcDbEntity
  8
18
100
AcDbPolyline
 90
       10
 70
     0
 43
0.0
 10
8184.675867064481
 20
-470.1194475529741
 10
8184.675867064481
 20
-437.6939240094438
 10
8184.675867064481
 20
-382.693924009473
 42
-0.2840790438405396
 10
8217.843051334517
 20
-329.0282925494471
 10
8367.843051334517
 20
-254.0282925494471
 42
-0.2360679774998041
 10
8421.508682794515
 20
-254.0282925494471
 10
8571.508682794513
 20
-329.028292549448
 42
-0.2840790438404168
 10
8604.675867064516
 20
-382.6939240094448
 10
8604.675867064516
 20
-437.6939240094448
 10
8604.675867064516
 20
-470.1194475529741
  0
LWPOLYLINE
  5
75E3
330
18
100
AcDbEntity
  8
18
100
AcDbPolyline
 90
        3
 70
     0
 43
0.0
 10
8603.15454464313
 20
-506.1194321434345
 42
-0.2240078764315906
 10
8571.508682794478
 20
-546.3595554694416
 10
8556.078797974473
 20
-554.0744978794442
  0
LWPOLYLINE
  5
75E4
330
18
100
AcDbEntity
  8
18
100
AcDbPolyline
 90
        4
 70
     0
 43
0.0
 10
8551.517624061006
 20
-556.3550848361778
 10
8421.508682794478
 20
-621.3595554694407
 42
-0.2360679774998041
 10
8367.84305133448
 20
-621.3595554694407
 10
8243.440882194272
 20
-559.1584708993373
  0
LWPOLYLINE
  5
75E5
330
18
100
AcDbEntity
  8
18
100
AcDbPolyline
 90
        3
 70
     0
 43
0.0
 10
8238.891359082371
 20
-556.8837093433862
 10
8217.843051334481
 20
-546.3595554694406
 42
-0.2240078764315844
 10
8186.197189485859
 20
-506.1194321434336
  0
CIRCLE
  5
75E6
330
18
100
AcDbEntity
  8
18
100
AcDbCircle
 10
8394.67586706448
 20
-567.012241574464
 30
0.0
 40
11.0
  0
LWPOLYLINE
  5
75E7
330
18
100
AcDbEntity
  8
25
100
AcDbPolyline
 90
       16
 70
     1
 43
0.0
 10
8454.675867064509
 20
-462.1194475529741
 10
8454.675867064509
 20
-470.1194475529741
 10
8334.675867064509
 20
-470.1194475529741
 10
8334.675867064509
 20
-462.1194475529741
 10
8380.175867064508
 20
-462.1194475529741
 42
0.4157891313627406
 10
8392.175867064509
 20
-450.2105654900629
 10
8392.175867064509
 20
-376.2105654900556
 42
0.4142135623731043
 10
8380.175867064508
 20
-364.2105654900556
 10
8334.675867064509
 20
-364.2105654900629
 10
8334.675867064509
 20
-356.2105654900629
 10
8454.675867064509
 20
-356.2105654900629
 10
8454.675867064509
 20
-364.2105654900629
 10
8409.17586706451
 20
-364.2105654900629
 42
0.4142135623731229
 10
8397.175867064509
 20
-376.2105654900629
 10
8397.175867064509
 20
-450.2105654900629
 42
0.4157891313627315
 10
8409.17586706451
 20
-462.1194475529741
  0
LINE
  5
75E8
330
18
100
AcDbEntity
  8
18
100
AcDbLine
 10
8454.675867064509
 20
-404.6939240094438
 30
0.0
 11
8454.675867064509
 21
-462.1194475529741
 31
0.0
  0
LINE
  5
75E9
330
18
100
AcDbEntity
  8
18
100
AcDbLine
 10
8334.675867064509
 20
-462.1194475529741
 30
0.0
 11
8334.675867064509
 21
-404.6939240094438
 31
0.0
  0
LINE
  5
75EA
330
18
100
AcDbEntity
  8
18
100
AcDbLine
 10
8334.675867064509
 20
-404.6939240094438
 30
0.0
 11
8380.175867064508
 21
-404.6939240094438
 31
0.0
  0
ARC
  5
75EB
330
18
100
AcDbEntity
  8
18
100
AcDbCircle
 10
8380.175867064508
 20
-392.6939240094439
 30
0.0
 40
12.0
100
AcDbArc
 50
270.0
 51
0.0
  0
LINE
  5
75EC
330
18
100
AcDbEntity
  8
18
100
AcDbLine
 10
8334.675867064509
 20
-356.2105654900629
 30
0.0
 11
8334.675867064509
 21
-298.6939240094439
 31
0.0
  0
LINE
  5
75ED
330
18
100
AcDbEntity
  8
18
100
AcDbLine
 10
8334.675867064509
 20
-298.6939240094439
 30
0.0
 11
8454.675867064509
 21
-298.6939240094439
 31
0.0
  0
LINE
  5
75EE
330
18
100
AcDbEntity
  8
18
100
AcDbLine
 10
8454.675867064509
 20
-298.6939240094439
 30
0.0
 11
8454.675867064509
 21
-356.2105654900629
 31
0.0
  0
ARC
  5
75EF
330
18
100
AcDbEntity
  8
18
100
AcDbCircle
 10
8409.17586706451
 20
-392.6939240094439
 30
0.0
 40
12.0000000000004
100
AcDbArc
 50
180.0
 51
270.0
  0
LINE
  5
75F0
330
18
100
AcDbEntity
  8
18
100
AcDbLine
 10
8409.17586706451
 20
-404.6939240094438
 30
0.0
 11
8454.675867064509
 21
-404.6939240094438
 31
0.0
  0
LINE
  5
75F1
330
18
100
AcDbEntity
  8
35
100
AcDbLine
 10
8339.675867064526
 20
-765.519815995442
 30
0.0
 11
8339.675867064526
 21
-823.4770172744815
 31
0.0
  0
LINE
  5
75F2
330
18
100
AcDbEntity
  8
35
100
AcDbLine
 10
8449.675867064526
 20
-765.519815995442
 30
0.0
 11
8449.675867064526
 21
-823.4770172744815
 31
0.0
  0
ARC
  5
75F6
330
18
100
AcDbEntity
  8
25
100
AcDbCircle
 10
8387.354666845858
 20
-600.5198159954275
 30
0.0
 40
175.000000000001
100
AcDbArc
 50
293.8955081862299
 51
32.64489694839163
  0
LINE
  5
75F7
330
18
100
AcDbEntity
  8
25
100
AcDbLine
 10
8458.241901239574
 20
-760.5198159954603
 30
0.0
 11
8342.175867064632
 21
-760.519815995453
 31
0.0
  0
LINE
  5
75F9
330
18
100
AcDbEntity
  8
25
100
AcDbLine
 10
8452.17586706452
 20
-760.5198159954384
 30
0.0
 11
8337.175867064498
 21
-760.5198159954384
 31
0.0
  0
ARC
  5
75FA
330
18
100
AcDbEntity
  8
25
100
AcDbCircle
 10
8406.997067283311
 20
-605.5198159954311
 30
0.0
 40
169.9999999999956
100
AcDbArc
 50
144.2176258613281
 51
245.7503713975566
  0
LINE
  5
75FD
330
18
100
AcDbEntity
  8
25
100
AcDbLine
 10
8438.675867064509
 20
-515.6917157287221
 30
0.0
 11
8438.675867064509
 21
-470.0601948571233
 31
0.0
  0
LINE
  5
75FE
330
18
100
AcDbEntity
  8
25
100
AcDbLine
 10
8420.675867064508
 20
-515.6917157287221
 30
0.0
 11
8420.675867064508
 21
-470.0601948571233
 31
0.0
  0
ARC
  5
75FF
330
18
100
AcDbEntity
  8
25
100
AcDbCircle
 10
8429.675867064508
 20
-515.6917157287221
 30
0.0
 40
9.000000000000003
100
AcDbArc
 50
180.0
 51
0.0
  0
LINE
  5
7600
330
18
100
AcDbEntity
  8
25
100
AcDbLine
 10
8350.675867064508
 20
-515.6917157287221
 30
0.0
 11
8350.675867064508
 21
-470.0601948571233
 31
0.0
  0
LINE
  5
7601
330
18
100
AcDbEntity
  8
25
100
AcDbLine
 10
8368.675867064508
 20
-515.6917157287221
 30
0.0
 11
8368.675867064508
 21
-470.0601948571233
 31
0.0
  0
ARC
  5
7602
330
18
100
AcDbEntity
  8
25
100
AcDbCircle
 10
8359.675867064508
 20
-515.6917157287221
 30
0.0
 40
9.000000000000003
100
AcDbArc
 50
180.0
 51
0.0
  0
LWPOLYLINE
  5
7603
330
18
100
AcDbEntity
  8
25
100
AcDbPolyline
 90
        3
 70
     0
 43
0.0
 10
8499.826059970869
 20
-470.1194475529733
 42
0.0802040860120813
 10
8457.175867064632
 20
-445.8971334351267
 10
8454.675867064509
 20
-445.8971334351267
  0
LWPOLYLINE
  5
7605
330
18
100
AcDbEntity
  8
25
100
AcDbPolyline
 90
        2
 70
     0
 43
0.0
 10
8334.675867064509
 20
-446.4321352968432
 42
0.0762059792833271
 10
8292.726234810917
 20
-470.1194475529724
 42
0.0762059792833271
  0
LWPOLYLINE
  5
7606
330
18
100
AcDbEntity
  8
25
100
AcDbPolyline
 90
        3
 70
     0
 43
0.0
 10
8454.675867064509
 20
-440.859201100166
 10
8458.241901239643
 20
-440.8971334351267
 42
-0.0910589647763963
 10
8507.673377122088
 20
-470.1194475529733
 42
-0.0910589647763963
  0
LINE
  5
76B1
330
18
100
AcDbEntity
  8
35
100
AcDbLine
 10
8334.675867064534
 20
-823.4770172744852
 30
0.0
 11
8334.675867064534
 21
-913.4439165103854
 31
0.0
  0
LINE
  5
76B2
330
18
100
AcDbEntity
  8
18
  6
VERDECKT
 48
2.2
100
AcDbLine
 10
8534.675867064533
 20
-823.4770172744861
 30
0.0
 11
8534.675867064533
 21
-913.4439165103863
 31
0.0
  0
LINE
  5
76B3
330
18
100
AcDbEntity
  8
35
100
AcDbLine
 10
12334.67586706453
 20
-823.4770172744878
 30
0.0
 11
12334.67586706453
 21
-913.4439165103881
 31
0.0
  0
LINE
  5
76B4
330
18
100
AcDbEntity
  8
18
  6
VERDECKT
 48
2.2
100
AcDbLine
 10
12534.67586706453
 20
-823.4770172744878
 30
0.0
 11
12534.67586706453
 21
-913.4439165103881
 31
0.0
  0
ELLIPSE
  5
7C47
330
18
100
AcDbEntity
  8
18
100
AcDbEllipse
 10
5604.928507386984
 20
-4856.862990125268
 30
0.0
 11
2.892516514872155
 21
0.1157006605938889
 31
0.0
210
0.0
220
0.0
230
1.0
 40
0.352523008751315
 41
3.141592653588848
 42
4.712388980384107
  0
ELLIPSE
  5
7C48
330
18
100
AcDbEntity
  8
18
100
AcDbEllipse
 10
5604.471182775856
 20
-4845.429874846797
 30
0.0
 11
2.892516514872233
 21
0.115700660591923
 31
0.0
210
0.0
220
0.0
230
-1.0
 40
0.352523008751315
 41
3.141592653588809
 42
4.712388980385032
  0
ELLIPSE
  5
7C49
330
18
100
AcDbEntity
  8
18
100
AcDbEllipse
 10
5623.140944552541
 20
-4856.134492638657
 30
0.0
 11
2.892516514872233
 21
0.115700660591923
 31
0.0
210
0.0
220
0.0
230
-1.0
 40
0.352523008751315
 41
-0.0000000000009839
 42
1.570796326795239
  0
ELLIPSE
  5
7C4A
330
18
100
AcDbEntity
  8
18
100
AcDbEllipse
 10
5622.683619941409
 20
-4844.701377360189
 30
0.0
 11
2.892516514872155
 21
0.1157006605938889
 31
0.0
210
0.0
220
0.0
230
1.0
 40
0.352523008751315
 41
-0.000000000000945
 42
1.570796326794314
  0
ELLIPSE
  5
7C4B
330
18
100
AcDbEntity
  8
18
100
AcDbEllipse
 10
5611.142209454897
 20
-4856.614442042554
 30
0.0
 11
2.892516514872233
 21
0.115700660591923
 31
0.0
210
0.0
220
0.0
230
-1.0
 40
0.352523008751315
 41
-0.0000000000009839
 42
1.570796326795239
  0
ELLIPSE
  5
7C4C
330
18
100
AcDbEntity
  8
18
100
AcDbEllipse
 10
5616.927242484631
 20
-4856.383040721369
 30
0.0
 11
2.892516514872155
 21
0.1157006605938889
 31
0.0
210
0.0
220
0.0
230
1.0
 40
0.352523008751315
 41
3.141592653588848
 42
4.712388980384107
  0
ELLIPSE
  5
7C4D
330
18
100
AcDbEntity
  8
18
100
AcDbEllipse
 10
5611.142209454897
 20
-4856.614442042554
 30
0.0
 11
2.892516514872233
 21
0.115700660591923
 31
0.0
210
0.0
220
0.0
230
-1.0
 40
0.352523008751315
 41
-0.0000000000009839
 42
1.570796326795239
  0
ELLIPSE
  5
7C4E
330
18
100
AcDbEntity
  8
18
100
AcDbEllipse
 10
5616.927242484631
 20
-4856.383040721369
 30
0.0
 11
2.892516514872155
 21
0.1157006605938889
 31
0.0
210
0.0
220
0.0
230
1.0
 40
0.352523008751315
 41
3.141592653588848
 42
4.712388980384107
  0
ELLIPSE
  5
7C4F
330
18
100
AcDbEntity
  8
18
100
AcDbEllipse
 10
5616.4699178735
 20
-4844.949925442898
 30
0.0
 11
2.892516514872233
 21
0.115700660591923
 31
0.0
210
0.0
220
0.0
230
-1.0
 40
0.352523008751315
 41
3.141592653588809
 42
4.712388980385032
  0
ELLIPSE
  5
7C50
330
18
100
AcDbEntity
  8
18
100
AcDbEllipse
 10
5610.684884843762
 20
-4845.181326764084
 30
0.0
 11
2.892516514872155
 21
0.1157006605938889
 31
0.0
210
0.0
220
0.0
230
1.0
 40
0.352523008751315
 41
-0.000000000000945
 42
1.570796326794314
  0
LINE
  5
7C51
330
18
100
AcDbEntity
  8
18
100
AcDbLine
 10
5613.57740135863
 20
-4845.065626103495
 30
0.0
 11
5614.034725969764
 21
-4856.498741381961
 31
0.0
  0
LINE
  5
7C52
330
18
100
AcDbEntity
  8
25
100
AcDbLine
 10
5601.537879115994
 20
-4844.525896882701
 30
-0.0000000000000013
 11
5625.535349311281
 21
-4843.565998074911
 31
0.0
  0
LINE
  5
7C53
330
18
100
AcDbEntity
  8
25
100
AcDbLine
 10
5625.535349311281
 20
-4843.565998074911
 30
0.0
 11
5626.074248212392
 21
-4857.038470602748
 31
0.0
  0
LINE
  5
7C54
330
18
100
AcDbEntity
  8
25
100
AcDbLine
 10
5601.537879115994
 20
-4844.525896882701
 30
-0.0000000000000013
 11
5602.076778017106
 21
-4857.998369410545
 31
0.0
  0
LINE
  5
7C55
330
18
100
AcDbEntity
  8
25
 48
10.0
100
AcDbLine
 10
5594.251366093704
 20
-4862.314584608497
 30
0.0
 11
5634.219404442579
 21
-4860.715863074575
 31
0.0
  0
CIRCLE
  5
7C56
330
18
100
AcDbEntity
  8
25
100
AcDbCircle
 10
-5415.444152553121
 20
0.0
 30
-5078.020647677258
 40
11.0
210
-0.0399680383481761
220
0.9992009587218172
230
0.0
  0
CIRCLE
  5
7C57
330
18
100
AcDbEntity
  8
25
100
AcDbCircle
 10
5415.444152553121
 20
0.0
 30
5078.020647677258
 40
11.0
210
0.0399680383481761
220
-0.9992009587218172
230
0.0
  0
CIRCLE
  5
7C58
330
18
100
AcDbEntity
  8
25
100
AcDbCircle
 10
5415.444152553121
 20
0.0
 30
5078.020647677258
 40
8.299999999999981
210
0.0399680383481761
220
-0.9992009587218172
230
0.0
  0
CIRCLE
  5
7C59
330
18
100
AcDbEntity
  8
25
100
AcDbCircle
 10
-5415.444152553121
 20
0.0
 30
-5078.020647677258
 40
8.299999999999981
210
-0.0399680383481761
220
0.9992009587218172
230
0.0
  0
LINE
  5
7C5A
330
18
100
AcDbEntity
  8
25
100
AcDbLine
 10
5625.066723660685
 20
-4857.07877158482
 30
0.0
 11
5603.084302568809
 21
-4857.958068428479
 31
0.0
  0
CIRCLE
  5
7C5B
330
18
100
AcDbEntity
  8
25
100
AcDbCircle
 10
5415.444152553121
 20
0.0
 30
5078.020647677258
 40
11.0
210
0.0399680383481761
220
-0.9992009587218172
230
0.0
  0
CIRCLE
  5
7C5C
330
18
100
AcDbEntity
  8
25
100
AcDbCircle
 10
5415.444152553121
 20
0.0
 30
5078.020647677258
 40
11.0
210
0.0399680383481761
220
-0.9992009587218172
230
0.0
  0
CIRCLE
  5
7C5D
330
18
100
AcDbEntity
  8
25
100
AcDbCircle
 10
5415.444152553121
 20
0.0
 30
5078.020647677258
 40
8.299999999999981
210
0.0399680383481761
220
-0.9992009587218172
230
0.0
  0
CIRCLE
  5
7C5E
330
18
100
AcDbEntity
  8
25
100
AcDbCircle
 10
5415.444152553121
 20
0.0
 30
5078.020647677258
 40
8.299999999999981
210
0.0399680383481761
220
-0.9992009587218172
230
0.0
  0
LINE
  5
7C5F
330
18
100
AcDbEntity
  8
Anker
 62
     1
 48
5.0
100
AcDbLine
 10
5609.43921857526
 20
-4926.758997368245
 30
0.0
 11
5609.708153942008
 21
-4933.482381537212
 31
0.0
  0
LINE
  5
7C60
330
18
100
AcDbEntity
  8
Anker
 62
     1
 48
5.0
100
AcDbLine
 10
5609.43921857526
 20
-4926.758997368245
 30
0.0
 11
5624.22739276435
 21
-4926.167470400695
 31
0.0
  0
LINE
  5
7C61
330
18
100
AcDbEntity
  8
Anker
 62
     1
 48
5.0
100
AcDbLine
 10
5626.087592989393
 20
-5006.157036812148
 30
0.0
 11
5613.973904485913
 21
-5006.641584352277
 31
0.0
  0
LINE
  5
7C62
330
18
100
AcDbEntity
  8
25
100
AcDbLine
 10
5621.259768007968
 20
-4843.219854287341
 30
0.0
 11
5605.772153147778
 21
-4843.839358881742
 31
0.0
  0
LINE
  5
7C63
330
18
100
AcDbEntity
  8
25
100
AcDbLine
 10
5606.889669627866
 20
-4831.78506205947
 30
0.0
 11
5619.183018607515
 21
-4831.293328100294
 31
0.0
  0
LINE
  5
7C64
330
18
100
AcDbEntity
  8
25
100
AcDbLine
 10
5605.772153147778
 20
-4843.839358881742
 30
0.0
 11
5621.259768007968
 21
-4843.219854287341
 31
0.0
  0
LINE
  5
7C65
330
18
100
AcDbEntity
  8
Anker
 62
     1
 48
5.0
100
AcDbLine
 10
5627.224995640453
 20
-5001.107542304826
 30
0.0
 11
5612.43682145137
 21
-5001.699069272383
 31
0.0
  0
LINE
  5
7C66
330
18
100
AcDbEntity
  8
Anker
 62
     1
 48
5.0
100
AcDbLine
 10
5612.43682145137
 20
-5001.699069272383
 30
0.0
 11
5613.973904485913
 21
-5006.641584352277
 31
0.0
  0
LINE
  5
7C67
330
18
100
AcDbEntity
  8
Anker
 62
     1
 48
5.0
100
AcDbLine
 10
5627.224995640453
 20
-5001.107542304826
 30
0.0
 11
5626.632919018002
 21
-5003.736064095438
 31
0.0
  0
LINE
  5
7C68
330
18
100
AcDbEntity
  8
Anker
 62
     1
 48
5.0
100
AcDbLine
 10
5607.091098464069
 20
-4876.812991789549
 30
0.0
 11
5609.065184412981
 21
-4926.165140513612
 31
0.0
  0
LINE
  5
7C69
330
18
100
AcDbEntity
  8
Anker
 62
     1
 48
5.0
100
AcDbLine
 10
5609.43921857526
 20
-4926.758997368245
 30
0.0
 11
5609.065184412981
 21
-4926.165140513612
 31
0.0
  0
LINE
  5
7C6A
330
18
100
AcDbEntity
  8
Anker
 62
     1
 48
5.0
100
AcDbLine
 10
5610.254536627035
 20
-4994.679933475918
 30
0.0
 11
5628.538692705779
 21
-4986.411984125541
 31
0.0
  0
LINE
  5
7C6B
330
18
100
AcDbEntity
  8
Anker
 62
     1
 48
5.0
100
AcDbLine
 10
5609.661786748781
 20
-4979.861186519335
 30
0.0
 11
5627.94594282753
 21
-4971.593237168959
 31
0.0
  0
LINE
  5
7C6C
330
18
100
AcDbEntity
  8
Anker
 62
     1
 48
5.0
100
AcDbLine
 10
5609.069036870528
 20
-4965.042439562751
 30
0.0
 11
5627.353192949279
 21
-4956.774490212368
 31
0.0
  0
LINE
  5
7C6D
330
18
100
AcDbEntity
  8
Anker
 62
     1
 48
5.0
100
AcDbLine
 10
5608.476286992278
 20
-4950.22369260617
 30
0.0
 11
5626.760443071026
 21
-4941.955743255786
 31
0.0
  0
LINE
  5
7C6E
330
18
100
AcDbEntity
  8
Anker
 62
     1
 48
5.0
100
AcDbLine
 10
5609.794393033292
 20
-4935.638358819412
 30
0.0
 11
5624.343076364773
 21
-4929.05956041158
 31
0.0
  0
LINE
  5
7C6F
330
18
100
AcDbEntity
  8
Anker
 62
     1
 48
5.0
100
AcDbLine
 10
5610.300903820268
 20
-4948.301128493794
 30
0.0
 11
5624.849587151743
 21
-4941.722330085962
 31
0.0
  0
LINE
  5
7C70
330
18
100
AcDbEntity
  8
Anker
 62
     1
 48
5.0
100
AcDbLine
 10
5610.387142911553
 20
-4950.457105775994
 30
0.0
 11
5624.935826243028
 21
-4943.878307368169
 31
0.0
  0
LINE
  5
7C71
330
18
100
AcDbEntity
  8
Anker
 62
     1
 48
5.0
100
AcDbLine
 10
5610.893653698518
 20
-4963.119875450377
 30
0.0
 11
5625.442337030003
 21
-4956.541077042544
 31
0.0
  0
LINE
  5
7C72
330
18
100
AcDbEntity
  8
Anker
 62
     1
 48
5.0
100
AcDbLine
 10
5610.979892789804
 20
-4965.275852732583
 30
0.0
 11
5625.528576121289
 21
-4958.697054324752
 31
0.0
  0
LINE
  5
7C73
330
18
100
AcDbEntity
  8
Anker
 62
     1
 48
5.0
100
AcDbLine
 10
5611.486403576769
 20
-4977.938622406958
 30
0.0
 11
5626.035086908254
 21
-4971.359823999127
 31
0.0
  0
LINE
  5
7C74
330
18
100
AcDbEntity
  8
Anker
 62
     1
 48
5.0
100
AcDbLine
 10
5611.572642668057
 20
-4980.094599689167
 30
0.0
 11
5626.121325999538
 21
-4973.515801281334
 31
0.0
  0
LINE
  5
7C75
330
18
100
AcDbEntity
  8
Anker
 62
     1
 48
5.0
100
AcDbLine
 10
5612.079153455023
 20
-4992.75736936354
 30
0.0
 11
5626.627836786504
 21
-4986.17857095571
 31
0.0
  0
LINE
  5
7C76
330
18
100
AcDbEntity
  8
Anker
 62
     1
 48
5.0
100
AcDbLine
 10
5612.165392546308
 20
-4994.913346645748
 30
0.0
 11
5626.714075877793
 21
-4988.334548237918
 31
0.0
  0
LINE
  5
7C77
330
18
100
AcDbEntity
  8
Anker
 62
     1
 48
5.0
100
AcDbLine
 10
5620.812428572687
 20
-5006.368043388813
 30
0.0
 11
5626.632919018002
 21
-5003.736064095438
 31
0.0
  0
LINE
  5
7C78
330
18
100
AcDbEntity
  8
Anker
 62
     1
 48
5.0
100
AcDbLine
 10
5609.794393033292
 20
-4935.638358819412
 30
0.0
 11
5607.883537114016
 21
-4935.404945649587
 31
0.0
  0
LINE
  5
7C79
330
18
100
AcDbEntity
  8
Anker
 62
     1
 48
5.0
100
AcDbLine
 10
5626.167693192764
 20
-4927.136996299204
 30
0.0
 11
5624.343076364773
 21
-4929.05956041158
 31
0.0
  0
LINE
  5
7C7A
330
18
100
AcDbEntity
  8
Anker
 62
     1
 48
5.0
100
AcDbLine
 10
5610.300903820268
 20
-4948.301128493794
 30
0.0
 11
5608.476286992278
 21
-4950.22369260617
 31
0.0
  0
LINE
  5
7C7B
330
18
100
AcDbEntity
  8
Anker
 62
     1
 48
5.0
100
AcDbLine
 10
5608.476286992278
 20
-4950.22369260617
 30
0.0
 11
5610.387142911553
 21
-4950.457105775994
 31
0.0
  0
LINE
  5
7C7C
330
18
100
AcDbEntity
  8
Anker
 62
     1
 48
5.0
100
AcDbLine
 10
5624.849587151743
 20
-4941.722330085962
 30
0.0
 11
5626.760443071026
 21
-4941.955743255786
 31
0.0
  0
LINE
  5
7C7D
330
18
100
AcDbEntity
  8
Anker
 62
     1
 48
5.0
100
AcDbLine
 10
5626.760443071026
 20
-4941.955743255786
 30
0.0
 11
5624.935826243028
 21
-4943.878307368169
 31
0.0
  0
LINE
  5
7C7E
330
18
100
AcDbEntity
  8
Anker
 62
     1
 48
5.0
100
AcDbLine
 10
5610.893653698518
 20
-4963.119875450377
 30
0.0
 11
5609.069036870528
 21
-4965.042439562751
 31
0.0
  0
LINE
  5
7C7F
330
18
100
AcDbEntity
  8
Anker
 62
     1
 48
5.0
100
AcDbLine
 10
5609.069036870528
 20
-4965.042439562751
 30
0.0
 11
5610.979892789804
 21
-4965.275852732576
 31
0.0
  0
LINE
  5
7C80
330
18
100
AcDbEntity
  8
Anker
 62
     1
 48
5.0
100
AcDbLine
 10
5625.442337030003
 20
-4956.541077042544
 30
0.0
 11
5627.353192949279
 21
-4956.774490212368
 31
0.0
  0
LINE
  5
7C81
330
18
100
AcDbEntity
  8
Anker
 62
     1
 48
5.0
100
AcDbLine
 10
5627.353192949279
 20
-4956.774490212368
 30
0.0
 11
5625.528576121289
 21
-4958.697054324752
 31
0.0
  0
LINE
  5
7C82
330
18
100
AcDbEntity
  8
Anker
 62
     1
 48
5.0
100
AcDbLine
 10
5611.486403576769
 20
-4977.938622406958
 30
0.0
 11
5609.661786748781
 21
-4979.861186519335
 31
0.0
  0
LINE
  5
7C83
330
18
100
AcDbEntity
  8
Anker
 62
     1
 48
5.0
100
AcDbLine
 10
5609.661786748781
 20
-4979.861186519335
 30
0.0
 11
5611.572642668057
 21
-4980.094599689167
 31
0.0
  0
LINE
  5
7C84
330
18
100
AcDbEntity
  8
Anker
 62
     1
 48
5.0
100
AcDbLine
 10
5626.035086908254
 20
-4971.359823999127
 30
0.0
 11
5627.94594282753
 21
-4971.593237168959
 31
0.0
  0
LINE
  5
7C85
330
18
100
AcDbEntity
  8
Anker
 62
     1
 48
5.0
100
AcDbLine
 10
5627.94594282753
 20
-4971.593237168959
 30
0.0
 11
5626.121325999538
 21
-4973.515801281334
 31
0.0
  0
LINE
  5
7C86
330
18
100
AcDbEntity
  8
Anker
 62
     1
 48
5.0
100
AcDbLine
 10
5612.079153455023
 20
-4992.75736936354
 30
0.0
 11
5610.254536627035
 21
-4994.679933475918
 31
0.0
  0
LINE
  5
7C87
330
18
100
AcDbEntity
  8
Anker
 62
     1
 48
5.0
100
AcDbLine
 10
5610.254536627035
 20
-4994.679933475918
 30
0.0
 11
5612.165392546308
 21
-4994.913346645748
 31
0.0
  0
LINE
  5
7C88
330
18
100
AcDbEntity
  8
Anker
 62
     1
 48
5.0
100
AcDbLine
 10
5626.627836786504
 20
-4986.17857095571
 30
0.0
 11
5628.538692705779
 21
-4986.411984125541
 31
0.0
  0
LINE
  5
7C89
330
18
100
AcDbEntity
  8
Anker
 62
     1
 48
5.0
100
AcDbLine
 10
5628.538692705779
 20
-4986.411984125541
 30
0.0
 11
5626.714075877793
 21
-4988.334548237918
 31
0.0
  0
LINE
  5
7C8A
330
18
100
AcDbEntity
  8
Anker
 62
     1
 48
5.0
100
AcDbLine
 10
5626.632919018002
 20
-5003.736064095438
 30
0.0
 11
5628.640282625403
 21
-5003.925837259459
 31
0.0
  0
LINE
  5
7C8B
330
18
100
AcDbEntity
  8
Anker
 62
     1
 48
5.0
100
AcDbLine
 10
5628.640282625403
 20
-5003.925837259459
 30
0.0
 11
5626.087592989393
 21
-5006.157036812148
 31
0.0
  0
LINE
  5
7C8C
330
18
100
AcDbEntity
  8
Anker
 62
     1
 48
5.0
100
AcDbLine
 10
5612.165392546308
 20
-4994.913346645748
 30
0.0
 11
5612.43682145137
 21
-5001.699069272383
 31
0.0
  0
LINE
  5
7C8D
330
18
100
AcDbEntity
  8
Anker
 62
     1
 48
5.0
100
AcDbLine
 10
5611.572642668057
 20
-4980.094599689167
 30
0.0
 11
5612.079153455023
 21
-4992.75736936354
 31
0.0
  0
LINE
  5
7C8E
330
18
100
AcDbEntity
  8
Anker
 62
     1
 48
5.0
100
AcDbLine
 10
5610.979892789804
 20
-4965.275852732576
 30
0.0
 11
5611.486403576769
 21
-4977.938622406958
 31
0.0
  0
LINE
  5
7C8F
330
18
100
AcDbEntity
  8
Anker
 62
     1
 48
5.0
100
AcDbLine
 10
5610.387142911553
 20
-4950.457105775994
 30
0.0
 11
5610.893653698518
 21
-4963.119875450377
 31
0.0
  0
LINE
  5
7C90
330
18
100
AcDbEntity
  8
Anker
 62
     1
 48
5.0
100
AcDbLine
 10
5609.794393033292
 20
-4935.638358819412
 30
0.0
 11
5610.300903820268
 21
-4948.301128493794
 31
0.0
  0
LINE
  5
7C91
330
18
100
AcDbEntity
  8
Anker
 62
     1
 48
5.0
100
AcDbLine
 10
5624.343076364773
 20
-4929.05956041158
 30
0.0
 11
5624.849587151743
 21
-4941.722330085962
 31
0.0
  0
LINE
  5
7C92
330
18
100
AcDbEntity
  8
Anker
 62
     1
 48
5.0
100
AcDbLine
 10
5624.935826243028
 20
-4943.878307368169
 30
0.0
 11
5625.442337030003
 21
-4956.541077042544
 31
0.0
  0
LINE
  5
7C93
330
18
100
AcDbEntity
  8
Anker
 62
     1
 48
5.0
100
AcDbLine
 10
5625.528576121289
 20
-4958.697054324752
 30
0.0
 11
5626.035086908254
 21
-4971.359823999127
 31
0.0
  0
LINE
  5
7C94
330
18
100
AcDbEntity
  8
Anker
 62
     1
 48
5.0
100
AcDbLine
 10
5626.121325999538
 20
-4973.515801281334
 30
0.0
 11
5626.627836786504
 21
-4986.17857095571
 31
0.0
  0
LINE
  5
7C95
330
18
100
AcDbEntity
  8
Anker
 62
     1
 48
5.0
100
AcDbLine
 10
5626.714075877793
 20
-4988.334548237918
 30
0.0
 11
5627.224995640453
 21
-5001.107542304826
 31
0.0
  0
LINE
  5
7C96
330
18
100
AcDbEntity
  8
Anker
 62
     1
 48
5.0
100
AcDbLine
 10
5623.474990969849
 20
-5006.261540892926
 30
0.0
 11
5628.640282625403
 21
-5003.925837259459
 31
0.0
  0
LINE
  5
7C97
330
18
100
AcDbEntity
  8
25
100
AcDbLine
 10
5621.259768007968
 20
-4843.219854287341
 30
0.0
 11
5621.281031057166
 21
-4843.751430517182
 31
0.0
  0
LINE
  5
7C98
330
18
100
AcDbEntity
  8
25
100
AcDbLine
 10
5605.772153147778
 20
-4843.839358881742
 30
0.0
 11
5605.792806783544
 21
-4844.355699776003
 31
-0.0000000000000011
  0
LINE
  5
7C99
330
18
100
AcDbEntity
  8
18
100
AcDbLine
 10
5613.799580228032
 20
-4844.035428838228
 30
0.0
 11
5615.656409310983
 21
-4843.443988635219
 31
0.0
  0
LINE
  5
7C9A
330
18
100
AcDbEntity
  8
18
100
AcDbLine
 10
5606.263341148551
 20
-4844.336878401403
 30
0.0
 11
5608.120170231508
 21
-4843.745438198393
 31
0.0
  0
LINE
  5
7C9B
330
18
100
AcDbEntity
  8
18
100
AcDbLine
 10
5617.567699767767
 20
-4843.884704056641
 30
0.0
 11
5619.424528850721
 21
-4843.293263853633
 31
0.0
  0
LINE
  5
7C9C
330
18
100
AcDbEntity
  8
18
100
AcDbLine
 10
5610.031460688296
 20
-4844.186153619815
 30
0.0
 11
5611.888289771238
 21
-4843.594713416806
 31
0.0
  0
LINE
  5
7C9D
330
18
100
AcDbEntity
  8
25
100
AcDbLine
 10
5606.070433078934
 20
-4832.531363155737
 30
0.0
 11
5606.482575547169
 21
-4842.834924861701
 31
0.0
  0
LINE
  5
7C9E
330
18
100
AcDbEntity
  8
25
100
AcDbLine
 10
5620.059246501046
 20
-4831.971810618862
 30
0.0
 11
5620.471388969278
 21
-4842.275372324827
 31
0.0
  0
LINE
  5
7C9F
330
18
100
AcDbEntity
  8
25
100
AcDbLine
 10
5605.772153147778
 20
-4843.839358881742
 30
0.0
 11
5606.482575547169
 21
-4842.834924861701
 31
0.0
  0
LINE
  5
7CA0
330
18
100
AcDbEntity
  8
25
100
AcDbLine
 10
5621.259768007968
 20
-4843.219854287341
 30
0.0
 11
5620.471388969278
 21
-4842.275372324827
 31
0.0
  0
LINE
  5
7CA1
330
18
100
AcDbEntity
  8
25
100
AcDbLine
 10
5606.482575547169
 20
-4842.834924861701
 30
0.0
 11
5620.471388969278
 21
-4842.275372324827
 31
0.0
  0
LINE
  5
7CA2
330
18
100
AcDbEntity
  8
25
100
AcDbLine
 10
5606.070433078934
 20
-4832.531363155737
 30
0.0
 11
5606.889669627866
 21
-4831.78506205947
 31
0.0
  0
LINE
  5
7CA3
330
18
100
AcDbEntity
  8
25
100
AcDbLine
 10
5620.059246501046
 20
-4831.971810618862
 30
0.0
 11
5619.183018607515
 21
-4831.293328100294
 31
0.0
  0
LINE
  5
7CA4
330
18
100
AcDbEntity
  8
Anker
 62
     1
 48
5.0
100
AcDbLine
 10
5624.256837273488
 20
-4926.90358312938
 30
0.0
 11
5609.708153942008
 21
-4933.482381537212
 31
0.0
  0
LINE
  5
7CA5
330
18
100
AcDbEntity
  8
Anker
 62
     1
 48
5.0
100
AcDbLine
 10
5609.708153942008
 20
-4933.482381537212
 30
0.0
 11
5607.883537114016
 21
-4935.404945649587
 31
0.0
  0
LINE
  5
7CA6
330
18
100
AcDbEntity
  8
Anker
 62
     1
 48
5.0
100
AcDbLine
 10
5607.883537114016
 20
-4935.404945649587
 30
0.0
 11
5626.167693192764
 21
-4927.136996299204
 31
0.0
  0
LINE
  5
7CA7
330
18
100
AcDbEntity
  8
Anker
 62
     1
 48
5.0
100
AcDbLine
 10
5626.167693192764
 20
-4927.136996299204
 30
0.0
 11
5624.256837273488
 21
-4926.90358312938
 31
0.0
  0
LINE
  5
7CA8
330
18
100
AcDbEntity
  8
Anker
 62
     1
 48
5.0
100
AcDbLine
 10
5624.256837273488
 20
-4926.90358312938
 30
0.0
 11
5624.22739276435
 21
-4926.167470400695
 31
0.0
  0
LINE
  5
7CA9
330
18
100
AcDbEntity
  8
Anker
 62
     1
 48
5.0
100
AcDbLine
 10
5624.22739276435
 20
-4926.167470400695
 30
0.0
 11
5624.552799273175
 21
-4925.54563591921
 31
0.0
  0
LINE
  5
7CAA
330
18
100
AcDbEntity
  8
Anker
 62
     1
 48
5.0
100
AcDbLine
 10
5624.552799273175
 20
-4925.54563591921
 30
0.0
 11
5622.578711182501
 21
-4876.193433651166
 31
0.0
  0
LINE
  5
7CAB
330
18
100
AcDbEntity
  8
25
100
AcDbLine
 10
5609.286565991491
 20
-4831.689186204928
 30
0.0
 11
5609.727204132017
 21
-4842.705139718307
 31
0.0
  0
LINE
  5
7CAC
330
18
100
AcDbEntity
  8
25
100
AcDbLine
 10
5616.786122243898
 20
-4831.38920395484
 30
0.0
 11
5617.226760384428
 21
-4842.40515746822
 31
0.0
  0
LINE
  5
7CAD
330
18
100
AcDbEntity
  8
25
 48
10.0
100
AcDbLine
 10
5634.059532289192
 20
-4856.719059239686
 30
0.0
 11
5594.091493940316
 21
-4858.317780773614
 31
0.0
  0
LINE
  5
7CAE
330
18
100
AcDbEntity
  8
25
 48
10.0
100
AcDbLine
 10
5594.091493940316
 20
-4858.317780773614
 30
0.0
 11
5594.251366093711
 21
-4862.314584608504
 31
0.0
  0
LINE
  5
7CAF
330
18
100
AcDbEntity
  8
25
 48
10.0
100
AcDbLine
 10
5634.219404442583
 20
-4860.715863074574
 30
0.0
 11
5634.059532289192
 21
-4856.719059239686
 31
0.0
  0
ELLIPSE
  5
7CB0
330
18
100
AcDbEntity
  8
18
100
AcDbEllipse
 10
5679.868578799513
 20
-4853.865374958978
 30
0.0
 11
2.892516514872155
 21
0.1157006605938889
 31
0.0
210
0.0
220
0.0
230
1.0
 40
0.352523008751315
 41
3.141592653588848
 42
4.712388980384107
  0
ELLIPSE
  5
7CB1
330
18
100
AcDbEntity
  8
18
100
AcDbEllipse
 10
5679.411254188385
 20
-4842.432259680507
 30
0.0
 11
2.892516514872233
 21
0.115700660591923
 31
0.0
210
0.0
220
0.0
230
-1.0
 40
0.352523008751315
 41
3.141592653588809
 42
4.712388980385032
  0
ELLIPSE
  5
7CB2
330
18
100
AcDbEntity
  8
18
100
AcDbEllipse
 10
5698.081015965069
 20
-4853.136877472368
 30
0.0
 11
2.892516514872233
 21
0.115700660591923
 31
0.0
210
0.0
220
0.0
230
-1.0
 40
0.352523008751315
 41
-0.0000000000009839
 42
1.570796326795239
  0
ELLIPSE
  5
7CB3
330
18
100
AcDbEntity
  8
18
100
AcDbEllipse
 10
5697.623691353938
 20
-4841.703762193898
 30
0.0
 11
2.892516514872155
 21
0.1157006605938889
 31
0.0
210
0.0
220
0.0
230
1.0
 40
0.352523008751315
 41
-0.000000000000945
 42
1.570796326794314
  0
ELLIPSE
  5
7CB4
330
18
100
AcDbEntity
  8
18
100
AcDbEllipse
 10
5686.082280867426
 20
-4853.616826876265
 30
0.0
 11
2.892516514872233
 21
0.115700660591923
 31
0.0
210
0.0
220
0.0
230
-1.0
 40
0.352523008751315
 41
-0.0000000000009839
 42
1.570796326795239
  0
ELLIPSE
  5
7CB5
330
18
100
AcDbEntity
  8
18
100
AcDbEllipse
 10
5691.86731389716
 20
-4853.38542555508
 30
0.0
 11
2.892516514872155
 21
0.1157006605938889
 31
0.0
210
0.0
220
0.0
230
1.0
 40
0.352523008751315
 41
3.141592653588848
 42
4.712388980384107
  0
ELLIPSE
  5
7CB6
330
18
100
AcDbEntity
  8
18
100
AcDbEllipse
 10
5686.082280867426
 20
-4853.616826876265
 30
0.0
 11
2.892516514872233
 21
0.115700660591923
 31
0.0
210
0.0
220
0.0
230
-1.0
 40
0.352523008751315
 41
-0.0000000000009839
 42
1.570796326795239
  0
ELLIPSE
  5
7CB7
330
18
100
AcDbEntity
  8
18
100
AcDbEllipse
 10
5691.86731389716
 20
-4853.38542555508
 30
0.0
 11
2.892516514872155
 21
0.1157006605938889
 31
0.0
210
0.0
220
0.0
230
1.0
 40
0.352523008751315
 41
3.141592653588848
 42
4.712388980384107
  0
ELLIPSE
  5
7CB8
330
18
100
AcDbEntity
  8
18
100
AcDbEllipse
 10
5691.409989286029
 20
-4841.952310276609
 30
0.0
 11
2.892516514872233
 21
0.115700660591923
 31
0.0
210
0.0
220
0.0
230
-1.0
 40
0.352523008751315
 41
3.141592653588809
 42
4.712388980385032
  0
ELLIPSE
  5
7CB9
330
18
100
AcDbEntity
  8
18
100
AcDbEllipse
 10
5685.62495625629
 20
-4842.183711597795
 30
0.0
 11
2.892516514872155
 21
0.1157006605938889
 31
0.0
210
0.0
220
0.0
230
1.0
 40
0.352523008751315
 41
-0.000000000000945
 42
1.570796326794314
  0
LINE
  5
7CBA
330
18
100
AcDbEntity
  8
18
100
AcDbLine
 10
5688.517472771159
 20
-4842.068010937205
 30
0.0
 11
5688.974797382292
 21
-4853.501126215672
 31
0.0
  0
LINE
  5
7CBB
330
18
100
AcDbEntity
  8
25
100
AcDbLine
 10
5676.477950528522
 20
-4841.528281716412
 30
-0.0000000000000013
 11
5700.475420723809
 21
-4840.568382908621
 31
0.0
  0
LINE
  5
7CBC
330
18
100
AcDbEntity
  8
25
100
AcDbLine
 10
5700.475420723809
 20
-4840.568382908621
 30
0.0
 11
5701.014319624921
 21
-4854.040855436458
 31
0.0
  0
LINE
  5
7CBD
330
18
100
AcDbEntity
  8
25
100
AcDbLine
 10
5676.477950528522
 20
-4841.528281716412
 30
-0.0000000000000013
 11
5677.016849429634
 21
-4855.000754244255
 31
0.0
  0
LINE
  5
7CBE
330
18
100
AcDbEntity
  8
25
 48
10.0
100
AcDbLine
 10
5669.191437506232
 20
-4859.316969442207
 30
0.0
 11
5709.159475855108
 21
-4857.718247908286
 31
0.0
  0
CIRCLE
  5
7CBF
330
18
100
AcDbEntity
  8
25
100
AcDbCircle
 10
-5490.444152553119
 20
0.0
 30
-5078.020635377253
 40
11.0
210
-0.0399680383481761
220
0.9992009587218172
230
0.0
  0
CIRCLE
  5
7CC0
330
18
100
AcDbEntity
  8
25
100
AcDbCircle
 10
5490.444152553119
 20
0.0
 30
5078.020635377253
 40
11.0
210
0.0399680383481761
220
-0.9992009587218172
230
0.0
  0
CIRCLE
  5
7CC1
330
18
100
AcDbEntity
  8
25
100
AcDbCircle
 10
5490.444152553119
 20
0.0
 30
5078.020635377253
 40
8.299999999999981
210
0.0399680383481761
220
-0.9992009587218172
230
0.0
  0
CIRCLE
  5
7CC2
330
18
100
AcDbEntity
  8
25
100
AcDbCircle
 10
-5490.444152553119
 20
0.0
 30
-5078.020635377253
 40
8.299999999999981
210
-0.0399680383481761
220
0.9992009587218172
230
0.0
  0
LINE
  5
7CC3
330
18
100
AcDbEntity
  8
25
100
AcDbLine
 10
5700.006795073214
 20
-4854.08115641853
 30
0.0
 11
5678.024373981338
 21
-4854.96045326219
 31
0.0
  0
CIRCLE
  5
7CC4
330
18
100
AcDbEntity
  8
25
100
AcDbCircle
 10
5490.444152553119
 20
0.0
 30
5078.020635377253
 40
11.0
210
0.0399680383481761
220
-0.9992009587218172
230
0.0
  0
CIRCLE
  5
7CC5
330
18
100
AcDbEntity
  8
25
100
AcDbCircle
 10
5490.444152553119
 20
0.0
 30
5078.020635377253
 40
11.0
210
0.0399680383481761
220
-0.9992009587218172
230
0.0
  0
CIRCLE
  5
7CC6
330
18
100
AcDbEntity
  8
25
100
AcDbCircle
 10
5490.444152553119
 20
0.0
 30
5078.020635377253
 40
8.299999999999981
210
0.0399680383481761
220
-0.9992009587218172
230
0.0
  0
CIRCLE
  5
7CC7
330
18
100
AcDbEntity
  8
25
100
AcDbCircle
 10
5490.444152553119
 20
0.0
 30
5078.020635377253
 40
8.299999999999981
210
0.0399680383481761
220
-0.9992009587218172
230
0.0
  0
LINE
  5
7CC8
330
18
100
AcDbEntity
  8
Anker
 62
     1
 48
5.0
100
AcDbLine
 10
5684.379289987788
 20
-4923.761382201955
 30
0.0
 11
5684.648225354536
 21
-4930.484766370923
 31
0.0
  0
LINE
  5
7CC9
330
18
100
AcDbEntity
  8
Anker
 62
     1
 48
5.0
100
AcDbLine
 10
5684.379289987788
 20
-4923.761382201955
 30
0.0
 11
5699.167464176878
 21
-4923.169855234405
 31
0.0
  0
LINE
  5
7CCA
330
18
100
AcDbEntity
  8
Anker
 62
     1
 48
5.0
100
AcDbLine
 10
5701.027664401922
 20
-5003.159421645858
 30
0.0
 11
5688.913975898442
 21
-5003.643969185987
 31
0.0
  0
LINE
  5
7CCB
330
18
100
AcDbEntity
  8
25
100
AcDbLine
 10
5696.199839420497
 20
-4840.222239121051
 30
0.0
 11
5680.712224560306
 21
-4840.841743715453
 31
0.0
  0
LINE
  5
7CCC
330
18
100
AcDbEntity
  8
25
100
AcDbLine
 10
5681.829741040395
 20
-4828.78744689318
 30
0.0
 11
5694.123090020044
 21
-4828.295712934004
 31
0.0
  0
LINE
  5
7CCD
330
18
100
AcDbEntity
  8
25
100
AcDbLine
 10
5680.712224560306
 20
-4840.841743715453
 30
0.0
 11
5696.199839420497
 21
-4840.222239121051
 31
0.0
  0
LINE
  5
7CCE
330
18
100
AcDbEntity
  8
Anker
 62
     1
 48
5.0
100
AcDbLine
 10
5702.165067052981
 20
-4998.109927138536
 30
0.0
 11
5687.376892863898
 21
-4998.701454106094
 31
0.0
  0
LINE
  5
7CCF
330
18
100
AcDbEntity
  8
Anker
 62
     1
 48
5.0
100
AcDbLine
 10
5687.376892863898
 20
-4998.701454106094
 30
0.0
 11
5688.913975898442
 21
-5003.643969185987
 31
0.0
  0
LINE
  5
7CD0
330
18
100
AcDbEntity
  8
Anker
 62
     1
 48
5.0
100
AcDbLine
 10
5702.165067052981
 20
-4998.109927138536
 30
0.0
 11
5701.572990430531
 21
-5000.738448929149
 31
0.0
  0
LINE
  5
7CD1
330
18
100
AcDbEntity
  8
Anker
 62
     1
 48
5.0
100
AcDbLine
 10
5682.031169876594
 20
-4873.815376623259
 30
0.0
 11
5684.00525582551
 21
-4923.167525347322
 31
0.0
  0
LINE
  5
7CD2
330
18
100
AcDbEntity
  8
Anker
 62
     1
 48
5.0
100
AcDbLine
 10
5684.379289987788
 20
-4923.761382201955
 30
0.0
 11
5684.00525582551
 21
-4923.167525347322
 31
0.0
  0
LINE
  5
7CD3
330
18
100
AcDbEntity
  8
Anker
 62
     1
 48
5.0
100
AcDbLine
 10
5685.194608039563
 20
-4991.682318309628
 30
0.0
 11
5703.478764118307
 21
-4983.414368959251
 31
0.0
  0
LINE
  5
7CD4
330
18
100
AcDbEntity
  8
Anker
 62
     1
 48
5.0
100
AcDbLine
 10
5684.60185816131
 20
-4976.863571353046
 30
0.0
 11
5702.886014240058
 21
-4968.59562200267
 31
0.0
  0
LINE
  5
7CD5
330
18
100
AcDbEntity
  8
Anker
 62
     1
 48
5.0
100
AcDbLine
 10
5684.009108283056
 20
-4962.044824396462
 30
0.0
 11
5702.293264361808
 21
-4953.776875046079
 31
0.0
  0
LINE
  5
7CD6
330
18
100
AcDbEntity
  8
Anker
 62
     1
 48
5.0
100
AcDbLine
 10
5683.416358404806
 20
-4947.22607743988
 30
0.0
 11
5701.700514483554
 21
-4938.958128089497
 31
0.0
  0
LINE
  5
7CD7
330
18
100
AcDbEntity
  8
Anker
 62
     1
 48
5.0
100
AcDbLine
 10
5684.734464445821
 20
-4932.640743653123
 30
0.0
 11
5699.283147777301
 21
-4926.061945245291
 31
0.0
  0
LINE
  5
7CD8
330
18
100
AcDbEntity
  8
Anker
 62
     1
 48
5.0
100
AcDbLine
 10
5685.240975232797
 20
-4945.303513327504
 30
0.0
 11
5699.789658564271
 21
-4938.724714919673
 31
0.0
  0
LINE
  5
7CD9
330
18
100
AcDbEntity
  8
Anker
 62
     1
 48
5.0
100
AcDbLine
 10
5685.327214324082
 20
-4947.459490609705
 30
0.0
 11
5699.875897655556
 21
-4940.88069220188
 31
0.0
  0
LINE
  5
7CDA
330
18
100
AcDbEntity
  8
Anker
 62
     1
 48
5.0
100
AcDbLine
 10
5685.833725111047
 20
-4960.122260284088
 30
0.0
 11
5700.382408442532
 21
-4953.543461876255
 31
0.0
  0
LINE
  5
7CDB
330
18
100
AcDbEntity
  8
Anker
 62
     1
 48
5.0
100
AcDbLine
 10
5685.919964202333
 20
-4962.278237566294
 30
0.0
 11
5700.468647533817
 21
-4955.699439158463
 31
0.0
  0
LINE
  5
7CDC
330
18
100
AcDbEntity
  8
Anker
 62
     1
 48
5.0
100
AcDbLine
 10
5686.426474989297
 20
-4974.941007240669
 30
0.0
 11
5700.975158320783
 21
-4968.362208832838
 31
0.0
  0
LINE
  5
7CDD
330
18
100
AcDbEntity
  8
Anker
 62
     1
 48
5.0
100
AcDbLine
 10
5686.512714080585
 20
-4977.096984522876
 30
0.0
 11
5701.061397412067
 21
-4970.518186115045
 31
0.0
  0
LINE
  5
7CDE
330
18
100
AcDbEntity
  8
Anker
 62
     1
 48
5.0
100
AcDbLine
 10
5687.019224867551
 20
-4989.759754197251
 30
0.0
 11
5701.567908199032
 21
-4983.18095578942
 31
0.0
  0
LINE
  5
7CDF
330
18
100
AcDbEntity
  8
Anker
 62
     1
 48
5.0
100
AcDbLine
 10
5687.105463958836
 20
-4991.915731479459
 30
0.0
 11
5701.654147290322
 21
-4985.336933071628
 31
0.0
  0
LINE
  5
7CE0
330
18
100
AcDbEntity
  8
Anker
 62
     1
 48
5.0
100
AcDbLine
 10
5695.752499985216
 20
-5003.370428222524
 30
0.0
 11
5701.572990430531
 21
-5000.738448929149
 31
0.0
  0
LINE
  5
7CE1
330
18
100
AcDbEntity
  8
Anker
 62
     1
 48
5.0
100
AcDbLine
 10
5684.734464445821
 20
-4932.640743653123
 30
0.0
 11
5682.823608526545
 21
-4932.407330483297
 31
0.0
  0
LINE
  5
7CE2
330
18
100
AcDbEntity
  8
Anker
 62
     1
 48
5.0
100
AcDbLine
 10
5701.107764605293
 20
-4924.139381132915
 30
0.0
 11
5699.283147777301
 21
-4926.061945245291
 31
0.0
  0
LINE
  5
7CE3
330
18
100
AcDbEntity
  8
Anker
 62
     1
 48
5.0
100
AcDbLine
 10
5685.240975232797
 20
-4945.303513327504
 30
0.0
 11
5683.416358404806
 21
-4947.22607743988
 31
0.0
  0
LINE
  5
7CE4
330
18
100
AcDbEntity
  8
Anker
 62
     1
 48
5.0
100
AcDbLine
 10
5683.416358404806
 20
-4947.22607743988
 30
0.0
 11
5685.327214324082
 21
-4947.459490609705
 31
0.0
  0
LINE
  5
7CE5
330
18
100
AcDbEntity
  8
Anker
 62
     1
 48
5.0
100
AcDbLine
 10
5699.789658564271
 20
-4938.724714919673
 30
0.0
 11
5701.700514483554
 21
-4938.958128089497
 31
0.0
  0
LINE
  5
7CE6
330
18
100
AcDbEntity
  8
Anker
 62
     1
 48
5.0
100
AcDbLine
 10
5701.700514483554
 20
-4938.958128089497
 30
0.0
 11
5699.875897655556
 21
-4940.88069220188
 31
0.0
  0
LINE
  5
7CE7
330
18
100
AcDbEntity
  8
Anker
 62
     1
 48
5.0
100
AcDbLine
 10
5685.833725111047
 20
-4960.122260284088
 30
0.0
 11
5684.009108283056
 21
-4962.044824396462
 31
0.0
  0
LINE
  5
7CE8
330
18
100
AcDbEntity
  8
Anker
 62
     1
 48
5.0
100
AcDbLine
 10
5684.009108283056
 20
-4962.044824396462
 30
0.0
 11
5685.919964202333
 21
-4962.278237566287
 31
0.0
  0
LINE
  5
7CE9
330
18
100
AcDbEntity
  8
Anker
 62
     1
 48
5.0
100
AcDbLine
 10
5700.382408442532
 20
-4953.543461876255
 30
0.0
 11
5702.293264361808
 21
-4953.776875046079
 31
0.0
  0
LINE
  5
7CEA
330
18
100
AcDbEntity
  8
Anker
 62
     1
 48
5.0
100
AcDbLine
 10
5702.293264361808
 20
-4953.776875046079
 30
0.0
 11
5700.468647533817
 21
-4955.699439158463
 31
0.0
  0
LINE
  5
7CEB
330
18
100
AcDbEntity
  8
Anker
 62
     1
 48
5.0
100
AcDbLine
 10
5686.426474989297
 20
-4974.941007240669
 30
0.0
 11
5684.60185816131
 21
-4976.863571353046
 31
0.0
  0
LINE
  5
7CEC
330
18
100
AcDbEntity
  8
Anker
 62
     1
 48
5.0
100
AcDbLine
 10
5684.60185816131
 20
-4976.863571353046
 30
0.0
 11
5686.512714080585
 21
-4977.096984522876
 31
0.0
  0
LINE
  5
7CED
330
18
100
AcDbEntity
  8
Anker
 62
     1
 48
5.0
100
AcDbLine
 10
5700.975158320783
 20
-4968.362208832838
 30
0.0
 11
5702.886014240058
 21
-4968.59562200267
 31
0.0
  0
LINE
  5
7CEE
330
18
100
AcDbEntity
  8
Anker
 62
     1
 48
5.0
100
AcDbLine
 10
5702.886014240058
 20
-4968.59562200267
 30
0.0
 11
5701.061397412067
 21
-4970.518186115045
 31
0.0
  0
LINE
  5
7CEF
330
18
100
AcDbEntity
  8
Anker
 62
     1
 48
5.0
100
AcDbLine
 10
5687.019224867551
 20
-4989.759754197251
 30
0.0
 11
5685.194608039563
 21
-4991.682318309628
 31
0.0
  0
LINE
  5
7CF0
330
18
100
AcDbEntity
  8
Anker
 62
     1
 48
5.0
100
AcDbLine
 10
5685.194608039563
 20
-4991.682318309628
 30
0.0
 11
5687.105463958836
 21
-4991.915731479459
 31
0.0
  0
LINE
  5
7CF1
330
18
100
AcDbEntity
  8
Anker
 62
     1
 48
5.0
100
AcDbLine
 10
5701.567908199032
 20
-4983.18095578942
 30
0.0
 11
5703.478764118307
 21
-4983.414368959251
 31
0.0
  0
LINE
  5
7CF2
330
18
100
AcDbEntity
  8
Anker
 62
     1
 48
5.0
100
AcDbLine
 10
5703.478764118307
 20
-4983.414368959251
 30
0.0
 11
5701.654147290322
 21
-4985.336933071628
 31
0.0
  0
LINE
  5
7CF3
330
18
100
AcDbEntity
  8
Anker
 62
     1
 48
5.0
100
AcDbLine
 10
5701.572990430531
 20
-5000.738448929149
 30
0.0
 11
5703.580354037931
 21
-5000.92822209317
 31
0.0
  0
LINE
  5
7CF4
330
18
100
AcDbEntity
  8
Anker
 62
     1
 48
5.0
100
AcDbLine
 10
5703.580354037931
 20
-5000.92822209317
 30
0.0
 11
5701.027664401922
 21
-5003.159421645858
 31
0.0
  0
LINE
  5
7CF5
330
18
100
AcDbEntity
  8
Anker
 62
     1
 48
5.0
100
AcDbLine
 10
5687.105463958836
 20
-4991.915731479459
 30
0.0
 11
5687.376892863898
 21
-4998.701454106094
 31
0.0
  0
LINE
  5
7CF6
330
18
100
AcDbEntity
  8
Anker
 62
     1
 48
5.0
100
AcDbLine
 10
5686.512714080585
 20
-4977.096984522876
 30
0.0
 11
5687.019224867551
 21
-4989.759754197251
 31
0.0
  0
LINE
  5
7CF7
330
18
100
AcDbEntity
  8
Anker
 62
     1
 48
5.0
100
AcDbLine
 10
5685.919964202333
 20
-4962.278237566287
 30
0.0
 11
5686.426474989297
 21
-4974.941007240669
 31
0.0
  0
LINE
  5
7CF8
330
18
100
AcDbEntity
  8
Anker
 62
     1
 48
5.0
100
AcDbLine
 10
5685.327214324082
 20
-4947.459490609705
 30
0.0
 11
5685.833725111047
 21
-4960.122260284088
 31
0.0
  0
LINE
  5
7CF9
330
18
100
AcDbEntity
  8
Anker
 62
     1
 48
5.0
100
AcDbLine
 10
5684.734464445821
 20
-4932.640743653123
 30
0.0
 11
5685.240975232797
 21
-4945.303513327504
 31
0.0
  0
LINE
  5
7CFA
330
18
100
AcDbEntity
  8
Anker
 62
     1
 48
5.0
100
AcDbLine
 10
5699.283147777301
 20
-4926.061945245291
 30
0.0
 11
5699.789658564271
 21
-4938.724714919673
 31
0.0
  0
LINE
  5
7CFB
330
18
100
AcDbEntity
  8
Anker
 62
     1
 48
5.0
100
AcDbLine
 10
5699.875897655556
 20
-4940.88069220188
 30
0.0
 11
5700.382408442532
 21
-4953.543461876255
 31
0.0
  0
LINE
  5
7CFC
330
18
100
AcDbEntity
  8
Anker
 62
     1
 48
5.0
100
AcDbLine
 10
5700.468647533817
 20
-4955.699439158463
 30
0.0
 11
5700.975158320783
 21
-4968.362208832838
 31
0.0
  0
LINE
  5
7CFD
330
18
100
AcDbEntity
  8
Anker
 62
     1
 48
5.0
100
AcDbLine
 10
5701.061397412067
 20
-4970.518186115045
 30
0.0
 11
5701.567908199032
 21
-4983.18095578942
 31
0.0
  0
LINE
  5
7CFE
330
18
100
AcDbEntity
  8
Anker
 62
     1
 48
5.0
100
AcDbLine
 10
5701.654147290322
 20
-4985.336933071628
 30
0.0
 11
5702.165067052981
 21
-4998.109927138536
 31
0.0
  0
LINE
  5
7CFF
330
18
100
AcDbEntity
  8
Anker
 62
     1
 48
5.0
100
AcDbLine
 10
5698.415062382377
 20
-5003.263925726637
 30
0.0
 11
5703.580354037931
 21
-5000.92822209317
 31
0.0
  0
LINE
  5
7D00
330
18
100
AcDbEntity
  8
25
100
AcDbLine
 10
5696.199839420497
 20
-4840.222239121051
 30
0.0
 11
5696.221102469695
 21
-4840.753815350893
 31
0.0
  0
LINE
  5
7D01
330
18
100
AcDbEntity
  8
25
100
AcDbLine
 10
5680.712224560306
 20
-4840.841743715453
 30
0.0
 11
5680.732878196073
 21
-4841.358084609714
 31
-0.0000000000000011
  0
LINE
  5
7D02
330
18
100
AcDbEntity
  8
18
100
AcDbLine
 10
5688.739651640561
 20
-4841.037813671939
 30
0.0
 11
5690.596480723512
 21
-4840.44637346893
 31
0.0
  0
LINE
  5
7D03
330
18
100
AcDbEntity
  8
18
100
AcDbLine
 10
5681.203412561079
 20
-4841.339263235113
 30
0.0
 11
5683.060241644037
 21
-4840.747823032104
 31
0.0
  0
LINE
  5
7D04
330
18
100
AcDbEntity
  8
18
100
AcDbLine
 10
5692.507771180295
 20
-4840.887088890351
 30
0.0
 11
5694.364600263249
 21
-4840.295648687344
 31
0.0
  0
LINE
  5
7D05
330
18
100
AcDbEntity
  8
18
100
AcDbLine
 10
5684.971532100824
 20
-4841.188538453526
 30
0.0
 11
5686.828361183767
 21
-4840.597098250516
 31
0.0
  0
LINE
  5
7D06
330
18
100
AcDbEntity
  8
25
100
AcDbLine
 10
5681.010504491463
 20
-4829.533747989447
 30
0.0
 11
5681.422646959698
 21
-4839.837309695411
 31
0.0
  0
LINE
  5
7D07
330
18
100
AcDbEntity
  8
25
100
AcDbLine
 10
5694.999317913574
 20
-4828.974195452572
 30
0.0
 11
5695.411460381807
 21
-4839.277757158537
 31
0.0
  0
LINE
  5
7D08
330
18
100
AcDbEntity
  8
25
100
AcDbLine
 10
5680.712224560306
 20
-4840.841743715453
 30
0.0
 11
5681.422646959698
 21
-4839.837309695411
 31
0.0
  0
LINE
  5
7D09
330
18
100
AcDbEntity
  8
25
100
AcDbLine
 10
5696.199839420497
 20
-4840.222239121051
 30
0.0
 11
5695.411460381807
 21
-4839.277757158537
 31
0.0
  0
LINE
  5
7D0A
330
18
100
AcDbEntity
  8
25
100
AcDbLine
 10
5681.422646959698
 20
-4839.837309695411
 30
0.0
 11
5695.411460381807
 21
-4839.277757158537
 31
0.0
  0
LINE
  5
7D0B
330
18
100
AcDbEntity
  8
25
100
AcDbLine
 10
5681.010504491463
 20
-4829.533747989447
 30
0.0
 11
5681.829741040395
 21
-4828.78744689318
 31
0.0
  0
LINE
  5
7D0C
330
18
100
AcDbEntity
  8
25
100
AcDbLine
 10
5694.999317913574
 20
-4828.974195452572
 30
0.0
 11
5694.123090020044
 21
-4828.295712934004
 31
0.0
  0
LINE
  5
7D0D
330
18
100
AcDbEntity
  8
Anker
 62
     1
 48
5.0
100
AcDbLine
 10
5699.196908686017
 20
-4923.90596796309
 30
0.0
 11
5684.648225354536
 21
-4930.484766370923
 31
0.0
  0
LINE
  5
7D0E
330
18
100
AcDbEntity
  8
Anker
 62
     1
 48
5.0
100
AcDbLine
 10
5684.648225354536
 20
-4930.484766370923
 30
0.0
 11
5682.823608526545
 21
-4932.407330483297
 31
0.0
  0
LINE
  5
7D0F
330
18
100
AcDbEntity
  8
Anker
 62
     1
 48
5.0
100
AcDbLine
 10
5682.823608526545
 20
-4932.407330483297
 30
0.0
 11
5701.107764605293
 21
-4924.139381132915
 31
0.0
  0
LINE
  5
7D10
330
18
100
AcDbEntity
  8
Anker
 62
     1
 48
5.0
100
AcDbLine
 10
5701.107764605293
 20
-4924.139381132915
 30
0.0
 11
5699.196908686017
 21
-4923.90596796309
 31
0.0
  0
LINE
  5
7D11
330
18
100
AcDbEntity
  8
Anker
 62
     1
 48
5.0
100
AcDbLine
 10
5699.196908686017
 20
-4923.90596796309
 30
0.0
 11
5699.167464176878
 21
-4923.169855234405
 31
0.0
  0
LINE
  5
7D12
330
18
100
AcDbEntity
  8
Anker
 62
     1
 48
5.0
100
AcDbLine
 10
5699.167464176878
 20
-4923.169855234405
 30
0.0
 11
5699.492870685702
 21
-4922.548020752921
 31
0.0
  0
LINE
  5
7D13
330
18
100
AcDbEntity
  8
Anker
 62
     1
 48
5.0
100
AcDbLine
 10
5699.492870685702
 20
-4922.548020752921
 30
0.0
 11
5697.518783086632
 21
-4873.195830775001
 31
0.0
  0
LINE
  5
7D14
330
18
100
AcDbEntity
  8
25
100
AcDbLine
 10
5684.22663740402
 20
-4828.691571038638
 30
0.0
 11
5684.667275544545
 21
-4839.707524552017
 31
0.0
  0
LINE
  5
7D15
330
18
100
AcDbEntity
  8
25
100
AcDbLine
 10
5691.726193656427
 20
-4828.391588788551
 30
0.0
 11
5692.166831796956
 21
-4839.407542301931
 31
0.0
  0
LINE
  5
7D16
330
18
100
AcDbEntity
  8
25
 48
10.0
100
AcDbLine
 10
5708.99960370172
 20
-4853.721444073396
 30
0.0
 11
5669.031565352845
 21
-4855.320165607324
 31
0.0
  0
LINE
  5
7D17
330
18
100
AcDbEntity
  8
25
 48
10.0
100
AcDbLine
 10
5669.031565352845
 20
-4855.320165607324
 30
0.0
 11
5669.191437506239
 21
-4859.316969442215
 31
0.0
  0
LINE
  5
7D18
330
18
100
AcDbEntity
  8
25
 48
10.0
100
AcDbLine
 10
5709.159475855112
 20
-4857.718247908285
 30
0.0
 11
5708.99960370172
 21
-4853.721444073396
 31
0.0
  0
DIMENSION
  5
8362
330
18
100
AcDbEntity
  8
KOTIERUNG
100
AcDbDimension
  2
*D25
 10
5749.940751770771
 20
-5001.202910460882
 30
0.0
 11
5747.342829278093
 21
-4936.254848143966
 31
0.0
 70
    33
 71
     5
 42
130.0
  3
VAKF
100
AcDbAlignedDimension
 13
5697.518783086632
 23
-4873.195830775001
 33
0.0
 14
5702.714628071987
 24
-5003.091955408834
 34
0.0
1001
ACAD
1000
DSTYLE
1002
{
1070
    75
1070
     1
1070
   281
1070
     0
1002
}
  0
DIMENSION
  5
83F9
330
18
100
AcDbEntity
  8
KOTIERUNG
100
AcDbDimension
  2
*D26
 10
5934.051681958099
 20
-5561.530420167764
 30
0.0
 11
5742.177229821705
 21
-5561.530420167764
 31
0.0
 70
   160
 71
     5
 42
380.0000000000036
  3
VAKF
100
AcDbAlignedDimension
 13
5554.051681958096
 23
-5310.684914129739
 33
0.0
 14
5934.051681958099
 24
-5310.684914129739
 34
0.0
100
AcDbRotatedDimension
  0
DIMENSION
  5
83FA
330
18
100
AcDbEntity
  8
KOTIERUNG
100
AcDbDimension
  2
*D27
 10
5614.051681958091
 20
-5383.217382765346
 30
0.0
 11
5513.344031724809
 21
-5383.217382765346
 31
0.0
 70
   160
 71
     5
 42
59.99999999999636
  3
VAKF
100
AcDbAlignedDimension
 13
5554.051681958094
 23
-5310.684914129739
 33
0.0
 14
5614.051681958091
 24
-5310.684914129739
 34
0.0
100
AcDbRotatedDimension
1001
ACAD
1000
DSTYLE
1002
{
1070
    77
1070
     0
1070
   279
1070
     1
1002
}
  0
DIMENSION
  5
83FB
330
18
100
AcDbEntity
  8
KOTIERUNG
100
AcDbDimension
  2
*D28
 10
5689.051681958098
 20
-5383.217382765346
 30
0.0
 11
5725.725965723447
 21
-5383.217382765346
 31
0.0
 70
   160
 71
     5
 42
75.00000000000364
  3
VAKF
100
AcDbAlignedDimension
 13
5614.051681958095
 23
-5310.684914129739
 33
0.0
 14
5689.051681958098
 24
-5460.684914129739
 34
0.0
100
AcDbRotatedDimension
  0
LWPOLYLINE
  5
84A1
330
18
100
AcDbEntity
  8
KOTIERUNG
100
AcDbPolyline
 90
        3
 70
     0
 10
5454.771173498566
 20
-4855.392360850809
 40
0.0
 41
0.0
 10
5368.046969094582
 20
-4858.861329026971
 40
7.0
 41
0.0
 10
5348.062949920146
 20
-4859.660689793947
 40
0.0
 41
0.0
  0
MTEXT
  5
84A2
330
18
100
AcDbEntity
  8
KOTIERUNG
100
AcDbMText
 10
5375.894911450972
 20
-4822.14463220608
 30
0.0
 40
25.0
 41
81.35852964131482
 71
     1
 72
     5
  1
4,0%
  7
VOEST
 11
0.9992009587217896
 21
0.0399680383488665
 31
0.0
 73
     1
 44
1.0
1001
ACAD
1000
ACAD_MTEXT_DEFINED_HEIGHT_BEGIN
1070
    46
1040
0.0
1000
ACAD_MTEXT_DEFINED_HEIGHT_END
1000
MTEXTBEGIN
1070
    73
1070
     1
1070
    44
1040
1.0
1070
    74
1070
     0
1000
MTEXTEND
  0
LWPOLYLINE
  5
84CB
330
18
100
AcDbEntity
  8
25
  6
STRICHPUNKT
 48
0.05
100
AcDbPolyline
 90
        4
 70
     0
 43
0.0
 10
5762.146987999226
 20
-3629.366872062178
 10
5703.613427970085
 20
-3631.708214463344
 42
0.9999999999999998
 10
5705.931574194321
 20
-3689.661870069207
 10
5764.46513422346
 20
-3687.320527668042
  0
DIMENSION
  5
8595
330
18
100
AcDbEntity
  8
KOTIERUNG
100
AcDbDimension
  2
*D30
 10
5761.098470656484
 20
-4654.989584941601
 30
0.0
 11
5523.78819356693
 21
-4664.481996119084
 31
0.0
 70
    33
 71
     5
 42
475.0000988727606
  3
VAKF
100
AcDbAlignedDimension
 13
5278.054043093483
 23
-4463.37757478252
 33
0.0
 14
5752.674597272591
 24
-4444.392752427552
 34
0.0
1001
ACAD
1000
DSTYLE
1002
{
1070
    47
1040
20.0
1070
    48
1040
20.0
1070
    71
1070
     1
1070
   146
1040
0.75
1002
}
  0
DIMENSION
  5
85A2
330
18
100
AcDbEntity
  8
KOTIERUNG
100
AcDbDimension
  2
*D31
 10
5875.007222075442
 20
-4650.433234839771
 30
0.0
 11
5815.866748118686
 21
-4652.798853821442
 31
0.0
 70
   160
 71
     5
 42
113.9998420002257
  3
VAKF
100
AcDbAlignedDimension
 13
5752.674597272591
 23
-4444.392752427552
 33
0.0
 14
5866.58334869155
 24
-4439.836402325723
 34
0.0
 50
182.2906100652736
100
AcDbRotatedDimension
  0
DIMENSION
  5
8608
330
18
100
AcDbEntity
  8
KOTIERUNG
100
AcDbDimension
  2
*D33
 10
5882.9405074537
 20
-4922.384856956501
 30
0.0
 11
5846.291803497356
 21
-4922.384856956501
 31
0.0
 70
    32
 71
     5
 42
50.03998155572571
  3
VAKF
100
AcDbAlignedDimension
 13
5932.980489009426
 23
-4848.765367334252
 33
0.0
 14
5882.9405074537
 24
-4850.766974816136
 34
0.0
100
AcDbRotatedDimension
  0
LINE
  5
879C
330
18
100
AcDbEntity
  8
KOTIERUNG
100
AcDbLine
 10
5666.802872494492
 20
-3662.203827409784
 30
0.0
 11
5658.809226869783
 21
-3462.363637183626
 31
0.0
  0
DIMENSION
  5
87DE
330
18
100
AcDbEntity
  8
KOTIERUNG
100
AcDbDimension
  2
*D34
 10
5718.741732716083
 20
-3395.915166008856
 30
0.0
 11
5830.515766472139
 21
-4797.139108907681
 31
0.0
 70
    34
 71
     5
 42
1.570796313786022
  3
VAKF
100
AcDb2LineAngularDimension
 13
5554.283328138117
 23
-4863.913315974567
 33
0.0
 14
5932.980489009426
 24
-4848.765367334252
 34
0.0
 15
5777.105362655922
 25
-4855.000397992715
 35
0.0
 16
5843.671454592719
 26
-4812.934314093032
 36
0.0
  0
CIRCLE
  5
8835
330
18
100
AcDbEntity
  8
Hilfslinie
100
AcDbCircle
 10
5689.051681958098
 20
-5160.684914129738
 30
0.0
 40
14.0
  0
CIRCLE
  5
8836
330
18
100
AcDbEntity
  8
Hilfslinie
100
AcDbCircle
 10
5689.051681958098
 20
-5460.684914129739
 30
0.0
 40
14.0
  0
CIRCLE
  5
8837
330
18
100
AcDbEntity
  8
Hilfslinie
100
AcDbCircle
 10
5614.051681958098
 20
-5310.684914129739
 30
0.0
 40
14.0
  0
CIRCLE
  5
8838
330
18
100
AcDbEntity
  8
18
100
AcDbCircle
 10
5689.051681958098
 20
-5160.684914129738
 30
0.0
 40
20.0
  0
CIRCLE
  5
8839
330
18
100
AcDbEntity
  8
25
100
AcDbCircle
 10
5689.051681958098
 20
-5160.684914129738
 30
0.0
 40
9.0
  0
LWPOLYLINE
  5
883A
330
18
100
AcDbEntity
  8
18
100
AcDbPolyline
 90
        6
 70
     1
 43
0.0
 10
5681.546128458633
 20
-5147.684914129739
 10
5674.040574959168
 20
-5160.684914129738
 10
5681.546128458633
 20
-5173.684914129739
 10
5696.557235457564
 20
-5173.684914129739
 10
5704.062788957029
 20
-5160.684914129738
 10
5696.557235457564
 20
-5147.684914129739
  0
CIRCLE
  5
883B
330
18
100
AcDbEntity
  8
18
100
AcDbCircle
 10
5614.051681958098
 20
-5310.684914129739
 30
0.0
 40
20.0
  0
CIRCLE
  5
883C
330
18
100
AcDbEntity
  8
25
100
AcDbCircle
 10
5614.051681958098
 20
-5310.684914129739
 30
0.0
 40
9.0
  0
LWPOLYLINE
  5
883D
330
18
100
AcDbEntity
  8
18
100
AcDbPolyline
 90
        6
 70
     1
 43
0.0
 10
5606.546128458633
 20
-5297.684914129739
 10
5599.040574959168
 20
-5310.684914129739
 10
5606.546128458633
 20
-5323.684914129739
 10
5621.557235457564
 20
-5323.684914129739
 10
5629.062788957029
 20
-5310.684914129739
 10
5621.557235457564
 20
-5297.684914129739
  0
CIRCLE
  5
883E
330
18
100
AcDbEntity
  8
18
100
AcDbCircle
 10
5689.051681958098
 20
-5460.684914129739
 30
0.0
 40
20.0
  0
CIRCLE
  5
883F
330
18
100
AcDbEntity
  8
25
100
AcDbCircle
 10
5689.051681958098
 20
-5460.684914129739
 30
0.0
 40
9.0
  0
LWPOLYLINE
  5
8840
330
18
100
AcDbEntity
  8
18
100
AcDbPolyline
 90
        6
 70
     1
 43
0.0
 10
5681.546128458633
 20
-5447.684914129739
 10
5674.040574959168
 20
-5460.684914129739
 10
5681.546128458633
 20
-5473.684914129739
 10
5696.557235457564
 20
-5473.684914129739
 10
5704.062788957029
 20
-5460.684914129739
 10
5696.557235457564
 20
-5447.684914129739
  0
LINE
  5
896E
330
18
100
AcDbEntity
  8
25
100
AcDbLine
 10
8950.255850425245
 20
-462.1194398482018
 30
0.0
 11
9092.255850425244
 21
-462.1194398482023
 31
0.0
  0
LINE
  5
896F
330
18
100
AcDbEntity
  8
25
100
AcDbLine
 10
8950.255850425245
 20
-514.1194398482022
 30
0.0
 11
9092.255850425244
 21
-514.1194398482022
 31
0.0
  0
LINE
  5
8970
330
18
100
AcDbEntity
  8
18
  6
STRICHLINIE
 48
0.1
100
AcDbLine
 10
8900.255850425244
 20
-470.1194475529734
 30
0.0
 11
9142.255850425245
 21
-470.1194475529757
 31
0.0
  0
LINE
  5
8971
330
18
100
AcDbEntity
  8
18
  6
STRICHLINIE
 48
0.1
100
AcDbLine
 10
8900.255850425244
 20
-506.1194321434316
 30
0.0
 11
9142.255850425245
 21
-506.1194321434316
 31
0.0
  0
LINE
  5
8972
330
18
100
AcDbEntity
  8
18
  6
STRICHLINIE
 48
0.1
100
AcDbLine
 10
9021.255850425244
 20
-470.1194475529749
 30
0.0
 11
9021.255850425244
 21
-506.1194321434316
 31
0.0
  0
LWPOLYLINE
  5
8973
330
18
100
AcDbEntity
  8
25
100
AcDbPolyline
 90
        8
 70
     0
 43
0.0
 10
9142.255850425245
 20
-488.1194398482023
 10
9142.255850425245
 20
-463.1194398482023
 10
9138.388336965764
 20
-459.2519263887209
 10
9102.255850425244
 20
-459.2519263887209
 10
9102.255850425244
 20
-459.2519263887209
 10
9096.123363884727
 20
-459.2519263887209
 10
9092.255850425244
 20
-463.1194398482023
 10
9092.255850425244
 20
-488.1194398482023
  0
LINE
  5
8974
330
18
100
AcDbEntity
  8
18
100
AcDbLine
 10
9138.388336965764
 20
-473.6856831184616
 30
0.0
 11
9096.123363884727
 21
-473.6856831184616
 31
0.0
  0
ARC
  5
8975
330
18
100
AcDbEntity
  8
18
100
AcDbCircle
 10
9121.731996304275
 20
-455.3173220756755
 30
0.0
 40
31.51505579556561
100
AcDbArc
 50
200.7227470959199
 51
215.6508237680699
  0
ARC
  5
8976
330
18
100
AcDbEntity
  8
18
100
AcDbCircle
 10
9184.973710583753
 20
-505.2280886826531
 30
0.0
 40
94.2831239263571
100
AcDbArc
 50
160.4548327274135
 51
169.5451672725711
  0
ARC
  5
8977
330
18
100
AcDbEntity
  8
18
100
AcDbCircle
 10
9112.779704546218
 20
-455.3173220756755
 30
0.0
 40
31.51505579556561
100
AcDbArc
 50
324.3491762319302
 51
339.2772529040801
  0
ARC
  5
8978
330
18
100
AcDbEntity
  8
18
100
AcDbCircle
 10
9049.53799026674
 20
-505.2280886826531
 30
0.0
 40
94.2831239263571
100
AcDbArc
 50
10.45483272742887
 51
19.54516727258652
  0
LWPOLYLINE
  5
8979
330
18
100
AcDbEntity
  8
25
100
AcDbPolyline
 90
        8
 70
     0
 43
0.0
 10
9142.255850425245
 20
-488.1194398482023
 10
9142.255850425245
 20
-513.1194398482023
 10
9138.388336965764
 20
-516.9869533076837
 10
9102.255850425244
 20
-516.9869533076837
 10
9102.255850425244
 20
-516.9869533076837
 10
9096.123363884727
 20
-516.9869533076837
 10
9092.255850425244
 20
-513.1194398482023
 10
9092.255850425244
 20
-488.1194398482023
  0
LINE
  5
897A
330
18
100
AcDbEntity
  8
18
100
AcDbLine
 10
9138.388336965764
 20
-502.553196577943
 30
0.0
 11
9096.123363884727
 21
-502.553196577943
 31
0.0
  0
ARC
  5
897B
330
18
100
AcDbEntity
  8
18
100
AcDbCircle
 10
9121.731996304275
 20
-520.9215576207291
 30
0.0
 40
31.51505579556561
100
AcDbArc
 50
144.3491762319301
 51
159.27725290408
  0
ARC
  5
897C
330
18
100
AcDbEntity
  8
18
100
AcDbCircle
 10
9184.973710583753
 20
-471.010791013751
 30
0.0
 40
94.2831239263571
100
AcDbArc
 50
190.4548327274289
 51
199.5451672725865
  0
ARC
  5
897D
330
18
100
AcDbEntity
  8
18
100
AcDbCircle
 10
9112.779704546218
 20
-520.9215576207291
 30
0.0
 40
31.51505579556561
100
AcDbArc
 50
20.72274709591995
 51
35.65082376806987
  0
ARC
  5
897E
330
18
100
AcDbEntity
  8
18
100
AcDbCircle
 10
9049.53799026674
 20
-471.010791013751
 30
0.0
 40
94.2831239263571
100
AcDbArc
 50
340.4548327274135
 51
349.5451672725711
  0
LINE
  5
897F
330
18
100
AcDbEntity
  8
KOTIERUNG
100
AcDbLine
 10
8950.255850425245
 20
-462.1194398482018
 30
0.0
 11
8950.255850425245
 21
-514.1194398482022
 31
0.0
  0
LINE
  5
8980
330
18
100
AcDbEntity
  8
KOTIERUNG
100
AcDbLine
 10
9092.255850425244
 20
-462.1194398482023
 30
0.0
 11
9092.255850425244
 21
-514.1194398482022
 31
0.0
  0
LWPOLYLINE
  5
8981
330
18
100
AcDbEntity
  8
25
100
AcDbPolyline
 90
        8
 70
     0
 43
0.0
 10
8950.255850425245
 20
-488.1194398482023
 10
8950.255850425245
 20
-463.1194398482023
 10
8946.388336965764
 20
-459.2519263887209
 10
8910.255850425244
 20
-459.2519263887209
 10
8910.255850425244
 20
-459.2519263887209
 10
8904.123363884727
 20
-459.2519263887209
 10
8900.255850425244
 20
-463.1194398482023
 10
8900.255850425244
 20
-488.1194398482023
  0
LINE
  5
8982
330
18
100
AcDbEntity
  8
18
100
AcDbLine
 10
8946.388336965764
 20
-473.6856831184616
 30
0.0
 11
8904.123363884727
 21
-473.6856831184616
 31
0.0
  0
ARC
  5
8983
330
18
100
AcDbEntity
  8
18
100
AcDbCircle
 10
8929.731996304274
 20
-455.3173220756755
 30
0.0
 40
31.51505579556561
100
AcDbArc
 50
200.7227470959199
 51
215.6508237680699
  0
ARC
  5
8984
330
18
100
AcDbEntity
  8
18
100
AcDbCircle
 10
8992.973710583752
 20
-505.2280886826531
 30
0.0
 40
94.2831239263571
100
AcDbArc
 50
160.4548327274135
 51
169.5451672725711
  0
ARC
  5
8985
330
18
100
AcDbEntity
  8
18
100
AcDbCircle
 10
8920.779704546218
 20
-455.3173220756755
 30
0.0
 40
31.51505579556561
100
AcDbArc
 50
324.3491762319302
 51
339.2772529040801
  0
ARC
  5
8986
330
18
100
AcDbEntity
  8
18
100
AcDbCircle
 10
8857.53799026674
 20
-505.2280886826531
 30
0.0
 40
94.2831239263571
100
AcDbArc
 50
10.45483272742887
 51
19.54516727258652
  0
LWPOLYLINE
  5
8987
330
18
100
AcDbEntity
  8
25
100
AcDbPolyline
 90
        8
 70
     0
 43
0.0
 10
8950.255850425245
 20
-488.1194398482023
 10
8950.255850425245
 20
-513.1194398482023
 10
8946.388336965764
 20
-516.9869533076837
 10
8910.255850425244
 20
-516.9869533076837
 10
8910.255850425244
 20
-516.9869533076837
 10
8904.123363884727
 20
-516.9869533076837
 10
8900.255850425244
 20
-513.1194398482023
 10
8900.255850425244
 20
-488.1194398482023
  0
LINE
  5
8988
330
18
100
AcDbEntity
  8
18
100
AcDbLine
 10
8946.388336965764
 20
-502.553196577943
 30
0.0
 11
8904.123363884727
 21
-502.553196577943
 31
0.0
  0
ARC
  5
8989
330
18
100
AcDbEntity
  8
18
100
AcDbCircle
 10
8929.731996304274
 20
-520.9215576207291
 30
0.0
 40
31.51505579556561
100
AcDbArc
 50
144.3491762319301
 51
159.27725290408
  0
ARC
  5
898A
330
18
100
AcDbEntity
  8
18
100
AcDbCircle
 10
8992.973710583752
 20
-471.010791013751
 30
0.0
 40
94.2831239263571
100
AcDbArc
 50
190.4548327274289
 51
199.5451672725865
  0
ARC
  5
898B
330
18
100
AcDbEntity
  8
18
100
AcDbCircle
 10
8920.779704546218
 20
-520.9215576207291
 30
0.0
 40
31.51505579556561
100
AcDbArc
 50
20.72274709591995
 51
35.65082376806987
  0
ARC
  5
898C
330
18
100
AcDbEntity
  8
18
100
AcDbCircle
 10
8857.53799026674
 20
-471.010791013751
 30
0.0
 40
94.2831239263571
100
AcDbArc
 50
340.4548327274135
 51
349.5451672725711
  0
ARC
  5
8B79
330
18
100
AcDbEntity
  8
35
100
AcDbCircle
 10
5313.525677127271
 20
-4331.854750966967
 30
0.0
 40
49.99999999999745
100
AcDbArc
 50
2.290610042636488
 51
48.95774388098612
  0
LINE
  5
8B7A
330
18
100
AcDbEntity
  8
35
100
AcDbLine
 10
5346.356449886176
 20
-4294.143474668584
 30
0.0
 11
5285.819384809756
 21
-4241.440972337733
 31
0.0
  0
ARC
  5
8B7B
330
18
100
AcDbEntity
  8
35
100
AcDbCircle
 10
5320.620003934196
 20
-4201.467019461444
 30
0.0
 40
53.00000000000154
100
AcDbArc
 50
128.9333884069637
 51
228.9577438809876
  0
LINE
  5
8B7C
330
18
100
AcDbEntity
  8
35
100
AcDbLine
 10
5287.313931417905
 20
-4160.239534290265
 30
0.0
 11
5355.701637281519
 21
-4104.991781941098
 31
0.0
  0
LINE
  5
8B87
330
18
100
AcDbEntity
  8
35
100
AcDbLine
 10
5373.68693525434
 20
-4554.624231261583
 30
0.0
 11
5301.104960691473
 21
-4505.015266129475
 31
0.0
  0
ARC
  5
8B88
330
18
100
AcDbEntity
  8
35
100
AcDbCircle
 10
5331.0116939049
 20
-4461.259268729109
 30
0.0
 40
52.9999999999989
100
AcDbArc
 50
135.6234762042898
 51
235.6478316783137
  0
LINE
  5
8B89
330
18
100
AcDbEntity
  8
35
100
AcDbLine
 10
5293.129451129399
 20
-4424.19263032882
 30
0.0
 11
5349.26364200982
 21
-4366.823277759695
 31
0.0
  0
ARC
  5
8B8A
330
18
100
AcDbEntity
  8
35
100
AcDbCircle
 10
5313.52567712727
 20
-4331.85475096697
 30
0.0
 40
49.9999999999985
100
AcDbArc
 50
315.6234762042905
 51
2.290610042639571
  0
LINE
  5
8B99
330
18
100
AcDbEntity
  8
50
100
AcDbLine
 10
5310.158565537566
 20
-4507.569515864192
 30
0.0
 11
5351.157512601002
 21
-4535.591836110682
 31
0.0
  0
ARC
  5
8B9A
330
18
100
AcDbEntity
  8
50
100
AcDbCircle
 10
5379.371411858956
 20
-4494.312593280151
 30
0.0
 40
49.99999999999975
100
AcDbArc
 50
235.6478316783079
 51
2.290610042637446
  0
LINE
  5
8B9B
330
18
100
AcDbEntity
  8
50
100
AcDbLine
 10
5429.331459795045
 20
-4492.314191362708
 30
0.0
 11
5422.738341915554
 21
-4327.486244375441
 31
0.0
  0
ARC
  5
8BA1
330
18
100
AcDbEntity
  8
50
100
AcDbCircle
 10
5366.185176099974
 20
-4164.656699305617
 30
0.0
 40
49.9999999999998
100
AcDbArc
 50
2.290610042638446
 51
128.9333884069684
  0
LINE
  5
8BA2
330
18
100
AcDbEntity
  8
50
100
AcDbLine
 10
5416.145224036063
 20
-4162.658297388174
 30
0.0
 11
5422.738341915554
 21
-4327.486244375441
 31
0.0
  0
LWPOLYLINE
  5
8BB7
330
18
100
AcDbEntity
  8
25
  6
STRICHPUNKT
 48
0.05
100
AcDbPolyline
 90
        4
 70
     0
 43
0.0
 10
5754.153342374518
 20
-3429.526681836018
 10
5695.619782345377
 20
-3431.868024237184
 42
0.9999999999999998
 10
5697.937928569612
 20
-3489.821679843048
 10
5756.471488598752
 20
-3487.480337441883
  0
VIEWPORT
  5
1DF
102
{ACAD_XDICTIONARY
360
8BF0
102
}
330
15
100
AcDbEntity
 67
     1
  8
0
100
AcDbViewport
 10
89.04149109259611
 20
185.9985402129152
 30
0.0
 40
653.0122959246831
 41
493.1704802058055
 68
     1
 69
     1
 12
89.04149109259611
 22
185.9985402129152
 13
0.0
 23
0.0
 14
0.5
 24
0.5
 15
0.5
 25
0.5
 16
0.0
 26
0.0
 36
1.0
 17
0.0
 27
0.0
 37
0.0
 42
50.0
 43
0.0
 44
0.0
 45
493.1704802058055
 50
0.0
 51
0.0
 72
   100
 90
    32800
  1

281
     0
 71
     1
 74
     0
110
0.0
120
0.0
130
0.0
111
1.0
121
0.0
131
0.0
112
0.0
122
1.0
132
0.0
 79
     0
146
0.0
  0
MTEXT
  5
13A5
330
15
100
AcDbEntity
 67
     1
  8
KOTIERUNG
100
AcDbMText
 10
334.574239722046
 20
33.70865160095127
 30
0.0
 40
2.5
 41
0.0
 71
     4
 72
     1
  1
\A1;
  7
VOEST
 73
     1
 44
1.0
1001
ACAD
1000
MTEXTBEGIN
1070
    73
1070
     1
1070
    44
1040
1.0
1070
    74
1070
     0
1000
MTEXTEND
  0
MTEXT
  5
1505
330
15
100
AcDbEntity
 67
     1
  8
BLATTTEXT
100
AcDbMText
 10
170.1309310268098
 20
188.4899274501241
 30
0.0
 40
125.0
 41
0.0
 71
     4
 72
     1
  1
\A1;
  7
VOEST
 73
     1
 44
1.0
1001
ACAD
1000
MTEXTBEGIN
1070
    73
1070
     1
1070
    44
1040
1.0
1070
    74
1070
     0
1000
MTEXTEND
  0
MTEXT
  5
1509
330
15
100
AcDbEntity
 67
     1
  8
BLATTTEXT
100
AcDbMText
 10
122.2170016261258
 20
214.8213238210264
 30
0.0
 40
2.5
 41
0.0
 71
     4
 72
     1
  1
\A1;
  7
VOEST
 73
     1
 44
1.0
1001
ACAD
1000
MTEXTBEGIN
1070
    73
1070
     1
1070
    44
1040
1.0
1070
    74
1070
     0
1000
MTEXTEND
  0
MTEXT
  5
150D
330
15
100
AcDbEntity
 67
     1
  8
BLATTTEXT
100
AcDbMText
 10
122.2170016261258
 20
214.9995195096872
 30
0.0
 40
2.5
 41
0.0
 71
     4
 72
     1
  1
\A1;
  7
VOEST
 73
     1
 44
1.0
1001
ACAD
1000
MTEXTBEGIN
1070
    73
1070
     1
1070
    44
1040
1.0
1070
    74
1070
     0
1000
MTEXTEND
  0
MTEXT
  5
150F
330
15
100
AcDbEntity
 67
     1
  8
BLATTTEXT
100
AcDbMText
 10
122.2170016261258
 20
214.9995195096872
 30
0.0
 40
2.5
 41
0.0
 71
     4
 72
     1
  1
\A1;
  7
VOEST
 73
     1
 44
1.0
1001
ACAD
1000
MTEXTBEGIN
1070
    73
1070
     1
1070
    44
1040
1.0
1070
    74
1070
     0
1000
MTEXTEND
  0
MTEXT
  5
1513
330
15
100
AcDbEntity
 67
     1
  8
BLATTTEXT
100
AcDbMText
 10
130.9001099666395
 20
219.6788439368279
 30
0.0
 40
2.5
 41
0.0
 71
     4
 72
     1
  1
\A1;
  7
VOEST
 73
     1
 44
1.0
1001
ACAD
1000
MTEXTBEGIN
1070
    73
1070
     1
1070
    44
1040
1.0
1070
    74
1070
     0
1000
MTEXTEND
  0
MTEXT
  5
6774
330
15
100
AcDbEntity
 67
     1
  8
KOTIERUNG
100
AcDbMText
 10
108.8857135067785
 20
71.17848352439256
 30
0.0
 40
25.0
 41
0.0
 71
     9
 72
     1
  1
\A1;
 73
     1
 44
1.0
1001
ACAD
1000
MTEXTBEGIN
1070
    73
1070
     1
1070
    44
1040
1.0
1070
    74
1070
     0
1000
MTEXTEND
  0
MTEXT
  5
8810
330
15
100
AcDbEntity
 67
     1
  8
BLATTTEXT
100
AcDbMText
 10
97.15047239620332
 20
145.2278159057692
 30
0.0
 40
25.0
 41
0.0
 71
     1
 72
     1
  1
\A1;
 73
     1
 44
1.0
1001
ACAD
1000
MTEXTBEGIN
1070
    73
1070
     1
1070
    44
1040
1.0
1070
    74
1070
     0
1000
MTEXTEND
  0
ENDSEC
  0
SECTION
  2
OBJECTS
  0
DICTIONARY
  5
C
330
0
100
AcDbDictionary
281
     1
  3
ACAD_COLOR
350
1ACC
  3
ACAD_GROUP
350
D
  3
ACAD_IMAGE_DICT
350
1BA2
  3
ACAD_IMAGE_VARS
350
1BA3
  3
ACAD_LAYOUT
350
16EC
  3
ACAD_MATERIAL
350
1ACB
  3
ACAD_MLINESTYLE
350
1B
  3
ACAD_PLOTSETTINGS
350
16ED
  3
ACAD_PLOTSTYLENAME
350
16EA
  3
ACAD_TABLESTYLE
350
552C
  3
ACDBHEADERROUNDTRIPXREC
350
8BEF
  3
ACDBVARIABLEDICTIONARY
350
1109
  3
CONTENTDICTIONARY
350
23
  0
DICTIONARY
  5
553D
330
2
100
AcDbDictionary
280
     1
281
     1
  3
ACAD_LAYERSTATES
360
553E
  0
DICTIONARY
  5
68CB
330
18
100
AcDbDictionary
280
     1
281
     1
  3
ACAD_SORTENTS
360
68CC
  0
DICTIONARY
  5
8495
330
8493
100
AcDbDictionary
280
     1
281
     1
  3
ACAD_SORTENTS
360
8496
  0
DICTIONARY
  5
8BF6
330
4F1F
100
AcDbDictionary
280
     1
281
     1
  3
ACAD_XREC_ROUNDTRIP
360
8BF7
  0
DICTIONARY
  5
8BF8
330
4F21
100
AcDbDictionary
280
     1
281
     1
  3
ACAD_XREC_ROUNDTRIP
360
8BF9
  0
DICTIONARY
  5
6CF5
330
6CF4
100
AcDbDictionary
280
     1
281
     1
  3
ACAD_DIMASSOC
360
6CF6
  0
DICTIONARY
  5
8BF0
330
1DF
100
AcDbDictionary
280
     1
281
     1
  3
ACAD_XREC_ROUNDTRIP
360
8BF1
  0
DICTIONARY
  5
1ACC
102
{ACAD_REACTORS
330
C
102
}
330
C
100
AcDbDictionary
281
     1
  0
DICTIONARY
  5
D
102
{ACAD_REACTORS
330
C
102
}
330
C
100
AcDbDictionary
281
     1
  3
*A1
350
1B1
  3
*A10
350
1D2
  3
*A11
350
46A
  3
*A12
350
46B
  3
*A13
350
95A
  3
*A14
350
1A48
  3
*A2
350
1A49
  3
*A3
350
1A4A
  3
*A4
350
1A4B
  3
*A5
350
95B
  3
*A6
350
95C
  3
*A7
350
95D
  3
*A8
350
1B2
  3
*A9
350
1C3
  0
DICTIONARY
  5
1BA2
102
{ACAD_REACTORS
330
C
102
}
330
C
100
AcDbDictionary
281
     1
  3
C302 H2 Brücke explosions_3D
350
4F98
  3
C302 H2 Brücke_3DOE
350
4F9B
  0
RASTERVARIABLES
  5
1BA3
102
{ACAD_REACTORS
330
C
102
}
330
C
100
AcDbRasterVariables
 90
        0
 70
     1
 71
     1
 72
     0
  0
DICTIONARY
  5
16EC
102
{ACAD_REACTORS
330
C
102
}
330
C
100
AcDbDictionary
281
     1
  3
A301-2
350
16EF
  3
Layout1
350
4F19
  3
Model
350
16EE
  0
DICTIONARY
  5
1ACB
102
{ACAD_REACTORS
330
C
102
}
330
C
100
AcDbDictionary
281
     1
  0
DICTIONARY
  5
1B
102
{ACAD_REACTORS
330
C
102
}
330
C
100
AcDbDictionary
281
     1
  3
STANDARD
350
1C
  0
DICTIONARY
  5
16ED
102
{ACAD_REACTORS
330
C
102
}
330
C
100
AcDbDictionary
281
     1
  0
ACDBDICTIONARYWDFLT
  5
16EA
102
{ACAD_REACTORS
330
C
102
}
330
C
100
AcDbDictionary
281
     1
  3
Normal
350
16EB
100
AcDbDictionaryWithDefault
340
16EB
  0
DICTIONARY
  5
552C
102
{ACAD_REACTORS
330
C
102
}
330
C
100
AcDbDictionary
281
     1
  3
Standard
350
552D
  0
DICTIONARY
  5
8BEF
102
{ACAD_REACTORS
330
C
102
}
330
C
100
AcDbDictionary
281
     1
  0
DICTIONARY
  5
1109
102
{ACAD_REACTORS
330
C
102
}
330
C
100
AcDbDictionary
281
     1
  3
CTABLESTYLE
350
556A
  3
DIMASSOC
350
8BDE
  3
PROJECTNAME
350
8BDF
  3
SORTENTS
350
110A
  0
DICTIONARY
  5
23
102
{ACAD_REACTORS
330
C
102
}
330
C
100
AcDbDictionary
281
     1
  0
DICTIONARY
  5
553E
102
{ACAD_REACTORS
330
553D
102
}
330
553D
100
AcDbDictionary
281
     1
  0
SORTENTSTABLE
  5
68CC
102
{ACAD_REACTORS
330
68CB
102
}
330
68CB
100
AcDbSortentsTable
330
18
331
6CD4
  5
756C
331
897C
  5
8B88
331
8984
  5
8B9A
331
8B7B
  5
6CBA
331
68ED
  5
6C6A
331
75B3
  5
75DE
331
75F2
  5
761D
331
6CEC
  5
7581
331
898C
  5
8BA2
331
8836
  5
8983
331
75BB
  5
75E6
331
75FA
  5
7625
331
75C3
  5
75EE
331
7602
  5
762D
331
76B2
  5
7791
331
75CB
  5
75F6
331
7CD1
  5
7CFC
331
7C5B
  5
7C86
331
7C9A
  5
7CC5
331
7D10
  5
883A
331
7D18
  5
896F
331
7CA2
  5
7CCD
331
7C63
  5
7C8E
331
7CD9
  5
7D04
331
7CAA
  5
7CD5
331
7C6B
  5
7C96
331
7CE1
  5
7D0C
331
7CB2
  5
7CDD
331
7C73
  5
7C9E
331
7CE9
  5
7D14
331
6CF4
  5
7584
331
883E
  5
898B
331
6CFC
  5
7587
331
8B9B
  5
6CB7
331
759C
  5
75C7
331
75A4
  5
75CF
331
75DB
  5
7606
331
7C48
  5
7C73
331
7565
  5
7592
331
8975
  5
8B81
331
75AC
  5
75D7
331
75E3
  5
760E
331
7C50
  5
7C7B
331
756D
  5
759B
331
75EB
  5
7616
331
7575
  5
75A3
331
7C7B
  5
7CA6
331
7CBA
  5
7CE5
331
7CF1
  5
81F6
331
7C83
  5
7CAE
331
7CC2
  5
7CED
331
7CF9
  5
8360
331
7C8B
  5
7CB6
331
7CCA
  5
7CF5
331
7D01
  5
8608
331
7C93
  5
7CBE
331
7D09
  5
87FC
331
897D
  5
8B89
331
8B7C
  5
6CBB
331
8985
  5
8B9B
331
6CED
  5
7582
331
75B4
  5
75DF
331
75BC
  5
75E7
331
8837
  5
8984
331
75C4
  5
75EF
331
7603
  5
762E
331
758D
  5
75B9
331
75CC
  5
75F7
331
76B3
  5
7792
331
7D11
  5
883B
331
7C9B
  5
7CC6
331
7C5C
  5
7C87
331
7CD2
  5
7CFD
331
7CA3
  5
7CCE
331
7C64
  5
7C8F
331
7CDA
  5
7D05
331
7CAB
  5
7CD6
331
7C6C
  5
7C97
331
7CE2
  5
7D0D
331
7CB3
  5
7CDE
331
7C74
  5
7C9F
331
7CEA
  5
7D15
331
6C8E
  5
6C94
331
883F
  5
898C
331
75D4
  5
75FF
331
759D
  5
75C8
331
896E
  5
8B7A
331
75A5
  5
75D0
331
75DC
  5
7607
331
7C49
  5
7C74
331
7566
  5
7594
331
8976
  5
8B82
331
75AD
  5
75D8
331
75E4
  5
760F
331
7C51
  5
7C7C
331
756E
  5
759C
331
75EC
  5
7617
331
7576
  5
75A4
331
7C7C
  5
7CA7
331
7CBB
  5
7CE6
331
7CF2
  5
81F7
331
7C84
  5
7CAF
331
7CC3
  5
7CEE
331
7CFA
  5
84A1
331
83F9
  5
8975
331
7C8C
  5
7CB7
331
7CCB
  5
7CF6
331
7D02
  5
8641
331
7C94
  5
7CBF
331
7D0A
  5
87FD
331
897E
  5
8B8A
331
6CE6
  5
757A
331
8986
  5
8B9C
331
75B5
  5
75E0
331
6CEE
  5
7583
331
6D19
  5
758D
331
75BD
  5
75E8
331
7586
  5
75B2
331
75C5
  5
75F0
331
758E
  5
75BA
331
75CD
  5
75F8
331
7596
  5
75C1
331
76B4
  5
7793
331
7D12
  5
883C
331
7C9C
  5
7CC7
331
7C5D
  5
7C88
331
7CD3
  5
7CFE
331
7CA4
  5
7CCF
331
7C65
  5
7C90
331
7CDB
  5
7D06
331
8362
  5
8974
331
7CAC
  5
7CD7
331
7C6D
  5
7C98
331
7CE3
  5
7D0E
331
7CB4
  5
7CDF
331
7C75
  5
7CA0
331
7CEB
  5
7D16
331
6C77
  5
6C7D
331
8838
  5
8985
331
6C8F
  5
6C95
331
8840
  5
8B79
331
6D06
  5
758A
331
75D5
  5
7600
331
759E
  5
75C9
331
896F
  5
8B7B
331
75A6
  5
75D1
331
75DD
  5
7608
331
7C4A
  5
7C75
331
7567
  5
7595
331
8977
  5
8B83
331
75E5
  5
7610
331
7C52
  5
7C7D
331
756F
  5
759D
331
75ED
  5
7618
331
7577
  5
75A5
331
7C7D
  5
7CA8
331
7CBC
  5
7CE7
331
7CF3
  5
8325
331
7C85
  5
7CB0
331
7CC4
  5
7CEF
331
7CFB
  5
84A2
331
83FA
  5
8976
331
7C8D
  5
7CB8
331
7CCC
  5
7CF7
331
7D03
  5
86AA
331
7C95
  5
7CC0
331
7D0B
  5
8835
331
6CD7
  5
756D
331
897F
  5
8B95
331
6D0A
  5
758B
331
8987
  5
8B9D
331
75B6
  5
75E1
331
757F
  5
75AB
331
75BE
  5
75E9
331
75FD
  5
7628
331
7587
  5
75B3
331
758F
  5
75BB
331
75C6
  5
75F1
331
7605
  5
7630
331
7597
  5
75C2
331
7D13
  5
883D
331
7C9D
  5
7CC8
331
7C5E
  5
7C89
331
7CD4
  5
7CFF
331
7CA5
  5
7CD0
331
7C66
  5
7C91
331
7CDC
  5
7D07
331
84A1
  5
8978
331
7CAD
  5
7CD8
331
7C6E
  5
7C99
331
7CE4
  5
7D0F
331
7CB5
  5
7CE0
331
7C76
  5
7CA1
331
7CEC
  5
7D17
331
8839
  5
8986
331
6C90
  5
6C96
331
759F
  5
75CA
331
8970
  5
8B7C
331
7C4B
  5
7C76
331
7568
  5
7596
331
75A7
  5
75D2
331
7C53
  5
7C7E
331
7570
  5
759E
331
75AF
  5
75DA
331
75E6
  5
7611
331
75EE
  5
7619
331
7C7E
  5
7CA9
331
7CBD
  5
7CE8
331
7CF4
  5
8326
331
8608
  5
897D
331
7C86
  5
7CB1
331
7CC5
  5
7CF0
331
7CFC
  5
84CB
331
83FB
  5
8977
331
7C8E
  5
7CB9
331
7CCD
  5
7CF8
331
7D04
  5
86AD
331
7C96
  5
7CC1
331
7D0C
  5
8836
331
8978
  5
8B84
331
6CD8
  5
756E
331
8980
  5
8B96
331
7578
  5
75A6
331
8988
  5
8B9E
331
6CE8
  5
757B
331
7580
  5
75AC
331
8B87
  5
6CD8
331
75B7
  5
75E2
331
75F6
  5
7621
331
75BF
  5
75EA
331
75FE
  5
7629
331
7590
  5
75BC
331
75C7
  5
75F2
331
7606
  5
7631
331
7D14
  5
883E
331
7C9E
  5
7CC9
331
7C5F
  5
7C8A
331
7CD5
  5
7D00
331
7CA6
  5
7CD1
331
7C67
  5
7C92
331
7CDD
  5
7D08
331
84A2
  5
8979
331
7CAE
  5
7CD9
331
7C6F
  5
7C9A
331
7CE5
  5
7D10
331
7CB6
  5
7CE1
331
7C77
  5
7CA2
331
7CED
  5
7D18
331
883A
  5
8987
331
6D00
  5
7588
331
6C91
  5
6C97
331
7598
  5
75C3
331
6CC9
  5
6D0A
331
8971
  5
8B7D
331
75A0
  5
75CB
331
7569
  5
7597
331
75A8
  5
75D3
331
7C4C
  5
7C77
331
7571
  5
759F
331
75E7
  5
7612
331
7C54
  5
7C7F
331
75EF
  5
761A
331
7C7F
  5
7CAA
331
7CBE
  5
7CE9
331
7CF5
  5
8327
331
7C87
  5
7CB2
331
7CC6
  5
7CF1
331
7CFD
  5
8582
331
85A2
  5
897B
331
7C8F
  5
7CBA
331
7CCE
  5
7CF9
331
7D05
  5
86AF
331
7C97
  5
7CC2
331
7D0D
  5
8837
331
8979
  5
8B85
331
6CD9
  5
756F
331
8981
  5
8B97
331
8989
  5
8B9F
331
6CE9
  5
757C
331
75B0
  5
75DB
331
7581
  5
75AD
331
6D1C
  5
758E
331
8B88
  5
6CD9
331
75B8
  5
75E3
331
75F7
  5
7622
331
7589
  5
75B5
331
75C0
  5
75EB
331
75FF
  5
762A
331
7591
  5
75BD
331
75C8
  5
75F3
331
7C58
  5
7C83
331
7D15
  5
883F
331
7C9F
  5
7CCA
331
7C60
  5
7C8B
331
7CD6
  5
7D01
331
7CA7
  5
7CD2
331
7C68
  5
7C93
331
7CDE
  5
7D09
331
7CAF
  5
7CDA
331
7C70
  5
7C9B
331
7CE6
  5
7D11
331
7CB7
  5
7CE2
331
7CEE
  5
7D19
331
10E0
  5
4ED3
331
6C72
  5
6C78
331
883B
  5
8988
331
879C
  5
8980
331
6D01
  5
7589
331
7599
  5
75C4
331
6CCA
  5
6D0D
331
7562
  5
758F
331
8972
  5
8B7E
331
75A1
  5
75CC
331
75D8
  5
7603
331
756A
  5
7598
331
75E0
  5
760B
331
7C4D
  5
7C78
331
7572
  5
75A0
331
75E8
  5
7613
331
7C55
  5
7C80
331
7C78
  5
7CA3
331
84CB
  5
756A
331
7C80
  5
7CAB
331
7CBF
  5
7CEA
331
7CF6
  5
8328
331
7C88
  5
7CB3
331
7CC7
  5
7CF2
331
7CFE
  5
8595
331
7C90
  5
7CBB
331
7CCF
  5
7CFA
331
7D06
  5
86B0
331
7D0E
  5
8838
331
897A
  5
8B86
331
6CDA
  5
7570
331
8982
  5
8B98
331
8B79
  5
6CB8
331
6D0D
  5
758C
331
898A
  5
8BA0
331
6CEA
  5
757F
331
75F0
  5
761B
331
7582
  5
75AE
331
8B89
  5
6CDA
331
758A
  5
75B6
331
75C1
  5
75EC
331
7600
  5
762B
331
7592
  5
75BE
331
75C9
  5
75F4
331
7C98
  5
7CC3
331
7C59
  5
7C84
331
7D16
  5
8840
331
7CA0
  5
7CCB
331
7C61
  5
7C8C
331
7CD7
  5
7D02
331
7CA8
  5
7CD3
331
7C69
  5
7C94
331
7CDF
  5
7D0A
331
7CB0
  5
7CDB
331
7C71
  5
7C9C
331
7CE7
  5
7D12
331
7CEF
  5
7F78
331
883C
  5
8989
331
8B99
  5
6CB3
331
759A
  5
75C5
331
8BA1
  5
6CB1
331
75D1
  5
75FC
331
7563
  5
7590
331
8973
  5
8B7F
331
75A2
  5
75CD
331
75D9
  5
7604
331
756B
  5
7599
331
75E1
  5
760C
331
7C4E
  5
7C79
331
7573
  5
75A1
331
75E9
  5
7614
331
7C56
  5
7C81
331
7C79
  5
7CA4
331
7CB8
  5
7CE3
331
7C81
  5
7CAC
331
7CC0
  5
7CEB
331
7CF7
  5
8329
331
7C89
  5
7CB4
331
7CC8
  5
7CF3
331
7CFF
  5
85A2
331
7C91
  5
7CBC
331
7D07
  5
879C
331
7D0F
  5
8839
331
897B
  5
8B87
331
8983
  5
8B99
331
8B7A
  5
6CB9
331
6CE3
  5
7579
331
688D
  5
68CF
331
68EC
  5
68ED
331
898B
  5
8BA1
331
6CEB
  5
7580
331
75F1
  5
761C
331
8835
  5
8982
331
8B8A
  5
6CDB
331
75F9
  5
7624
331
75C2
  5
75ED
331
7601
  5
762C
331
76B1
  5
7790
331
75CA
  5
75F5
331
7C99
  5
7CC4
331
7C5A
  5
7C85
331
7CD0
  5
7CFB
331
7D17
  5
896E
331
7CA1
  5
7CCC
331
7C62
  5
7C8D
331
7CD8
  5
7D03
331
7CA9
  5
7CD4
331
7C6A
  5
7C95
331
7CE0
  5
7D0B
331
7CB1
  5
7CDC
331
7C72
  5
7C9D
331
7CE8
  5
7D13
331
883D
  5
898A
331
6CFB
  5
7586
331
8B9A
  5
6CB4
331
75D2
  5
75FD
331
8BA2
  5
6CB2
331
759B
  5
75C6
331
75A3
  5
75CE
331
75DA
  5
7605
331
7C47
  5
7C72
331
8974
  5
8B80
331
87DE
  5
8981
331
7564
  5
7591
331
75E2
  5
760D
331
7C4F
  5
7C7A
331
756C
  5
759A
331
75EA
  5
7615
331
7C57
  5
7C82
331
7574
  5
75A2
331
7C7A
  5
7CA5
331
7CB9
  5
7CE4
331
7CF0
  5
81EB
331
7C82
  5
7CAD
331
7CC1
  5
7CEC
331
7CF8
  5
8334
331
7C8A
  5
7CB5
331
7CC9
  5
7CF4
331
7D00
  5
85CD
331
8595
  5
897A
331
7C92
  5
7CBD
331
7D08
  5
87DE
  0
SORTENTSTABLE
  5
8496
102
{ACAD_REACTORS
330
8495
102
}
330
8495
100
AcDbSortentsTable
330
8493
  0
XRECORD
  5
8BF7
102
{ACAD_REACTORS
330
8BF6
102
}
330
8BF6
100
AcDbXrecord
280
     1
102
SHADEPLOT
 70
     0
  0
XRECORD
  5
8BF9
102
{ACAD_REACTORS
330
8BF8
102
}
330
8BF8
100
AcDbXrecord
280
     1
102
SHADEPLOT
 70
     0
  0
DIMASSOC
  5
6CF6
102
{ACAD_REACTORS
330
6CF5
102
}
330
6CF5
100
AcDbDimAssoc
330
6CF4
 90
        2
 70
     0
 71
     0
  1
AcDbOsnapPointRef
 72
     1
331
6CE6
 73
     2
 91
        3
 40
1.0
 10
0.0
 20
0.0
 30
2.000000000000000E+50
 75
     0
  0
XRECORD
  5
8BF1
102
{ACAD_REACTORS
330
8BF0
102
}
330
8BF0
100
AcDbXrecord
280
     1
102
SHADEPLOT
 70
     0
  0
GROUP
  5
1B1
102
{ACAD_REACTORS
330
D
102
}
330
D
100
AcDbGroup
300

 70
     1
 71
     1
  0
GROUP
  5
1D2
102
{ACAD_REACTORS
330
D
102
}
330
D
100
AcDbGroup
300

 70
     1
 71
     1
  0
GROUP
  5
46A
102
{ACAD_REACTORS
330
D
102
}
330
D
100
AcDbGroup
300

 70
     1
 71
     1
  0
GROUP
  5
46B
102
{ACAD_REACTORS
330
D
102
}
330
D
100
AcDbGroup
300

 70
     1
 71
     1
  0
GROUP
  5
95A
102
{ACAD_REACTORS
330
D
102
}
330
D
100
AcDbGroup
300

 70
     1
 71
     1
  0
GROUP
  5
1A48
102
{ACAD_REACTORS
330
D
102
}
330
D
100
AcDbGroup
300

 70
     1
 71
     1
  0
GROUP
  5
1A49
102
{ACAD_REACTORS
330
D
102
}
330
D
100
AcDbGroup
300

 70
     1
 71
     1
  0
GROUP
  5
1A4A
102
{ACAD_REACTORS
330
D
102
}
330
D
100
AcDbGroup
300

 70
     1
 71
     1
  0
GROUP
  5
1A4B
102
{ACAD_REACTORS
330
D
102
}
330
D
100
AcDbGroup
300

 70
     1
 71
     1
  0
GROUP
  5
95B
102
{ACAD_REACTORS
330
D
102
}
330
D
100
AcDbGroup
300

 70
     1
 71
     1
  0
GROUP
  5
95C
102
{ACAD_REACTORS
330
D
102
}
330
D
100
AcDbGroup
300

 70
     1
 71
     1
  0
GROUP
  5
95D
102
{ACAD_REACTORS
330
D
102
}
330
D
100
AcDbGroup
300

 70
     1
 71
     1
  0
GROUP
  5
1B2
102
{ACAD_REACTORS
330
D
102
}
330
D
100
AcDbGroup
300

 70
     1
 71
     1
  0
GROUP
  5
1C3
102
{ACAD_REACTORS
330
D
102
}
330
D
100
AcDbGroup
300

 70
     1
 71
     1
  0
IMAGEDEF
  5
4F98
102
{ACAD_REACTORS
330
1BA2
102
}
330
1BA2
100
AcDbRasterImageDef
 90
        0
  1
H:\Prospekt\Leitschienen\Bitmaps\S3\H4 Brücke explosions_3D.bmp
 10
1600.0
 20
1280.0
 11
0.4882812609139367
 21
0.4882812609139367
280
     1
281
     2
  0
IMAGEDEF
  5
4F9B
102
{ACAD_REACTORS
330
1BA2
102
}
330
1BA2
100
AcDbRasterImageDef
 90
        0
  1
H:\Prospekt\Leitschienen\Bitmaps\S3\H4 Brücke_3DD.bmp
 10
1600.0
 20
1280.0
 11
0.4882812609139367
 21
0.4882812609139367
280
     1
281
     2
  0
LAYOUT
  5
16EF
102
{ACAD_XDICTIONARY
360
5552
102
}
102
{ACAD_REACTORS
330
16EC
102
}
330
16EC
100
AcDbPlotSettings
  1

  2
Lexmark E232.pc3
  4
A4
  6

 40
6.805083274841308
 41
5.535083293914794
 42
6.974411010742187
 43
7.14373779296875
 44
209.9733276367187
 45
296.9259948730469
 46
0.0
 47
0.0
 48
-22.09087092405559
 49
8.354328491971727
140
173.2391290759444
141
294.1043284919717
142
1.0
143
1.0
 70
   690
 72
     1
 73
     0
 74
     5
  7
monochrome.ctb
 75
    16
147
1.0
148
22.09087092405559
149
-8.354328491971727
100
AcDbLayout
  1
A301-2
 70
     1
 71
     1
 10
-28.8959541988969
 20
2.819245198056933
 11
181.0773734378218
 21
299.7452400711038
 12
0.0
 22
0.0
 32
0.0
 14
1.000000000000000E+20
 24
1.000000000000000E+20
 34
1.000000000000000E+20
 15
-1.000000000000000E+20
 25
-1.000000000000000E+20
 35
-1.000000000000000E+20
146
0.0
 13
0.0
 23
0.0
 33
0.0
 16
1.0
 26
0.0
 36
0.0
 17
0.0
 27
1.0
 37
0.0
 76
     0
330
15
331
1DF
1001
ACAD_PSEXT
1000
Lexmark E232.pc3
1000
Lexmark E232
1000
USB001
1000

1070
     0
  0
LAYOUT
  5
4F19
102
{ACAD_XDICTIONARY
360
5587
102
}
102
{ACAD_REACTORS
330
16EC
102
}
330
16EC
100
AcDbPlotSettings
  1

  2
\\vakf11\Lexmark Optra E312 lex15
  4
A4
  6

 40
6.805083274841308
 41
5.535083293914794
 42
6.974411010742187
 43
7.14373779296875
 44
209.9733276367187
 45
296.9259948730469
 46
0.0
 47
0.0
 48
0.0
 49
0.0
140
0.0
141
0.0
142
1.0
143
1.0
 70
   690
 72
     1
 73
     0
 74
     5
  7
monochrome.ctb
 75
    16
147
1.0
148
0.0
149
0.0
100
AcDbLayout
  1
Layout1
 70
     1
 71
     2
 10
-6.805083274841308
 20
-5.535083293914794
 11
203.1682443618775
 21
291.3909115791321
 12
0.0
 22
0.0
 32
0.0
 14
5.253804912289297
 24
7.702681251586341
 34
0.0
 15
189.9280702974919
 25
273.0354525460767
 35
0.0
146
0.0
 13
0.0
 23
0.0
 33
0.0
 16
1.0
 26
0.0
 36
0.0
 17
0.0
 27
1.0
 37
0.0
 76
     0
330
4F18
331
4F1F
  0
LAYOUT
  5
16EE
102
{ACAD_XDICTIONARY
360
8BF2
102
}
102
{ACAD_REACTORS
330
16EC
102
}
330
16EC
100
AcDbPlotSettings
  1

  2
\\VAKF3\Lexmark Optra R Plus Series lex4 FS
  4

  6

 40
0.0
 41
0.0
 42
0.0
 43
0.0
 44
0.0
 45
0.0
 46
0.0
 47
0.0
 48
0.0
 49
0.0
140
0.0
141
0.0
142
1.0
143
1.0
 70
  1712
 72
     0
 73
     0
 74
     0
  7

 75
     0
147
1.0
148
0.0
149
0.0
100
AcDbLayout
  1
Model
 70
     1
 71
     0
 10
0.0
 20
0.0
 11
12.0
 21
9.0
 12
0.0
 22
0.0
 32
0.0
 14
0.0
 24
0.0
 34
0.0
 15
0.0
 25
0.0
 35
0.0
146
0.0
 13
0.0
 23
0.0
 33
0.0
 16
1.0
 26
0.0
 36
0.0
 17
0.0
 27
1.0
 37
0.0
 76
     0
330
18
  0
MLINESTYLE
  5
1C
102
{ACAD_REACTORS
330
1B
102
}
330
1B
100
AcDbMlineStyle
  2
STANDARD
 70
     0
  3

 62
   256
 51
90.0
 52
90.0
 71
     2
 49
0.5
 62
   256
  6
BYLAYER
 49
-0.5
 62
   256
  6
BYLAYER
  0
ACDBPLACEHOLDER
  5
16EB
102
{ACAD_REACTORS
330
16EA
102
}
330
16EA
  0
TABLESTYLE
  5
552D
102
{ACAD_REACTORS
330
552C
102
}
330
552C
100
AcDbTableStyle
  3
Standard
 70
     0
 71
     0
 40
0.06
 41
0.06
280
     0
281
     0
  7
STANDARD
140
0.18
170
     2
 62
     0
 63
     7
283
     0
274
    -2
284
     1
 64
     0
275
    -2
285
     1
 65
     0
276
    -2
286
     1
 66
     0
277
    -2
287
     1
 67
     0
278
    -2
288
     1
 68
     0
279
    -2
289
     1
 69
     0
  7
STANDARD
140
0.25
170
     5
 62
     0
 63
     7
283
     0
274
    -2
284
     1
 64
     0
275
    -2
285
     1
 65
     0
276
    -2
286
     1
 66
     0
277
    -2
287
     1
 67
     0
278
    -2
288
     1
 68
     0
279
    -2
289
     1
 69
     0
  7
STANDARD
140
0.18
170
     5
 62
     0
 63
     7
283
     0
274
    -2
284
     1
 64
     0
275
    -2
285
     1
 65
     0
276
    -2
286
     1
 66
     0
277
    -2
287
     1
 67
     0
278
    -2
288
     1
 68
     0
279
    -2
289
     1
 69
     0
  0
DICTIONARYVAR
  5
556A
102
{ACAD_REACTORS
330
1109
102
}
330
1109
100
DictionaryVariables
280
     0
  1
STANDARD
  0
DICTIONARYVAR
  5
8BDE
102
{ACAD_REACTORS
330
1109
102
}
330
1109
100
DictionaryVariables
280
     0
  1
1
  0
DICTIONARYVAR
  5
8BDF
102
{ACAD_REACTORS
330
1109
102
}
330
1109
100
DictionaryVariables
280
     0
  1

  0
DICTIONARYVAR
  5
110A
102
{ACAD_REACTORS
330
1109
102
}
330
1109
100
DictionaryVariables
280
     0
  1
127
  0
DICTIONARY
  5
5552
330
16EF
100
AcDbDictionary
280
     1
281
     1
  3
ACAD_XREC_ROUNDTRIP
360
8BF4
  3
ADSK_XREC_LAYOUTTHUMBNAIL
360
5553
  0
DICTIONARY
  5
5587
330
4F19
100
AcDbDictionary
280
     1
281
     1
  3
ACAD_XREC_ROUNDTRIP
360
8BF5
  3
ADSK_XREC_LAYOUTTHUMBNAIL
360
5588
  0
DICTIONARY
  5
8BF2
330
16EE
100
AcDbDictionary
280
     1
281
     1
  3
ACAD_XREC_ROUNDTRIP
360
8BF3
  0
XRECORD
  5
8BF4
102
{ACAD_REACTORS
330
5552
102
}
330
5552
100
AcDbXrecord
280
     1
102
SHADEPLOT
 70
     0
102
SHADEPLOTRESLEVEL
 70
     2
102
SHADEPLOTCUSTOMDPI
 70
   300
  0
XRECORD
  5
5553
102
{ACAD_REACTORS
330
5552
102
}
330
5552
100
AcDbXrecord
280
     1
310
28000000630000008C0000000100080000000000B036000000000000000000000001000000000000FFFFFF0000FFFF00FF0000000000000000000000000000000000000000000000000000000000000000000000330000006600000099000000CC000000FF00000000330000333300006633000099330000CC330000FF3300
310
0000660000336600006666000099660000CC660000FF66000000990000339900006699000099990000CC990000FF99000000CC000033CC000066CC000099CC0000CCCC0000FFCC000000FF000033FF000066FF000099FF0000CCFF0000FFFF000000003300330033006600330099003300CC003300FF003300003333003333
310
33006633330099333300CC333300FF33330000663300336633006666330099663300CC663300FF66330000993300339933006699330099993300CC993300FF99330000CC330033CC330066CC330099CC3300CCCC3300FFCC330000FF330033FF330066FF330099FF3300CCFF3300FFFF330000006600330066006600660099
310
006600CC006600FF00660000336600333366006633660099336600CC336600FF33660000666600336666006666660099666600CC666600FF66660000996600339966006699660099996600CC996600FF99660000CC660033CC660066CC660099CC6600CCCC6600FFCC660000FF660033FF660066FF660099FF6600CCFF6600
310
FFFF660000009900330099006600990099009900CC009900FF00990000339900333399006633990099339900CC339900FF33990000669900336699006666990099669900CC669900FF66990000999900339999006699990099999900CC999900FF99990000CC990033CC990066CC990099CC9900CCCC9900FFCC990000FF99
310
0033FF990066FF990099FF9900CCFF9900FFFF99000000CC003300CC006600CC009900CC00CC00CC00FF00CC000033CC003333CC006633CC009933CC00CC33CC00FF33CC000066CC003366CC006666CC009966CC00CC66CC00FF66CC000099CC003399CC006699CC009999CC00CC99CC00FF99CC0000CCCC0033CCCC0066CC
310
CC0099CCCC00CCCCCC00FFCCCC0000FFCC0033FFCC0066FFCC0099FFCC00CCFFCC00FFFFCC000000FF003300FF006600FF009900FF00CC00FF00FF00FF000033FF003333FF006633FF009933FF00CC33FF00FF33FF000066FF003366FF006666FF009966FF00CC66FF00FF66FF000099FF003399FF006699FF009999FF00CC
310
99FF00FF99FF0000CCFF0033CCFF0066CCFF0099CCFF00CCCCFF00FFCCFF0000FFFF0033FFFF0066FFFF0099FFFF00CCFFFF00FFFFFF00000000000D0D0D001A1A1A00282828003535350043434300505050005D5D5D006B6B6B00787878008686860093939300A1A1A100AEAEAE00BBBBBB00C9C9C900D6D6D600E4E4E400
310
F1F1F100FFFFFF0000000000000000000000000000000000000000000000000000000000000000000000000000000000E2E2E2E2E2E2E2E2E2E2E2E2E2E2E2E2E2E2E2E2E2E2E2E2E2E2E2E2E2E2E2E2E2E2E2E2E2E2E2E2E2E2E2E2E2E2E2E2E2E2E2E2E2E2E2E2E2E2E2E2E2E2E2E2E2E2E2E2E2E2E2E2E2E2E2E2E2E2E2
310
E2E2E2E2E2E2E2E2E2E2E2E2E2E2E2E2E2E2E2E27CE2F5F5F5F5F5F5F5F5F5F5F5F5F5F5F5F5F5F5F5F5F5F5F5F5F5F5F5F5F5F5F5F5F5F5F5F5F5F5F5F5F5F5F5F5F5F5F5F5F5F5F5F5F5F5F5F5F5F5F5F5F5F5F5F5F5F5F5F5F5F5F5F5F5F5F5F5F5F5F5F5F5F5F5F5F5F5F5F5F5F5F5F5F5F5F5F5F5E27CE2F5F5F5F5F5
310
F5F5F5F5F5F5F5F5F5F5F5F5F5F5F5F5F5F5F5F5F5F5F5F5F5F5F5F5F5F5F5F5F5F5F5F5F5F5F5F5F5F5F5F5F5F5F5F5F5F5F5F5F5F5F5F5F5F5F5F5F5F5F5F5F5F5F5F5F5F5F5F5F5F5F5F5F5F5F5F5F5F5F5F5F5F5F5F5F5F5F5F5E27CE2F5F5E2E2E2E2E2E2E2E2F5F5F5F5F5F5F5F5E2E2E2E2E2E2E2E2E2E2E2E2E2E2
310
E2F5F5F5F5F5F5F5F5E2E2E2E2E2E2E2E2E2E2E2E2E2E2E2F5F5F5F5F5F5F5F5E2E2E2E2E2E2E2E2E2E2E2E2E2E2E2F5F5F5F5F5F5F5F5E2E2E2E2E2E2E2E2F5F5E27CE2F5F5E2F5F5F5F5F5F5F5F5F5F5F5F5F5F5F5F5F5F5F5F5F5F5F5F5F5F5F5F5F5F5F5F5F5F5F5F5F5F5F5F5F5F5F5F5F5F5F5F5F5F5F5F5F5F5F5F5
310
F5F5F5F5F5F5F5F5F5F5F5F5F5F5F5F5F5F5F5F5F5F5F5F5F5F5F5F5F5F5F5F5F5F5F5E2F5F5E27CE2F5F5E2F5F5F5F5F5F5F5F5F5F5F5F5F5F5F5F5F5F5F5F5F5F5F5F5F5F5F5F5F5F5F5F5F5F5F5F5F5F5F5F5F5F5F5F5F5F5F5F5F5F5F5F5F5F5F5F5F5F5F5F5F5F5F5F5F5F5F5F5F5F5F5F5F5F5F5F5F5F5F5F5F5F5F5
310
F5F5F5F5F5F5F5F5E2F5F5E27DE2F5F5E2F5F5F5F5F5F5F5F5F5F5F5F5F5F5F5F5F5F5F5F5F5F5F5F5F5F5F5F5F5F5F5F5F5F5F5F5F5F5F5F5F5F5F5F5F5F5F5F5F5F5F5F5F5F5F5F5F5F5F5F5F5F5F5F5F5F5F5F5F5F5F5F5F5F5F5F5F5F5F5F5F5F5F5F5F5F5F5F5F5F5F5E2F5F5E27DE2F5F5E2F5F5F5F5F5F5F5F5F5F5
310
F5F5F5F5F5F5F5F5F5F5F5F5F5F5F5F5F5F5F5F5F5F5F5F5F5F5F5F5F5F5F5F5F5F5F5F5F5F5F5F5F5F5F5F5F5F5F5F5F5F5F5F5F5F5F5F5F5F5F5F5F5F5F5F5F5F5F5F5F5F5F5F5F5F5F5F5F5F5F5F5F5E2F5F5E285E2F5F5E2F5F5F5F5F5F5F5F5F5F5F5F5F5F5F5F5F5F5F5F5F5F5F5F5F5F5F5F5F5F5F5F5F5F5F5F5F5
310
F5F5F5F5F5F5F5F5F5F5F5F5F5F5F5F5F5F5F5F5F5F5F5F5F5F5F5F5F5F5F5F5F5F5F5F5F5F5F5F5F5F5F5F5F5F5F5F5F5F5F5F5F5F5E2F5F5E288E2F5F5E2F5F5F5F5F5F5F5F5F5F5F5F5F5F5F5F5F5F5F5F5F5F5F5F5F5F5F5F5F5F5F5F5F5F5F5F5F5F5F5F5F5F5F5F5F5F5F5F5F5F5F5F5F5F5F5F5F5F5F5F5F5F5F5F5
310
F5F5F5F5F5F5F5F5F5F5F5F5F5F5F5F5F5F5F5F5F5F5F5F5F5F5F5E2F5F5E289E2F5F5E2F5F5F5F5F5F5F5F5F5F5F5F5F5F5F5F5F5F5F5F5F5F5F5F5F5F5F5F5F5F5F5F5F5F5F5F5F5F5F5F5F5F5F5F5F5F5F5F5F5F5F5F5F5F5F5F5F5F5F5F5F5F5F5F5F5F5F5F5F5F5F5F5F5F5F5F5F5F5F5F5F5F5F5F5F5F5F5F5F5F5F5
310
E2F5F5E28BE2F5F5E2F5F5F5F5F5F5F5F5F5F5F5F5F5F5F5F5F5F5F5F5F5F5F5F5F5F5F5F5F5F5F5F5F5F5F5F5F5F5F5F5F5F5F5F5F5F5F5F5F5F5F5F5F5F5F5F5F5F5F5F5F5F5F5F5F5F5F5F5F5F5F5F5F5F5F5F5F5F5F5F5F5F5F5F5F5F5F5F5F5F5F5E2F5F5E28BE2F5F5F5F5F5F5F5F5F5F5F5F5F5F5F5F5F5F5F5F5F5
310
F5F5F5F5F5F5F5F5F5F5F5F5F5F5F5F5F5F5F5F5F5F5F5F5F5F5F5F5F5F5F5F5F5F5F5F5F5F5F5F5F5F5F5F5F5F5F5F5F5F5F5F5F5F5F5F5F5F5F5F5F5F5F5F5F5F5F5F5F5F5F5F5F5F5F5F5E200E2F5F5F5F5F5F5F5F5F5F5F5F5F5F5F5F5F5F5F5F5F5F5F5F5F5F5F5F5F5F5F5F5F5F5F5F5F5F5F5F5F5F5F5F5F5F5F5F5
310
F5F5F5F5F5F5F5F5F5F5F5F5F5F5F5F5F5F5F5F5F5F5F5F5F5F5F5F5F5F5F5F5F5F5F5F5F5F5F5F5F5F5F5F5F5F5F5F5F5E200E2F5F5F5F5F5F5F5F5F5F5F5F5F5F5F5F5F5F5F5F5F5F5F5F5F5F5F5F5F5F5F5F5F5F5F5F5F5F5F5F5F5F5F5F5F5F5F5F5F5F5F5F5F5F5F5F5F5F5F5F5F5F5F5F5F5F5F5F5F5F5F5F5F5F5F5
310
F5F5F5F5F5F5F5F5F5F5F5F5F5F5F5F5F5F5F5F5F5F5E200E2F5F5F5F5F5F5F5F5F5F5F5F5F5F5F5F5F5F5F5F5F5F5F5F5F5F5F5F5F5F5F5F5F5F5F5F5F5F5F5F5F5F5F5F5F5F5F5F5F5F5F5F5F5F5F5F5F5F5F5F5F5F5F5F5F5F5F5F5F5F5F5F5F5F5F5F5F5F5F5F5F5F5F5F5F5F5F5F5F5F5F5F5F5F5F5F5F5E200E2F5F5
310
F5F5F5F5F5F5F5F5F5F5F5F5F5F5F5F5F5F5F5F5F5F5F5F5F5F5F5F5F5F5F5F5F5F5F5F5F5F5F5F5F5F5F5F5F5F5F5F5F5F5F5F5F5F5F5F5F5F5F5F5F5F5F5F5F5F5F5F5F5F5F5F5F5F5F5F5F5F5F5F5F5F5F5F5F5F5F5F5F5F5F5F5F5F5F5E200E2F5F5F5F5F5F5F5F5F5F5F5F5F5F5F5F5F5F5F5F5F5F5F5F5F5F5F5F5F5
310
F5F5F5F5F5F5F5F5F5F5F5F5F5F5F5F5F5F5F5F5F5F5F5F5F5F5F5F5F5F5F5F5F5F5F5F5F5F5F5F5F5F5F5F5F5F5F5F5F5F5F5F5F5F5F5F5F5F5F5F5F5F5F5F5F5F5F5F5E200E2F5F5F5F5F5F5F5F5F5F5F5F5F5F5F5F5F5F5F5F5F5F5F5F5F5F5F5F5F5F5F5F5F5F5F5F5F5F5F5F5F5F5F5F5F5F5F5F5F5F5F5F5F5F5F5F5
310
F5F5F5F5F5F5F5F5F5F5F5F5F5F5F5F5F5F5F5F5F5F5F5F5F5F5F5F5F5F5F5F5F5F5F5F5F5F5F5F5F5E200E2F5F5F5F5F5F5F5F5F5F5F5F5F5F5F5F5F5F5F5F5F5F5F5F5F5F5F5F5F5F5F5F5F5F5F5F5F5F5F5F5F5F5F5F5F5F5F5F5F5F5F5F5F5F5F5F5F5F5F5F5F5F5F5F5F5F5F5F5F5F5F5F5F5F5F5F5F5F5F5F5F5F5F5
310
F5F5F5F5F5F5F5F5F5F5F5F5F5F5E200E2F5F5F5F5F5F5F5F5F5F5F5F5F5F5F5F5F5F5F5F5F5F5F5F5F5F5F5F5F5F5F5F5F5F5F5F5F5F5F5F5F5F5F5F5F5F5F5F5F5F5F5F5F5F5F5F5F5F5F5F5F5F5F5F5F5F5F5F5F5F5F5F5F5F5F5F5F5F5F5F5F5F5F5F5F5F5F5F5F5F5F5F5F5F5F5F5F5E200E2F5F5E2F5F5F5F5F5F5F5
310
F5F5F5F5F5F5F5F5F5F5F5F5F5F5F5F5F5F5F5F5F5F5F5F5F5F5F5F5F5F5F5F5F5F5F5F5F5F5F5F5F5F5F5F5F5F5F5F5F5F5F5F5F5F5F5F5F5F5F5F5F5F5F5F5F5F5F5F5F5F5F5F5F5F5F5F5F5F5F5F5F5F5F5F5E2F5F5E200E2F5F5E2F5F5F5F5F5F5F5F5F5F5F5F5F5F5F5F5F5F5F5F5F5F5F5F5F5F5F5F5F5F5F5F5F5F5
310
F5F5F5F5F5F5F5F5F5F5F5F5F5F5F5F5F5F5F5F5F5F5F5F5F5F5F5F5F5F5F5F5F5F5F5F5F5F5F5F5F5F5F5F5F5F5F5F5F5F5F5F5F5F5F5F5F5E2F5F5E200E2F5F5E2F5F5F5F5F5F5F5F5F5F5F5F5F5F5F5F5F5F5F5F5F5F5F5F5F5F5F5F5F5F5F5F5F5F5F5F5F5F5F5F5F5F5F5F5F5F5F5F5F5F5F5F5F5F5F5F5F5F5F5F5F5
310
F5F5F5F5F5F5F5F5F5F5F5F5F5F5F5F5F5F5F5F5F5F5F5F5F5F5F5F5F5F5E2F5F5E200E2F5F5E2F5F5F5F5F5F5F5F5F5F5F5F5F5F5F5F5F5F5F5F5F5F5F5F5F5F5F5F5F5F5F5F5F5F5F5F5F5F5F5F5F5F5F5F5F5F5F5F5F5F5F5F5F5F5F5F5F5F5F5F5F5F5F5F5F5F5F5F5F5F5F5F5F5F5F5F5F5F5F5F5F5F5F5F5F5F5F5F5
310
F5F5F5E2F5F5E200E2F5F5E2F5F5F5F5F5F5F5F5F5F5F5F5F5F5F5F5F5F5F5F5F5F5F5F5F5F5F5F5F5F5F5F5F5F5F5F5F5F5F5F5F5F5F5F5F5F5F5F5F5F5F5F5F5F5F5F5F5F5F5F5F5F5F5F5F5F5F5F5F5F5F5F5F5F5F5F5F5F5F5F5F5F5F5F5F5F5F5F5F5F5F5E2F5F5E200E2F5F5E2F5F5F5F5F5F5F5F5F5F5F5F5F5F5F5
310
F5F5F5F5F5F5F5F5F5F5F5F5F5F5F5F5F5F5F5F5F5F5F5F5F5F5F5F5F5F5F5F5F5F5F5F5F5F5F5F5F5F5F5F5F5F5F5F5F5F5F5F5F5F5F5F5F5F5F5F5F5F5F5F5F5F5F5F5F5F5F5F5F5F5F5F5E2F5F5E200E2F5F5E2F5F5F5F5F5F5F5F5F5F5F5F5F5F5F5F5F5F5F5F5F5F5F5F5F5F5F5F5F5F5F5F5F5F5F5F5F5F5F5F5F5F5
310
F5F5F5F5F5F5F5F5F5F5F5F5F5F5F5F5F5F5F5F5F5F5F5F5F5F5F5F5F5F5F5F5F5F5F5F5F5F5F5F5F5F5F5F5F5F5F5F5F5E2F5F5E200E2F5F5E2F5F5F5F5F5F5F5F5F5F5F5F5F5F5F5F5F5F5F5F5F5F5F5F5F5F5F5F5F5F5F5F5F5F5F5F5F5F5F5F5F5F5F5F5F5F5F5F5F5F5F5F5F5F5F5F5F5F5F5F5F5F5F5F5F5F5F5F5F5
310
F5F5F5F5F5F5F5F5F5F5F5F5F5F5F5F5F5F5F5F5F5F5E2F5F5E200E2F5F5E2F5F5F5F5F5F5F5F5F5F5F5F5F5F5F5F5F5F5F5F5F5F5F5F5F5F5F5F5F5F5F5F5F5F5F5F5F5F5F5F5F5F5F5F5F5F5F5F5F5F5F5F5F5F5F5F5F5F5F5F5F5F5F5F5F5F5F5F5F5F5F5F5F5F5F5F5F5F5F5F5F5F5F5F5F5F5F5F5F5F5F5E2F5F5E200
310
E2F5F5E2F5F5F5F5F5F5F5F5F5F5F5F5F5F5F5F5F5F5F5F5F5F5F5F5F5F5F5F5F5F5F5F5F5F5F5F5F5F5F5F5F5F5F5F5F5F5F5F5F5F5F5F5F5F5F5F5F5F5F5F5F5F5F5F5F5F5F5F5F5F5F5F5F5F5F5F5F5F5F5F5F5F5F5F5F5F5F5F5F5F5F5E2F5F5E200E2F5F5E2F5F5F5F5F5F5F5F5F5F5F5F5F5F5F5F5F5F5F5F5F5F5F5
310
F5F5F5F5F5F5F5F5F5F5F5F5F5F5F5F5F5F5F5F5F5F5F5F5F5F5F5F5F5F5F5F5F5F5F5F5F5F5F5F5F5F5F5F5F5F5F5F5F5F5F5F5F5F5F5F5F5F5F5F5F5F5F5F5F5F5F5F5E2F5F5E200E2F5F5E2F5F5F5F5F5F5F5F5F5F5F5F5F5F5F5F5F5F5F5F5F5F5F5F5F5F5F5F5F5F5F5F5F5F5F5F5F5F5F5F5F5F5F5F5F5F5F5F5F5F5
310
F5F5F5F5F5F5F5F5F5F5F5F5F5F5F5F5F5F5F5F5F5F5F5F5F5F5F5F5F5F5F5F5F5F5F5F5F5F5F5F5F5E2F5F5E200E2F5F5E2F5F5F5F5F5F5F5F5F5F5F5F5F5F5F5F5F5F5F5F5F5F5F5F5F5F5F5F5F5F5F5F5F5F5F5F5F5F5F5F5F5F5F5F5F5F5F5F5F5F5F5F5F5F5F5F5F5F5F5F5F5F5F5F5F5F5F5F5F5F5F5F5F5F5F5F5F5
310
F5F5F5F5F5F5F5F5F5F5F5F5F5F5E2F5F5E200E2F5F5E2F5F5F5F5F5F5F5F5F5F5F5F5F5F5F5F5F5F5F5F5F5F5F5F5F5F5F5F5F5F5F5F5F5F5F5F5F5F5F5F5F5F5F5F5F5F5F5F5F5F5F5F5F5F5F5F5F5F5F5F5F5F5F5F5F5F5F5F5F5F5F5F5F5F5F5F5F5F5F5F5F5F5F5F5F5F5F5F5F5F5F5E2F5F5E200E2F5F5E2F5F5F5F5
310
F5F5F5F5F5F5F5F5F5F5F5F5F5F5F5F5F5F5F5F5F5F5F5F5F5F5F5F5F5F5F5F5F5F5F5F5F5F5F5F5F5F5F5F5F5F5F5F5F5F5F5F5F5F5F5F5F5F5F5F5F5F5F5F5F5F5F5F5F5F5F5F5F5F5F5F5F5F5F5F5F5F5F5F5F5F5F5E2F5F5E200E2F5F5E2F5F5F5F5F5F5F5F5F5F5F5F5F5F5F5F5F5F5F5F5F5F5F5F5F5F5F5F5F5F5F5
310
F5F5F5F5F5F5F5F5F5F5F5F5F5F5F5F5F5F5F5F5F5F5F5F5F5F5F5F5F5F5F5F5F5F5F5F5F5F5F5F5F5F5F5F5F5F5F5F5F5F5F5F5F5F5F5F5F5F5F5F5E2F5F5E200E2F5F5E2F5F5F5F5F5F5F5F5F5F5F5F5F5F5F5F5F5F5F5F5F5F5F5F5F5F5F5F5F5F5F5F5F5F5F5F5F5F5F5F5F5F5F5F5F5F5F5F5F5F5F5F5F5F5F5F5F5F5
310
F5F5F5F5F5F5F5F5F5F5F5F5F5F5F5F5F5F5F5F5F5F5F5F5F5F5F5F5F5F5F5F5F5E2F5F5E200E2F5F5F5F5F5F5F5F5F5F5F5F5F5F5F5F5F5F5F5F5F5F5F5F5F5F5F5F5F5F5F5F5F5F5F5F5F5F5F5F5F5F5F5F5F5F5F5F5F5F5F5F5F5F5F5F5F5F5F5F5F5F5F5F5F5F5F5F5F5F5F5F5F5F5F5F5F5F5F5F5F5F5F5F5F5F5F5F5
310
F5F5F5F5F5F5F5F5F5E200E2F5F5F5F5F5F5F5F5F5F5F5F5F5F5F5F5F5F5F5F5F5F5F5F5F5F5F5F5F5F5F5F5F5F5F5F5F5F5F5F5F5F5F5F5F5F5F5F5F5F5F5F5F5F5F5F5F5F5F5F5F5F5F5F5F5F5F5F5F5F5F5F5F5F5F5F5F5F5F5F5F5F5F5F5F5F5F5F5F5F5F5F5F5F5F5F5F5E200E2F5F5F5F5F5F5F5F5F5F5F5F5F5F5F5
310
F5F5F5F5F5F5F5F5F5F5F5F5F5F5F5F5F5F5F5F5F5F5F5F5F5F5F5F5F5F5F5F5F5F5F5F5F5F5F5F5F5F5F5F5F5F5F5F5F5F5F5F5F5F5F5F5F5F5F5F5F5F5F5F5F5F5F5F5F5F5F5F5F5F5F5F5F5F5F5F5F5F5E200E2F5F5F5F5F5F5F5F5F5F5F5F5F5F5F5F5F5F5F5F5F5F5F5F5F5F5F5F5F5F5F5F5F5F5F5F5F5F5F5F5F5F5
310
F5F5F5F5F5F5F5F5F5F5F5F5F5F5F5F5F5F5F5F5F5F5F5F5F5F5F5F5F5F5F5F5F5F5F5F5F5F5F5F5F5F5F5F5F5F5F5F5F5F5F5F5F5F5F5E200E2F5F5F5F5F5F5F5F5F5F5F5F5F5F5F5F5F5F5F5F5F5F5F5F5F5F5F5F5F5F5F5F5F5F5F5F5F5F5F5F5F5F5F5F5F5F5F5F5F5F5F5F5F5F5F5F5F5F5F5F5F5F5F5F5F5F5F5F5F5
310
F5F5F5F5F5F5F5F5F5F5F5F5F5F5F5F5F5F5F5F5F5F5F5F5F5F5F5F5E200E2F5F5F5F5F5F5F5F5F5F5F5F5F5F5F5F5F5F5F5F5F5F5F5F5F5F5F5F5F5F5F5F5F5F5F5F5F5F5F5F5F5F5F5F5F5F5F5F5F5F5F5F5F5F5F5F5F5F5F5F5F5F5F5F5F5F5F5F5F5F5F5F5F5F5F5F5F5F5F5F5F5F5F5F5F5F5F5F5F5F5F5F5F5F5F5F5
310
F5E200E2F5F5F5F5F5F5F5F5F5F5F5F5F5F5F5F5F5F5F5F5F5F5F5F5F5F5F5F5F5F5F5F5F5F5F5F5F5F5F5F5F5F5F5F5F5F5F5F5F5F5F5F5F5F5F5F5F5F5F5F5F5F5F5F5F5F5F5F5F5F5F5F5F5F5F5F5F5F5F5F5F5F5F5F5F5F5F5F5F5F5F5F5F5F5F5F5F5E200E2F5F5F5F5F5F5F5F5F5F5F5F5F5F5F5F5F5F5F5F5F5F5F5
310
F5F5F5F5F5F5F5F5F5F5F5F5F5F5F5F5F5F5F5F5F5F5F5F5F5F5F5F5F5F5F5F5F5F5F5F5F5F5F5F5F5F5F5F5F5F5F5F5F5F5F5F5F5F5F5F5F5F5F5F5F5F5F5F5F5F5F5F5F5F5F5F5F5F5E200E2F5F5F5F5F5F5F5F5F5F5F5F5F5F5F5F5F5F5F5F5F5F5F5F5F5F5F5F5F5F5F5F5F5F5F5F5F5F5F5F5F5F5F5F5F5F5F5F5F5F5
310
F5F5F5F5F5F5F5F5F5F5F5F5F5F5F5F5F5F5F5F5F5F5F5F5F5F5F5F5F5F5F5F5F5F5F5F5F5F5F5F5F5F5F5F5F5F5F5E200E2F5F5F5F5F5F5F5F5F5F5F5F5F5F5F5F5F5F5F5F5F5F5F5F5F5F5F5F5F5F5F5F5F5F5F5F5F5F5F5F5F5F5F5F5F5F5F5F5F5F5F5F5F5F5F5F5F5F5F5F5F5F5F5F5F5F5F5F5F5F5F5F5F5F5F5F5F5
310
F5F5F5F5F5F5F5F5F5F5F5F5F5F5F5F5F5F5F5F5E200E2F5F5E2F5F5F5F5F5F5F5F5F5F5F5F5F5F5F5F5F5F5F5F5F5F5F5F5F5F5F5F5F5F5F5F5F5F5F5F5F5F5F5F5F5F5F5F5F5F5F5F5F5F5F5F5F5F5F5F5F5F5F5F5F5F5F5F5F5F5F5F5F5F5F5F5F5F5F5F5F5F5F5F5F5F5F5F5F5F5F5F5F5F5F5E2F5F5E200E2F5F5E2F5
310
F5F5F5F5F5F5F5F5F5F5F5F5F5F5F5F5F5F5F5F5F5F5F5F5F5F5F5F5F5F5F5F5F5F5F5F5F5F5F5F5F5F5F5F5F5F5F5F5F5F5F5F5F5F5F5F5F5F5F5F5F5F5F5F5F5F5F5F5F5F5F5F5F5F5F5F5F5F5F5F5F5F5F5F5F5F5F5F5F5F5E2F5F5E200E2F5F5E2F5F5F5F5F5F5F5F5F5F5F5F5F5F5F5F5F5F5F5F5F5F5F5F5F5F5F5F5
310
F5F5F5F5F5F5F5F5F5F5F5F5F5F5F5F5F5F5F5F5F5F5F5F5F5F5F5F5F5F5F5F5F5F5F5F5F5F5F5F5F5F5F5F5F5F5F5F5F5F5F5F5F5F5F5F5F5F5F5F5F5F5F5E2F5F5E200E2F5F5E2F5F5F5F5F5F5F5F5F5F5F5F5F5F5F5F5F5F5F5F5F5F5F5F5F5F5F5F5F5F5F5F5F5F5F5F5F5F5F5F5F5F5F5F5F5F5F5F5F5F5F5F5F5F5F5
310
F5F5F5F5F5F5F5F5F5F5F5F5F5F5F5F5F5F5F5F5F5F5F5F5F5F5F5F5F5F5F5F5F5F5F5F5E2F5F5E200E2F5F5E2F5F5F5F5F5F5F5F5F5F5F5F5F5F5F5F5F5F5F5F5F5F5F5F5F5F5F5F5F5F5F5F5F5F5F5F5F5F5F5F5F5F5F5F5F5F5F5F5F5F5F5F5F5F5F5F5F5F5F5F5F5F5F5F5F5F5F5F5F5F5F5F5F5F5F5F5F5F5F5F5F5F5
310
F5F5F5F5F5F5F5F5F5E2F5F5E200E2F5F5E2F5F5F5F5F5F5F5F5F5F5F5F5F5F5F5F5F5F5F5F5F5F5F5F5F5F5F5F5F5F5F5F5F5F5F5F5F5F5F5F5F5F5F5F5F5F5F5F5F5F5F5F5F5F5F5F5F5F5F5F5F5F5F5F5F5F5F5F5F5F5F5F5F5F5F5F5F5F5F5F5F5F5F5F5F5F5F5F5F5F5F5E2F5F5E200E2F5F5E2F5F5F5F5F5F5F5F5F5
310
F5F5F5F5F5F5F5F5F5F5F5F5F5F5F5F5F5F5F5F5F5F5F5F5F5F5F5F5F5F5F5F5F5F5F5F5F5F5F5F5F5F5F5F5F5F5F5F5F5F5F5F5F5F5F5F5F5F5F5F5F5F5F5F5F5F5F5F5F5F5F5F5F5F5F5F5F5F5F5F5F5F5E2F5F5E200E2F5F5E2F5F5F5F5F5F5F5F5F5F5F5F5F5F5F5F5F5F5F5F5F5F5F5F5F5F5F5F5F5F5F5F5F5F5F5F5
310
F5F5F5F5F5F5F5F5F5F5F5F5F5F5F5F5F5F5F5F5F5F5F5F5F5F5F5F5F5F5F5F5F5F5F5F5F5F5F5F5F5F5F5F5F5F5F5F5F5F5F5F5F5F5F5E2F5F5E200E2F5F5E2F5F5F5F5F5F5F5F5F5F5F5F5F5F5F5F5F5F5F5F5F5F5F5F5F5F5F5F5F5F5F5F5F5F5F5F5F5F5F5F5F5F5F5F5F5F5F5F5F5F5F5F5F5F5F5F5F5F5F5F5F5F5F5
310
F5F5F5F5F5F5F5F5F5F5F5F5F5F5F5F5F5F5F5F5F5F5F5F5F5F5F5F5E2F5F5E200E2F5F5E2F5F5F5F5F5F5F5F5F5F5F5F5F5F5F5F5F5F5F5F5F5F5F5F5F5F5F5F5F5F5F5F5F5F5F5F5F5F5F5F5F5F5F5F5F5F5F5F5F5F5F5F5F5F5F5F5F5F5F5F5F5F5F5F5F5F5F5F5F5F5F5F5F5F5F5F5F5F5F5F5F5F5F5F5F5F5F5F5F5F5
310
F5E2F5F5E200E2F5F5E2F5F5F5F5F5F5F5F5F5F5F5F5F5F5F5F5F5F5F5F5F5F5F5F5F5F5F5F5F5F5F5F5F5F5F5F5F5F5F5F5F5F5F5F5F5F5F5F5F5F5F5F5F5F5F5F5F5F5F5F5F5F5F5F5F5F5F5F5F5F5F5F5F5F5F5F5F5F5F5F5F5F5F5F5F5F5F5F5F5F5F5E2F5F5E200E2F5F5E2F5F5F5F5F5F5F5F5F5F5F5F5F5F5F5F5F5
310
F5F5F5F5F5F5F5F5F5F5F5F5F5F5F5F5F5F5F5F5F5F5F5F5F5F5F5F5F5F5F5F5F5F5F5F5F5F5F5F5F5F5F5F5F5F5F5F5F5F5F5F5F5F5F5F5F5F5F5F5F5F5F5F5F5F5F5F5F5F5F5F5F5F5E2F5F5E200E2F5F5E2F5F5F5F5F5F5F5F5F5F5F5F5F5F5F5F5F5F5F5F5F5F5F5F5F5F5F5F5F5F5F5F5F5F5F5F5F5F5F5F5F5F5F5F5
310
F5F5F5F5F5F5F5F5F5F5F5F5F5F5F5F5F5F5F5F5F5F5F5F5F5F5F5F5F5F5F5F5F5F5F5F5F5F5F5F5F5F5F5F5F5F5F5E2F5F5E200E2F5F5E2F5F5F5F5F5F5F5F5F5F5F5F5F5F5F5F5F5F5F5F5F5F5F5F5F5F5F5F5F5F5F5F5F5F5F5F5F5F5F5F5F5F5F5F5F5F5F5F5F5F5F5F5F5F5F5F5F5F5F5F5F5F5F5F5F5F5F5F5F5F5F5
310
F5F5F5F5F5F5F5F5F5F5F5F5F5F5F5F5F5F5F5F5E2F5F5E200E2F5F5E2F5F5F5F5F5F5F5F5F5F5F5F5F5F5F5F5F5F5F5F5F5F5F5F5F5F5F5F5F5F5F5F5F5F5F5F5F5F5F5F5F5F5F5F5F5F5F5F5F5F5F5F5F5F5F5F5F5F5F5F5F5F5F5F5F5F5F5F5F5F5F5F5F5F5F5F5F5F5F5F5F5F5F5F5F5F5F5F5F5F5F5E2F5F5E200E2F5
310
F5E2F5F5F5F5F5F5F5F5F5F5F5F5F5F5F5F5F5F5F5F5F5F5F5F5F5F5F5F5F5F5F5F5F5F5F5F5F5F5F5F5F5F5F5F5F5F5F5F5F5F5F5F5F5F5F5F5F5F5F5F5F5F5F5F5F5F5F5F5F5F5F5F5F5F5F5F5F5F5F5F5F5F5F5F5F5F5F5F5F5F5F5E2F5F5E200E2F5F5E2F5F5F5F5F5F5F5F5F5F5F5F5F5F5F5F5F5F5F5F5F5F5F5F5F5
310
F5F5F5F5F5F5F5F5F5F5F5F5F5F5F5F5F5F5F5F5F5F5F5F5F5F5F5F5F5F5F5F5F5F5F5F5F5F5F5F5F5F5F5F5F5F5F5F5F5F5F5F5F5F5F5F5F5F5F5F5F5F5F5F5F5F5E2F5F5E200E2F5F5F5F5F5F5F5F5F5F5F5F5F5F5F5F5F5F5F5F5F5F5F5F5F5F5F5F5F5F5F5F5F5F5F5F5F5F5F5F5F5F5F5F5F5F5F5F5F5F5F5F5F5F5F5
310
F5F5F5F5F5F5F5F5F5F5F5F5F5F5F5F5F5F5F5F5F5F5F5F5F5F5F5F5F5F5F5F5F5F5F5F5F5F5F5F5F5F5E200E2F5F5F5F5F5F5F5F5F5F5F5F5F5F5F5F5F5F5F5F5F5F5F5F5F5F5F5F5F5F5F5F5F5F5F5F5F5F5F5F5F5F5F5F5F5F5F5F5F5F5F5F5F5F5F5F5F5F5F5F5F5F5F5F5F5F5F5F5F5F5F5F5F5F5F5F5F5F5F5F5F5F5
310
F5F5F5F5F5F5F5F5F5F5F5F5F5F5F5E200E2F5F5F5F5F5F5F5F5F5F5F5F5F5F5F5F5F5F5F5F5F5F5F5F5F5F5F5F5F5F5F5F5F5F5F5F5F5F5F5F5F5F5F5F5F5F5F5F5F5F5F5F5F5F5F5F5F5F5F5F5F5F5F5F5F5F5F5F5F5F5F5F5F5F5F5F5F5F5F5F5F5F5F5F5F5F5F5F5F5F5F5F5F5F5F5F5F5E200E2F5F5F5F5F5F5F5F5F5
310
F5F5F5F5F5F5F5F5F5F5F5F5F5F5F5F5F5F5F5F5F5F5F5F5F5F5F5F5F5F5F5F5F5F5F5F5F5F5F5F5F5F5F5F5F5F5F5F5F5F5F5F5F5F5F5F5F5F5F5F5F5F5F5F5F5F5F5F5F5F5F5F5F5F5F5F5F5F5F5F5F5F5F5F5F5F5F5F5E200E2F5F5F5F5F5F5F5F5F5F5F5F5F5F5F5F5F5F5F5F5F5F5F5F5F5F5F5F5F5F5F5F5F5F5F5F5
310
F5F5F5F5F5F5F5F5F5F5F5F5F5F5F5F5F5F5F5F5F5F5F5F5F5F5F5F5F5F5F5F5F5F5F5F5F5F5F5F5F5F5F5F5F5F5F5F5F5F5F5F5F5F5F5F5F5F5F5F5F5E200E2F5F5F5F5F5F5F5F5F5F5F5F5F5F5F5F5F5F5F5F5F5F5F5F5F5F5F5F5F5F5F5F5F5F5F5F5F5F5F5F5F5F5F5F5F5F5F5F5F5F5F5F5F5F5F5F5F5F5F5F5F5F5F5
310
F5F5F5F5F5F5F5F5F5F5F5F5F5F5F5F5F5F5F5F5F5F5F5F5F5F5F5F5F5F5F5F5F5F5E200E2F5F5F5F5F5F5F5F5F5F5F5F5F5F5F5F5F5F5F5F5F5F5F5F5F5F5F5F5F5F5F5F5F5F5F5F5F5F5F5F5F5F5F5F5F5F5F5F5F5F5F5F5F5F5F5F5F5F5F5F5F5F5F5F5F5F5F5F5F5F5F5F5F5F5F5F5F5F5F5F5F5F5F5F5F5F5F5F5F5F5
310
F5F5F5F5F5F5F5E200E2F5F5F5F5F5F5F5F5F5F5F5F5F5F5F5F5F5F5F5F5F5F5F5F5F5F5F5F5F5F5F5F5F5F5F5F5F5F5F5F5F5F5F5F5F5F5F5F5F5F5F5F5F5F5F5F5F5F5F5F5F5F5F5F5F5F5F5F5F5F5F5F5F5F5F5F5F5F5F5F5F5F5F5F5F5F5F5F5F5F5F5F5F5F5F5F5F5E200E2F5F5F5F5F5F5F5F5F5F5F5F5F5F5F5F5F5
310
F5F5F5F5F5F5F5F5F5F5F5F5F5F5F5F5F5F5F5F5F5F5F5F5F5F5F5F5F5F5F5F5F5F5F5F5F5F5F5F5F5F5F5F5F5F5F5F5F5F5F5F5F5F5F5F5F5F5F5F5F5F5F5F5F5F5F5F5F5F5F5F5F5F5F5F5F5F5F5F5E200E2F5F5E2F5F5F5F5F5F5F5F5F5F5F5F5F5F5F5F5F5F5F5F5F5F5F5F5F5F5F5F5F5F5F5F5F5F5F5F5F5F5F5F5F5
310
F5F5F5F5F5F5F5F5F5F5F5F5F5F5F5F5F5F5F5F5F5F5F5F5F5F5F5F5F5F5F5F5F5F5F5F5F5F5F5F5F5F5F5F5F5F5F5F5F5F5E2F5F5E200E2F5F5E2F5F5F5F5F5F5F5F5F5F5F5F5F5F5F5F5F5F5F5F5F5F5F5F5F5F5F5F5F5F5F5F5F5F5F5F5F5F5F5F5F5F5F5F5F5F5F5F5F5F5F5F5F5F5F5F5F5F5F5F5F5F5F5F5F5F5F5F5
310
F5F5F5F5F5F5F5F5F5F5F5F5F5F5F5F5F5F5F5F5F5F5F5E2F5F5E200E2F5F5E2F5F5F5F5F5F5F5F5F5F5F5F5F5F5F5F5F5F5F5F5F5F5F5F5F5F5F5F5F5F5F5F5F5F5F5F5F5F5F5F5F5F5F5F5F5F5F5F5F5F5F5F5F5F5F5F5F5F5F5F5F5F5F5F5F5F5F5F5F5F5F5F5F5F5F5F5F5F5F5F5F5F5F5F5F5F5F5F5F5F5F5E2F5F5E2
310
00E2F5F5E2F5F5F5F5F5F5F5F5F5F5F5F5F5F5F5F5F5F5F5F5F5F5F5F5F5F5F5F5F5F5F5F5F5F5F5F5F5F5F5F5F5F5F5F5F5F5F5F5F5F5F5F5F5F5F5F5F5F5F5F5F5F5F5F5F5F5F5F5F5F5F5F5F5F5F5F5F5F5F5F5F5F5F5F5F5F5F5F5F5F5F5E2F5F5E200E2F5F5E2F5F5F5F5F5F5F5F5F5F5F5F5F5F5F5F5F5F5F5F5F5F5
310
F5F5F5F5F5F5F5F5F5F5F5F5F5F5F5F5F5F5F5F5F5F5F5F5F5F5F5F5F5F5F5F5F5F5F5F5F5F5F5F5F5F5F5F5F5F5F5F5F5F5F5F5F5F5F5F5F5F5F5F5F5F5F5F5F5F5F5F5F5E2F5F5E200E2F5F5E2F5F5F5F5F5F5F5F5F5F5F5F5F5F5F5F5F5F5F5F5F5F5F5F5F5F5F5F5F5F5F5F5F5F5F5F5F5F5F5F5F5F5F5F5F5F5F5F5F5
310
F5F5F5F5F5F5F5F5F5F5F5F5F5F5F5F5F5F5F5F5F5F5F5F5F5F5F5F5F5F5F5F5F5F5F5F5F5F5F5F5F5F5E2F5F5E200E2F5F5E2F5F5F5F5F5F5F5F5F5F5F5F5F5F5F5F5F5F5F5F5F5F5F5F5F5F5F5F5F5F5F5F5F5F5F5F5F5F5F5F5F5F5F5F5F5F5F5F5F5F5F5F5F5F5F5F5F5F5F5F5F5F5F5F5F5F5F5F5F5F5F5F5F5F5F5F5
310
F5F5F5F5F5F5F5F5F5F5F5F5F5F5F5E2F5F5E200E2F5F5E2F5F5F5F5F5F5F5F5F5F5F5F5F5F5F5F5F5F5F5F5F5F5F5F5F5F5F5F5F5F5F5F5F5F5F5F5F5F5F5F5F5F5F5F5F5F5F5F5F5F5F5F5F5F5F5F5F5F5F5F5F5F5F5F5F5F5F5F5F5F5F5F5F5F5F5F5F5F5F5F5F5F5F5F5F5F5F5F5F5F5F5E2F5F5E200E2F5F5E2F5F5F5
310
F5F5F5F5F5F5F5F5F5F5F5F5F5F5F5F5F5F5F5F5F5F5F5F5F5F5F5F5F5F5F5F5F5F5F5F5F5F5F5F5F5F5F5F5F5F5F5F5F5F5F5F5F5F5F5F5F5F5F5F5F5F5F5F5F5F5F5F5F5F5F5F5F5F5F5F5F5F5F5F5F5F5F5F5F5F5F5F5E2F5F5E200E2F5F5E2F5F5F5F5F5F5F5F5F5F5F5F5F5F5F5F5F5F5F5F5F5F5F5F5F5F5F5F5F5F5
310
F5F5F5F5F5F5F5F5F5F5F5F5F5F5F5F5F5F5F5F5F5F5F5F5F5F5F5F5F5F5F5F5F5F5F5F5F5F5F5F5F5F5F5F5F5F5F5F5F5F5F5F5F5F5F5F5F5F5F5F5F5E2F5F5E200E2F5F5E2F5F5F5F5F5F5F5F5F5F5F5F5F5F5F5F5F5F5F5F5F5F5F5F5F5F5F5F5F5F5F5F5F5F5F5F5F5F5F5F5F5F5F5F5F5F5F5F5F5F5F5F5F5F5F5F5F5
310
F5F5F5F5F5F5F5F5F5F5F5F5F5F5F5F5F5F5F5F5F5F5F5F5F5F5F5F5F5F5F5F5F5F5E2F5F5E200E2F5F5E2F5F5F5F5F5F5F5F5F5F5F5F5F5F5F5F5F5F5F5F5F5F5F5F5F5F5F5F5F5F5F5F5F5F5F5F5F5F5F5F5F5F5F5F5F5F5F5F5F5F5F5F5F5F5F5F5F5F5F5F5F5F5F5F5F5F5F5F5F5F5F5F5F5F5F5F5F5F5F5F5F5F5F5F5
310
F5F5F5F5F5F5F5E2F5F5E200E2F5F5E2F5F5F5F5F5F5F5F5F5F5F5F5F5F5F5F5F5F5F5F5F5F5F5F5F5F5F5F5F5F5F5F5F5F5F5F5F5F5F5F5F5F5F5F5F5F5F5F5F5F5F5F5F5F5F5F5F5F5F5F5F5F5F5F5F5F5F5F5F5F5F5F5F5F5F5F5F5F5F5F5F5F5F5F5F5F5F5F5F5F5F5E2F5F5E200E2F5F5E2F5F5F5F5F5F5F5F5F5F5F5
310
F5F5F5F5F5F5F5F5F5F5F5F5F5F5F5F5F5F5F5F5F5F5F5F5F5F5F5F5F5F5F5F5F5F5F5F5F5F5F5F5F5F5F5F5F5F5F5F5F5F5F5F5F5F5F5F5F5F5F5F5F5F5F5F5F5F5F5F5F5F5F5F5F5F5F5F5F5F5F5F5E2F5F5E200E2F5F5E2F5F5F5F5F5F5F5F5F5F5F5F5F5F5F5F5F5F5F5F5F5F5F5F5F5F5F5F5F5F5F5F5F5F5F5F5F5F5
310
F5F5F5F5F5F5F5F5F5F5F5F5F5F5F5F5F5F5F5F5F5F5F5F5F5F5F5F5F5F5F5F5F5F5F5F5F5F5F5F5F5F5F5F5F5F5F5F5F5F5F5F5F5E2F5F5E200E2F5F5E2F5F5F5F5F5F5F5F5F5F5F5F5F5F5F5F5F5F5F5F5F5F5F5F5F5F5F5F5F5F5F5F5F5F5F5F5F5F5F5F5F5F5F5F5F5F5F5F5F5F5F5F5F5F5F5F5F5F5F5F5F5F5F5F5F5
310
F5F5F5F5F5F5F5F5F5F5F5F5F5F5F5F5F5F5F5F5F5F5F5F5F5F5E2F5F5E200E2F5F5E2F5F5F5F5F5F5F5F5F5F5F5F5F5F5F5F5F5F5F5F5F5F5F5F5F5F5F5F5F5F5F5F5F5F5F5F5F5F5F5F5F5F5F5F5F5F5F5F5F5F5F5F5F5F5F5F5F5F5F5F5F5F5F5F5F5F5F5F5F5F5F5F5F5F5F5F5F5F5F5F5F5F5F5F5F5F5F5F5F5F5F5E2
310
F5F5E200E2F5F5F5F5F5F5F5F5F5F5F5F5F5F5F5F5F5F5F5F5F5F5F5F5F5F5F5F5F5F5F5F5F5F5F5F5F5F5F5F5F5F5F5F5F5F5F5F5F5F5F5F5F5F5F5F5F5F5F5F5F5F5F5F5F5F5F5F5F5F5F5F5F5F5F5F5F5F5F5F5F5F5F5F5F5F5F5F5F5F5F5F5F5F5F5F5F5E200E2F5F5F5F5F5F5F5F5F5F5F5F5F5F5F5F5F5F5F5F5F5F5
310
F5F5F5F5F5F5F5F5F5F5F5F5F5F5F5F5F5F5F5F5F5F5F5F5F5F5F5F5F5F5F5F5F5F5F5F5F5F5F5F5F5F5F5F5F5F5F5F5F5F5F5F5F5F5F5F5F5F5F5F5F5F5F5F5F5F5F5F5F5F5F5F5F5F5F5E200E2F5F5F5F5F5F5F5F5F5F5F5F5F5F5F5F5F5F5F5F5F5F5F5F5F5F5F5F5F5F5F5F5F5F5F5F5F5F5F5F5F5F5F5F5F5F5F5F5F5
310
F5F5F5F5F5F5F5F5F5F5F5F5F5F5F5F5F5F5F5F5F5F5F5F5F5F5F5F5F5F5F5F5F5F5F5F5F5F5F5F5F5F5F5F5F5F5F5F5E200E2F5F5F5F5F5F5F5F5F5F5F5F5F5F5F5F5F5F5F5F5F5F5F5F5F5F5F5F5F5F5F5F5F5F5F5F5F5F5F5F5F5F5F5F5F5F5F5F5F5F5F5F5F5F5F5F5F5F5F5F5F5F5F5F5F5F5F5F5F5F5F5F5F5F5F5F5
310
F5F5F5F5F5F5F5F5F5F5F5F5F5F5F5F5F5F5F5F5F5E200E2F5F5F5F5F5F5F5F5F5F5F5F5F5F5F5F5F5F5F5F5F5F5F5F5F5F5F5F5F5F5F5F5F5F5F5F5F5F5F5F5F5F5F5F5F5F5F5F5F5F5F5F5F5F5F5F5F5F5F5F5F5F5F5F5F5F5F5F5F5F5F5F5F5F5F5F5F5F5F5F5F5F5F5F5F5F5F5F5F5F5F5F5F5F5F5F5F5E200E2F5F5F5
310
F5F5F5F5F5F5F5F5F5F5F5F5F5F5F5F5F5F5F5F5F5F5F5F5F5F5F5F5F5F5F5F5F5F5F5F5F5F5F5F5F5F5F5F5F5F5F5F5F5F5F5F5F5F5F5F5F5F5F5F5F5F5F5F5F5F5F5F5F5F5F5F5F5F5F5F5F5F5F5F5F5F5F5F5F5F5F5F5F5F5F5F5F5F5E200E2F5F5F5F5F5F5F5F5F5F5F5F5F5F5F5F5F5F5F5F5F5F5F5F5F5F5F5F5F5F5
310
F5F5F5F5F5F5F5F5F5F5F5F5F5F5F5F5F5F5F5F5F5F5F5F5F5F5F5F5F5F5F5F5F5F5F5F5F5F5F5F5F5F5F5F5F5F5F5F5F5F5F5F5F5F5F5F5F5F5F5F5F5F5F5F5F5F5F5E200E2F5F5F5F5F5F5F5F5F5F5F5F5F5F5F5F5F5F5F5F5F5F5F5F5F5F5F5F5F5F5F5F5F5F5F5F5F5F5F5F5F5F5F5F5F5F5F5F5F5F5F5F5F5F5F5F5F5
310
F5F5F5F5F5F5F5F5F5F5F5F5F5F5F5F5F5F5F5F5F5F5F5F5F5F5F5F5F5F5F5F5F5F5F5F5F5F5F5F5E200E2F5F5F5F5F5F5F5F5F5F5F5F5F5F5F5F5F5F5F5F5F5F5F5F5F5F5F5F5F5F5F5F5F5F5F5F5F5F5F5F5F5F5F5F5F5F5F5F5F5F5F5F5F5F5F5F5F5F5F5F5F5F5F5F5F5F5F5F5F5F5F5F5F5F5F5F5F5F5F5F5F5F5F5F5
310
F5F5F5F5F5F5F5F5F5F5F5F5F5E200E2F5F5F5F5F5F5F5F5F5F5F5F5F5F5F5F5F5F5F5F5F5F5F5F5F5F5F5F5F5F5F5F5F5F5F5F5F5F5F5F5F5F5F5F5F5F5F5F5F5F5F5F5F5F5F5F5F5F5F5F5F5F5F5F5F5F5F5F5F5F5F5F5F5F5F5F5F5F5F5F5F5F5F5F5F5F5F5F5F5F5F5F5F5F5F5F5F5E200E2F5F5E2F5F5F5F5F5F5F5F5
310
F5F5F5F5F5F5F5F5F5F5F5F5F5F5F5F5F5F5F5F5F5F5F5F5F5F5F5F5F5F5F5F5F5F5F5F5F5F5F5F5F5F5F5F5F5F5F5F5F5F5F5F5F5F5F5F5F5F5F5F5F5F5F5F5F5F5F5F5F5F5F5F5F5F5F5F5F5F5F5F5F5F5F5E2F5F5E200E2F5F5E2F5F5F5F5F5F5F5F5F5F5F5F5F5F5F5F5F5F5F5F5F5F5F5F5F5F5F5F5F5F5F5F5F5F5F5
310
F5F5F5F5F5F5F5F5F5F5F5F5F5F5F5F5F5F5F5F5F5F5F5F5F5F5F5F5F5F5F5F5F5F5F5F5F5F5F5F5F5F5F5F5F5F5F5F5F5F5F5F5F5F5F5F5E2F5F5E200E2F5F5E2F5F5F5F5F5F5F5F5F5F5F5F5F5F5F5F5F5F5F5F5F5F5F5F5F5F5F5F5F5F5F5F5F5F5F5F5F5F5F5F5F5F5F5F5F5F5F5F5F5F5F5F5F5F5F5F5F5F5F5F5F5F5
310
F5F5F5F5F5F5F5F5F5F5F5F5F5F5F5F5F5F5F5F5F5F5F5F5F5F5F5F5F5E2F5F5E200E2F5F5E2F5F5F5F5F5F5F5F5F5F5F5F5F5F5F5F5F5F5F5F5F5F5F5F5F5F5F5F5F5F5F5F5F5F5F5F5F5F5F5F5F5F5F5F5F5F5F5F5F5F5F5F5F5F5F5F5F5F5F5F5F5F5F5F5F5F5F5F5F5F5F5F5F5F5F5F5F5F5F5F5F5F5F5F5F5F5F5F5F5
310
F5F5E2F5F5E200E2F5F5E2F5F5F5F5F5F5F5F5F5F5F5F5F5F5F5F5F5F5F5F5F5F5F5F5F5F5F5F5F5F5F5F5F5F5F5F5F5F5F5F5F5F5F5F5F5F5F5F5F5F5F5F5F5F5F5F5F5F5F5F5F5F5F5F5F5F5F5F5F5F5F5F5F5F5F5F5F5F5F5F5F5F5F5F5F5F5F5F5F5F5F5E2F5F5E200E2F5F5E2F5F5F5F5F5F5F5F5F5F5F5F5F5F5F5F5
310
F5F5F5F5F5F5F5F5F5F5F5F5F5F5F5F5F5F5F5F5F5F5F5F5F5F5F5F5F5F5F5F5F5F5F5F5F5F5F5F5F5F5F5F5F5F5F5F5F5F5F5F5F5F5F5F5F5F5F5F5F5F5F5F5F5F5F5F5F5F5F5F5F5F5F5E2F5F5E200E2F5F5E2F5F5F5F5F5F5F5F5F5F5F5F5F5F5F5F5F5F5F5F5F5F5F5F5F5F5F5F5F5F5F5F5F5F5F5F5F5F5F5F5F5F5F5
310
F5F5F5F5F5F5F5F5F5F5F5F5F5F5F5F5F5F5F5F5F5F5F5F5F5F5F5F5F5F5F5F5F5F5F5F5F5F5F5F5F5F5F5F5F5F5F5F5E2F5F5E200E2F5F5E2F5F5F5F5F5F5F5F5F5F5F5F5F5F5F5F5F5F5F5F5F5F5F5F5F5F5F5F5F5F5F5F5F5F5F5F5F5F5F5F5F5F5F5F5F5F5F5F5F5F5F5F5F5F5F5F5F5F5F5F5F5F5F5F5F5F5F5F5F5F5
310
F5F5F5F5F5F5F5F5F5F5F5F5F5F5F5F5F5F5F5F5F5E2F5F5E200E2F5F5E2F5F5F5F5F5F5F5F5F5F5F5F5F5F5F5F5F5F5F5F5F5F5F5F5F5F5F5F5F5F5F5F5F5F5F5F5F5F5F5F5F5F5F5F5F5F5F5F5F5F5F5F5F5F5F5F5F5F5F5F5F5F5F5F5F5F5F5F5F5F5F5F5F5F5F5F5F5F5F5F5F5F5F5F5F5F5F5F5F5F5F5E2F5F5E200E2
310
F5F5E2F5F5F5F5F5F5F5F5F5F5F5F5F5F5F5F5F5F5F5F5F5F5F5F5F5F5F5F5F5F5F5F5F5F5F5F5F5F5F5F5F5F5F5F5F5F5F5F5F5F5F5F5F5F5F5F5F5F5F5F5F5F5F5F5F5F5F5F5F5F5F5F5F5F5F5F5F5F5F5F5F5F5F5F5F5F5F5F5F5F5F5E2F5F5E200E2F5F5E2F5F5F5F5F5F5F5F5F5F5F5F5F5F5F5F5F5F5F5F5F5F5F5F5
310
F5F5F5F5F5F5F5F5F5F5F5F5F5F5F5F5F5F5F5F5F5F5F5F5F5F5F5F5F5F5F5F5F5F5F5F5F5F5F5F5F5F5F5F5F5F5F5F5F5F5F5F5F5F5F5F5F5F5F5F5F5F5F5F5F5F5F5E2F5F5E200E2F5F5E2F5F5F5F5F5F5F5F5F5F5F5F5F5F5F5F5F5F5F5F5F5F5F5F5F5F5F5F5F5F5F5F5F5F5F5F5F5F5F5F5F5F5F5F5F5F5F5F5F5F5F5
310
F5F5F5F5F5F5F5F5F5F5F5F5F5F5F5F5F5F5F5F5F5F5F5F5F5F5F5F5F5F5F5F5F5F5F5F5F5F5F5F5E2F5F5E200E2F5F5E2F5F5F5F5F5F5F5F5F5F5F5F5F5F5F5F5F5F5F5F5F5F5F5F5F5F5F5F5F5F5F5F5F5F5F5F5F5F5F5F5F5F5F5F5F5F5F5F5F5F5F5F5F5F5F5F5F5F5F5F5F5F5F5F5F5F5F5F5F5F5F5F5F5F5F5F5F5F5
310
F5F5F5F5F5F5F5F5F5F5F5F5F5E2F5F5E200E2F5F5E2F5F5F5F5F5F5F5F5F5F5F5F5F5F5F5F5F5F5F5F5F5F5F5F5F5F5F5F5F5F5F5F5F5F5F5F5F5F5F5F5F5F5F5F5F5F5F5F5F5F5F5F5F5F5F5F5F5F5F5F5F5F5F5F5F5F5F5F5F5F5F5F5F5F5F5F5F5F5F5F5F5F5F5F5F5F5F5F5F5F5F5E2F5F5E200E2F5F5E2F5F5F5F5F5
310
F5F5F5F5F5F5F5F5F5F5F5F5F5F5F5F5F5F5F5F5F5F5F5F5F5F5F5F5F5F5F5F5F5F5F5F5F5F5F5F5F5F5F5F5F5F5F5F5F5F5F5F5F5F5F5F5F5F5F5F5F5F5F5F5F5F5F5F5F5F5F5F5F5F5F5F5F5F5F5F5F5F5F5F5F5F5E2F5F5E200E2F5F5E2F5F5F5F5F5F5F5F5F5F5F5F5F5F5F5F5F5F5F5F5F5F5F5F5F5F5F5F5F5F5F5F5
310
F5F5F5F5F5F5F5F5F5F5F5F5F5F5F5F5F5F5F5F5F5F5F5F5F5F5F5F5F5F5F5F5F5F5F5F5F5F5F5F5F5F5F5F5F5F5F5F5F5F5F5F5F5F5F5F5F5F5F5E2F5F5E200E2F5F5E2F5F5F5F5F5F5F5F5F5F5F5F5F5F5F5F5F5F5F5F5F5F5F5F5F5F5F5F5F5F5F5F5F5F5F5F5F5F5F5F5F5F5F5F5F5F5F5F5F5F5F5F5F5F5F5F5F5F5F5
310
F5F5F5F5F5F5F5F5F5F5F5F5F5F5F5F5F5F5F5F5F5F5F5F5F5F5F5F5F5F5F5F5E2F5F5E200E2F5F5F5F5F5F5F5F5F5F5F5F5F5F5F5F5F5F5F5F5F5F5F5F5F5F5F5F5F5F5F5F5F5F5F5F5F5F5F5F5F5F5F5F5F5F5F5F5F5F5F5F5F5F5F5F5F5F5F5F5F5F5F5F5F5F5F5F5F5F5F5F5F5F5F5F5F5F5F5F5F5F5F5F5F5F5F5F5F5
310
F5F5F5F5F5F5F5F5E200E2F5F5F5F5F5F5F5F5F5F5F5F5F5F5F5F5F5F5F5F5F5F5F5F5F5F5F5F5F5F5F5F5F5F5F5F5F5F5F5F5F5F5F5F5F5F5F5F5F5F5F5F5F5F5F5F5F5F5F5F5F5F5F5F5F5F5F5F5F5F5F5F5F5F5F5F5F5F5F5F5F5F5F5F5F5F5F5F5F5F5F5F5F5F5F5F5F5E200E2F5F5F5F5F5F5F5F5F5F5F5F5F5F5F5F5
310
F5F5F5F5F5F5F5F5F5F5F5F5F5F5F5F5F5F5F5F5F5F5F5F5F5F5F5F5F5F5F5F5F5F5F5F5F5F5F5F5F5F5F5F5F5F5F5F5F5F5F5F5F5F5F5F5F5F5F5F5F5F5F5F5F5F5F5F5F5F5F5F5F5F5F5F5F5F5F5F5F5E200E2F5F5F5F5F5F5F5F5F5F5F5F5F5F5F5F5F5F5F5F5F5F5F5F5F5F5F5F5F5F5F5F5F5F5F5F5F5F5F5F5F5F5F5
310
F5F5F5F5F5F5F5F5F5F5F5F5F5F5F5F5F5F5F5F5F5F5F5F5F5F5F5F5F5F5F5F5F5F5F5F5F5F5F5F5F5F5F5F5F5F5F5F5F5F5F5F5F5F5E200E2F5F5F5F5F5F5F5F5F5F5F5F5F5F5F5F5F5F5F5F5F5F5F5F5F5F5F5F5F5F5F5F5F5F5F5F5F5F5F5F5F5F5F5F5F5F5F5F5F5F5F5F5F5F5F5F5F5F5F5F5F5F5F5F5F5F5F5F5F5F5
310
F5F5F5F5F5F5F5F5F5F5F5F5F5F5F5F5F5F5F5F5F5F5F5F5F5F5F5E200E2F5F5F5F5F5F5F5F5F5F5F5F5F5F5F5F5F5F5F5F5F5F5F5F5F5F5F5F5F5F5F5F5F5F5F5F5F5F5F5F5F5F5F5F5F5F5F5F5F5F5F5F5F5F5F5F5F5F5F5F5F5F5F5F5F5F5F5F5F5F5F5F5F5F5F5F5F5F5F5F5F5F5F5F5F5F5F5F5F5F5F5F5F5F5F5F5F5
310
E200E2F5F5F5F5F5F5F5F5F5F5F5F5F5F5F5F5F5F5F5F5F5F5F5F5F5F5F5F5F5F5F5F5F5F5F5F5F5F5F5F5F5F5F5F5F5F5F5F5F5F5F5F5F5F5F5F5F5F5F5F5F5F5F5F5F5F5F5F5F5F5F5F5F5F5F5F5F5F5F5F5F5F5F5F5F5F5F5F5F5F5F5F5F5F5F5F5F5E200E2F5F5F5F5F5F5F5F5F5F5F5F5F5F5F5F5F5F5F5F5F5F5F5F5
310
F5F5F5F5F5F5F5F5F5F5F5F5F5F5F5F5F5F5F5F5F5F5F5F5F5F5F5F5F5F5F5F5F5F5F5F5F5F5F5F5F5F5F5F5F5F5F5F5F5F5F5F5F5F5F5F5F5F5F5F5F5F5F5F5F5F5F5F5F5F5F5F5F5E200E2F5F5F5F5F5F5F5F5F5F5F5F5F5F5F5F5F5F5F5F5F5F5F5F5F5F5F5F5F5F5F5F5F5F5F5F5F5F5F5F5F5F5F5F5F5F5F5F5F5F5F5
310
F5F5F5F5F5F5F5F5F5F5F5F5F5F5F5F5F5F5F5F5F5F5F5F5F5F5F5F5F5F5F5F5F5F5F5F5F5F5F5F5F5F5F5F5F5F5E200E2F5F5E2F5F5F5F5F5F5F5F5F5F5F5F5F5F5F5F5F5F5F5F5F5F5F5F5F5F5F5F5F5F5F5F5F5F5F5F5F5F5F5F5F5F5F5F5F5F5F5F5F5F5F5F5F5F5F5F5F5F5F5F5F5F5F5F5F5F5F5F5F5F5F5F5F5F5F5
310
F5F5F5F5F5F5F5F5F5F5F5F5F5F5F5F5E2F5F5E200E2F5F5E2F5F5F5F5F5F5F5F5F5F5F5F5F5F5F5F5F5F5F5F5F5F5F5F5F5F5F5F5F5F5F5F5F5F5F5F5F5F5F5F5F5F5F5F5F5F5F5F5F5F5F5F5F5F5F5F5F5F5F5F5F5F5F5F5F5F5F5F5F5F5F5F5F5F5F5F5F5F5F5F5F5F5F5F5F5F5F5F5F5F5F5E2F5F5E200E2F5F5E2F5F5
310
F5F5F5F5F5F5F5F5F5F5F5F5F5F5F5F5F5F5F5F5F5F5F5F5F5F5F5F5F5F5F5F5F5F5F5F5F5F5F5F5F5F5F5F5F5F5F5F5F5F5F5F5F5F5F5F5F5F5F5F5F5F5F5F5F5F5F5F5F5F5F5F5F5F5F5F5F5F5F5F5F5F5F5F5F5F5F5F5F5E2F5F5E200E2F5F5E2F5F5F5F5F5F5F5F5F5F5F5F5F5F5F5F5F5F5F5F5F5F5F5F5F5F5F5F5F5
310
F5F5F5F5F5F5F5F5F5F5F5F5F5F5F5F5F5F5F5F5F5F5F5F5F5F5F5F5F5F5F5F5F5F5F5F5F5F5F5F5F5F5F5F5F5F5F5F5F5F5F5F5F5F5F5F5F5F5F5F5F5F5E2F5F5E200E2F5F5E2F5F5F5F5F5F5F5F5F5F5F5F5F5F5F5F5F5F5F5F5F5F5F5F5F5F5F5F5F5F5F5F5F5F5F5F5F5F5F5F5F5F5F5F5F5F5F5F5F5F5F5F5F5F5F5F5
310
F5F5F5F5F5F5F5F5F5F5F5F5F5F5F5F5F5F5F5F5F5F5F5F5F5F5F5F5F5F5F5F5F5F5F5E2F5F5E200E2F5F5E2F5F5F5F5F5F5F5F5F5F5F5F5F5F5F5F5F5F5F5F5F5F5F5F5F5F5F5F5F5F5F5F5F5F5F5F5F5F5F5F5F5F5F5F5F5F5F5F5F5F5F5F5F5F5F5F5F5F5F5F5F5F5F5F5F5F5F5F5F5F5F5F5F5F5F5F5F5F5F5F5F5F5F5
310
F5F5F5F5F5F5F5F5E2F5F5E200E2F5F5E2F5F5F5F5F5F5F5F5F5F5F5F5F5F5F5F5F5F5F5F5F5F5F5F5F5F5F5F5F5F5F5F5F5F5F5F5F5F5F5F5F5F5F5F5F5F5F5F5F5F5F5F5F5F5F5F5F5F5F5F5F5F5F5F5F5F5F5F5F5F5F5F5F5F5F5F5F5F5F5F5F5F5F5F5F5F5F5F5F5F5F5E2F5F5E200E2F5F5E2F5F5F5F5F5F5F5F5F5F5
310
F5F5F5F5F5F5F5F5F5F5F5F5F5F5F5F5F5F5F5F5F5F5F5F5F5F5F5F5F5F5F5F5F5F5F5F5F5F5F5F5F5F5F5F5F5F5F5F5F5F5F5F5F5F5F5F5F5F5F5F5F5F5F5F5F5F5F5F5F5F5F5F5F5F5F5F5F5F5F5F5F5E2F5F5E200E2F5F5E2E2E2E2E2E2E2E2F5F5F5F5F5F5F5F5E2E2E2E2E2E2E2E2E2E2E2E2E2E2E2F5F5F5F5F5F5F5
310
F5E2E2E2E2E2E2E2E2E2E2E2E2E2E2E2F5F5F5F5F5F5F5F5E2E2E2E2E2E2E2E2E2E2E2E2E2E2E2F5F5F5F5F5F5F5F5E2E2E2E2E2E2E2E2F5F5E200E2F5F5F5F5F5F5F5F5F5F5F5F5F5F5F5F5F5F5F5F5F5F5F5F5F5F5F5F5F5F5F5F5F5F5F5F5F5F5F5F5F5F5F5F5F5F5F5F5F5F5F5F5F5F5F5F5F5F5F5F5F5F5F5F5F5F5F5
310
F5F5F5F5F5F5F5F5F5F5F5F5F5F5F5F5F5F5F5F5F5F5F5F5F5F5F5F5F5F5E200E2F5F5F5F5F5F5F5F5F5F5F5F5F5F5F5F5F5F5F5F5F5F5F5F5F5F5F5F5F5F5F5F5F5F5F5F5F5F5F5F5F5F5F5F5F5F5F5F5F5F5F5F5F5F5F5F5F5F5F5F5F5F5F5F5F5F5F5F5F5F5F5F5F5F5F5F5F5F5F5F5F5F5F5F5F5F5F5F5F5F5F5F5F5F5
310
F5F5F5E200E2F5F5F5F5F5F5F5F5F5F5F5F5F5F5F5F5F5F5F5F5F5F5F5F5F5F5F5F5F5F5F5F5F5F5F5F5F5F5F5F5F5F5F5F5F5F5F5F5F5F5F5F5F5F5F5F5F5F5F5F5F5F5F5F5F5F5F5F5F5F5F5F5F5F5F5F5F5F5F5F5F5F5F5F5F5F5F5F5F5F5F5F5F5F5F5F5F5E200E2E2E2E2E2E2E2E2E2E2E2E2E2E2E2E2E2E2E2E2E2E2
310
E2E2E2E2E2E2E2E2E2E2E2E2E2E2E2E2E2E2E2E2E2E2E2E2E2E2E2E2E2E2E2E2E2E2E2E2E2E2E2E2E2E2E2E2E2E2E2E2E2E2E2E2E2E2E2E2E2E2E2E2E2E2E2E2E2E2E2E2E2E2E2E2E2E2E2E2E200
  0
XRECORD
  5
8BF5
102
{ACAD_REACTORS
330
5587
102
}
330
5587
100
AcDbXrecord
280
     1
102
SHADEPLOT
 70
     1
102
SHADEPLOTRESLEVEL
 70
     2
102
SHADEPLOTCUSTOMDPI
 70
   150
  0
XRECORD
  5
5588
102
{ACAD_REACTORS
330
5587
102
}
330
5587
100
AcDbXrecord
280
     1
310
28000000630000008C0000000100080000000000B036000000000000000000000001000000000000FFFFFF0000FFFF00FF0000000000000000000000000000000000000000000000000000000000000000000000330000006600000099000000CC000000FF00000000330000333300006633000099330000CC330000FF3300
310
0000660000336600006666000099660000CC660000FF66000000990000339900006699000099990000CC990000FF99000000CC000033CC000066CC000099CC0000CCCC0000FFCC000000FF000033FF000066FF000099FF0000CCFF0000FFFF000000003300330033006600330099003300CC003300FF003300003333003333
310
33006633330099333300CC333300FF33330000663300336633006666330099663300CC663300FF66330000993300339933006699330099993300CC993300FF99330000CC330033CC330066CC330099CC3300CCCC3300FFCC330000FF330033FF330066FF330099FF3300CCFF3300FFFF330000006600330066006600660099
310
006600CC006600FF00660000336600333366006633660099336600CC336600FF33660000666600336666006666660099666600CC666600FF66660000996600339966006699660099996600CC996600FF99660000CC660033CC660066CC660099CC6600CCCC6600FFCC660000FF660033FF660066FF660099FF6600CCFF6600
310
FFFF660000009900330099006600990099009900CC009900FF00990000339900333399006633990099339900CC339900FF33990000669900336699006666990099669900CC669900FF66990000999900339999006699990099999900CC999900FF99990000CC990033CC990066CC990099CC9900CCCC9900FFCC990000FF99
310
0033FF990066FF990099FF9900CCFF9900FFFF99000000CC003300CC006600CC009900CC00CC00CC00FF00CC000033CC003333CC006633CC009933CC00CC33CC00FF33CC000066CC003366CC006666CC009966CC00CC66CC00FF66CC000099CC003399CC006699CC009999CC00CC99CC00FF99CC0000CCCC0033CCCC0066CC
310
CC0099CCCC00CCCCCC00FFCCCC0000FFCC0033FFCC0066FFCC0099FFCC00CCFFCC00FFFFCC000000FF003300FF006600FF009900FF00CC00FF00FF00FF000033FF003333FF006633FF009933FF00CC33FF00FF33FF000066FF003366FF006666FF009966FF00CC66FF00FF66FF000099FF003399FF006699FF009999FF00CC
310
99FF00FF99FF0000CCFF0033CCFF0066CCFF0099CCFF00CCCCFF00FFCCFF0000FFFF0033FFFF0066FFFF0099FFFF00CCFFFF00FFFFFF00000000000D0D0D001A1A1A00282828003535350043434300505050005D5D5D006B6B6B00787878008686860093939300A1A1A100AEAEAE00BBBBBB00C9C9C900D6D6D600E4E4E400
310
F1F1F100FFFFFF0000000000000000000000000000000000000000000000000000000000000000000000000000000000E2E2E2E2E2E2E2E2E2E2E2E2E2E2E2E2E2E2E2E2E2E2E2E2E2E2E2E2E2E2E2E2E2E2E2E2E2E2E2E2E2E2E2E2E2E2E2E2E2E2E2E2E2E2E2E2E2E2E2E2E2E2E2E2E2E2E2E2E2E2E2E2E2E2E2E2E2E2E2
310
E2E2E2E2E2E2E2E2E2E2E2E2E2E2E2E2E2E2E2E2EFE2F5F5F5F5F5F5F5F5F5F5F5F5F5F5F5F5F5F5F5F5F5F5F5F5F5F5F5F5F5F5F5F5F5F5F5F5F5F5F5F5F5F5F5F5F5F5F5F5F5F5F5F5F5F5F5F5F5F5F5F5F5F5F5F5F5F5F5F5F5F5F5F5F5F5F5F5F5F5F5F5F5F5F5F5F5F5F5F5F5F5F5F5F5F5F5F5E2E2EFE2F5F5F5F5F5
310
F5F5F5F5F5F5F5F5F5F5F5F5F5F5F5F5F5F5F5F5F5F5F5F5F5F5F5F5F5F5F5F5F5F5F5F5F5F5F5F5F5F5F5F5F5F5F5F5F5F5F5F5F5F5F5F5F5F5F5F5F5F5F5F5F5F5F5F5F5F5F5F5F5F5F5F5F5F5F5F5F5F5F5F5F5F5F5F5F5F5F5E2E2EFE2F5F5E2E2E2E2E2E2E2E2F5F5F5F5F5F5F5F5E2E2E2E2E2E2E2E2E2E2E2E2E2E2
310
E2F5F5F5F5F5F5F5F5E2E2E2E2E2E2E2E2E2E2E2E2E2E2F5F5F5F5F5F5F5F5E2E2E2E2E2E2E2E2E2E2E2E2E2E2E2F5F5F5F5F5F5F5F5E2E2E2E2E2E2E2E2F5F5E2E2E2E2F5F5E2F5F5F5F5F5F5F5F5F5F5F5F5F5F5F5F5F5F5F5F5F5F5F5F5F5F5F5F5F5F5F5F5F5F5F5F5F5F5F5F5F5F5F5F5F5F5F5F5F5F5F5F5F5F5F5F5
310
F5F5F5F5F5F5F5F5F5F5F5F5F5F5F5F5F5F5F5F5F5F5F5F5F5F5F5F5F5F5F5F5F5F5E2F5F5E2E2EFE2F5F5E2F5F5F5F5F5F5F5F5F5F5F5F5F5F5F5F5F5F5F5F5F5F5F5F5F5F5F5F5F5F5F5F5F5F5F5F5F5F5F5F5F5F5F5F5F5F5F5F5F5F5F5F5F5F5F5F5F5F5F5F5F5F5F5F5F5F5F5F5F5F5F5F5F5F5F5F5F5F5F5F5F5F5F5
310
F5F5F5F5F5F5F5E2F5F5E2E2E2E2F5F5E2F5F5F5F5F5F5F5F5F5F5F5F5F5F5F5F5F5F5F5F5F5F5F5F5F5F5F5F5F5F5F5F5F5F5F5F5F5F5F5F5F5F5F5F5F5F5F5F5F5F5F5F5F5F5F5F5F5F5F5F5F5F5F5F5F5F5F5F5F5F5F5F5F5F5F5F5F5F5F5F5F5F5F5F5F5F5F5F5F5F5E2F5F5E2E2EFE2F5F5E2F5F5F5F5F5F5F5F5F5F5
310
F5F5F5F5F5F5F5F5F5F5F5F5F5F5F5F5F5F5F5F5F5F5F5F5F5F5F5F5F5F5F5F5F5F5F5F5F5F5F5F5F5F5F5F5F5F5F5F5F5F5F5F5F5F5F5F5F5F5F5F5F5F5F5F5F5F5F5F5F5F5F5F5F5F5F5F5F5F5F5F5E2F5F5E2E2F5E2F5F5E2F5F5F5F5F5F5F5F5F5F5F5F5F5F5F5F5F5F5F5F5F5F5F5F5F5F5F5F5F5F5F5F5F5F5F5F5F5
310
F5F5F5F5F5F5F5F5F5F5F5F5F5F5F5F5F5F5F5F5F5F5F5F5F5F5F5F5F5F5F5F5F5F5F5F5F5F5F5F5F5F5F5F5F5F5F5F5F5F5F5F5F5E2F5F5E2E2EFE2F5F5E2F5F5F5F5F5F5F5F5F5F5F5F5F5F5F5F5F5F5F5F5F5F5F5F5F5F5F5F5F5F5F5F5F5F5F5F5F5F5F5F5F5F5F5F5F5F5F5F5F5F5F5F5F5F5F5F5F5F5F5F5F5F5F5F5
310
F5F5F5F5F5F5F5F5F5F5F5F5F5F5F5F5F5F5F5F5F5F5F5F5F5F5E2F5F5E2E2F5E2F5F5E2F5F5F5F5F5F5F5F5F5F5F5F5F5F5F5F5F5F5F5F5F5F5F5F5F5F5F5F5F5F5F5F5F5F5F5F5F5F5F5F5F5F5F5F5F5F5F5F5F5F5F5F5F5F5F5F5F5F5F5F5F5F5F5F5F5F5F5F5F5F5F5F5F5F5F5F5F5F5F5F5F5F5F5F5F5F5F5F5F5F5E2
310
F5F5E2E2EFE2F5F5E2F5F5F5F5F5F5F5F5F5F5F5F5F5F5F5F5F5F5F5F5F5F5F5F5F5F5F5F5F5F5F5F5F5F5F5F5F5F5F5F5F5F5F5F5F5F5F5F5F5F5F5F5F5F5F5F5F5F5F5F5F5F5F5F5F5F5F5F5F5F5F5F5F5F5F5F5F5F5F5F5F5F5F5F5F5F5F5F5F5F5E2F5F5E2E2E2E2F5F5F5F5F5F5F5F5F5F5F5F5F5F5F5F5F5F5F5F5F5
310
F5F5F5F5F5F5F5F5F5F5F5F5F5F5F5F5F5F5F5F5F5F5F5F5F5F5F5F5F5F5F5F5F5F5F5F5F5F5F5F5F5F5F5F5F5F5F5F5F5F5F5F5F5F5F5F5F5F5F5F5F5F5F5F5F5F5F5F5F5F5F5F5F5F5F5E2E2E2E2F5F5F5F5F5F5F5F5F5F5F5F5F5F5F5F5F5F5F5F5F5F5F5F5F5F5F5F5F5F5F5F5F5F5F5F5F5F5F5F5F5F5F5F5F5F5F5F5
310
F5F5F5F5F5F5F5F5F5F5F5F5F5F5F5F5F5F5F5F5F5F5F5F5F5F5F5F5F5F5F5F5F5F5F5F5F5F5F5F5F5F5F5F5F5F5F5F5E2E2EFE2F5F5F5F5F5F5F5F5F5F5F5F5F5F5F5F5F5F5F5F5F5F5F5F5F5F5F5F5F5F5F5F5F5F5F5F5F5F5F5F5F5F5F5F5F5F5F5F5F5F5F5F5F5F5F5F5F5F5F5F5F5F5F5F5F5F5F5F5F5F5F5F5F5F5F5
310
F5F5F5F5F5F5F5F5F5F5F5F5F5F5F5F5F5F5F5F5F5E2E2F5E2F5F5F5F5F5F5F5F5F5F5F5F5F5F5F5F5F5F5F5F5F5F5F5F5F5F5F5F5F5F5F5F5F5F5F5F5F5F5F5F5F5F5F5F5F5F5F5F5F5F5F5F5F5F5F5F5F5F5F5F5F5F5F5F5F5F5F5F5F5F5F5F5F5F5F5F5F5F5F5F5F5F5F5F5F5F5F5F5F5F5F5F5F5F5F5F5E2E2EFE2F5F5
310
F5F5F5F5F5F5F5F5F5F5F5F5F5F5F5F5F5F5F5F5F5F5F5F5F5F5F5F5F5F5F5F5F5F5F5F5F5F5F5F5F5F5F5F5F5F5F5F5F5F5F5F5F5F5F5F5F5F5F5F5F5F5F5F5F5F5F5F5F5F5F5F5F5F5F5F5F5F5F5F5F5F5F5F5F5F5F5F5F5F5F5F5F5F5E2E2F5E2F5F5F5F5F5F5F5F5F5F5F5F5F5F5F5F5F5F5F5F5F5F5F5F5F5F5F5F5F5
310
F5F5F5F5F5F5F5F5F5F5F5F5F5F5F5F5F5F5F5F5F5F5F5F5F5F5F5F5F5F5F5F5F5F5F5F5F5F5F5F5F5F5F5F5F5F5F5F5F5F5F5F5F5F5F5F5F5F5F5F5F5F5F5F5F5F5F5E2E2EFE2F5F5F5F5F5F5F5F5F5F5F5F5F5F5F5F5F5F5F5F5F5F5F5F5F5F5F5F5F5F5F5F5F5F5F5F5F5F5F5F5F5F5F5F5F5F5F5F5F5F5F5F5F5F5F5F5
310
F5F5F5F5F5F5F5F5F5F5F5F5F5F5F5F5F5F5F5F5F5F5F5F5F5F5F5F5F5F5F5F5F5F5F5F5F5F5F5F5E2E2F5E2F5F5F5F5F5F5F5F5F5F5F5F5F5F5F5F5F5F5F5F5F5F5F5F5F5F5F5F5F5F5F5F5F5F5F5F5F5F5F5F5F5F5F5F5F5F5F5F5F5F5F5F5F5F5F5F5F5F5F5F5F5F5F5F5F5F5F5F5F5F5F5F5F5F5F5F5F5F5F5F5F5F5F5
310
F5F5F5F5F5F5F5F5F5F5F5F5F5E2E2EFE2F5F5F5F5F5F5F5F5F5F5F5F5F5F5F5F5F5F5F5F5F5F5F5F5F5F5F5F5F5F5F5F5F5F5F5F5F5F5F5F5F5F5F5F5F5F5F5F5F5F5F5F5F5F5F5F5F5F5F5F5F5F5F5F5F5F5F5F5F5F5F5F5F5F5F5F5F5F5F5F5F5F5F5F5F5F5F5F5F5F5F5F5F5F5F5F5E2E2F5E2F5F5E2F5F5F5F5F5F5F5
310
F5F5F5F5F5F5F5F5F5F5F5F5F5F5F5F5F5F5F5F5F5F5F5F5F5F5F5F5F5F5F5F5F5F5F5F5F5F5F5F5F5F5F5F5F5F5F5F5F5F5F5F5F5F5F5F5F5F5F5F5F5F5F5F5F5F5F5F5F5F5F5F5F5F5F5F5F5F5F5F5F5F5F5E2F5F5E2E2E2E2F5F5E2F5F5F5F5F5F5F5F5F5F5F5F5F5F5F5F5F5F5F5F5F5F5F5F5F5F5F5F5F5F5F5F5F5F5
310
F5F5F5F5F5F5F5F5F5F5F5F5F5F5F5F5F5F5F5F5F5F5F5F5F5F5F5F5F5F5F5F5F5F5F5F5F5F5F5F5F5F5F5F5F5F5F5F5F5F5F5F5F5F5F5F5E2F5F5E2E2EFE2F5F5E2F5F5F5F5F5F5F5F5F5F5F5F5F5F5F5F5F5F5F5F5F5F5F5F5F5F5F5F5F5F5F5F5F5F5F5F5F5F5F5F5F5F5F5F5F5F5F5F5F5F5F5F5F5F5F5F5F5F5F5F5F5
310
F5F5F5F5F5F5F5F5F5F5F5F5F5F5F5F5F5F5F5F5F5F5F5F5F5F5F5F5F5E2F5F5E2E2F5E2F5F5E2F5F5F5F5F5F5F5F5F5F5F5F5F5F5F5F5F5F5F5F5F5F5F5F5F5F5F5F5F5F5F5F5F5F5F5F5F5F5F5F5F5F5F5F5F5F5F5F5F5F5F5F5F5F5F5F5F5F5F5F5F5F5F5F5F5F5F5F5F5F5F5F5F5F5F5F5F5F5F5F5F5F5F5F5F5F5F5F5
310
F5F5E2F5F5E2E2EFE2F5F5E2F5F5F5F5F5F5F5F5F5F5F5F5F5F5F5F5F5F5F5F5F5F5F5F5F5F5F5F5F5F5F5F5F5F5F5F5F5F5F5F5F5F5F5F5F5F5F5F5F5F5F5F5F5F5F5F5F5F5F5F5F5F5F5F5F5F5F5F5F5F5F5F5F5F5F5F5F5F5F5F5F5F5F5F5F5F5F5F5F5F5E2F5F5E2E2F5E2F5F5E2F5F5F5F5F5F5F5F5F5F5F5F5F5F5F5
310
F5F5F5F5F5F5F5F5F5F5F5F5F5F5F5F5F5F5F5F5F5F5F5F5F5F5F5F5F5F5F5F5F5F5F5F5F5F5F5F5F5F5F5F5F5F5F5F5F5F5F5F5F5F5F5F5F5F5F5F5F5F5F5F5F5F5F5F5F5F5F5F5F5F5F5E2F5F5E2E2EFE2F5F5E2F5F5F5F5F5F5F5F5F5F5F5F5F5F5F5F5F5F5F5F5F5F5F5F5F5F5F5F5F5F5F5F5F5F5F5F5F5F5F5F5F5F5
310
F5F5F5F5F5F5F5F5F5F5F5F5F5F5F5F5F5F5F5F5F5F5F5F5F5F5F5F5F5F5F5F5F5F5F5F5F5F5F5F5F5F5F5F5F5F5F5F5E2F5F5E2E2F5E2F5F5E2F5F5F5F5F5F5F5F5F5F5F5F5F5F5F5F5F5F5F5F5F5F5F5F5F5F5F5F5F5F5F5F5F5F5F5F5F5F5F5F5F5F5F5F5F5F5F5F5F5F5F5F5F5F5F5F5F5F5F5F5F5F5F5F5F5F5F5F5F5
310
F5F5F5F5F5F5F5F5F5F5F5F5F5F5F5F5F5F5F5F5F5E2F5F5E2E2EFE2F5F5E2F5F5F5F5F5F5F5F5F5F5F5F5F5F5F5F5F5F5F5F5F5F5F5F5F5F5F5F5F5F5F5F5F5F5F5F5F5F5F5F5F5F5F5F5F5F5F5F5F5F5F5F5F5F5F5F5F5F5F5F5F5F5F5F5F5F5F5F5F5F5F5F5F5F5F5F5F5F5F5F5F5F5F5F5F5F5F5F5F5F5E2F5F5E2E2F5
310
E2F5F5E2F5F5F5F5F5F5F5F5F5F5F5F5F5F5F5F5F5F5F5F5F5F5F5F5F5F5F5F5F5F5F5F5F5F5F5F5F5F5F5F5F5F5F5F5F5F5F5F5F5F5F5F5F5F5F5F5F5F5F5F5F5F5F5F5F5F5F5F5F5F5F5F5F5F5F5F5F5F5F5F5F5F5F5F5F5F5F5F5F5F5E2F5F5E2E2F5E2F5F5E2F5F5F5F5F5F5F5F5F5F5F5F5F5F5F5F5F5F5F5F5F5F5F5
310
F5F5F5F5F5F5F5F5F5F5F5F5F5F5F5F5F5F5F5F5F5F5F5F5F5F5F5F5F5F5F5F5F5F5F5F5F5F5F5F5F5F5F5F5F5F5F5F5F5F5F5F5F5F5F5F5F5F5F5F5F5F5F5F5F5F5F5E2F5F5E2E2EFE2F5F5E2F5F5F5F5F5F5F5F5F5F5F5F5F5F5F5F5F5F5F5F5F5F5F5F5F5F5F5F5F5F5F5F5F5F5F5F5F5F5F5F5F5F5F5F5F5F5F5F5F5F5
310
F5F5F5F5F5F5F5F5F5F5F5F5F5F5F5F5F5F5F5F5F5F5F5F5F5F5F5F5F5F5F5F5F5F5F5F5F5F5F5F5E2F5F5E2E2F5E2F5F5E2F5F5F5F5F5F5F5F5F5F5F5F5F5F5F5F5F5F5F5F5F5F5F5F5F5F5F5F5F5F5F5F5F5F5F5F5F5F5F5F5F5F5F5F5F5F5F5F5F5F5F5F5F5F5F5F5F5F5F5F5F5F5F5F5F5F5F5F5F5F5F5F5F5F5F5F5F5
310
F5F5F5F5F5F5F5F5F5F5F5F5F5E2F5F5E2E2EFE2F5F5E2F5F5F5F5F5F5F5F5F5F5F5F5F5F5F5F5F5F5F5F5F5F5F5F5F5F5F5F5F5F5F5F5F5F5F5F5F5F5F5F5F5F5F5F5F5F5F5F5F5F5F5F5F5F5F5F5F5F5F5F5F5F5F5F5F5F5F5F5F5F5F5F5F5F5F5F5F5F5F5F5F5F5F5F5F5F5F5F5F5F5E2F5F5E2E2F5E2F5F5E2F5F5F5F5
310
F5F5F5F5F5F5F5F5F5F5F5F5F5F5F5F5F5F5F5F5F5F5F5F5F5F5F5F5F5F5F5F5F5F5F5F5F5F5F5F5F5F5F5F5F5F5F5F5F5F5F5F5F5F5F5F5F5F5F5F5F5F5F5F5F5F5F5F5F5F5F5F5F5F5F5F5F5F5F5F5F5F5F5F5F5F5E2F5F5E2E2EFE2F5F5E2F5F5F5F5F5F5F5F5F5F5F5F5F5F5F5F5F5F5F5F5F5F5F5F5F5F5F5F5F5F5F5
310
F5F5F5F5F5F5F5F5F5F5F5F5F5F5F5F5F5F5F5F5F5F5F5F5F5F5F5F5F5F5F5F5F5F5F5F5F5F5F5F5F5F5F5F5F5F5F5F5F5F5F5F5F5F5F5F5F5F5F5E2F5F5E2E2F5E2F5F5E2F5F5F5F5F5F5F5F5F5F5F5F5F5F5F5F5F5F5F5F5F5F5F5F5F5F5F5F5F5F5F5F5F5F5F5F5F5F5F5F5F5F5F5F5F5F5F5F5F5F5F5F5F5F5F5F5F5F5
310
F5F5F5F5F5F5F5F5F5F5F5F5F5F5F5F5F5F5F5F5F5F5F5F5F5F5F5F5F5F5F5F5E2F5F5E2E2EFE2F5F5F5F5F5F5F5F5F5F5F5F5F5F5F5F5F5F5F5F5F5F5F5F5F5F5F5F5F5F5F5F5F5F5F5F5F5F5F5F5F5F5F5F5F5F5F5F5F5F5F5F5F5F5F5F5F5F5F5F5F5F5F5F5F5F5F5F5F5F5F5F5F5F5F5F5F5F5F5F5F5F5F5F5F5F5F5F5
310
F5F5F5F5F5F5F5F5E2E2F5E2F5F5F5F5F5F5F5F5F5F5F5F5F5F5F5F5F5F5F5F5F5F5F5F5F5F5F5F5F5F5F5F5F5F5F5F5F5F5F5F5F5F5F5F5F5F5F5F5F5F5F5F5F5F5F5F5F5F5F5F5F5F5F5F5F5F5F5F5F5F5F5F5F5F5F5F5F5F5F5F5F5F5F5F5F5F5F5F5F5F5F5F5F5F5F5F5E2E2F5E2F5F5F5F5F5F5F5F5F5F5F5F5F5F5F5
310
F5F5F5F5F5F5F5F5F5F5F5F5F5F5F5F5F5F5F5F5F5F5F5F5F5F5F5F5F5F5F5F5F5F5F5F5F5F5F5F5F5F5F5F5F5F5F5F5F5F5F5F5F5F5F5F5F5F5F5F5F5F5F5F5F5F5F5F5F5F5F5F5F5F5F5F5F5F5F5F5F5E2E2EFE2F5F5F5F5F5F5F5F5F5F5F5F5F5F5F5F5F5F5F5F5F5F5F5F5F5F5F5F5F5F5F5F5F5F5F5F5F5F5F5F5F5F5
310
F5F5F5F5F5F5F5F5F5F5F5F5F5F5F5F5F5F5F5F5F5F5F5F5F5F5F5F5F5F5F5F5F5F5F5F5F5F5F5F5F5F5F5F5F5F5F5F5F5F5F5F5F5F5E2E2F5E2F5F5F5F5F5F5F5F5F5F5F5F5F5F5F5F5F5F5F5F5F5F5F5F5F5F5F5F5F5F5F5F5F5F5F5F5F5F5F5F5F5F5F5F5F5F5F5F5F5F5F5F5F5F5F5F5F5F5F5F5F5F5F5F5F5F5F5F5F5
310
F5F5F5F5F5F5F5F5F5F5F5F5F5F5F5F5F5F5F5F5F5F5F5F5F5F5F5E2E2EFE2F5F5F5F5F5F5F5F5F5F5F5F5F5F5F5F5F5F5F5F5F5F5F5F5F5F5F5F5F5F5F5F5F5F5F5F5F5F5F5F5F5F5F5F5F5F5F5F5F5F5F5F5F5F5F5F5F5F5F5F5F5F5F5F5F5F5F5F5F5F5F5F5F5F5F5F5F5F5F5F5F5F5F5F5F5F5F5F5F5F5F5F5F5F5F5F5
310
E2E2F5E2F5F5F5F5F5F5F5F5F5F5F5F5F5F5F5F5F5F5F5F5F5F5F5F5F5F5F5F5F5F5F5F5F5F5F5F5F5F5F5F5F5F5F5F5F5F5F5F5F5F5F5F5F5F5F5F5F5F5F5F5F5F5F5F5F5F5F5F5F5F5F5F5F5F5F5F5F5F5F5F5F5F5F5F5F5F5F5F5F5F5F5F5F5F5F5F5E2E2EFE2F5F5F5F5F5F5F5F5F5F5F5F5F5F5F5F5F5F5F5F5F5F5F5
310
F5F5F5F5F5F5F5F5F5F5F5F5F5F5F5F5F5F5F5F5F5F5F5F5F5F5F5F5F5F5F5F5F5F5F5F5F5F5F5F5F5F5F5F5F5F5F5F5F5F5F5F5F5F5F5F5F5F5F5F5F5F5F5F5F5F5F5F5F5F5F5F5F5E2E2F5E2F5F5F5F5F5F5F5F5F5F5F5F5F5F5F5F5F5F5F5F5F5F5F5F5F5F5F5F5F5F5F5F5F5F5F5F5F5F5F5F5F5F5F5F5F5F5F5F5F5F5
310
F5F5F5F5F5F5F5F5F5F5F5F5F5F5F5F5F5F5F5F5F5F5F5F5F5F5F5F5F5F5F5F5F5F5F5F5F5F5F5F5F5F5F5F5F5F5E2E2EFE2F5F5F5F5F5F5F5F5F5F5F5F5F5F5F5F5F5F5F5F5F5F5F5F5F5F5F5F5F5F5F5F5F5F5F5F5F5F5F5F5F5F5F5F5F5F5F5F5F5F5F5F5F5F5F5F5F5F5F5F5F5F5F5F5F5F5F5F5F5F5F5F5F5F5F5F5F5
310
F5F5F5F5F5F5F5F5F5F5F5F5F5F5F5F5F5F5F5E2E2E2E2F5F5E2F5F5F5F5F5F5F5F5F5F5F5F5F5F5F5F5F5F5F5F5F5F5F5F5F5F5F5F5F5F5F5F5F5F5F5F5F5F5F5F5F5F5F5F5F5F5F5F5F5F5F5F5F5F5F5F5F5F5F5F5F5F5F5F5F5F5F5F5F5F5F5F5F5F5F5F5F5F5F5F5F5F5F5F5F5F5F5F5F5F5E2F5F5E2E2E2E2F5F5E2F5
310
F5F5F5F5F5F5F5F5F5F5F5F5F5F5F5F5F5F5F5F5F5F5F5F5F5F5F5F5F5F5F5F5F5F5F5F5F5F5F5F5F5F5F5F5F5F5F5F5F5F5F5F5F5F5F5F5F5F5F5F5F5F5F5F5F5F5F5F5F5F5F5F5F5F5F5F5F5F5F5F5F5F5F5F5F5F5F5F5F5E2F5F5E2E2EFE2F5F5E2F5F5F5F5F5F5F5F5F5F5F5F5F5F5F5F5F5F5F5F5F5F5F5F5F5F5F5F5
310
F5F5F5F5F5F5F5F5F5F5F5F5F5F5F5F5F5F5F5F5F5F5F5F5F5F5F5F5F5F5F5F5F5F5F5F5F5F5F5F5F5F5F5F5F5F5F5F5F5F5F5F5F5F5F5F5F5F5F5F5F5F5E2F5F5E2E2F5E2F5F5E2F5F5F5F5F5F5F5F5F5F5F5F5F5F5F5F5F5F5F5F5F5F5F5F5F5F5F5F5F5F5F5F5F5F5F5F5F5F5F5F5F5F5F5F5F5F5F5F5F5F5F5F5F5F5F5
310
F5F5F5F5F5F5F5F5F5F5F5F5F5F5F5F5F5F5F5F5F5F5F5F5F5F5F5F5F5F5F5F5F5F5F5E2F5F5E2E2EFE2F5F5E2F5F5F5F5F5F5F5F5F5F5F5F5F5F5F5F5F5F5F5F5F5F5F5F5F5F5F5F5F5F5F5F5F5F5F5F5F5F5F5F5F5F5F5F5F5F5F5F5F5F5F5F5F5F5F5F5F5F5F5F5F5F5F5F5F5F5F5F5F5F5F5F5F5F5F5F5F5F5F5F5F5F5
310
F5F5F5F5F5F5F5F5E2F5F5E2E2F5E2F5F5E2F5F5F5F5F5F5F5F5F5F5F5F5F5F5F5F5F5F5F5F5F5F5F5F5F5F5F5F5F5F5F5F5F5F5F5F5F5F5F5F5F5F5F5F5F5F5F5F5F5F5F5F5F5F5F5F5F5F5F5F5F5F5F5F5F5F5F5F5F5F5F5F5F5F5F5F5F5F5F5F5F5F5F5F5F5F5F5F5F5F5E2F5F5E2E2EFE2F5F5E2F5F5F5F5F5F5F5F5F5
310
F5F5F5F5F5F5F5F5F5F5F5F5F5F5F5F5F5F5F5F5F5F5F5F5F5F5F5F5F5F5F5F5F5F5F5F5F5F5F5F5F5F5F5F5F5F5F5F5F5F5F5F5F5F5F5F5F5F5F5F5F5F5F5F5F5F5F5F5F5F5F5F5F5F5F5F5F5F5F5F5F5E2F5F5E2E2F5E2F5F5E2F5F5F5F5F5F5F5F5F5F5F5F5F5F5F5F5F5F5F5F5F5F5F5F5F5F5F5F5F5F5F5F5F5F5F5F5
310
F5F5F5F5F5F5F5F5F5F5F5F5F5F5F5F5F5F5F5F5F5F5F5F5F5F5F5F5F5F5F5F5F5F5F5F5F5F5F5F5F5F5F5F5F5F5F5F5F5F5F5F5F5F5E2F5F5E2E2EFE2F5F5E2F5F5F5F5F5F5F5F5F5F5F5F5F5F5F5F5F5F5F5F5F5F5F5F5F5F5F5F5F5F5F5F5F5F5F5F5F5F5F5F5F5F5F5F5F5F5F5F5F5F5F5F5F5F5F5F5F5F5F5F5F5F5F5
310
F5F5F5F5F5F5F5F5F5F5F5F5F5F5F5F5F5F5F5F5F5F5F5F5F5F5F5E2F5F5E2E2F5E2F5F5E2F5F5F5F5F5F5F5F5F5F5F5F5F5F5F5F5F5F5F5F5F5F5F5F5F5F5F5F5F5F5F5F5F5F5F5F5F5F5F5F5F5F5F5F5F5F5F5F5F5F5F5F5F5F5F5F5F5F5F5F5F5F5F5F5F5F5F5F5F5F5F5F5F5F5F5F5F5F5F5F5F5F5F5F5F5F5F5F5F5F5
310
E2F5F5E2E2E2E2F5F5E2F5F5F5F5F5F5F5F5F5F5F5F5F5F5F5F5F5F5F5F5F5F5F5F5F5F5F5F5F5F5F5F5F5F5F5F5F5F5F5F5F5F5F5F5F5F5F5F5F5F5F5F5F5F5F5F5F5F5F5F5F5F5F5F5F5F5F5F5F5F5F5F5F5F5F5F5F5F5F5F5F5F5F5F5F5F5F5F5F5F5E2F5F5E2E2EFE2F5F5E2F5F5F5F5F5F5F5F5F5F5F5F5F5F5F5F5F5
310
F5F5F5F5F5F5F5F5F5F5F5F5F5F5F5F5F5F5F5F5F5F5F5F5F5F5F5F5F5F5F5F5F5F5F5F5F5F5F5F5F5F5F5F5F5F5F5F5F5F5F5F5F5F5F5F5F5F5F5F5F5F5F5F5F5F5F5F5F5F5F5F5F5E2F5F5E2E200E2F5F5E2F5F5F5F5F5F5F5F5F5F5F5F5F5F5F5F5F5F5F5F5F5F5F5F5F5F5F5F5F5F5F5F5F5F5F5F5F5F5F5F5F5F5F5F5
310
F5F5F5F5F5F5F5F5F5F5F5F5F5F5F5F5F5F5F5F5F5F5F5F5F5F5F5F5F5F5F5F5F5F5F5F5F5F5F5F5F5F5F5F5F5F5E2F5F5E2E2EFE2F5F5E2F5F5F5F5F5F5F5F5F5F5F5F5F5F5F5F5F5F5F5F5F5F5F5F5F5F5F5F5F5F5F5F5F5F5F5F5F5F5F5F5F5F5F5F5F5F5F5F5F5F5F5F5F5F5F5F5F5F5F5F5F5F5F5F5F5F5F5F5F5F5F5
310
F5F5F5F5F5F5F5F5F5F5F5F5F5F5F5F5F5F5F5E2F5F5E2E200E2F5F5E2F5F5F5F5F5F5F5F5F5F5F5F5F5F5F5F5F5F5F5F5F5F5F5F5F5F5F5F5F5F5F5F5F5F5F5F5F5F5F5F5F5F5F5F5F5F5F5F5F5F5F5F5F5F5F5F5F5F5F5F5F5F5F5F5F5F5F5F5F5F5F5F5F5F5F5F5F5F5F5F5F5F5F5F5F5F5F5F5F5F5E2F5F5E2E2EFE2F5
310
F5E2F5F5F5F5F5F5F5F5F5F5F5F5F5F5F5F5F5F5F5F5F5F5F5F5F5F5F5F5F5F5F5F5F5F5F5F5F5F5F5F5F5F5F5F5F5F5F5F5F5F5F5F5F5F5F5F5F5F5F5F5F5F5F5F5F5F5F5F5F5F5F5F5F5F5F5F5F5F5F5F5F5F5F5F5F5F5F5F5F5F5E2F5F5E2E200E2F5F5E2F5F5F5F5F5F5F5F5F5F5F5F5F5F5F5F5F5F5F5F5F5F5F5F5F5
310
F5F5F5F5F5F5F5F5F5F5F5F5F5F5F5F5F5F5F5F5F5F5F5F5F5F5F5F5F5F5F5F5F5F5F5F5F5F5F5F5F5F5F5F5F5F5F5F5F5F5F5F5F5F5F5F5F5F5F5F5F5F5F5F5F5E2F5F5E2E2EFE2F5F5F5F5F5F5F5F5F5F5F5F5F5F5F5F5F5F5F5F5F5F5F5F5F5F5F5F5F5F5F5F5F5F5F5F5F5F5F5F5F5F5F5F5F5F5F5F5F5F5F5F5F5F5F5
310
F5F5F5F5F5F5F5F5F5F5F5F5F5F5F5F5F5F5F5F5F5F5F5F5F5F5F5F5F5F5F5F5F5F5F5F5F5F5F5F5F5E2E200E2F5F5F5F5F5F5F5F5F5F5F5F5F5F5F5F5F5F5F5F5F5F5F5F5F5F5F5F5F5F5F5F5F5F5F5F5F5F5F5F5F5F5F5F5F5F5F5F5F5F5F5F5F5F5F5F5F5F5F5F5F5F5F5F5F5F5F5F5F5F5F5F5F5F5F5F5F5F5F5F5F5F5
310
F5F5F5F5F5F5F5F5F5F5F5F5F5F5E2E2E2E2F5F5F5F5F5F5F5F5F5F5F5F5F5F5F5F5F5F5F5F5F5F5F5F5F5F5F5F5F5F5F5F5F5F5F5F5F5F5F5F5F5F5F5F5F5F5F5F5F5F5F5F5F5F5F5F5F5F5F5F5F5F5F5F5F5F5F5F5F5F5F5F5F5F5F5F5F5F5F5F5F5F5F5F5F5F5F5F5F5F5F5F5F5F5F5F5E2E2EFE2F5F5F5F5F5F5F5F5F5
310
F5F5F5F5F5F5F5F5F5F5F5F5F5F5F5F5F5F5F5F5F5F5F5F5F5F5F5F5F5F5F5F5F5F5F5F5F5F5F5F5F5F5F5F5F5F5F5F5F5F5F5F5F5F5F5F5F5F5F5F5F5F5F5F5F5F5F5F5F5F5F5F5F5F5F5F5F5F5F5F5F5F5F5F5F5F5F5E2E2E2E2F5F5F5F5F5F5F5F5F5F5F5F5F5F5F5F5F5F5F5F5F5F5F5F5F5F5F5F5F5F5F5F5F5F5F5F5
310
F5F5F5F5F5F5F5F5F5F5F5F5F5F5F5F5F5F5F5F5F5F5F5F5F5F5F5F5F5F5F5F5F5F5F5F5F5F5F5F5F5F5F5F5F5F5F5F5F5F5F5F5F5F5F5F5F5F5F5F5E2E2EFE2F5F5F5F5F5F5F5F5F5F5F5F5F5F5F5F5F5F5F5F5F5F5F5F5F5F5F5F5F5F5F5F5F5F5F5F5F5F5F5F5F5F5F5F5F5F5F5F5F5F5F5F5F5F5F5F5F5F5F5F5F5F5F5
310
F5F5F5F5F5F5F5F5F5F5F5F5F5F5F5F5F5F5F5F5F5F5F5F5F5F5F5F5F5F5F5F5F5E2E200E2F5F5F5F5F5F5F5F5F5F5F5F5F5F5F5F5F5F5F5F5F5F5F5F5F5F5F5F5F5F5F5F5F5F5F5F5F5F5F5F5F5F5F5F5F5F5F5F5F5F5F5F5F5F5F5F5F5F5F5F5F5F5F5F5F5F5F5F5F5F5F5F5F5F5F5F5F5F5F5F5F5F5F5F5F5F5F5F5F5F5
310
F5F5F5F5F5F5E2E2EFE2F5F5F5F5F5F5F5F5F5F5F5F5F5F5F5F5F5F5F5F5F5F5F5F5F5F5F5F5F5F5F5F5F5F5F5F5F5F5F5F5F5F5F5F5F5F5F5F5F5F5F5F5F5F5F5F5F5F5F5F5F5F5F5F5F5F5F5F5F5F5F5F5F5F5F5F5F5F5F5F5F5F5F5F5F5F5F5F5F5F5F5F5F5F5F5F5E2E200E2F5F5F5F5F5F5F5F5F5F5F5F5F5F5F5F5F5
310
F5F5F5F5F5F5F5F5F5F5F5F5F5F5F5F5F5F5F5F5F5F5F5F5F5F5F5F5F5F5F5F5F5F5F5F5F5F5F5F5F5F5F5F5F5F5F5F5F5F5F5F5F5F5F5F5F5F5F5F5F5F5F5F5F5F5F5F5F5F5F5F5F5F5F5F5F5F5F5E2E2EFE2F5F5E2F5F5F5F5F5F5F5F5F5F5F5F5F5F5F5F5F5F5F5F5F5F5F5F5F5F5F5F5F5F5F5F5F5F5F5F5F5F5F5F5F5
310
F5F5F5F5F5F5F5F5F5F5F5F5F5F5F5F5F5F5F5F5F5F5F5F5F5F5F5F5F5F5F5F5F5F5F5F5F5F5F5F5F5F5F5F5F5F5F5F5F5E2F5F5E2E200E2F5F5E2F5F5F5F5F5F5F5F5F5F5F5F5F5F5F5F5E2F5F5F5F5F5E2F5F5F5F5F5E2F5F5F5F5F5F5F5F5F5F5F5F5F5F5F5F5F5F5F5F5F5F5F5F5F5F5F5F5F5F5F5F5F5F5F5F5F5F5F5
310
F5F5F5F5F5F5F5F5F5F5F5F5F5F5F5F5F5F5F5F5F5F5E2F5F5E2E2F5E2F5F5E2F5F5F5F5F5F5F5F5F5F5F5F5F5F5F5F5E2F5F5F5F5F5E2F5F5F5F5F5E2F5F5F5F5F5F5F5F5F5F5F5F5F5F5F5F5F5F5F5F5F5F5F5F5F5F5F5F5F5F5F5F5F5F5F5F5F5F5F5F5F5F5F5F5F5F5F5F5F5F5F5F5F5F5F5F5F5F5F5F5F5E2F5F5E2E2
310
EFE2F5F5E2F5F5F5F5F5F5F5F5F5F5F5F5F5F5F5F5E2F5F5F5F5F5E2F5F5F5F5F5E2F5F5F5F5F5F5F5F5F5F5F5F5F5F5F5F5F5F5F5F5F5F5F5F5F5F5F5F5F5F5F5F5F5F5F5F5F5F5F5F5F5F5F5F5F5F5F5F5F5F5F5F5F5F5F5F5F5F5F5F5F5E2F5F5E2E200E2F5F5E2F5F5F5F5F5F5F5F5F5F5F5F5F5F5F5F5E2F5F5F5F5F5
310
E2F5F5F5F5F5E2F5F5F5F5F5F5F5F5F5F5F5F5F5F5F5F5F5F5F5F5F5F5F5F5F5F5F5F5F5F5F5F5F5F5F5F5F5F5F5F5F5F5F5F5F5F5F5F5F5F5F5F5F5F5F5F5F5F5F5F5F5E2F5F5E2E2EFE2F5F5E2F5F5F5F5F5F5F5F5F5F5F5F5F5F5F5F5E2F5F5F5F5F5E2F5F5F5F5F5E2F5F5F5F5F5F5F5F5F5F5F5F5F5F5F5F5F5F5F5F5
310
F5F5F5F5F5F5F5F5F5F5F5F5F5F5F5F5F5F5F5F5F5F5F5F5F5F5F5F5F5F5F5F5F5F5F5F5F5F5F5F5F5E2F5F5E2E200E2F5F5E2F5F5F5F5F5F5F5F5F5F5F5F5F5F5F5F5E2F5F5F5F5F5E2F5F5F5F5F5E2F5F5F5F5F5F5F5F5F5F5F5F5F5F5F5F5F5F5F5F5F5F5F5F5F5F5F5F5F5F5F5F5F5F5F5F5F5F5F5F5F5F5F5F5F5F5F5
310
F5F5F5F5F5F5F5F5F5F5F5F5F5F5E2F5F5E2E2EFE2F5F5E2F5F5F5F5F5F5F5F5F5F5F5F5F5F5F5F5E2F5F5F5F5F5E2F5F5F5F5F5E2F5F5F5F5F5F5F5F5F5F5F5F5F5F5F5F5F5F5F5F5F5F5F5F5F5F5F5F5F5F5F5F5F5F5F5F5F5F5F5F5F5F5F5F5F5F5F5F5F5F5F5F5F5F5F5F5F5F5F5F5F5E2F5F5E2E200E2F5F5E2F5F5F5
310
F5F5F5F5F5F5F5F5F5F5F5F5F5E2F5F5F5F5F5E2F5F5F5F5F5E2F5F5F5F5F5F5F5F5F5F5F5F5F5F5F5F5F5F5F5F5F5F5F5F5F5F5F5F5F5F5F5F5F5F5F5F5F5F5F5F5F5F5F5F5F5F5F5F5F5F5F5F5F5F5F5F5F5F5F5F5F5E2F5F5E2E2EFE2F5F5E2F5F5F5F5F5F5F5F5F5F5F5F5F5F5F5F5E2F5F5F5F5F5E2F5F5F5F5F5E2F5
310
F5F5F5F5F5F5F5F5F5F5F5F5F5F5F5F5F5F5F5F5F5F5F5F5F5F5F5F5F5F5F5F5F5F5F5F5F5F5F5F5F5F5F5F5F5F5F5F5F5F5F5F5F5F5F5F5F5F5F5F5E2F5F5E2E200E2F5F5E2F5F5F5F5F5F5F5F5F5F5F5F5F5F5F5F5E2F5F5F5F5F5E2F5F5F5F5F5E2F5F5F5F5F5F5F5F5F5F5F5F5F5F5F5F5F5F5F5F5F5F5F5F5F5F5F5F5
310
F5F5F5F5F5F5F5F5F5F5F5F5F5F5F5F5F5F5F5F5F5F5F5F5F5F5F5F5F5F5F5F5F5E2F5F5E2E2F5E2F5F5E2F5F5F5F5F5F5F5F5F5F5F5F5F5F5F5F5E2F5F5F5F5F5E2F5F5F5F5F5E2F5F5F5F5F5F5F5F5F5F5F5F5F5F5F5F5F5F5F5F5F5F5F5F5F5F5F5F5F5F5F5F5F5F5F5F5F5F5F5F5F5F5F5F5F5F5F5F5F5F5F5F5F5F5F5
310
F5F5F5F5F5F5E2F5F5E2E2EFE2F5F5E2F5F5F5F5F5F5F5F5F5F5F5F5F5F5F5F5E2F5F5F5F5F5E2F5F5F5F5F5E2F5F5F5F5F5F5F5F5F5F5F5F5F5F5F5F5F5F5F5F5F5F5F5F5F5F5F5F5F5F5F5F5F5F5F5F5F5F5F5F5F5F5F5F5F5F5F5F5F5F5F5F5F5F5F5F5F5F5F5F5F5E2F5F5E2E2E2E2F5F5E2F5F5F5F5F5F5F5F5F5F5F5
310
F5F5F5F5F5E2F5F5F5F5F5E2F5F5F5F5F5E2F5F5F5F5F5F5F5F5F5F5F5F5F5F5F5F5F5F5F5F5F5F5F5F5F5F5F5F5F5F5F5F5F5F5F5F5F5F5F5F5F5F5F5F5F5F5F5F5F5F5F5F5F5F5F5F5F5F5F5F5F5E2F5F5E2E2EFE2F5F5E2F5F5F5F5F5F5F5F5F5F5F5F5F5F5F5F5E2F5F5F5F5F5E2F5F5F5F5F5E2F5F5F5F5F5F5F5F5F5
310
F5F5F5F5F5F5F5F5F5F5F5F5F5F5F5F5F5F5F5F5F5F5F5F5F5F5F5F5F5F5F5F5F5F5F5F5F5F5F5F5F5F5F5F5F5F5F5F5F5F5F5F5E2F5F5E2E200E2F5F5E2F5F5F5F5F5F5F5F5F5F5F5F5F5F5F5F5E2F5F5F5F5F5E2F5F5F5F5F5E2F5F5F5F5F5F5F5F5F5F5F5F5F5F5F5F5F5F5F5F5F5F5F5F5F5F5F5F5F5F5F5F5F5F5F5F5
310
F5F5F5F5F5F5F5F5F5F5F5F5F5F5F5F5F5F5F5F5F5F5F5F5F5E2F5F5E2E2EFE2F5F5E2F5F5F5F5F5F5F5F5F5F5F5F5F5F5F5F5E2F5F5F5F5F5E2F5F5F5F5F5E2F5F5F5F5F5F5F5F5F5F5F5F5F5F5F5F5F5F5F5F5F5F5F5F5F5F5F5F5F5F5F5F5F5F5F5F5F5F5F5F5F5F5F5F5F5F5F5F5F5F5F5F5F5F5F5F5F5F5F5F5F5E2F5
310
F5E2E200E2F5F5F5F5F5F5F5F5F5F5F5F5F5F5F5F5F5F5F5E2F5F5F5F5F5E2F5F5F5F5F5E2F5F5F5F5F5F5F5F5F5F5F5F5F5F5F5F5F5F5F5F5F5F5F5F5F5F5F5F5F5F5F5F5F5F5F5F5F5F5F5F5F5F5F5F5F5F5F5F5F5F5F5F5F5F5F5F5F5F5F5F5F5F5F5F5E2E2EFE2F5F5F5F5F5F5F5F5F5F5F5F5F5F5F5F5F5F5F5E2F5F5
310
F5F5F5E2F5F5F5F5F5E2F5F5F5F5F5F5F5F5F5F5F5F5F5F5F5F5F5F5F5F5F5F5F5F5F5F5F5F5F5F5F5F5F5F5F5F5F5F5F5F5F5F5F5F5F5F5F5F5F5F5F5F5F5F5F5F5F5F5F5F5F5F5F5F5E2E200E2F5F5F5F5F5F5F5F5F5F5F5F5F5F5F5F5F5F5F5E2F5F5F5F5F5E2F5F5F5F5F5E2F5F5F5F5F5F5F5F5F5F5F5F5F5F5F5F5F5
310
F5F5F5F5F5F5F5F5F5F5F5F5F5F5F5F5F5F5F5F5F5F5F5F5F5F5F5F5F5F5F5F5F5F5F5F5F5F5F5F5F5F5F5F5F5F5F5E2E2E2E2F5F5F5F5F5F5F5F5F5F5F5F5F5F5F5F5F5F5F5E2F5F5F5F5F5E2F5F5F5F5F5E2F5F5F5F5F5F5F5F5F5F5F5F5F5F5F5F5F5F5F5F5F5F5F5F5F5F5F5F5F5F5F5F5F5F5F5F5F5F5F5F5F5F5F5F5
310
F5F5F5F5F5F5F5F5F5F5F5F5F5F5F5F5F5F5F5F5E2E2EFE2F5F5F5F5F5F5F5F5F5F5F5F5F5F5F5F5F5F5F5E2F5F5F5F5F5E2F5F5F5F5F5E2F5F5F5F5F5F5F5F5F5F5F5F5F5F5F5F5F5F5F5F5F5F5F5F5F5F5F5F5F5F5F5F5F5F5F5F5F5F5F5F5F5F5F5F5F5F5F5F5F5F5F5F5F5F5F5F5F5F5F5F5F5F5F5F5E2E200E2F5F5F5
310
F5F5F5F5F5F5F5F5F5F5F5F5F5F5F5F5E2F5F5F5F5F5E2F5F5F5F5F5E2F5F5F5F5F5F5F5F5F5F5F5F5F5F5F5F5F5F5F5F5F5F5F5F5F5F5F5F5F5F5F5F5F5F5F5F5F5F5F5F5F5F5F5F5F5F5F5F5F5F5F5F5F5F5F5F5F5F5F5F5F5F5F5F5E2E2EFE2F5F5F5F5F5F5F5F5F5F5F5F5F5F5F5F5F5F5F5E2F5F5F5F5F5E2F5F5F5F5
310
F5E2F5F5F5F5F5F5F5F5F5F5F5F5F5F5F5F5F5F5F5F5F5F5F5F5F5F5F5F5F5F5F5F5F5F5F5F5F5F5F5F5F5F5F5F5F5F5F5F5F5F5F5F5F5F5F5F5F5F5F5F5F5F5F5F5E2E200E2F5F5F5F5F5F5F5F5F5F5F5F5F5F5F5F5F5F5F5E2F5F5F5F5F5E2F5F5F5F5F5E2F5F5F5F5F5F5F5F5F5F5F5F5F5F5F5F5F5F5F5F5F5F5F5F5F5
310
F5F5F5F5F5F5F5F5F5F5F5F5F5F5F5F5F5F5F5F5F5F5F5F5F5F5F5F5F5F5F5F5F5F5F5F5F5F5F5E2E2EFE2F5F5F5F5F5F5F5F5F5F5F5F5F5F5F5F5F5F5F5E2F5F5F5F5F5E2F5F5F5F5F5E2F5F5F5F5F5F5F5F5F5F5F5F5F5F5F5F5F5F5F5F5F5F5F5F5F5F5F5F5F5F5F5F5F5F5F5F5F5F5F5F5F5F5F5F5F5F5F5F5F5F5F5F5
310
F5F5F5F5F5F5F5F5F5F5F5F5E2E200E2F5F5F5F5F5F5F5F5F5F5F5F5F5F5F5F5F5F5F5E2F5F5F5F5F5E2F5F5F5F5F5E2F5F5F5F5F5F5F5F5F5F5F5F5F5F5F5F5F5F5F5F5F5F5F5F5F5F5F5F5F5F5F5F5F5F5F5F5F5F5F5F5F5F5F5F5F5F5F5F5F5F5F5F5F5F5F5F5F5F5F5F5F5F5F5F5E2E2EFE2F5F5E2F5F5F5F5F5F5F5F5
310
F5F5F5F5F5F5F5F5E2F5F5F5F5F5E2F5F5F5F5F5E2F5F5F5F5F5F5F5F5F5F5F5F5F5F5F5F5F5F5F5F5F5F5F5F5F5F5F5F5F5F5F5F5F5F5F5F5F5F5F5F5F5F5F5F5F5F5F5F5F5F5F5F5F5F5F5F5F5F5F5F5F5E2F5F5E2E200E2F5F5E2F5F5F5F5F5F5F5F5F5F5F5F5F5F5F5F5E2F5F5F5F5F5E2F5F5F5F5F5E2F5F5F5F5F5F5
310
F5F5F5F5F5F5F5F5F5F5F5F5F5F5F5F5F5F5F5F5F5F5F5F5F5F5F5F5F5F5F5F5F5F5F5F5F5F5F5F5F5F5F5F5F5F5F5F5F5F5F5F5F5F5F5E2F5F5E2E2E2E2F5F5E2F5F5F5F5F5F5F5F5F5F5F5F5F5F5F5F5E2F5F5F5F5F5E2F5F5F5F5F5E2F5F5F5F5F5F5F5F5F5F5F5F5F5F5F5F5F5F5F5F5F5F5F5F5F5F5F5F5F5F5F5F5F5
310
F5F5F5F5F5F5F5F5F5F5F5F5F5F5F5F5F5F5F5F5F5F5F5F5F5F5F5F5E2F5F5E2E2EFE2F5F5E2F5F5F5F5F5F5F5F5F5F5F5F5F5F5F5F5E2F5F5F5F5F5E2F5F5F5F5F5E2F5F5F5F5F5F5F5F5F5F5F5F5F5F5F5F5F5F5F5F5F5F5F5F5F5F5F5F5F5F5F5F5F5F5F5F5F5F5F5F5F5F5F5F5F5F5F5F5F5F5F5F5F5F5F5F5F5F5F5F5
310
F5E2F5F5E2E200E2F5F5E2F5F5F5F5F5F5F5F5F5F5F5F5F5F5F5F5E2F5F5F5F5F5E2F5F5F5F5F5E2F5F5F5F5F5F5F5F5F5F5F5F5F5F5F5F5F5F5F5F5F5F5F5F5F5F5F5F5F5F5F5F5F5F5F5F5F5F5F5F5F5F5F5F5F5F5F5F5F5F5F5F5F5F5F5F5F5F5F5F5F5E2F5F5E2E2EFE2F5F5E2F5F5F5F5F5F5F5F5F5F5F5F5F5F5F5F5
310
E2F5F5F5F5F5E2F5F5F5F5F5E2F5F5F5F5F5F5F5F5F5F5F5F5F5F5F5F5F5F5F5F5F5F5F5F5F5F5F5F5F5F5F5F5F5F5F5F5F5F5F5F5F5F5F5F5F5F5F5F5F5F5F5F5F5F5F5F5F5F5F5F5F5E2F5F5E2E200E2F5F5E2F5F5F5F5F5F5F5F5F5F5F5F5F5F5F5F5E2F5F5F5F5F5E2F5F5F5F5F5E2F5F5F5F5F5F5F5F5F5F5F5F5F5F5
310
F5F5F5F5F5F5F5F5F5F5F5F5F5F5F5F5F5F5F5F5F5F5F5F5F5F5F5F5F5F5F5F5F5F5F5F5F5F5F5F5F5F5F5F5F5F5F5E2F5F5E2E2EFE2F5F5E2F5F5F5F5F5F5F5F5F5F5F5F5F5F5F5F5E2F5F5F5F5F5E2F5F5F5F5F5E2F5F5F5F5F5F5F5F5F5F5F5F5F5F5F5F5F5F5F5F5F5F5F5F5F5F5F5F5F5F5F5F5F5F5F5F5F5F5F5F5F5
310
F5F5F5F5F5F5F5F5F5F5F5F5F5F5F5F5F5F5F5F5E2F5F5E2E2E2E2F5F5E2F5F5F5F5F5F5F5F5F5F5F5F5F5F5F5F5E2F5F5F5F5F5E2F5F5F5F5F5E2F5F5F5F5F5F5F5F5F5F5F5F5F5F5F5F5F5F5F5F5F5F5F5F5F5F5F5F5F5F5F5F5F5F5F5F5F5F5F5F5F5F5F5F5F5F5F5F5F5F5F5F5F5F5F5F5F5F5F5F5F5E2F5F5E2E2EFE2
310
F5F5E2F5F5F5F5F5F5F5F5F5F5F5F5F5F5F5F5E2F5F5F5F5F5E2F5F5F5F5F5E2F5F5F5F5F5F5F5F5F5F5F5F5F5F5F5F5F5F5F5F5F5F5F5F5F5F5F5F5F5F5F5F5F5F5F5F5F5F5F5F5F5F5F5F5F5F5F5F5F5F5F5F5F5F5F5F5F5F5F5F5F5E2F5F5E2E200E2F5F5E2F5F5F5F5F5F5F5F5F5F5F5F5F5F5F5F5E2F5F5F5F5F5E2F5
310
F5F5F5F5E2F5F5F5F5F5F5F5F5F5F5F5F5F5F5F5F5F5F5F5F5F5F5F5F5F5F5F5F5F5F5F5F5F5F5F5F5F5F5F5F5F5F5F5F5F5F5F5F5F5F5F5F5F5F5F5F5F5F5F5F5F5E2F5F5E2E2E2E2F5F5E2F5F5F5F5F5F5F5F5F5F5F5F5F5F5F5F5E2F5F5E2F5F5E2F5F5F5E2F5E2F5F5F5F5F5F5F5F5F5F5F5F5F5F5F5F5F5F5F5F5F5F5
310
F5F5F5F5F5F5F5F5F5F5F5F5F5F5F5F5F5F5F5F5F5F5F5F5F5F5F5F5F5F5F5F5F5F5F5F5F5F5F5E2F5F5E2E2EFE2F5F5E2F5F5F5F5F5F5F5F5F5F5F5F5F5F5F5F5E2F5E2F5E2F5E2F5F5E2E2E2E2F5F5F5F5F5F5F5F5F5F5F5F5F5F5F5F5F5F5F5F5F5F5F5F5F5F5F5F5F5F5F5F5F5F5F5F5F5F5F5F5F5F5F5F5F5F5F5F5F5
310
F5F5F5F5F5F5F5F5F5F5F5F5E2F5F5E2E200E2F5F5E2F5F5F5F5F5F5F5F5F5F5F5F5F5F5F5F5E2F5E2F5E2F5E2F5E2E2F5E2E2F5F5F5F5F5F5F5F5F5F5F5F5F5F5F5F5F5F5F5F5F5F5F5F5F5F5F5F5F5F5F5F5F5F5F5F5F5F5F5F5F5F5F5F5F5F5F5F5F5F5F5F5F5F5F5F5F5F5F5F5F5E2F5F5E2E2EFE2F5F5E2F5E2E2E2E2
310
E2E2E2E2E2E2E2E2E2E2E2E2E2E2E2E2E2E2E2E2E2E2E2E2E2E2E2E2E2E2E2E2E2E2E2E2E2E2E2E2E2E2E2E2E2E2E2E2E2E2E2E2E2E2E2E2E2E2E2E2E2E2F5F5F5F5F5F5F5F5F5F5F5F5F5F5F5F5F5F5F5F5F5F5F5E2F5F5E2E200E2F5F5E2F5F5F5F5F5F5F5F5F5F5F5F5F5F5F5F5F5F5F5E2F5F5F5F5F5E2E2E2F5F5F5F5
310
F5F5F5F5F5F5F5F5F5F5F5F5F5F5F5F5F5F5F5F5F5F5F5F5F5F5F5F5F5F5F5F5F5F5F5F5F5F5F5F5F5F5F5F5F5F5F5F5F5F5F5F5F5F5F5F5F5F5E2F5F5E2E2EFE2F5F5E2F5E2E2E2E2F5E2E2E2E2E2F5E2E2E2E2E2E2E2E2E2E2E2E2F5E2E2E2E2E2F5E2E2E2E2E2E2E2E2E2E2E2E2F5E2E2E2E2E2F5E2E2E2E2E2E2E2E2E2
310
E2E2E2F5E2E2E2E2F5F5F5F5F5F5F5F5F5F5F5F5F5F5F5F5F5F5F5F5F5F5F5E2F5F5E2E2EEE2F5F5F5F5F5F5F5F5F5F5F5F5F5F5F5F5F5F5F5F5F5F5E2F5F5F5F5F5E2E2E2F5F5F5F5F5F5F5F5F5F5F5F5F5F5F5F5F5F5F5F5F5F5F5F5F5F5F5F5F5F5F5F5F5F5F5F5F5F5F5F5F5F5F5F5F5F5F5F5F5F5F5F5F5F5F5F5F5F5
310
F5F5F5F5F5F5F5E2E2EFE2F5F5F5F5E2E2E2E2E2E2E2E2E2E2E2E2E2E2E2E2E2E2E2E2E2E2E2E2E2E2E2E2E2E2E2E2E2E2E2E2E2E2E2E2E2E2E2E2E2E2E2E2E2E2E2E2E2E2E2E2E2E2E2E2E2E2E2E2E2E2F5F5F5F5F5F5F5F5F5F5F5F5F5F5F5F5F5F5F5F5F5F5F5F5F5F5E2E200E2F5F5F5F5F5F5F5F5F5F5F5F5F5F5F5F5
310
F5F5F5E2F5E2F5E2F5E2F5E2E2E2E2E2F5F5F5F5F5F5F5F5F5F5F5F5F5F5F5F5F5F5F5F5F5F5F5F5F5F5F5F5F5F5F5F5F5F5F5F5F5F5F5F5F5F5F5F5F5F5F5F5F5F5F5F5F5F5F5F5F5F5F5F5F5F5F5F5E2E2F5E2F5F5F5F5F5F5F5F5F5F5F5F5F5F5F5F5F5F5F5E2F5E2F5E2F5E2F5F5E2E2E2E2F5F5F5F5F5F5F5F5F5F5F5
310
F5F5F5F5F5F5F5F5F5F5F5F5F5F5F5F5F5F5F5F5F5F5F5F5F5F5F5F5F5F5F5F5F5F5F5F5F5F5F5F5F5F5F5F5F5F5F5F5F5F5F5F5F5E2E2EFE2F5F5F5F5F5F5F5F5F5F5F5F5F5F5F5F5F5F5F5E2F5F5E2F5F5E2F5F5F5E2F5E2F5F5F5F5F5F5F5F5F5F5F5F5F5F5F5F5F5F5F5F5F5F5F5F5F5F5F5F5F5F5F5F5F5F5F5F5F5F5
310
F5F5F5F5F5F5F5F5F5F5F5F5F5F5F5F5F5F5F5F5F5F5F5F5F5F5E2E200E2F5F5F5F5F5F5F5F5F5F5F5F5F5F5F5F5F5F5F5E2F5F5F5F5F5E2F5F5F5F5F5E2F5F5F5F5F5F5F5F5F5F5F5F5F5F5F5F5F5F5F5F5F5F5F5F5F5F5F5F5F5F5F5F5F5F5F5F5F5F5F5F5F5F5F5F5F5F5F5F5F5F5F5F5F5F5F5F5F5F5F5F5F5F5F5F5E2
310
E2EFE2F5F5F5F5F5F5F5F5F5F5F5F5F5F5F5F5F5F5F5E2F5F5F5F5F5E2F5F5F5F5F5E2F5F5F5F5F5F5F5F5F5F5F5F5F5F5F5F5F5F5F5F5F5F5F5F5F5F5F5F5F5F5F5F5F5F5F5F5F5F5F5F5F5F5F5F5F5F5F5F5F5F5F5F5F5F5F5F5F5F5F5F5F5F5F5F5E2E200E2F5F5F5F5F5F5F5F5F5F5F5F5F5F5F5F5F5F5F5E2F5F5F5F5
310
F5E2F5F5F5F5F5E2F5F5F5F5F5F5F5F5F5F5F5F5F5F5F5F5F5F5F5F5F5F5F5F5F5F5F5F5F5F5F5F5F5F5F5F5F5F5F5F5F5F5F5F5F5F5F5F5F5F5F5F5F5F5F5F5F5F5F5F5F5F5F5F5E2E2EFE2F5F5F5F5F5F5F5F5F5F5F5F5F5F5F5F5F5F5F5E2F5F5F5F5F5E2F5F5F5F5F5E2F5F5F5F5F5F5F5F5F5F5F5F5F5F5F5F5F5F5F5
310
F5F5F5F5F5F5F5F5F5F5F5F5F5F5F5F5F5F5F5F5F5F5F5F5F5F5F5F5F5F5F5F5F5F5F5F5F5F5F5F5F5F5F5F5F5E2E2E2E2F5F5E2F5F5F5F5F5F5F5F5F5F5F5F5F5F5F5F5E2F5F5F5F5F5E2F5F5F5F5F5E2F5F5F5F5F5F5F5F5F5F5F5F5F5F5F5F5F5F5F5F5F5F5F5F5F5F5F5F5F5F5F5F5F5F5F5F5F5F5F5F5F5F5F5F5F5F5
310
F5F5F5F5F5F5F5F5F5F5F5F5F5F5F5E2F5F5E2E2EFE2F5F5E2F5F5F5F5F5F5F5F5F5F5F5F5F5F5F5F5E2F5F5F5F5F5E2F5F5F5F5F5E2F5F5F5F5F5F5F5F5F5F5F5F5F5F5F5F5F5F5F5F5F5F5F5F5F5F5F5F5F5F5F5F5F5F5F5F5F5F5F5F5F5F5F5F5F5F5F5F5F5F5F5F5F5F5F5F5F5F5F5F5F5E2F5F5E2E200E2F5F5E2F5F5
310
F5F5F5F5F5F5F5F5F5F5F5F5F5F5E2F5F5F5F5F5E2F5F5F5F5F5E2F5F5F5F5F5F5F5F5F5F5F5F5F5F5F5F5F5F5F5F5F5F5F5F5F5F5F5F5F5F5F5F5F5F5F5F5F5F5F5F5F5F5F5F5F5F5F5F5F5F5F5F5F5F5F5F5F5F5F5F5F5E2F5F5E2E2F5E2F5F5E2F5F5F5F5F5F5F5F5F5F5F5F5F5F5F5F5E2F5F5F5F5F5E2F5F5F5F5F5E2
310
F5F5F5F5F5F5F5F5F5F5F5F5F5F5F5F5F5F5F5F5F5F5F5F5F5F5F5F5F5F5F5F5F5F5F5F5F5F5F5F5F5F5F5F5F5F5F5F5F5F5F5F5F5F5F5F5F5F5F5F5F5E2F5F5E2E2EFE2F5F5E2F5F5F5F5F5F5F5F5F5F5F5F5F5F5F5F5F5F5F5F5F5F5F5F5F5F5F5F5F5F5F5F5F5F5F5F5F5F5F5F5F5F5F5F5F5F5F5F5F5F5F5F5F5F5F5F5
310
F5F5F5F5F5F5F5F5F5F5F5F5F5F5F5F5F5F5F5F5F5F5F5F5F5F5F5F5F5F5F5F5F5F5E2F5F5E2E200E2F5F5E2F5F5F5F5F5F5F5F5F5F5F5F5F5F5F5F5F5F5F5F5F5F5F5F5F5F5F5F5F5F5F5F5F5F5F5F5F5F5F5F5F5F5F5F5F5F5F5F5F5F5F5F5F5F5F5F5F5F5F5F5F5F5F5F5F5F5F5F5F5F5F5F5F5F5F5F5F5F5F5F5F5F5F5
310
F5F5F5F5F5F5F5E2F5F5E2E2EFE2F5F5E2F5F5F5F5F5F5F5F5F5F5F5F5F5F5F5F5F5F5F5F5F5F5F5F5F5F5F5F5F5F5F5F5F5F5F5F5F5F5F5F5F5F5F5F5F5F5F5F5F5F5F5F5F5F5F5F5F5F5F5F5F5F5F5F5F5F5F5F5F5F5F5F5F5F5F5F5F5F5F5F5F5F5F5F5F5F5F5F5F5F5E2F5F5E2E200E2F5F5E2F5F5F5F5F5F5F5F5F5F5
310
F5F5F5F5F5F5F5F5F5F5F5F5F5F5F5F5F5F5F5F5F5F5F5F5F5F5F5F5F5F5F5F5F5F5F5F5F5F5F5F5F5F5F5F5F5F5F5F5F5F5F5F5F5F5F5F5F5F5F5F5F5F5F5F5F5F5F5F5F5F5F5F5F5F5F5F5F5F5F5F5E2F5F5E2E2EFE2F5F5E2E2E2E2E2E2E2E2F5F5F5F5F5F5F5F5E2E2E2E2E2E2E2E2E2E2E2E2E2E2E2F5F5F5F5F5F5F5
310
F5E2E2E2E2E2E2E2E2E2E2E2E2E2E2F5F5F5F5F5F5F5F5E2E2E2E2E2E2E2E2E2E2E2E2E2E2E2F5F5F5F5F5F5F5F5E2E2E2E2E2E2E2E2F5F5E2E200E2F5F5F5F5F5F5F5F5F5F5F5F5F5F5F5F5F5F5F5F5F5F5F5F5F5F5F5F5F5F5F5F5F5F5F5F5F5F5F5F5F5F5F5F5F5F5F5F5F5F5F5F5F5F5F5F5F5F5F5F5F5F5F5F5F5F5F5
310
F5F5F5F5F5F5F5F5F5F5F5F5F5F5F5F5F5F5F5F5F5F5F5F5F5F5F5F5F5E2E2EFE2F5F5F5F5F5F5F5F5F5F5F5F5F5F5F5F5F5F5F5F5F5F5F5F5F5F5F5F5F5F5F5F5F5F5F5F5F5F5F5F5F5F5F5F5F5F5F5F5F5F5F5F5F5F5F5F5F5F5F5F5F5F5F5F5F5F5F5F5F5F5F5F5F5F5F5F5F5F5F5F5F5F5F5F5F5F5F5F5F5F5F5F5F5F5
310
F5F5E2EF00E2F5F5F5F5F5F5F5F5F5F5F5F5F5F5F5F5F5F5F5F5F5F5F5F5F5F5F5F5F5F5F5F5F5F5F5F5F5F5F5F5F5F5F5F5F5F5F5F5F5F5F5F5F5F5F5F5F5F5F5F5F5F5F5F5F5F5F5F5F5F5F5F5F5F5F5F5F5F5F5F5F5F5F5F5F5F5F5F5F5F5F5F5F5F5F5F5E2EFE2E2E2E2E2E2E2E2E2E2E2E2E2E2E2E2E2E2E2E2E2E2E2
310
E2E2E2E2E2E2E2E2E2E2E2E2E2E2E2E2E2E2E2E2E2E2E2E2E2E2E2E2E2E2E2E2E2E2E2E2E2E2E2E2E2E2E2E2E2E2E2E2E2E2E2E2E2E2E2E2E2E2E2E2E2E2E2E2E2E2E2E2E2E2E2E2E2E2E2E2EFEF
  0
XRECORD
  5
8BF3
102
{ACAD_REACTORS
330
8BF2
102
}
330
8BF2
100
AcDbXrecord
280
     1
102
SHADEPLOT
 70
     0
102
SHADEPLOTRESLEVEL
 70
     2
102
SHADEPLOTCUSTOMDPI
 70
   300
  0
ENDSEC
  0
EOF
