  0
SECTION
  2
HEADER
  9
$ACADVER
  1
AC1015
  9
$ACADMAINTVER
 70
    20
  9
$DWGCODEPAGE
  3
ANSI_1252
  9
$INSBASE
 10
0.0
 20
0.0
 30
0.0
  9
$EXTMIN
 10
4503.170890634868
 20
-2524.287283756044
 30
0.0
  9
$EXTMAX
 10
11964.82121657778
 20
910.4771853516245
 30
0.0
  9
$LIMMIN
 10
-1091.180495341761
 20
-619.6501650024412
  9
$LIMMAX
 10
1056.97244419739
 20
951.0353648293053
  9
$ORTHOMODE
 70
     0
  9
$REGENMODE
 70
     1
  9
$FILLMODE
 70
     1
  9
$QTEXTMODE
 70
     0
  9
$MIRRTEXT
 70
     1
  9
$LTSCALE
 40
1.0
  9
$ATTMODE
 70
     1
  9
$TEXTSIZE
 40
100.0
  9
$TRACEWID
 40
0.05
  9
$TEXTSTYLE
  7
VOESTB
  9
$CLAYER
  8
KOTIERUNG
  9
$CELTYPE
  6
BYLAYER
  9
$CECOLOR
 62
   256
  9
$CELTSCALE
 40
1.0
  9
$DISPSILH
 70
     0
  9
$DIMSCALE
 40
10.0
  9
$DIMASZ
 40
0.25
  9
$DIMEXO
 40
0.1
  9
$DIMDLI
 40
0.5
  9
$DIMRND
 40
0.0
  9
$DIMDLE
 40
0.0
  9
$DIMEXE
 40
0.25
  9
$DIMTP
 40
0.0
  9
$DIMTM
 40
0.0
  9
$DIMTXT
 40
0.25
  9
$DIMCEN
 40
0.0
  9
$DIMTSZ
 40
0.0
  9
$DIMTOL
 70
     0
  9
$DIMLIM
 70
     0
  9
$DIMTIH
 70
     0
  9
$DIMTOH
 70
     0
  9
$DIMSE1
 70
     0
  9
$DIMSE2
 70
     0
  9
$DIMTAD
 70
     0
  9
$DIMZIN
 70
     0
  9
$DIMBLK
  1

  9
$DIMASO
 70
     1
  9
$DIMSHO
 70
     1
  9
$DIMPOST
  1

  9
$DIMAPOST
  1

  9
$DIMALT
 70
     0
  9
$DIMALTD
 70
     2
  9
$DIMALTF
 40
25.4
  9
$DIMLFAC
 40
1.0
  9
$DIMTOFL
 70
     0
  9
$DIMTVP
 40
0.0
  9
$DIMTIX
 70
     0
  9
$DIMSOXD
 70
     0
  9
$DIMSAH
 70
     0
  9
$DIMBLK1
  1

  9
$DIMBLK2
  1

  9
$DIMSTYLE
  2
TYPENBLATT_M50
  9
$DIMCLRD
 70
     0
  9
$DIMCLRE
 70
     0
  9
$DIMCLRT
 70
     0
  9
$DIMTFAC
 40
1.0
  9
$DIMGAP
 40
0.075
  9
$DIMJUST
 70
     0
  9
$DIMSD1
 70
     0
  9
$DIMSD2
 70
     0
  9
$DIMTOLJ
 70
     1
  9
$DIMTZIN
 70
     0
  9
$DIMALTZ
 70
     0
  9
$DIMALTTZ
 70
     0
  9
$DIMUPT
 70
     0
  9
$DIMDEC
 70
     0
  9
$DIMTDEC
 70
     4
  9
$DIMALTU
 70
     2
  9
$DIMALTTD
 70
     2
  9
$DIMTXSTY
  7
VOEST
  9
$DIMAUNIT
 70
     0
  9
$DIMADEC
 70
     0
  9
$DIMALTRND
 40
0.0
  9
$DIMAZIN
 70
     0
  9
$DIMDSEP
 70
    46
  9
$DIMATFIT
 70
     3
  9
$DIMFRAC
 70
     0
  9
$DIMLDRBLK
  1

  9
$DIMLUNIT
 70
     2
  9
$DIMLWD
 70
    -2
  9
$DIMLWE
 70
    -2
  9
$DIMTMOVE
 70
     0
  9
$LUNITS
 70
     2
  9
$LUPREC
 70
     4
  9
$SKETCHINC
 40
0.1
  9
$FILLETRAD
 40
10.0
  9
$AUNITS
 70
     0
  9
$AUPREC
 70
     4
  9
$MENU
  1
acad
  9
$ELEVATION
 40
0.0
  9
$PELEVATION
 40
0.0
  9
$THICKNESS
 40
0.0
  9
$LIMCHECK
 70
     0
  9
$CHAMFERA
 40
0.0
  9
$CHAMFERB
 40
0.0
  9
$CHAMFERC
 40
1.0
  9
$CHAMFERD
 40
0.0
  9
$SKPOLY
 70
     0
  9
$TDCREATE
 40
2451353.459995197
  9
$TDUCREATE
 40
2451353.418328530
  9
$TDUPDATE
 40
2454802.331927315
  9
$TDUUPDATE
 40
2454802.290260648
  9
$TDINDWG
 40
2.3433964352
  9
$TDUSRTIMER
 40
2.3433964352
  9
$USRTIMER
 70
     1
  9
$ANGBASE
 50
0.0
  9
$ANGDIR
 70
     0
  9
$PDMODE
 70
     0
  9
$PDSIZE
 40
0.0
  9
$PLINEWID
 40
0.0
  9
$SPLFRAME
 70
     0
  9
$SPLINETYPE
 70
     6
  9
$SPLINESEGS
 70
   100
  9
$HANDSEED
  5
1EDB
  9
$SURFTAB1
 70
     6
  9
$SURFTAB2
 70
     6
  9
$SURFTYPE
 70
     6
  9
$SURFU
 70
     6
  9
$SURFV
 70
     6
  9
$UCSBASE
  2

  9
$UCSNAME
  2

  9
$UCSORG
 10
0.0
 20
0.0
 30
0.0
  9
$UCSXDIR
 10
1.0
 20
0.0
 30
0.0
  9
$UCSYDIR
 10
0.0
 20
1.0
 30
0.0
  9
$UCSORTHOREF
  2

  9
$UCSORTHOVIEW
 70
     0
  9
$UCSORGTOP
 10
0.0
 20
0.0
 30
0.0
  9
$UCSORGBOTTOM
 10
0.0
 20
0.0
 30
0.0
  9
$UCSORGLEFT
 10
0.0
 20
0.0
 30
0.0
  9
$UCSORGRIGHT
 10
0.0
 20
0.0
 30
0.0
  9
$UCSORGFRONT
 10
0.0
 20
0.0
 30
0.0
  9
$UCSORGBACK
 10
0.0
 20
0.0
 30
0.0
  9
$PUCSBASE
  2

  9
$PUCSNAME
  2

  9
$PUCSORG
 10
0.0
 20
0.0
 30
0.0
  9
$PUCSXDIR
 10
1.0
 20
0.0
 30
0.0
  9
$PUCSYDIR
 10
0.0
 20
1.0
 30
0.0
  9
$PUCSORTHOREF
  2

  9
$PUCSORTHOVIEW
 70
     0
  9
$PUCSORGTOP
 10
0.0
 20
0.0
 30
0.0
  9
$PUCSORGBOTTOM
 10
0.0
 20
0.0
 30
0.0
  9
$PUCSORGLEFT
 10
0.0
 20
0.0
 30
0.0
  9
$PUCSORGRIGHT
 10
0.0
 20
0.0
 30
0.0
  9
$PUCSORGFRONT
 10
0.0
 20
0.0
 30
0.0
  9
$PUCSORGBACK
 10
0.0
 20
0.0
 30
0.0
  9
$USERI1
 70
     0
  9
$USERI2
 70
     0
  9
$USERI3
 70
     0
  9
$USERI4
 70
     0
  9
$USERI5
 70
     0
  9
$USERR1
 40
0.0
  9
$USERR2
 40
0.0
  9
$USERR3
 40
0.0
  9
$USERR4
 40
0.0
  9
$USERR5
 40
0.0
  9
$WORLDVIEW
 70
     1
  9
$SHADEDGE
 70
     3
  9
$SHADEDIF
 70
    70
  9
$TILEMODE
 70
     1
  9
$MAXACTVP
 70
    48
  9
$PINSBASE
 10
0.0
 20
0.0
 30
0.0
  9
$PLIMCHECK
 70
     0
  9
$PEXTMIN
 10
0.3766444902957664
 20
0.669958886431331
 30
0.0
  9
$PEXTMAX
 10
7.215452000454384
 20
10.86620714172036
 30
0.0
  9
$PLIMMIN
 10
-0.2679166643638311
 20
-0.2179166651147557
  9
$PLIMMAX
 10
7.99874977802667
 20
11.47208313303669
  9
$UNITMODE
 70
     0
  9
$VISRETAIN
 70
     1
  9
$PLINEGEN
 70
     0
  9
$PSLTSCALE
 70
     1
  9
$TREEDEPTH
 70
  3020
  9
$CMLSTYLE
  2
STANDARD
  9
$CMLJUST
 70
     0
  9
$CMLSCALE
 40
1.0
  9
$PROXYGRAPHICS
 70
     1
  9
$MEASUREMENT
 70
     0
  9
$CELWEIGHT
370
    -1
  9
$ENDCAPS
280
     0
  9
$JOINSTYLE
280
     0
  9
$LWDISPLAY
290
     0
  9
$INSUNITS
 70
     0
  9
$HYPERLINKBASE
  1

  9
$STYLESHEET
  1

  9
$XEDIT
290
     1
  9
$CEPSNTYPE
380
     0
  9
$PSTYLEMODE
290
     1
  9
$FINGERPRINTGUID
  2
{9D734270-C497-11D6-A698-000102FA756E}
  9
$VERSIONGUID
  2
{22E5FD1E-2397-48B3-8553-D2988D94FCE3}
  9
$EXTNAMES
290
     1
  9
$PSVPSCALE
 40
0.0
  9
$OLESTARTUP
290
     0
  0
ENDSEC
  0
SECTION
  2
CLASSES
  0
CLASS
  1
DICTIONARYVAR
  2
AcDbDictionaryVar
  3
ObjectDBX Classes
 90
        0
280
     0
281
     0
  0
CLASS
  1
ACDBDICTIONARYWDFLT
  2
AcDbDictionaryWithDefault
  3
ObjectDBX Classes
 90
        0
280
     0
281
     0
  0
CLASS
  1
ACDBPLACEHOLDER
  2
AcDbPlaceHolder
  3
ObjectDBX Classes
 90
        0
280
     0
281
     0
  0
CLASS
  1
LAYOUT
  2
AcDbLayout
  3
ObjectDBX Classes
 90
        0
280
     0
281
     0
  0
CLASS
  1
MATERIAL
  2
AcDbMaterial
  3
ObjectDBX Classes
 90
     1153
280
     0
281
     0
  0
CLASS
  1
VISUALSTYLE
  2
AcDbVisualStyle
  3
ObjectDBX Classes
 90
     4095
280
     0
281
     0
  0
CLASS
  1
TABLESTYLE
  2
AcDbTableStyle
  3
ObjectDBX Classes
 90
     4095
280
     0
281
     0
  0
CLASS
  1
SCALE
  2
AcDbScale
  3
ObjectDBX Classes
 90
     1153
280
     0
281
     0
  0
CLASS
  1
MLEADERSTYLE
  2
AcDbMLeaderStyle
  3
ACDB_MLEADERSTYLE_CLASS
 90
     4095
280
     0
281
     0
  0
CLASS
  1
CELLSTYLEMAP
  2
AcDbCellStyleMap
  3
ObjectDBX Classes
 90
     1152
280
     0
281
     0
  0
CLASS
  1
SORTENTSTABLE
  2
AcDbSortentsTable
  3
ObjectDBX Classes
 90
        0
280
     0
281
     0
  0
ENDSEC
  0
SECTION
  2
TABLES
  0
TABLE
  2
VPORT
  5
8
330
0
100
AcDbSymbolTable
 70
     1
  0
VPORT
  5
1CCB
330
8
100
AcDbSymbolTableRecord
100
AcDbViewportTableRecord
  2
*Active
 70
     0
 10
0.0
 20
0.0
 11
1.0
 21
1.0
 12
7468.453035646767
 22
140.7257928743009
 13
0.0
 23
0.0
 14
0.5
 24
0.5
 15
0.5
 25
0.5
 16
0.0
 26
0.0
 36
1.0
 17
0.0
 27
0.0
 37
0.0
 40
1620.251270000261
 41
1.788313120176405
 42
50.0
 43
0.0
 44
0.0
 50
0.0
 51
0.0
 71
     0
 72
  1000
 73
     1
 74
     1
 75
     0
 76
     0
 77
     0
 78
     0
281
     0
 65
     1
110
0.0
120
0.0
130
0.0
111
1.0
121
0.0
131
0.0
112
0.0
122
1.0
132
0.0
 79
     0
146
0.0
  0
ENDTAB
  0
TABLE
  2
LTYPE
  5
5
330
0
100
AcDbSymbolTable
 70
     4
  0
LTYPE
  5
12
330
5
100
AcDbSymbolTableRecord
100
AcDbLinetypeTableRecord
  2
BYBLOCK
 70
     0
  3

 72
    65
 73
     0
 40
0.0
  0
LTYPE
  5
13
330
5
100
AcDbSymbolTableRecord
100
AcDbLinetypeTableRecord
  2
BYLAYER
 70
     0
  3

 72
    65
 73
     0
 40
0.0
  0
LTYPE
  5
14
330
5
100
AcDbSymbolTableRecord
100
AcDbLinetypeTableRecord
  2
CONTINUOUS
 70
     0
  3
Solid line
 72
    65
 73
     0
 40
0.0
  0
LTYPE
  5
222
330
5
100
AcDbSymbolTableRecord
100
AcDbLinetypeTableRecord
  2
STRICHPUNKT
 70
     0
  3
Strichpunkt __ . __ . __ . __ . __ . __ . __ . 
 72
    65
 73
     4
 40
25.4
 49
12.7
 74
     0
 49
-6.349999999999999
 74
     0
 49
0.0
 74
     0
 49
-6.349999999999999
 74
     0
  0
LTYPE
  5
223
330
5
100
AcDbSymbolTableRecord
100
AcDbLinetypeTableRecord
  2
STRICHLINIE
 70
     0
  3
Strichlinie __ __ __ __ __ __ __ __ __ __ __ __
 72
    65
 73
     2
 40
19.05
 49
12.7
 74
     0
 49
-6.349999999999999
 74
     0
  0
ENDTAB
  0
TABLE
  2
LAYER
  5
2
102
{ACAD_XDICTIONARY
360
1E70
102
}
330
0
100
AcDbSymbolTable
 70
    11
  0
LAYER
  5
E
102
{ACAD_XDICTIONARY
360
1D98
102
}
330
2
100
AcDbSymbolTableRecord
100
AcDbLayerTableRecord
  2
0
 70
     0
 62
     7
  6
CONTINUOUS
370
    -3
390
1611
  0
LAYER
  5
12F
102
{ACAD_XDICTIONARY
360
1D9A
102
}
330
2
100
AcDbSymbolTableRecord
100
AcDbLayerTableRecord
  2
25
 70
     0
 62
     7
  6
CONTINUOUS
370
    -3
390
1611
  0
LAYER
  5
224
102
{ACAD_XDICTIONARY
360
1D9C
102
}
330
2
100
AcDbSymbolTableRecord
100
AcDbLayerTableRecord
  2
KOTIERUNG
 70
     0
 62
     7
  6
CONTINUOUS
370
    -3
390
1611
  0
LAYER
  5
225
330
2
100
AcDbSymbolTableRecord
100
AcDbLayerTableRecord
  2
DEFPOINTS
 70
     0
 62
     7
  6
CONTINUOUS
290
     0
370
    -3
390
1611
  0
LAYER
  5
226
102
{ACAD_XDICTIONARY
360
1D9E
102
}
330
2
100
AcDbSymbolTableRecord
100
AcDbLayerTableRecord
  2
18
 70
     0
 62
     1
  6
CONTINUOUS
370
    -3
390
1611
  0
LAYER
  5
425
102
{ACAD_XDICTIONARY
360
1DA0
102
}
330
2
100
AcDbSymbolTableRecord
100
AcDbLayerTableRecord
  2
50
 70
     0
 62
    33
  6
CONTINUOUS
370
    -3
390
1611
  0
LAYER
  5
14EF
102
{ACAD_XDICTIONARY
360
1DA2
102
}
330
2
100
AcDbSymbolTableRecord
100
AcDbLayerTableRecord
  2
TEXT
 70
     0
 62
     7
  6
CONTINUOUS
370
    -3
390
1611
  0
LAYER
  5
1647
102
{ACAD_XDICTIONARY
360
1DA4
102
}
330
2
100
AcDbSymbolTableRecord
100
AcDbLayerTableRecord
  2
70
 70
     0
 62
     5
  6
CONTINUOUS
370
    -3
390
1611
  0
LAYER
  5
1BF1
102
{ACAD_XDICTIONARY
360
1DA6
102
}
330
2
100
AcDbSymbolTableRecord
100
AcDbLayerTableRecord
  2
C160
 70
     0
 62
     7
  6
CONTINUOUS
370
    -3
390
1611
  0
LAYER
  5
1E6B
102
{ACAD_XDICTIONARY
360
1E6C
102
}
330
2
100
AcDbSymbolTableRecord
100
AcDbLayerTableRecord
  2
35
 70
     0
 62
     2
  6
CONTINUOUS
370
    -3
390
1611
  0
LAYER
  5
1E6D
102
{ACAD_XDICTIONARY
360
1E6E
102
}
330
2
100
AcDbSymbolTableRecord
100
AcDbLayerTableRecord
  2
BLATTTEXT
 70
     0
 62
     7
  6
CONTINUOUS
370
    -3
390
1611
  0
ENDTAB
  0
TABLE
  2
STYLE
  5
3
330
0
100
AcDbSymbolTable
 70
     6
  0
STYLE
  5
F
330
3
100
AcDbSymbolTableRecord
100
AcDbTextStyleTableRecord
  2
STANDARD
 70
     0
 40
0.0
 41
1.0
 50
0.0
 71
     0
 42
25.0
  3
ARIALN.TTF
  4

1001
ACAD
1000
Arial Narrow
1071
       34
  0
STYLE
  5
428
330
3
100
AcDbSymbolTableRecord
100
AcDbTextStyleTableRecord
  2
VOEST
 70
     0
 40
0.0
 41
1.0
 50
0.0
 71
     0
 42
4.0
  3
ARIALN.TTF
  4

1001
ACAD
1000
Arial Narrow
1071
       34
  0
STYLE
  5
15F0
330
3
100
AcDbSymbolTableRecord
100
AcDbTextStyleTableRecord
  2
VOESTB
 70
     0
 40
0.0
 41
1.0
 50
0.0
 71
     0
 42
100.0
  3
ARIALNB.TTF
  4

1001
ACAD
1000
Arial Narrow
1071
 33554466
  0
STYLE
  5
1921
330
3
100
AcDbSymbolTableRecord
100
AcDbTextStyleTableRecord
  2
LOGO1
 70
     0
 40
0.0
 41
1.175
 50
0.0
 71
     0
 42
6.158564712355089
  3
swissb.ttf
  4

1001
ACAD
1000
Swis721 BT
1071
 33554466
  0
STYLE
  5
1922
330
3
100
AcDbSymbolTableRecord
100
AcDbTextStyleTableRecord
  2
LOGO3
 70
     0
 40
0.0
 41
1.175
 50
0.0
 71
     0
 42
6.158564712355089
  3
swissel.ttf
  4

1001
ACAD
1000
Swis721 LtEx BT
1071
       34
  0
STYLE
  5
1923
330
3
100
AcDbSymbolTableRecord
100
AcDbTextStyleTableRecord
  2
LOGO2
 70
     0
 40
0.0
 41
1.175
 50
0.0
 71
     0
 42
6.158564712355089
  3
swiss.ttf
  4

1001
ACAD
1000
Swis721 BT
1071
       34
  0
ENDTAB
  0
TABLE
  2
VIEW
  5
6
330
0
100
AcDbSymbolTable
 70
     0
  0
ENDTAB
  0
TABLE
  2
UCS
  5
7
330
0
100
AcDbSymbolTable
 70
     0
  0
ENDTAB
  0
TABLE
  2
APPID
  5
9
330
0
100
AcDbSymbolTable
 70
     8
  0
APPID
  5
10
330
9
100
AcDbSymbolTableRecord
100
AcDbRegAppTableRecord
  2
ACAD
 70
     0
  0
APPID
  5
24
330
9
100
AcDbSymbolTableRecord
100
AcDbRegAppTableRecord
  2
CONTENTTABDATA
 70
     0
  0
APPID
  5
25
330
9
100
AcDbSymbolTableRecord
100
AcDbRegAppTableRecord
  2
CONTENTCURRENTTAB
 70
     0
  0
APPID
  5
116
330
9
100
AcDbSymbolTableRecord
100
AcDbRegAppTableRecord
  2
CONTENTBLOCKICON
 70
     0
  0
APPID
  5
117
330
9
100
AcDbSymbolTableRecord
100
AcDbRegAppTableRecord
  2
CONTENTBLOCKDESCRIPTION
 70
     0
  0
APPID
  5
1D27
330
9
100
AcDbSymbolTableRecord
100
AcDbRegAppTableRecord
  2
ACAD_MLEADERVER
 70
     0
  0
APPID
  5
1DE5
330
9
100
AcDbSymbolTableRecord
100
AcDbRegAppTableRecord
  2
ACAD_EXEMPT_FROM_CAD_STANDARDS
 70
     0
  0
APPID
  5
1E6F
330
9
100
AcDbSymbolTableRecord
100
AcDbRegAppTableRecord
  2
ACAD_PSEXT
 70
     0
  0
ENDTAB
  0
TABLE
  2
DIMSTYLE
  5
A
330
0
100
AcDbSymbolTable
 70
     5
100
AcDbDimStyleTable
 71
     2
340
B80
340
EFA
  0
DIMSTYLE
105
1D
102
{ACAD_REACTORS
330
B2B
102
}
330
A
100
AcDbSymbolTableRecord
100
AcDbDimStyleTableRecord
  2
STANDARD
 70
     0
340
F
  0
DIMSTYLE
105
B80
102
{ACAD_REACTORS
330
B9A
330
BE4
330
BF2
330
CB5
330
EC8
330
B2B
330
1C1F
330
1C65
330
1C81
330
1C73
330
E25
330
DCD
330
1286
330
12B5
330
1D3D
330
1D6F
330
1E1B
102
}
330
A
100
AcDbSymbolTableRecord
100
AcDbDimStyleTableRecord
  2
TYPENBLATT
 70
     0
 40
100.0
 41
0.25
 42
0.5
 43
0.5
 44
0.25
 73
     0
 74
     0
140
0.25
147
0.125
271
     0
340
428
  0
DIMSTYLE
105
EF9
102
{ACAD_REACTORS
330
105F
102
}
330
A
100
AcDbSymbolTableRecord
100
AcDbDimStyleTableRecord
  2
TYPENBLATT_M10
 70
     0
 40
100.0
 41
0.25
 42
0.5
 43
0.5
 44
0.25
 73
     0
 74
     0
 77
     1
140
0.25
147
0.075
271
     0
340
428
  0
DIMSTYLE
105
EFA
330
A
100
AcDbSymbolTableRecord
100
AcDbDimStyleTableRecord
  2
TYPENBLATT_M50
 70
     0
 40
500.0
 41
0.25
 42
0.1
 43
0.5
 44
0.25
 73
     0
 74
     0
 77
     1
140
0.25
147
0.075
271
     0
340
428
  0
DIMSTYLE
105
10C6
102
{ACAD_REACTORS
330
12B5
330
1292
102
}
330
A
100
AcDbSymbolTableRecord
100
AcDbDimStyleTableRecord
  2
TYPENBLATT_BESCHR
 70
     0
 40
100.0
 41
0.25
 42
0.5
 43
0.25
 44
0.25
 73
     0
 74
     0
140
0.25
141
0.0
147
0.075
271
     0
340
428
  0
ENDTAB
  0
TABLE
  2
BLOCK_RECORD
  5
1
330
0
100
AcDbSymbolTable
 70
    24
  0
BLOCK_RECORD
  5
18
102
{ACAD_XDICTIONARY
360
1968
102
}
330
1
100
AcDbSymbolTableRecord
100
AcDbBlockTableRecord
  2
*MODEL_SPACE
340
1614
  0
BLOCK_RECORD
  5
15
102
{ACAD_XDICTIONARY
360
1966
102
}
330
1
100
AcDbSymbolTableRecord
100
AcDbBlockTableRecord
  2
*PAPER_SPACE
340
1615
  0
BLOCK_RECORD
  5
B1E
330
1
100
AcDbSymbolTableRecord
100
AcDbBlockTableRecord
  2
*D0
340
0
  0
BLOCK_RECORD
  5
B8D
330
1
100
AcDbSymbolTableRecord
100
AcDbBlockTableRecord
  2
*D1
340
0
  0
BLOCK_RECORD
  5
BD7
330
1
100
AcDbSymbolTableRecord
100
AcDbBlockTableRecord
  2
*D2
340
0
  0
BLOCK_RECORD
  5
BE5
330
1
100
AcDbSymbolTableRecord
100
AcDbBlockTableRecord
  2
*D3
340
0
  0
BLOCK_RECORD
  5
CA8
330
1
100
AcDbSymbolTableRecord
100
AcDbBlockTableRecord
  2
*D4
340
0
  0
BLOCK_RECORD
  5
DC0
330
1
100
AcDbSymbolTableRecord
100
AcDbBlockTableRecord
  2
*D5
340
0
  0
BLOCK_RECORD
  5
E18
330
1
100
AcDbSymbolTableRecord
100
AcDbBlockTableRecord
  2
*D6
340
0
  0
BLOCK_RECORD
  5
EBC
330
1
100
AcDbSymbolTableRecord
100
AcDbBlockTableRecord
  2
*D7
340
0
  0
BLOCK_RECORD
  5
1053
330
1
100
AcDbSymbolTableRecord
100
AcDbBlockTableRecord
  2
*D8
340
0
  0
BLOCK_RECORD
  5
127B
330
1
100
AcDbSymbolTableRecord
100
AcDbBlockTableRecord
  2
*D9
340
0
  0
BLOCK_RECORD
  5
1287
330
1
100
AcDbSymbolTableRecord
100
AcDbBlockTableRecord
  2
*D10
340
0
  0
BLOCK_RECORD
  5
12A9
330
1
100
AcDbSymbolTableRecord
100
AcDbBlockTableRecord
  2
*D11
340
0
  0
BLOCK_RECORD
  5
1916
330
1
100
AcDbSymbolTableRecord
100
AcDbBlockTableRecord
  2
VOESTALPINE LOGO
340
0
310
2800000020000000200000000100080000000000000400000000000000000000000000000000000000000000000080000080000000808000800000008000800080800000C0C0C000C0DCC000F0CAA6000020400000206000002080000020A0000020C0000020E00000400000004020000040400000406000004080000040A0
310
000040C0000040E00000600000006020000060400000606000006080000060A0000060C0000060E00000800000008020000080400000806000008080000080A0000080C0000080E00000A0000000A0200000A0400000A0600000A0800000A0A00000A0C00000A0E00000C0000000C0200000C0400000C0600000C0800000C0
310
A00000C0C00000C0E00000E0000000E0200000E0400000E0600000E0800000E0A00000E0C00000E0E00040000000400020004000400040006000400080004000A0004000C0004000E00040200000402020004020400040206000402080004020A0004020C0004020E000404000004040200040404000404060004040800040
310
40A0004040C0004040E00040600000406020004060400040606000406080004060A0004060C0004060E00040800000408020004080400040806000408080004080A0004080C0004080E00040A0000040A0200040A0400040A0600040A0800040A0A00040A0C00040A0E00040C0000040C0200040C0400040C0600040C08000
310
40C0A00040C0C00040C0E00040E0000040E0200040E0400040E0600040E0800040E0A00040E0C00040E0E00080000000800020008000400080006000800080008000A0008000C0008000E00080200000802020008020400080206000802080008020A0008020C0008020E00080400000804020008040400080406000804080
310
008040A0008040C0008040E00080600000806020008060400080606000806080008060A0008060C0008060E00080800000808020008080400080806000808080008080A0008080C0008080E00080A0000080A0200080A0400080A0600080A0800080A0A00080A0C00080A0E00080C0000080C0200080C0400080C0600080C0
310
800080C0A00080C0C00080C0E00080E0000080E0200080E0400080E0600080E0800080E0A00080E0C00080E0E000C0000000C0002000C0004000C0006000C0008000C000A000C000C000C000E000C0200000C0202000C0204000C0206000C0208000C020A000C020C000C020E000C0400000C0402000C0404000C0406000C0
310
408000C040A000C040C000C040E000C0600000C0602000C0604000C0606000C0608000C060A000C060C000C060E000C0800000C0802000C0804000C0806000C0808000C080A000C080C000C080E000C0A00000C0A02000C0A04000C0A06000C0A08000C0A0A000C0A0C000C0A0E000C0C00000C0C02000C0C04000C0C06000
310
C0C08000C0C0A000F0FBFF00A4A0A000808080000000FF0000FF000000FFFF00FF000000FF00FF00FFFF0000FFFFFF0000000000000000000000000000000000000000000000000000000000000000000000000000000000000000000000000000000000000000000000000000000000000000000000000000000000000000
310
00000000000000000000000000000000000000000000000000000000000000000000000000000000000000000000000000000000000000000000000000000000000000000000000000000000000000000000000000000000000000000000000000000000000000000000000000000000000000000000000000000000000000
310
00000000000000000000000000000000000000000000000000000000000000000000000000000000000000000000000000000000000000000000000000000000000000000000000000000000000000000000000000000000000000000000000000000000000000000000000000000000000000000000000000000000000000
310
000000000000000000000000000000000000000000000000000000000000000000000000000000000000000000000000000000000000000000000000000000000000000000000000000000000000000000000000000000000000000000000000000000000000000000000000000000000000000000FFFFFFFFFFFFFFFFFFFF
310
FFFFFFFFFFFFFFFFFFFFFFFFFF000000000000000000FFFF00FF00FF00FF00FFA2A2A2A2A2A2A2A2A200000000000000000000000000FFFFFFFFFFFFFFFFFFFFA2A2A2A2A2A2A2A2A2A20000000000000000000000FFFFFFFFFFFFFFFFFFFFFFA2A2A2A2A2A2A2A2A2A2000000000000000000000000000000000000000000
310
00000000000000000000000000000000000000000000000000000000000000000000000000000000000000000000000000000000000000000000000000000000000000000000000000000000000000000000000000000000000000000000000000000000000000000000000000000000000000000000000000000000000000
310
00000000000000000000000000000000000000000000000000000000000000000000000000000000000000000000000000000000000000000000000000000000000000000000000000000000000000000000000000000000000000000000000000000000000000000000000000000000000000000000000000000000000000
310
00000000000000000000000000000000000000000000000000000000000000000000000000000000000000000000000000000000000000000000000000000000000000000000000000000000000000000000000000000000000000000000000000000000000000000000000000000000000000000000000000000000000000
310
0000000000000000000000000000000000000000000000000000000000000000000000000000000000000000000000000000000000000000
102
{BLKREFS
331
191D
102
}
1001
ACAD
1000
DesignCenter Data
1002
{
1070
     1
1070
     4
1002
}
  0
BLOCK_RECORD
  5
191C
330
1
100
AcDbSymbolTableRecord
100
AcDbBlockTableRecord
  2
LOGO ACAD
340
0
1001
ACAD
1000
DesignCenter Data
1002
{
1070
     1
1070
     4
1002
}
  0
BLOCK_RECORD
  5
19AA
330
1
100
AcDbSymbolTableRecord
100
AcDbBlockTableRecord
  2
derund
340
0
310
2800000020000000200000000100080000000000000400000000000000000000000000000000000000000000000080000080000000808000800000008000800080800000C0C0C000C0DCC000F0CAA6000020400000206000002080000020A0000020C0000020E00000400000004020000040400000406000004080000040A0
310
000040C0000040E00000600000006020000060400000606000006080000060A0000060C0000060E00000800000008020000080400000806000008080000080A0000080C0000080E00000A0000000A0200000A0400000A0600000A0800000A0A00000A0C00000A0E00000C0000000C0200000C0400000C0600000C0800000C0
310
A00000C0C00000C0E00000E0000000E0200000E0400000E0600000E0800000E0A00000E0C00000E0E00040000000400020004000400040006000400080004000A0004000C0004000E00040200000402020004020400040206000402080004020A0004020C0004020E000404000004040200040404000404060004040800040
310
40A0004040C0004040E00040600000406020004060400040606000406080004060A0004060C0004060E00040800000408020004080400040806000408080004080A0004080C0004080E00040A0000040A0200040A0400040A0600040A0800040A0A00040A0C00040A0E00040C0000040C0200040C0400040C0600040C08000
310
40C0A00040C0C00040C0E00040E0000040E0200040E0400040E0600040E0800040E0A00040E0C00040E0E00080000000800020008000400080006000800080008000A0008000C0008000E00080200000802020008020400080206000802080008020A0008020C0008020E00080400000804020008040400080406000804080
310
008040A0008040C0008040E00080600000806020008060400080606000806080008060A0008060C0008060E00080800000808020008080400080806000808080008080A0008080C0008080E00080A0000080A0200080A0400080A0600080A0800080A0A00080A0C00080A0E00080C0000080C0200080C0400080C0600080C0
310
800080C0A00080C0C00080C0E00080E0000080E0200080E0400080E0600080E0800080E0A00080E0C00080E0E000C0000000C0002000C0004000C0006000C0008000C000A000C000C000C000E000C0200000C0202000C0204000C0206000C0208000C020A000C020C000C020E000C0400000C0402000C0404000C0406000C0
310
408000C040A000C040C000C040E000C0600000C0602000C0604000C0606000C0608000C060A000C060C000C060E000C0800000C0802000C0804000C0806000C0808000C080A000C080C000C080E000C0A00000C0A02000C0A04000C0A06000C0A08000C0A0A000C0A0C000C0A0E000C0C00000C0C02000C0C04000C0C06000
310
C0C08000C0C0A000F0FBFF00A4A0A000808080000000FF0000FF000000FFFF00FF000000FF00FF00FFFF0000FFFFFF000000000000000000000000000000000000000000000000000000000000000000000000000000000000000000FFFFFFFFFFFFFFFF000000000000000000000000000000000000000000000000FF0000
310
00000000FF000000000000000000000000000000000000000000000000FF000000000000FF000000000000000000000000000000000000000000000000FF000000000000FF000000000000000000000000000000000000000000000000FF000000000000FF0000000000000000000000000000000000000000000000FFFFFF
310
FFFFFFFFFFFFFF0000000000000000000000000000000000000000FFFF00000000000000000000FF000000000000000000000000000000000000FF00000000000000000000000000FFFF000000000000000000000000000000FF00000000000000000000000000000000FF00000000000000000000000000FF000000000000
310
000000000000000000000000FF000000000000000000000000FF00000000000000000000000000000000000000FF00000000000000000000FF0000000000000000000000000000000000000000FF000000000000000000FF00000000000000000000000000000000000000000000FF0000000000000000FF00000000000000
310
000000000000000000000000000000FF0000000000000000FF00000000000000000000000000000000000000000000FF00000000000000FF000000000000000000000000000000000000000000000000FF000000000000FF000000000000000000000000000000000000000000000000FF000000000000FF00000000000000
310
0000000000000000000000000000000000FF000000000000FF000000000000000000000000000000000000000000000000FF000000000000FF000000000000000000000000000000000000000000000000FF00000000000000FF00000000000000000000000000000000000000000000FF0000000000000000FF0000000000
310
0000000000000000000000000000000000FF0000000000000000FF00000000000000000000000000000000000000000000FF000000000000000000FF0000000000000000000000000000000000000000FF0000000000000000000000FF00000000000000000000000000000000000000FF0000000000000000000000FF0000
310
00000000000000000000000000000000FF00000000000000000000000000FF00000000000000000000000000000000FF000000000000000000000000000000FFFF00000000000000000000000000FF000000000000000000000000000000000000FF00000000000000000000FFFF0000000000000000000000000000000000
310
000000FFFFFFFFFFFFFFFFFFFF00000000000000000000000000000000000000000000000000000000000000000000000000000000000000
  0
BLOCK_RECORD
  5
1C20
330
1
100
AcDbSymbolTableRecord
100
AcDbBlockTableRecord
  2
*D15
340
0
  0
BLOCK_RECORD
  5
1C66
330
1
100
AcDbSymbolTableRecord
100
AcDbBlockTableRecord
  2
*D16
340
0
  0
BLOCK_RECORD
  5
1C74
330
1
100
AcDbSymbolTableRecord
100
AcDbBlockTableRecord
  2
*D17
340
0
  0
BLOCK_RECORD
  5
1C82
330
1
100
AcDbSymbolTableRecord
100
AcDbBlockTableRecord
  2
*D18
340
0
  0
BLOCK_RECORD
  5
1D30
330
1
100
AcDbSymbolTableRecord
100
AcDbBlockTableRecord
  2
*D19
340
0
  0
BLOCK_RECORD
  5
1D3E
330
1
100
AcDbSymbolTableRecord
100
AcDbBlockTableRecord
  2
*D20
340
0
  0
BLOCK_RECORD
  5
1D70
330
1
100
AcDbSymbolTableRecord
100
AcDbBlockTableRecord
  2
*D21
340
0
  0
BLOCK_RECORD
  5
1E1C
330
1
100
AcDbSymbolTableRecord
100
AcDbBlockTableRecord
  2
*D22
340
0
  0
ENDTAB
  0
ENDSEC
  0
SECTION
  2
BLOCKS
  0
BLOCK
  5
19
330
18
100
AcDbEntity
  8
0
100
AcDbBlockBegin
  2
*MODEL_SPACE
 70
     0
 10
0.0
 20
0.0
 30
0.0
  3
*MODEL_SPACE
  1

  0
ENDBLK
  5
1A
330
18
100
AcDbEntity
  8
0
100
AcDbBlockEnd
  0
BLOCK
  5
16
330
15
100
AcDbEntity
 67
     1
  8
0
100
AcDbBlockBegin
  2
*PAPER_SPACE
 70
     0
 10
0.0
 20
0.0
 30
0.0
  3
*PAPER_SPACE
  1

  0
ENDBLK
  5
17
330
15
100
AcDbEntity
 67
     1
  8
0
100
AcDbBlockEnd
  0
BLOCK
  5
13C2
330
B1E
100
AcDbEntity
  8
0
100
AcDbBlockBegin
  2
*D0
 70
     1
 10
0.0
 20
0.0
 30
0.0
  3
*D0
  1

  0
LINE
  5
1E9E
330
B1E
100
AcDbEntity
  8
KOTIERUNG
 62
     0
370
    -2
100
AcDbLine
 10
7337.399828452678
 20
412.6010294131938
 30
0.0
 11
7173.34139108506
 21
412.6010294131939
 31
0.0
  0
LINE
  5
1E9F
330
B1E
100
AcDbEntity
  8
KOTIERUNG
 62
     0
370
    -2
100
AcDbLine
 10
7288.117635457116
 20
-457.398970586806
 30
0.0
 11
7173.34139108506
 21
-457.398970586806
 31
0.0
  0
LINE
  5
1EA0
330
B1E
100
AcDbEntity
  8
KOTIERUNG
 62
     0
370
    -2
100
AcDbLine
 10
7198.34139108506
 20
387.6010294131939
 30
0.0
 11
7198.34139108506
 21
-432.398970586806
 31
0.0
  0
SOLID
  5
1EA1
330
B1E
100
AcDbEntity
  8
KOTIERUNG
 62
     0
100
AcDbTrace
 10
7194.174724418393
 20
387.6010294131939
 30
0.0
 11
7202.508057751727
 21
387.6010294131939
 31
0.0
 12
7198.34139108506
 22
412.6010294131939
 32
0.0
 13
7198.34139108506
 23
412.6010294131939
 33
0.0
  0
SOLID
  5
1EA2
330
B1E
100
AcDbEntity
  8
KOTIERUNG
 62
     0
100
AcDbTrace
 10
7194.174724418393
 20
-432.398970586806
 30
0.0
 11
7202.508057751727
 21
-432.398970586806
 31
0.0
 12
7198.34139108506
 22
-457.398970586806
 32
0.0
 13
7198.34139108506
 23
-457.398970586806
 33
0.0
  0
MTEXT
  5
1EA3
102
{ACAD_XDICTIONARY
360
1ED9
102
}
330
B1E
100
AcDbEntity
  8
KOTIERUNG
 62
     0
100
AcDbMText
 10
7178.077066392018
 20
-22.39897058680496
 30
0.0
 40
25.0
 41
0.0
 71
     5
 72
     1
  1
\A1;{\H0.875x;\U+2265}870\U+00B140
  7
VOEST
 11
0.0000000000000001
 21
1.0
 31
0.0
 73
     1
 44
1.0
1001
ACAD
1000
MTEXTBEGIN
1070
    73
1070
     1
1070
    44
1040
1.0
1070
    74
1070
     0
1000
MTEXTEND
  0
POINT
  5
1EA4
330
B1E
100
AcDbEntity
  8
DEFPOINTS
 62
     0
100
AcDbPoint
 10
7387.399828452678
 20
412.6010294131938
 30
0.0
  0
POINT
  5
1EA5
330
B1E
100
AcDbEntity
  8
DEFPOINTS
 62
     0
100
AcDbPoint
 10
7338.117635457116
 20
-457.3989705868061
 30
0.0
  0
POINT
  5
1EA6
330
B1E
100
AcDbEntity
  8
DEFPOINTS
 62
     0
100
AcDbPoint
 10
7198.34139108506
 20
-457.398970586806
 30
0.0
  0
ENDBLK
  5
13CC
330
B1E
100
AcDbEntity
  8
0
100
AcDbBlockEnd
  0
BLOCK
  5
13CD
330
B8D
100
AcDbEntity
  8
0
100
AcDbBlockBegin
  2
*D1
 70
     1
 10
0.0
 20
0.0
 30
0.0
  3
*D1
  1

  0
LINE
  5
13CE
330
B8D
100
AcDbEntity
  8
0
  6
ByBlock
 62
     0
100
AcDbLine
 10
7822.744220222204
 20
214.6313412726349
 30
0.0
 11
7944.013157376037
 21
214.6313412726349
 31
0.0
  0
LINE
  5
13CF
330
B8D
100
AcDbEntity
  8
0
  6
ByBlock
 62
     0
100
AcDbLine
 10
7437.399828452678
 20
334.6313412726349
 30
0.0
 11
7944.013157376037
 21
334.6313412726348
 31
0.0
  0
LINE
  5
13D0
330
B8D
100
AcDbEntity
  8
0
  6
ByBlock
 62
     0
100
AcDbLine
 10
7919.013157376037
 20
239.6313412726349
 30
0.0
 11
7919.013157376037
 21
309.6313412726348
 31
0.0
  0
SOLID
  5
13D1
330
B8D
100
AcDbEntity
  8
0
  6
ByBlock
 62
     0
100
AcDbTrace
 10
7914.846490709371
 20
239.6313412726349
 30
0.0
 11
7923.179824042704
 21
239.6313412726349
 31
0.0
 12
7919.013157376037
 22
214.6313412726349
 32
0.0
 13
7919.013157376037
 23
214.6313412726349
 33
0.0
  0
SOLID
  5
13D2
330
B8D
100
AcDbEntity
  8
0
  6
ByBlock
 62
     0
100
AcDbTrace
 10
7914.846490709371
 20
309.6313412726348
 30
0.0
 11
7923.179824042704
 21
309.6313412726348
 31
0.0
 12
7919.013157376037
 22
334.6313412726348
 32
0.0
 13
7919.013157376037
 23
334.6313412726348
 33
0.0
  0
MTEXT
  5
13D3
330
B8D
100
AcDbEntity
  8
0
  6
ByBlock
 62
     0
100
AcDbMText
 10
7898.748832682996
 20
273.587798763685
 30
0.0
 40
25.0
 41
0.0
 71
     5
 72
     1
  1
\A1;120
  7
VOEST
 11
0.0000000000000001
 21
1.0
 31
0.0
 73
     1
 44
1.0
1001
ACAD
1000
MTEXTBEGIN
1070
    73
1070
     1
1070
    44
1040
1.0
1070
    74
1070
     0
1000
MTEXTEND
  0
POINT
  5
13D4
330
B8D
100
AcDbEntity
  8
DEFPOINTS
  6
ByBlock
 62
     0
100
AcDbPoint
 10
7772.744220222204
 20
214.6313412726349
 30
0.0
  0
POINT
  5
13D5
330
B8D
100
AcDbEntity
  8
DEFPOINTS
  6
ByBlock
 62
     0
100
AcDbPoint
 10
7387.399828452678
 20
334.6313412726349
 30
0.0
  0
POINT
  5
13D6
330
B8D
100
AcDbEntity
  8
DEFPOINTS
  6
ByBlock
 62
     0
100
AcDbPoint
 10
7919.013157376037
 20
334.6313412726348
 30
0.0
  0
ENDBLK
  5
13D7
330
B8D
100
AcDbEntity
  8
0
100
AcDbBlockEnd
  0
BLOCK
  5
13D8
330
BD7
100
AcDbEntity
  8
0
100
AcDbBlockBegin
  2
*D2
 70
     1
 10
0.0
 20
0.0
 30
0.0
  3
*D2
  1

  0
LINE
  5
13D9
330
BD7
100
AcDbEntity
  8
0
  6
ByBlock
 62
     0
100
AcDbLine
 10
7318.117635457117
 20
227.1799112647754
 30
0.0
 11
7318.117635457117
 21
-128.5927213514514
 31
0.0
  0
LINE
  5
13DA
330
BD7
100
AcDbEntity
  8
0
  6
ByBlock
 62
     0
100
AcDbLine
 10
7632.744220222203
 20
-30.36865872736508
 30
0.0
 11
7632.744220222203
 21
-128.5927213514514
 31
0.0
  0
LINE
  5
13DB
330
BD7
100
AcDbEntity
  8
0
  6
ByBlock
 62
     0
100
AcDbLine
 10
7343.117635457116
 20
-103.5927213514514
 30
0.0
 11
7607.744220222203
 21
-103.5927213514514
 31
0.0
  0
SOLID
  5
13DC
330
BD7
100
AcDbEntity
  8
0
  6
ByBlock
 62
     0
100
AcDbTrace
 10
7343.117635457116
 20
-99.42605468478481
 30
0.0
 11
7343.117635457116
 21
-107.7593880181181
 31
0.0
 12
7318.117635457117
 22
-103.5927213514514
 32
0.0
 13
7318.117635457117
 23
-103.5927213514514
 33
0.0
  0
SOLID
  5
13DD
330
BD7
100
AcDbEntity
  8
0
  6
ByBlock
 62
     0
100
AcDbTrace
 10
7607.744220222203
 20
-99.42605468478481
 30
0.0
 11
7607.744220222203
 21
-107.7593880181181
 31
0.0
 12
7632.744220222203
 22
-103.5927213514514
 32
0.0
 13
7632.744220222203
 23
-103.5927213514514
 33
0.0
  0
MTEXT
  5
13DE
330
BD7
100
AcDbEntity
  8
0
  6
ByBlock
 62
     0
100
AcDbMText
 10
7475.430927839659
 20
-83.32839665840918
 30
0.0
 40
25.0
 41
0.0
 71
     5
 72
     1
  1
\A1;315
  7
VOEST
 73
     1
 44
1.0
1001
ACAD
1000
MTEXTBEGIN
1070
    73
1070
     1
1070
    44
1040
1.0
1070
    74
1070
     0
1000
MTEXTEND
  0
POINT
  5
13DF
330
BD7
100
AcDbEntity
  8
DEFPOINTS
  6
ByBlock
 62
     0
100
AcDbPoint
 10
7318.117635457117
 20
277.1799112647754
 30
0.0
  0
POINT
  5
13E0
330
BD7
100
AcDbEntity
  8
DEFPOINTS
  6
ByBlock
 62
     0
100
AcDbPoint
 10
7632.744220222203
 20
19.63134127263493
 30
0.0
  0
POINT
  5
13E1
330
BD7
100
AcDbEntity
  8
DEFPOINTS
  6
ByBlock
 62
     0
100
AcDbPoint
 10
7632.744220222203
 20
-103.5927213514514
 30
0.0
  0
ENDBLK
  5
13E2
330
BD7
100
AcDbEntity
  8
0
100
AcDbBlockEnd
  0
BLOCK
  5
13E3
330
BE5
100
AcDbEntity
  8
0
100
AcDbBlockBegin
  2
*D3
 70
     1
 10
0.0
 20
0.0
 30
0.0
  3
*D3
  1

  0
LINE
  5
13E4
330
BE5
100
AcDbEntity
  8
0
  6
ByBlock
 62
     0
100
AcDbLine
 10
7338.117635457116
 20
-415.368658727365
 30
0.0
 11
7338.117635457116
 21
-129.6759956582427
 31
0.0
  0
LINE
  5
13E5
330
BE5
100
AcDbEntity
  8
0
  6
ByBlock
 62
     0
100
AcDbLine
 10
7318.117635457117
 20
-0.7064050433380374
 30
0.0
 11
7318.117635457117
 21
-179.6759956582427
 31
0.0
  0
LINE
  5
13E6
330
BE5
100
AcDbEntity
  8
0
  6
ByBlock
 62
     0
100
AcDbLine
 10
7293.117635457116
 20
-154.6759956582427
 30
0.0
 11
7268.117635457116
 21
-154.6759956582427
 31
0.0
  0
LINE
  5
13E7
330
BE5
100
AcDbEntity
  8
0
  6
ByBlock
 62
     0
100
AcDbLine
 10
7363.117635457117
 20
-154.6759956582427
 30
0.0
 11
7437.756107489859
 21
-154.6759956582427
 31
0.0
  0
SOLID
  5
13E8
330
BE5
100
AcDbEntity
  8
0
  6
ByBlock
 62
     0
100
AcDbTrace
 10
7293.117635457116
 20
-150.5093289915761
 30
0.0
 11
7293.117635457116
 21
-158.8426623249094
 31
0.0
 12
7318.117635457117
 22
-154.6759956582427
 32
0.0
 13
7318.117635457117
 23
-154.6759956582427
 33
0.0
  0
SOLID
  5
13E9
330
BE5
100
AcDbEntity
  8
0
  6
ByBlock
 62
     0
100
AcDbTrace
 10
7363.117635457117
 20
-150.5093289915761
 30
0.0
 11
7363.117635457117
 21
-158.8426623249094
 31
0.0
 12
7338.117635457116
 22
-154.6759956582427
 32
0.0
 13
7338.117635457116
 23
-154.6759956582427
 33
0.0
  0
MTEXT
  5
13EA
330
BE5
100
AcDbEntity
  8
0
  6
ByBlock
 62
     0
100
AcDbMText
 10
7415.436871473487
 20
-134.4116709652005
 30
0.0
 40
25.0
 41
0.0
 71
     5
 72
     1
  1
\A1;20
  7
VOEST
 73
     1
 44
1.0
1001
ACAD
1000
MTEXTBEGIN
1070
    73
1070
     1
1070
    44
1040
1.0
1070
    74
1070
     0
1000
MTEXTEND
  0
POINT
  5
13EB
330
BE5
100
AcDbEntity
  8
DEFPOINTS
  6
ByBlock
 62
     0
100
AcDbPoint
 10
7338.117635457116
 20
-465.368658727365
 30
0.0
  0
POINT
  5
13EC
330
BE5
100
AcDbEntity
  8
DEFPOINTS
  6
ByBlock
 62
     0
100
AcDbPoint
 10
7318.117635457117
 20
49.29359495666196
 30
0.0
  0
POINT
  5
13ED
330
BE5
100
AcDbEntity
  8
DEFPOINTS
  6
ByBlock
 62
     0
100
AcDbPoint
 10
7318.117635457117
 20
-154.6759956582427
 30
0.0
  0
ENDBLK
  5
13EE
330
BE5
100
AcDbEntity
  8
0
100
AcDbBlockEnd
  0
BLOCK
  5
13EF
330
CA8
100
AcDbEntity
  8
0
100
AcDbBlockBegin
  2
*D4
 70
     1
 10
0.0
 20
0.0
 30
0.0
  3
*D4
  1

  0
LINE
  5
13F0
330
CA8
100
AcDbEntity
  8
0
  6
ByBlock
 62
     0
100
AcDbLine
 10
7682.744220222203
 20
284.6313412726349
 30
0.0
 11
7781.409559645905
 21
284.6313412726349
 31
0.0
  0
LINE
  5
13F1
330
CA8
100
AcDbEntity
  8
0
  6
ByBlock
 62
     0
100
AcDbLine
 10
7732.446367858263
 20
334.6313412726349
 30
0.0
 11
7781.409559645905
 21
334.6313412726349
 31
0.0
  0
LINE
  5
13F2
330
CA8
100
AcDbEntity
  8
0
  6
ByBlock
 62
     0
100
AcDbLine
 10
7756.409559645906
 20
259.6313412726349
 30
0.0
 11
7756.409559645906
 21
234.6313412726349
 31
0.0
  0
LINE
  5
13F3
330
CA8
100
AcDbEntity
  8
0
  6
ByBlock
 62
     0
100
AcDbLine
 10
7756.409559645906
 20
359.6313412726349
 30
0.0
 11
7756.409559645906
 21
384.6313412726349
 31
0.0
  0
SOLID
  5
13F4
330
CA8
100
AcDbEntity
  8
0
  6
ByBlock
 62
     0
100
AcDbTrace
 10
7752.242892979238
 20
259.6313412726349
 30
0.0
 11
7760.576226312571
 21
259.6313412726349
 31
0.0
 12
7756.409559645906
 22
284.6313412726349
 32
0.0
 13
7756.409559645906
 23
284.6313412726349
 33
0.0
  0
SOLID
  5
13F5
330
CA8
100
AcDbEntity
  8
0
  6
ByBlock
 62
     0
100
AcDbTrace
 10
7752.242892979238
 20
359.6313412726349
 30
0.0
 11
7760.576226312571
 21
359.6313412726349
 31
0.0
 12
7756.409559645906
 22
334.6313412726349
 32
0.0
 13
7756.409559645906
 23
334.6313412726349
 33
0.0
  0
MTEXT
  5
13F6
330
CA8
100
AcDbEntity
  8
0
  6
ByBlock
 62
     0
100
AcDbMText
 10
7736.145234952863
 20
309.6313412726349
 30
0.0
 40
25.0
 41
0.0
 71
     5
 72
     1
  1
\A1;50
  7
VOEST
 11
0.0000000000000001
 21
1.0
 31
0.0
 73
     1
 44
1.0
1001
ACAD
1000
MTEXTBEGIN
1070
    73
1070
     1
1070
    44
1040
1.0
1070
    74
1070
     0
1000
MTEXTEND
  0
POINT
  5
13F7
330
CA8
100
AcDbEntity
  8
DEFPOINTS
  6
ByBlock
 62
     0
100
AcDbPoint
 10
7632.744220222203
 20
284.6313412726349
 30
0.0
  0
POINT
  5
13F8
330
CA8
100
AcDbEntity
  8
DEFPOINTS
  6
ByBlock
 62
     0
100
AcDbPoint
 10
7682.446367858263
 20
334.6313412726349
 30
0.0
  0
POINT
  5
13F9
330
CA8
100
AcDbEntity
  8
DEFPOINTS
  6
ByBlock
 62
     0
100
AcDbPoint
 10
7756.409559645906
 20
334.6313412726349
 30
0.0
  0
ENDBLK
  5
13FA
330
CA8
100
AcDbEntity
  8
0
100
AcDbBlockEnd
  0
BLOCK
  5
1460
330
DC0
100
AcDbEntity
  8
0
100
AcDbBlockBegin
  2
*D5
 70
     1
 10
0.0
 20
0.0
 30
0.0
  3
*D5
  1

  0
LINE
  5
1461
330
DC0
100
AcDbEntity
  8
0
  6
ByBlock
 62
     0
100
AcDbLine
 10
7598.744220222203
 20
-1193.534330351627
 30
0.0
 11
7598.744220222203
 21
-1296.80606206202
 31
0.0
  0
LINE
  5
1462
330
DC0
100
AcDbEntity
  8
0
  6
ByBlock
 62
     0
100
AcDbLine
 10
7818.744220222203
 20
-1193.534330351627
 30
0.0
 11
7818.744220222203
 21
-1296.80606206202
 31
0.0
  0
LINE
  5
1463
330
DC0
100
AcDbEntity
  8
0
  6
ByBlock
 62
     0
100
AcDbLine
 10
7623.744220222203
 20
-1271.80606206202
 30
0.0
 11
7793.744220222203
 21
-1271.80606206202
 31
0.0
  0
SOLID
  5
1464
330
DC0
100
AcDbEntity
  8
0
  6
ByBlock
 62
     0
100
AcDbTrace
 10
7623.744220222203
 20
-1267.639395395353
 30
0.0
 11
7623.744220222203
 21
-1275.972728728686
 31
0.0
 12
7598.744220222203
 22
-1271.80606206202
 32
0.0
 13
7598.744220222203
 23
-1271.80606206202
 33
0.0
  0
SOLID
  5
1465
330
DC0
100
AcDbEntity
  8
0
  6
ByBlock
 62
     0
100
AcDbTrace
 10
7793.744220222203
 20
-1267.639395395353
 30
0.0
 11
7793.744220222203
 21
-1275.972728728686
 31
0.0
 12
7818.744220222203
 22
-1271.80606206202
 32
0.0
 13
7818.744220222203
 23
-1271.80606206202
 33
0.0
  0
MTEXT
  5
1466
330
DC0
100
AcDbEntity
  8
0
  6
ByBlock
 62
     0
100
AcDbMText
 10
7708.744220222204
 20
-1251.541737368978
 30
0.0
 40
25.0
 41
0.0
 71
     5
 72
     1
  1
\A1;220
  7
VOEST
 73
     1
 44
1.0
1001
ACAD
1000
MTEXTBEGIN
1070
    73
1070
     1
1070
    44
1040
1.0
1070
    74
1070
     0
1000
MTEXTEND
  0
POINT
  5
1467
330
DC0
100
AcDbEntity
  8
DEFPOINTS
  6
ByBlock
 62
     0
100
AcDbPoint
 10
7598.744220222203
 20
-1143.534330351627
 30
0.0
  0
POINT
  5
1468
330
DC0
100
AcDbEntity
  8
DEFPOINTS
  6
ByBlock
 62
     0
100
AcDbPoint
 10
7818.744220222203
 20
-1143.534330351627
 30
0.0
  0
POINT
  5
1469
330
DC0
100
AcDbEntity
  8
DEFPOINTS
  6
ByBlock
 62
     0
100
AcDbPoint
 10
7818.744220222203
 20
-1271.80606206202
 30
0.0
  0
ENDBLK
  5
146A
330
DC0
100
AcDbEntity
  8
0
100
AcDbBlockEnd
  0
BLOCK
  5
146B
330
E18
100
AcDbEntity
  8
0
100
AcDbBlockBegin
  2
*D6
 70
     1
 10
0.0
 20
0.0
 30
0.0
  3
*D6
  1

  0
LINE
  5
146C
330
E18
100
AcDbEntity
  8
0
  6
ByBlock
 62
     0
100
AcDbLine
 10
7598.744220222203
 20
-673.5343303516274
 30
0.0
 11
7598.744220222203
 21
-621.3246053416769
 31
0.0
  0
LINE
  5
146D
330
E18
100
AcDbEntity
  8
0
  6
ByBlock
 62
     0
100
AcDbLine
 10
7678.709961831692
 20
-708.8858649583744
 30
0.0
 11
7678.709961831692
 21
-621.3246053416769
 31
0.0
  0
LINE
  5
146E
330
E18
100
AcDbEntity
  8
0
  6
ByBlock
 62
     0
100
AcDbLine
 10
7623.744220222203
 20
-646.3246053416769
 30
0.0
 11
7653.709961831693
 21
-646.3246053416769
 31
0.0
  0
SOLID
  5
146F
330
E18
100
AcDbEntity
  8
0
  6
ByBlock
 62
     0
100
AcDbTrace
 10
7623.744220222203
 20
-642.1579386750103
 30
0.0
 11
7623.744220222203
 21
-650.4912720083435
 31
0.0
 12
7598.744220222203
 22
-646.3246053416769
 32
0.0
 13
7598.744220222203
 23
-646.3246053416769
 33
0.0
  0
SOLID
  5
1470
330
E18
100
AcDbEntity
  8
0
  6
ByBlock
 62
     0
100
AcDbTrace
 10
7653.709961831693
 20
-642.1579386750103
 30
0.0
 11
7653.709961831693
 21
-650.4912720083435
 31
0.0
 12
7678.709961831692
 22
-646.3246053416769
 32
0.0
 13
7678.709961831692
 23
-646.3246053416769
 33
0.0
  0
MTEXT
  5
1471
330
E18
100
AcDbEntity
  8
0
  6
ByBlock
 62
     0
100
AcDbMText
 10
7638.727091026948
 20
-626.0602806486346
 30
0.0
 40
25.0
 41
0.0
 71
     5
 72
     1
  1
\A1;80
  7
VOEST
 73
     1
 44
1.0
1001
ACAD
1000
MTEXTBEGIN
1070
    73
1070
     1
1070
    44
1040
1.0
1070
    74
1070
     0
1000
MTEXTEND
  0
POINT
  5
1472
330
E18
100
AcDbEntity
  8
DEFPOINTS
  6
ByBlock
 62
     0
100
AcDbPoint
 10
7598.744220222203
 20
-723.5343303516274
 30
0.0
  0
POINT
  5
1473
330
E18
100
AcDbEntity
  8
DEFPOINTS
  6
ByBlock
 62
     0
100
AcDbPoint
 10
7678.709961831692
 20
-758.8858649583744
 30
0.0
  0
POINT
  5
1474
330
E18
100
AcDbEntity
  8
DEFPOINTS
  6
ByBlock
 62
     0
100
AcDbPoint
 10
7678.709961831692
 20
-646.3246053416769
 30
0.0
  0
ENDBLK
  5
1475
330
E18
100
AcDbEntity
  8
0
100
AcDbBlockEnd
  0
BLOCK
  5
1476
330
EBC
100
AcDbEntity
  8
0
100
AcDbBlockBegin
  2
*D7
 70
     1
 10
0.0
 20
0.0
 30
0.0
  3
*D7
  1

  0
LINE
  5
1477
330
EBC
100
AcDbEntity
  8
0
  6
ByBlock
 62
     0
100
AcDbLine
 10
7632.744220222203
 20
-80.36865872736507
 30
0.0
 11
7632.744220222203
 21
-128.5927213514514
 31
0.0
  0
LINE
  5
1478
330
EBC
100
AcDbEntity
  8
0
  6
ByBlock
 62
     0
100
AcDbLine
 10
7772.744220222204
 20
-80.36865872736507
 30
0.0
 11
7772.744220222204
 21
-128.5927213514514
 31
0.0
  0
LINE
  5
1479
330
EBC
100
AcDbEntity
  8
0
  6
ByBlock
 62
     0
100
AcDbLine
 10
7657.744220222203
 20
-103.5927213514514
 30
0.0
 11
7747.744220222203
 21
-103.5927213514514
 31
0.0
  0
SOLID
  5
147A
330
EBC
100
AcDbEntity
  8
0
  6
ByBlock
 62
     0
100
AcDbTrace
 10
7657.744220222203
 20
-99.42605468478481
 30
0.0
 11
7657.744220222203
 21
-107.7593880181181
 31
0.0
 12
7632.744220222203
 22
-103.5927213514514
 32
0.0
 13
7632.744220222203
 23
-103.5927213514514
 33
0.0
  0
SOLID
  5
147B
330
EBC
100
AcDbEntity
  8
0
  6
ByBlock
 62
     0
100
AcDbTrace
 10
7747.744220222203
 20
-99.42605468478481
 30
0.0
 11
7747.744220222203
 21
-107.7593880181181
 31
0.0
 12
7772.744220222204
 22
-103.5927213514514
 32
0.0
 13
7772.744220222204
 23
-103.5927213514514
 33
0.0
  0
MTEXT
  5
147C
330
EBC
100
AcDbEntity
  8
0
  6
ByBlock
 62
     0
100
AcDbMText
 10
7702.744220222204
 20
-83.32839665840918
 30
0.0
 40
25.0
 41
0.0
 71
     5
 72
     1
  1
\A1;140
  7
VOEST
 73
     1
 44
1.0
1001
ACAD
1000
MTEXTBEGIN
1070
    73
1070
     1
1070
    44
1040
1.0
1070
    74
1070
     0
1000
MTEXTEND
  0
POINT
  5
147D
330
EBC
100
AcDbEntity
  8
DEFPOINTS
  6
ByBlock
 62
     0
100
AcDbPoint
 10
7632.744220222203
 20
-30.36865872736508
 30
0.0
  0
POINT
  5
147E
330
EBC
100
AcDbEntity
  8
DEFPOINTS
  6
ByBlock
 62
     0
100
AcDbPoint
 10
7772.744220222204
 20
-30.36865872736508
 30
0.0
  0
POINT
  5
147F
330
EBC
100
AcDbEntity
  8
DEFPOINTS
  6
ByBlock
 62
     0
100
AcDbPoint
 10
7772.744220222204
 20
-103.5927213514514
 30
0.0
  0
ENDBLK
  5
1480
330
EBC
100
AcDbEntity
  8
0
100
AcDbBlockEnd
  0
BLOCK
  5
1054
330
1053
100
AcDbEntity
  8
0
100
AcDbBlockBegin
  2
*D8
 70
     1
 10
0.0
 20
0.0
 30
0.0
  3
*D8
  1

  0
LINE
  5
1055
330
1053
100
AcDbEntity
  8
0
  6
ByBlock
 62
     0
100
AcDbLine
 10
7338.117635457116
 20
-365.3686587273651
 30
0.0
 11
7338.117635457116
 21
-328.2886711018436
 31
0.0
  0
LINE
  5
1056
330
1053
100
AcDbEntity
  8
0
  6
ByBlock
 62
     0
100
AcDbLine
 10
7682.744220222203
 20
-406.8220048759839
 30
0.0
 11
7682.744220222203
 21
-328.2886711018436
 31
0.0
  0
LINE
  5
1057
330
1053
100
AcDbEntity
  8
0
  6
ByBlock
 62
     0
100
AcDbLine
 10
7363.117635457117
 20
-353.2886711018436
 30
0.0
 11
7657.744220222203
 21
-353.2886711018436
 31
0.0
  0
SOLID
  5
1058
330
1053
100
AcDbEntity
  8
0
  6
ByBlock
 62
     0
100
AcDbTrace
 10
7363.117635457117
 20
-349.122004435177
 30
0.0
 11
7363.117635457117
 21
-357.4553377685103
 31
0.0
 12
7338.117635457116
 22
-353.2886711018436
 32
0.0
 13
7338.117635457116
 23
-353.2886711018436
 33
0.0
  0
SOLID
  5
1059
330
1053
100
AcDbEntity
  8
0
  6
ByBlock
 62
     0
100
AcDbTrace
 10
7657.744220222203
 20
-349.122004435177
 30
0.0
 11
7657.744220222203
 21
-357.4553377685103
 31
0.0
 12
7682.744220222203
 22
-353.2886711018436
 32
0.0
 13
7682.744220222203
 23
-353.2886711018436
 33
0.0
  0
MTEXT
  5
105A
330
1053
100
AcDbEntity
  8
0
  6
ByBlock
 62
     0
100
AcDbMText
 10
7510.43092783966
 20
-333.0243464088014
 30
0.0
 40
25.0
 41
0.0
 71
     5
 72
     1
  1
\A1;345
  7
VOEST
 73
     1
 44
1.0
1001
ACAD
1000
MTEXTBEGIN
1070
    73
1070
     1
1070
    44
1040
1.0
1070
    74
1070
     0
1000
MTEXTEND
  0
POINT
  5
105B
330
1053
100
AcDbEntity
  8
DEFPOINTS
  6
ByBlock
 62
     0
100
AcDbPoint
 10
7338.117635457116
 20
-415.368658727365
 30
0.0
  0
POINT
  5
105C
330
1053
100
AcDbEntity
  8
DEFPOINTS
  6
ByBlock
 62
     0
100
AcDbPoint
 10
7682.744220222203
 20
-456.8220048759839
 30
0.0
  0
POINT
  5
105D
330
1053
100
AcDbEntity
  8
DEFPOINTS
  6
ByBlock
 62
     0
100
AcDbPoint
 10
7682.744220222203
 20
-353.2886711018436
 30
0.0
  0
ENDBLK
  5
105E
330
1053
100
AcDbEntity
  8
0
100
AcDbBlockEnd
  0
BLOCK
  5
14C1
330
127B
100
AcDbEntity
  8
0
100
AcDbBlockBegin
  2
*D9
 70
     1
 10
0.0
 20
0.0
 30
0.0
  3
*D9
  1

  0
LINE
  5
14C2
330
127B
100
AcDbEntity
  8
0
  6
ByBlock
 62
     0
100
AcDbLine
 10
7594.061496438442
 20
-1073.534330351626
 30
0.0
 11
7430.609880275162
 21
-1073.534330351626
 31
0.0
  0
LINE
  5
14C3
330
127B
100
AcDbEntity
  8
0
  6
ByBlock
 62
     0
100
AcDbLine
 10
7594.061496438441
 20
-793.5343303516271
 30
0.0
 11
7430.609880275162
 21
-793.5343303516271
 31
0.0
  0
LINE
  5
14C4
330
127B
100
AcDbEntity
  8
0
  6
ByBlock
 62
     0
100
AcDbLine
 10
7455.609880275162
 20
-1048.534330351626
 30
0.0
 11
7455.609880275162
 21
-818.5343303516271
 31
0.0
  0
SOLID
  5
14C5
330
127B
100
AcDbEntity
  8
0
  6
ByBlock
 62
     0
100
AcDbTrace
 10
7451.443213608495
 20
-1048.534330351626
 30
0.0
 11
7459.776546941829
 21
-1048.534330351626
 31
0.0
 12
7455.609880275162
 22
-1073.534330351626
 32
0.0
 13
7455.609880275162
 23
-1073.534330351626
 33
0.0
  0
SOLID
  5
14C6
330
127B
100
AcDbEntity
  8
0
  6
ByBlock
 62
     0
100
AcDbTrace
 10
7451.443213608495
 20
-818.5343303516271
 30
0.0
 11
7459.776546941829
 21
-818.5343303516271
 31
0.0
 12
7455.609880275162
 22
-793.5343303516271
 32
0.0
 13
7455.609880275162
 23
-793.5343303516271
 33
0.0
  0
MTEXT
  5
14C7
330
127B
100
AcDbEntity
  8
0
  6
ByBlock
 62
     0
100
AcDbMText
 10
7435.34555558212
 20
-933.5343303516268
 30
0.0
 40
25.0
 41
0.0
 71
     5
 72
     1
  1
\A1;280
  7
VOEST
 11
0.0000000000000001
 21
1.0
 31
0.0
 73
     1
 44
1.0
1001
ACAD
1000
MTEXTBEGIN
1070
    73
1070
     1
1070
    44
1040
1.0
1070
    74
1070
     0
1000
MTEXTEND
  0
POINT
  5
14C8
330
127B
100
AcDbEntity
  8
DEFPOINTS
  6
ByBlock
 62
     0
100
AcDbPoint
 10
7644.061496438443
 20
-1073.534330351626
 30
0.0
  0
POINT
  5
14C9
330
127B
100
AcDbEntity
  8
DEFPOINTS
  6
ByBlock
 62
     0
100
AcDbPoint
 10
7644.061496438441
 20
-793.5343303516271
 30
0.0
  0
POINT
  5
14CA
330
127B
100
AcDbEntity
  8
DEFPOINTS
  6
ByBlock
 62
     0
100
AcDbPoint
 10
7455.609880275162
 20
-793.5343303516271
 30
0.0
  0
ENDBLK
  5
14CB
330
127B
100
AcDbEntity
  8
0
100
AcDbBlockEnd
  0
BLOCK
  5
14CC
330
1287
100
AcDbEntity
  8
0
100
AcDbBlockBegin
  2
*D10
 70
     1
 10
0.0
 20
0.0
 30
0.0
  3
*D10
  1

  0
LINE
  5
196E
330
1287
100
AcDbEntity
  8
KOTIERUNG
 62
     0
100
AcDbLine
 10
7548.744220222203
 20
-1143.534330351627
 30
0.0
 11
7430.609880275162
 21
-1143.534330351627
 31
0.0
  0
LINE
  5
196F
330
1287
100
AcDbEntity
  8
KOTIERUNG
 62
     0
100
AcDbLine
 10
7455.609880275162
 20
-1098.534330351626
 30
0.0
 11
7455.609880275162
 21
-1118.534330351627
 31
0.0
  0
SOLID
  5
1970
330
1287
100
AcDbEntity
  8
KOTIERUNG
 62
     0
100
AcDbTrace
 10
7451.443213608495
 20
-1098.534330351626
 30
0.0
 11
7459.776546941829
 21
-1098.534330351626
 31
0.0
 12
7455.609880275162
 22
-1073.534330351626
 32
0.0
 13
7455.609880275162
 23
-1073.534330351626
 33
0.0
  0
SOLID
  5
1971
330
1287
100
AcDbEntity
  8
KOTIERUNG
 62
     0
100
AcDbTrace
 10
7451.443213608495
 20
-1118.534330351627
 30
0.0
 11
7459.776546941829
 21
-1118.534330351627
 31
0.0
 12
7455.609880275162
 22
-1143.534330351627
 32
0.0
 13
7455.609880275162
 23
-1143.534330351627
 33
0.0
  0
MTEXT
  5
1972
330
1287
100
AcDbEntity
  8
KOTIERUNG
 62
     0
100
AcDbMText
 10
7435.34555558212
 20
-1108.534330351626
 30
0.0
 40
25.0
 41
0.0
 71
     5
 72
     1
  1
\A1;70
  7
VOEST
 11
0.0000000000000001
 21
1.0
 31
0.0
 73
     1
 44
1.0
1001
ACAD
1000
MTEXTBEGIN
1070
    73
1070
     1
1070
    44
1040
1.0
1070
    74
1070
     0
1000
MTEXTEND
  0
POINT
  5
1973
330
1287
100
AcDbEntity
  8
DEFPOINTS
 62
     0
100
AcDbPoint
 10
7644.061496438443
 20
-1073.534330351626
 30
0.0
  0
POINT
  5
1974
330
1287
100
AcDbEntity
  8
DEFPOINTS
 62
     0
100
AcDbPoint
 10
7598.744220222203
 20
-1143.534330351627
 30
0.0
  0
POINT
  5
1975
330
1287
100
AcDbEntity
  8
DEFPOINTS
 62
     0
100
AcDbPoint
 10
7455.609880275162
 20
-1143.534330351627
 30
0.0
  0
ENDBLK
  5
14D5
330
1287
100
AcDbEntity
  8
0
100
AcDbBlockEnd
  0
BLOCK
  5
14D6
330
12A9
100
AcDbEntity
  8
0
100
AcDbBlockBegin
  2
*D11
 70
     1
 10
0.0
 20
0.0
 30
0.0
  3
*D11
  1

  0
LINE
  5
14D7
330
12A9
100
AcDbEntity
  8
0
  6
ByBlock
 62
     0
100
AcDbLine
 10
7548.744220222203
 20
-723.5343303516274
 30
0.0
 11
7378.534707940973
 21
-723.5343303516274
 31
0.0
  0
LINE
  5
14D8
330
12A9
100
AcDbEntity
  8
0
  6
ByBlock
 62
     0
100
AcDbLine
 10
7548.744220222203
 20
-1143.534330351627
 30
0.0
 11
7378.534707940973
 21
-1143.534330351627
 31
0.0
  0
LINE
  5
14D9
330
12A9
100
AcDbEntity
  8
0
  6
ByBlock
 62
     0
100
AcDbLine
 10
7403.534707940973
 20
-748.5343303516274
 30
0.0
 11
7403.534707940973
 21
-1118.534330351627
 31
0.0
  0
SOLID
  5
14DA
330
12A9
100
AcDbEntity
  8
0
  6
ByBlock
 62
     0
100
AcDbTrace
 10
7399.368041274306
 20
-748.5343303516274
 30
0.0
 11
7407.70137460764
 21
-748.5343303516274
 31
0.0
 12
7403.534707940973
 22
-723.5343303516274
 32
0.0
 13
7403.534707940973
 23
-723.5343303516274
 33
0.0
  0
SOLID
  5
14DB
330
12A9
100
AcDbEntity
  8
0
  6
ByBlock
 62
     0
100
AcDbTrace
 10
7399.368041274306
 20
-1118.534330351627
 30
0.0
 11
7407.70137460764
 21
-1118.534330351627
 31
0.0
 12
7403.534707940973
 22
-1143.534330351627
 32
0.0
 13
7403.534707940973
 23
-1143.534330351627
 33
0.0
  0
MTEXT
  5
14DC
330
12A9
100
AcDbEntity
  8
0
  6
ByBlock
 62
     0
100
AcDbMText
 10
7383.270383247931
 20
-933.5343303516275
 30
0.0
 40
25.0
 41
0.0
 71
     5
 72
     1
  1
\A1;420
  7
VOEST
 11
0.0000000000000001
 21
1.0
 31
0.0
 73
     1
 44
1.0
1001
ACAD
1000
MTEXTBEGIN
1070
    73
1070
     1
1070
    44
1040
1.0
1070
    74
1070
     0
1000
MTEXTEND
  0
POINT
  5
14DD
330
12A9
100
AcDbEntity
  8
DEFPOINTS
  6
ByBlock
 62
     0
100
AcDbPoint
 10
7598.744220222203
 20
-723.5343303516274
 30
0.0
  0
POINT
  5
14DE
330
12A9
100
AcDbEntity
  8
DEFPOINTS
  6
ByBlock
 62
     0
100
AcDbPoint
 10
7598.744220222203
 20
-1143.534330351627
 30
0.0
  0
POINT
  5
14DF
330
12A9
100
AcDbEntity
  8
DEFPOINTS
  6
ByBlock
 62
     0
100
AcDbPoint
 10
7403.534707940973
 20
-1143.534330351627
 30
0.0
  0
ENDBLK
  5
14E0
330
12A9
100
AcDbEntity
  8
0
100
AcDbBlockEnd
  0
BLOCK
  5
191A
330
1916
100
AcDbEntity
  8
0
100
AcDbBlockBegin
  2
VOESTALPINE LOGO
 70
     0
 10
0.0
 20
0.0
 30
0.0
  3
VOESTALPINE LOGO
  1

  0
TEXT
  5
1917
330
1916
100
AcDbEntity
  8
0
 62
   155
100
AcDbText
 10
-2.022376810040597
 20
1.345163130846486
 30
0.0
 40
4.761899999999999
  1
alpine
 41
1.29
  7
LOGO2
100
AcDbText
  0
TEXT
  5
1918
330
1916
100
AcDbEntity
  8
0
 62
     7
100
AcDbText
 10
-24.96332103124969
 20
-3.319987708589252
 30
0.0
 40
2.050802049214244
  1
KREMS FINALTECHNIK GMBH
 41
1.219999999999999
  7
LOGO3
100
AcDbText
  0
TEXT
  5
1919
330
1916
100
AcDbEntity
  8
0
 62
     7
100
AcDbText
 10
-25.59751279130563
 20
1.29203428188444
 30
0.0
 40
4.761899999999999
  1
voest
 41
1.379999999999999
  7
LOGO1
100
AcDbText
  0
ENDBLK
  5
191B
330
1916
100
AcDbEntity
  8
0
100
AcDbBlockEnd
  0
BLOCK
  5
191E
330
191C
100
AcDbEntity
  8
0
100
AcDbBlockBegin
  2
LOGO ACAD
 70
     0
 10
0.0
 20
0.0
 30
0.0
  3
LOGO ACAD
  1

  0
INSERT
  5
191D
330
191C
100
AcDbEntity
  8
0
100
AcDbBlockReference
  2
VOESTALPINE LOGO
 10
25.66052293085149
 20
-5.598002378525222
 30
0.0
  0
ENDBLK
  5
191F
330
191C
100
AcDbEntity
  8
0
100
AcDbBlockEnd
  0
BLOCK
  5
19AB
330
19AA
100
AcDbEntity
  8
0
100
AcDbBlockBegin
  2
derund
 70
     0
 10
0.0
 20
0.0
 30
0.0
  3
derund
  1

  0
LINE
  5
1B2D
330
19AA
100
AcDbEntity
  8
25
100
AcDbLine
 10
-32.0
 20
-215.6500000000001
 30
0.0
 11
-32.0
 21
-263.0749999999998
 31
0.0
  0
LINE
  5
1B2E
330
19AA
100
AcDbEntity
  8
25
100
AcDbLine
 10
32.0
 20
-215.6500000000001
 30
0.0
 11
32.0
 21
-263.0749999999998
 31
0.0
  0
LINE
  5
1B2F
330
19AA
100
AcDbEntity
  8
25
100
AcDbLine
 10
-32.0
 20
-263.0749999999998
 30
0.0
 11
32.0
 21
-263.0749999999998
 31
0.0
  0
ARC
  5
1B30
330
19AA
100
AcDbEntity
  8
25
100
AcDbCircle
 10
0.0
 20
-109.0749999999998
 30
0.0
 40
115.425
100
AcDbArc
 50
292.582606644971
 51
70.90648140256611
  0
ARC
  5
1B31
330
19AA
100
AcDbEntity
  8
25
100
AcDbCircle
 10
0.0
 20
-109.0749999999998
 30
0.0
 40
115.425
100
AcDbArc
 50
109.0935185974339
 51
247.417393355029
  0
LINE
  5
1B32
330
19AA
100
AcDbEntity
  8
25
100
AcDbLine
 10
-44.32493654817699
 20
-215.6500000000001
 30
0.0
 11
44.3249365481779
 21
-215.6500000000001
 31
0.0
  0
LINE
  5
1B33
330
19AA
100
AcDbEntity
  8
25
100
AcDbLine
 10
37.75678746927588
 20
0.0
 30
0.0
 11
-37.75678746927588
 21
0.0
 31
0.0
  0
ENDBLK
  5
19AC
330
19AA
100
AcDbEntity
  8
0
100
AcDbBlockEnd
  0
BLOCK
  5
1C2B
330
1C20
100
AcDbEntity
  8
0
100
AcDbBlockBegin
  2
*D15
 70
     1
 10
0.0
 20
0.0
 30
0.0
  3
*D15
  1

  0
LINE
  5
1C5C
330
1C20
100
AcDbEntity
  8
KOTIERUNG
 62
     0
370
    -2
100
AcDbLine
 10
6342.614502640299
 20
-1848.11242459726
 30
0.0
 11
6342.614502640299
 21
-1455.965539726159
 31
0.0
  0
LINE
  5
1C5D
330
1C20
100
AcDbEntity
  8
KOTIERUNG
 62
     0
370
    -2
100
AcDbLine
 10
10142.6145006403
 20
-1848.11242459726
 30
0.0
 11
10142.6145006403
 21
-1455.965539726159
 31
0.0
  0
LINE
  5
1C5E
330
1C20
100
AcDbEntity
  8
KOTIERUNG
 62
     0
370
    -2
100
AcDbLine
 10
6417.614502640299
 20
-1530.965539726159
 30
0.0
 11
10067.6145006403
 21
-1530.965539726159
 31
0.0
  0
SOLID
  5
1C5F
330
1C20
100
AcDbEntity
  8
KOTIERUNG
 62
     0
100
AcDbTrace
 10
6417.614502640299
 20
-1518.465539726159
 30
0.0
 11
6417.614502640299
 21
-1543.465539726159
 31
0.0
 12
6342.614502640299
 22
-1530.965539726159
 32
0.0
 13
6342.614502640299
 23
-1530.965539726159
 33
0.0
  0
SOLID
  5
1C60
330
1C20
100
AcDbEntity
  8
KOTIERUNG
 62
     0
100
AcDbTrace
 10
10067.6145006403
 20
-1518.465539726159
 30
0.0
 11
10067.6145006403
 21
-1543.465539726159
 31
0.0
 12
10142.6145006403
 22
-1530.965539726159
 32
0.0
 13
10142.6145006403
 23
-1530.965539726159
 33
0.0
  0
MTEXT
  5
1C61
330
1C20
100
AcDbEntity
  8
KOTIERUNG
 62
     0
100
AcDbMText
 10
8242.614501640298
 20
-1470.172565647033
 30
0.0
 40
75.0
 41
0.0
 71
     5
 72
     1
  1
\A1;3800
  7
VOEST
 73
     1
 44
1.0
1001
ACAD
1000
MTEXTBEGIN
1070
    73
1070
     1
1070
    44
1040
1.0
1070
    74
1070
     0
1000
MTEXTEND
  0
POINT
  5
1C62
330
1C20
100
AcDbEntity
  8
DEFPOINTS
 62
     0
100
AcDbPoint
 10
6342.614502640299
 20
-1998.11242459726
 30
0.0
  0
POINT
  5
1C63
330
1C20
100
AcDbEntity
  8
DEFPOINTS
 62
     0
100
AcDbPoint
 10
10142.6145006403
 20
-1998.11242459726
 30
0.0
  0
POINT
  5
1C64
330
1C20
100
AcDbEntity
  8
DEFPOINTS
 62
     0
100
AcDbPoint
 10
10142.6145006403
 20
-1530.965539726159
 30
0.0
  0
ENDBLK
  5
1C2C
330
1C20
100
AcDbEntity
  8
0
100
AcDbBlockEnd
  0
BLOCK
  5
1C71
330
1C66
100
AcDbEntity
  8
0
100
AcDbBlockBegin
  2
*D16
 70
     1
 10
0.0
 20
0.0
 30
0.0
  3
*D16
  1

  0
LINE
  5
1C98
330
1C66
100
AcDbEntity
  8
KOTIERUNG
 62
     0
370
    -2
100
AcDbLine
 10
6342.614502640299
 20
-1848.11242459726
 30
0.0
 11
6342.614502640299
 21
-1593.35534149464
 31
0.0
  0
LINE
  5
1C99
330
1C66
100
AcDbEntity
  8
KOTIERUNG
 62
     0
370
    -2
100
AcDbLine
 10
7609.281168640301
 20
-1848.11242459726
 30
0.0
 11
7609.281168640301
 21
-1593.35534149464
 31
0.0
  0
LINE
  5
1C9A
330
1C66
100
AcDbEntity
  8
KOTIERUNG
 62
     0
370
    -2
100
AcDbLine
 10
6417.614502640299
 20
-1668.35534149464
 30
0.0
 11
7534.281168640301
 21
-1668.35534149464
 31
0.0
  0
SOLID
  5
1C9B
330
1C66
100
AcDbEntity
  8
KOTIERUNG
 62
     0
100
AcDbTrace
 10
6417.614502640299
 20
-1655.85534149464
 30
0.0
 11
6417.614502640299
 21
-1680.85534149464
 31
0.0
 12
6342.614502640299
 22
-1668.35534149464
 32
0.0
 13
6342.614502640299
 23
-1668.35534149464
 33
0.0
  0
SOLID
  5
1C9C
330
1C66
100
AcDbEntity
  8
KOTIERUNG
 62
     0
100
AcDbTrace
 10
7534.281168640301
 20
-1655.85534149464
 30
0.0
 11
7534.281168640301
 21
-1680.85534149464
 31
0.0
 12
7609.281168640301
 22
-1668.35534149464
 32
0.0
 13
7609.281168640301
 23
-1668.35534149464
 33
0.0
  0
MTEXT
  5
1C9D
330
1C66
100
AcDbEntity
  8
KOTIERUNG
 62
     0
100
AcDbMText
 10
6975.947835640299
 20
-1607.562367415513
 30
0.0
 40
75.0
 41
0.0
 71
     5
 72
     1
  1
\A1;1267
  7
VOEST
 73
     1
 44
1.0
1001
ACAD
1000
MTEXTBEGIN
1070
    73
1070
     1
1070
    44
1040
1.0
1070
    74
1070
     0
1000
MTEXTEND
  0
POINT
  5
1C9E
330
1C66
100
AcDbEntity
  8
DEFPOINTS
 62
     0
100
AcDbPoint
 10
6342.614502640299
 20
-1998.11242459726
 30
0.0
  0
POINT
  5
1C9F
330
1C66
100
AcDbEntity
  8
DEFPOINTS
 62
     0
100
AcDbPoint
 10
7609.281168640301
 20
-1998.11242459726
 30
0.0
  0
POINT
  5
1CA0
330
1C66
100
AcDbEntity
  8
DEFPOINTS
 62
     0
100
AcDbPoint
 10
7609.281168640301
 20
-1668.35534149464
 30
0.0
  0
ENDBLK
  5
1C72
330
1C66
100
AcDbEntity
  8
0
100
AcDbBlockEnd
  0
BLOCK
  5
1C7F
330
1C74
100
AcDbEntity
  8
0
100
AcDbBlockBegin
  2
*D17
 70
     1
 10
0.0
 20
0.0
 30
0.0
  3
*D17
  1

  0
LINE
  5
1CAA
330
1C74
100
AcDbEntity
  8
KOTIERUNG
 62
     0
370
    -2
100
AcDbLine
 10
7609.281168640301
 20
-1848.11242459726
 30
0.0
 11
7609.281168640301
 21
-1593.35534149464
 31
0.0
  0
LINE
  5
1CAB
330
1C74
100
AcDbEntity
  8
KOTIERUNG
 62
     0
370
    -2
100
AcDbLine
 10
8875.947834640301
 20
-1848.11242459726
 30
0.0
 11
8875.947834640301
 21
-1593.35534149464
 31
0.0
  0
LINE
  5
1CAC
330
1C74
100
AcDbEntity
  8
KOTIERUNG
 62
     0
370
    -2
100
AcDbLine
 10
7684.281168640301
 20
-1668.35534149464
 30
0.0
 11
8800.947834640302
 21
-1668.35534149464
 31
0.0
  0
SOLID
  5
1CAD
330
1C74
100
AcDbEntity
  8
KOTIERUNG
 62
     0
100
AcDbTrace
 10
7684.281168640301
 20
-1655.85534149464
 30
0.0
 11
7684.281168640301
 21
-1680.85534149464
 31
0.0
 12
7609.281168640301
 22
-1668.35534149464
 32
0.0
 13
7609.281168640301
 23
-1668.35534149464
 33
0.0
  0
SOLID
  5
1CAE
330
1C74
100
AcDbEntity
  8
KOTIERUNG
 62
     0
100
AcDbTrace
 10
8800.947834640302
 20
-1655.85534149464
 30
0.0
 11
8800.947834640302
 21
-1680.85534149464
 31
0.0
 12
8875.947834640301
 22
-1668.35534149464
 32
0.0
 13
8875.947834640301
 23
-1668.35534149464
 33
0.0
  0
MTEXT
  5
1CAF
330
1C74
100
AcDbEntity
  8
KOTIERUNG
 62
     0
100
AcDbMText
 10
8242.614501640302
 20
-1607.562367415513
 30
0.0
 40
75.0
 41
0.0
 71
     5
 72
     1
  1
\A1;1267
  7
VOEST
 73
     1
 44
1.0
1001
ACAD
1000
MTEXTBEGIN
1070
    73
1070
     1
1070
    44
1040
1.0
1070
    74
1070
     0
1000
MTEXTEND
  0
POINT
  5
1CB0
330
1C74
100
AcDbEntity
  8
DEFPOINTS
 62
     0
100
AcDbPoint
 10
7609.281168640301
 20
-1998.11242459726
 30
0.0
  0
POINT
  5
1CB1
330
1C74
100
AcDbEntity
  8
DEFPOINTS
 62
     0
100
AcDbPoint
 10
8875.947834640301
 20
-1998.11242459726
 30
0.0
  0
POINT
  5
1CB2
330
1C74
100
AcDbEntity
  8
DEFPOINTS
 62
     0
100
AcDbPoint
 10
8875.947834640301
 20
-1668.35534149464
 30
0.0
  0
ENDBLK
  5
1C80
330
1C74
100
AcDbEntity
  8
0
100
AcDbBlockEnd
  0
BLOCK
  5
1C8D
330
1C82
100
AcDbEntity
  8
0
100
AcDbBlockBegin
  2
*D18
 70
     1
 10
0.0
 20
0.0
 30
0.0
  3
*D18
  1

  0
LINE
  5
1CA1
330
1C82
100
AcDbEntity
  8
KOTIERUNG
 62
     0
370
    -2
100
AcDbLine
 10
8875.947834640301
 20
-1848.11242459726
 30
0.0
 11
8875.947834640301
 21
-1593.35534149464
 31
0.0
  0
LINE
  5
1CA2
330
1C82
100
AcDbEntity
  8
KOTIERUNG
 62
     0
370
    -2
100
AcDbLine
 10
10142.6145006403
 20
-1848.11242459726
 30
0.0
 11
10142.6145006403
 21
-1593.35534149464
 31
0.0
  0
LINE
  5
1CA3
330
1C82
100
AcDbEntity
  8
KOTIERUNG
 62
     0
370
    -2
100
AcDbLine
 10
8950.947834640301
 20
-1668.35534149464
 30
0.0
 11
10067.6145006403
 21
-1668.35534149464
 31
0.0
  0
SOLID
  5
1CA4
330
1C82
100
AcDbEntity
  8
KOTIERUNG
 62
     0
100
AcDbTrace
 10
8950.947834640301
 20
-1655.85534149464
 30
0.0
 11
8950.947834640301
 21
-1680.85534149464
 31
0.0
 12
8875.947834640301
 22
-1668.35534149464
 32
0.0
 13
8875.947834640301
 23
-1668.35534149464
 33
0.0
  0
SOLID
  5
1CA5
330
1C82
100
AcDbEntity
  8
KOTIERUNG
 62
     0
100
AcDbTrace
 10
10067.6145006403
 20
-1655.85534149464
 30
0.0
 11
10067.6145006403
 21
-1680.85534149464
 31
0.0
 12
10142.6145006403
 22
-1668.35534149464
 32
0.0
 13
10142.6145006403
 23
-1668.35534149464
 33
0.0
  0
MTEXT
  5
1CA6
330
1C82
100
AcDbEntity
  8
KOTIERUNG
 62
     0
100
AcDbMText
 10
9509.281167640301
 20
-1607.562367415513
 30
0.0
 40
75.0
 41
0.0
 71
     5
 72
     1
  1
\A1;1267
  7
VOEST
 73
     1
 44
1.0
1001
ACAD
1000
MTEXTBEGIN
1070
    73
1070
     1
1070
    44
1040
1.0
1070
    74
1070
     0
1000
MTEXTEND
  0
POINT
  5
1CA7
330
1C82
100
AcDbEntity
  8
DEFPOINTS
 62
     0
100
AcDbPoint
 10
8875.947834640301
 20
-1998.11242459726
 30
0.0
  0
POINT
  5
1CA8
330
1C82
100
AcDbEntity
  8
DEFPOINTS
 62
     0
100
AcDbPoint
 10
10142.6145006403
 20
-1998.11242459726
 30
0.0
  0
POINT
  5
1CA9
330
1C82
100
AcDbEntity
  8
DEFPOINTS
 62
     0
100
AcDbPoint
 10
10142.6145006403
 20
-1668.35534149464
 30
0.0
  0
ENDBLK
  5
1C8E
330
1C82
100
AcDbEntity
  8
0
100
AcDbBlockEnd
  0
BLOCK
  5
1D31
330
1D30
100
AcDbEntity
  8
0
100
AcDbBlockBegin
  2
*D19
 70
     1
 10
0.0
 20
0.0
 30
0.0
  3
*D19
  1

  0
LINE
  5
1D33
330
1D30
100
AcDbEntity
  8
KOTIERUNG
 62
     0
370
    -2
100
AcDbLine
 10
7360.001076945692
 20
-386.8314669118809
 30
0.0
 11
7297.949120396016
 21
-386.8314669118809
 31
0.0
  0
LINE
  5
1D34
330
1D30
100
AcDbEntity
  8
KOTIERUNG
 62
     0
370
    -2
100
AcDbLine
 10
7337.117635457116
 20
-457.3989705868061
 30
0.0
 11
7297.949120396016
 21
-457.3989705868061
 31
0.0
  0
LINE
  5
1D35
330
1D30
100
AcDbEntity
  8
KOTIERUNG
 62
     0
370
    -2
100
AcDbLine
 10
7300.449120396017
 20
-389.3314669118808
 30
0.0
 11
7300.449120396017
 21
-420.1032815051416
 31
0.0
  0
LINE
  5
1D36
330
1D30
100
AcDbEntity
  8
KOTIERUNG
 62
     0
370
    -2
100
AcDbLine
 10
7300.449120396017
 20
-454.8989705868061
 30
0.0
 11
7300.449120396017
 21
-424.1271559935454
 31
0.0
  0
SOLID
  5
1D37
330
1D30
100
AcDbEntity
  8
KOTIERUNG
 62
     0
100
AcDbTrace
 10
7300.03245372935
 20
-389.3314669118808
 30
0.0
 11
7300.865787062683
 21
-389.3314669118808
 31
0.0
 12
7300.449120396017
 22
-386.8314669118809
 32
0.0
 13
7300.449120396017
 23
-386.8314669118809
 33
0.0
  0
SOLID
  5
1D38
330
1D30
100
AcDbEntity
  8
KOTIERUNG
 62
     0
100
AcDbTrace
 10
7300.03245372935
 20
-454.8989705868061
 30
0.0
 11
7300.865787062683
 21
-454.8989705868061
 31
0.0
 12
7300.449120396017
 22
-457.3989705868061
 32
0.0
 13
7300.449120396017
 23
-457.3989705868061
 33
0.0
  0
MTEXT
  5
1D39
330
1D30
100
AcDbEntity
  8
KOTIERUNG
 62
     0
100
AcDbMText
 10
7300.449120396017
 20
-422.1152187493423
 30
0.0
 40
2.5
 41
0.0
 71
     5
 72
     1
  1
\A1;71
  7
VOEST
 11
0.0000000000000001
 21
1.0
 31
0.0
 73
     1
 44
1.0
1001
ACAD
1000
MTEXTBEGIN
1070
    73
1070
     1
1070
    44
1040
1.0
1070
    74
1070
     0
1000
MTEXTEND
  0
POINT
  5
1D3A
330
1D30
100
AcDbEntity
  8
DEFPOINTS
 62
     0
100
AcDbPoint
 10
7361.001076945692
 20
-386.8314669118809
 30
0.0
  0
POINT
  5
1D3B
330
1D30
100
AcDbEntity
  8
DEFPOINTS
 62
     0
100
AcDbPoint
 10
7338.117635457116
 20
-457.3989705868061
 30
0.0
  0
POINT
  5
1D3C
330
1D30
100
AcDbEntity
  8
DEFPOINTS
 62
     0
100
AcDbPoint
 10
7300.449120396017
 20
-457.3989705868061
 30
0.0
  0
ENDBLK
  5
1D32
330
1D30
100
AcDbEntity
  8
0
100
AcDbBlockEnd
  0
BLOCK
  5
1D3F
330
1D3E
100
AcDbEntity
  8
0
100
AcDbBlockBegin
  2
*D20
 70
     1
 10
0.0
 20
0.0
 30
0.0
  3
*D20
  1

  0
LINE
  5
1E83
330
1D3E
100
AcDbEntity
  8
KOTIERUNG
 62
     0
370
    -2
100
AcDbLine
 10
7288.117635457116
 20
-457.398970586806
 30
0.0
 11
7220.753559620297
 21
-457.398970586806
 31
0.0
  0
LINE
  5
1E84
330
1D3E
100
AcDbEntity
  8
KOTIERUNG
 62
     0
370
    -2
100
AcDbLine
 10
7307.919435301982
 20
-387.3989705868062
 30
0.0
 11
7220.753559620297
 21
-387.3989705868061
 31
0.0
  0
LINE
  5
1E85
330
1D3E
100
AcDbEntity
  8
KOTIERUNG
 62
     0
370
    -2
100
AcDbLine
 10
7245.753559620297
 20
-432.398970586806
 30
0.0
 11
7245.753559620297
 21
-412.398970586806
 31
0.0
  0
SOLID
  5
1E86
330
1D3E
100
AcDbEntity
  8
KOTIERUNG
 62
     0
100
AcDbTrace
 10
7241.58689295363
 20
-432.398970586806
 30
0.0
 11
7249.920226286964
 21
-432.398970586806
 31
0.0
 12
7245.753559620297
 22
-457.398970586806
 32
0.0
 13
7245.753559620297
 23
-457.398970586806
 33
0.0
  0
SOLID
  5
1E87
330
1D3E
100
AcDbEntity
  8
KOTIERUNG
 62
     0
100
AcDbTrace
 10
7241.58689295363
 20
-412.398970586806
 30
0.0
 11
7249.920226286964
 21
-412.398970586806
 31
0.0
 12
7245.753559620297
 22
-387.3989705868061
 32
0.0
 13
7245.753559620297
 23
-387.3989705868061
 33
0.0
  0
MTEXT
  5
1E88
330
1D3E
100
AcDbEntity
  8
KOTIERUNG
 62
     0
100
AcDbMText
 10
7225.489234927255
 20
-422.3989705868049
 30
0.0
 40
25.0
 41
0.0
 71
     5
 72
     1
  1
\A1;70
  7
VOEST
 11
0.0000000000000001
 21
1.0
 31
0.0
 73
     1
 44
1.0
1001
ACAD
1000
MTEXTBEGIN
1070
    73
1070
     1
1070
    44
1040
1.0
1070
    74
1070
     0
1000
MTEXTEND
  0
POINT
  5
1E89
330
1D3E
100
AcDbEntity
  8
DEFPOINTS
 62
     0
100
AcDbPoint
 10
7338.117635457116
 20
-457.3989705868061
 30
0.0
  0
POINT
  5
1E8A
330
1D3E
100
AcDbEntity
  8
DEFPOINTS
 62
     0
100
AcDbPoint
 10
7357.919435301981
 20
-387.3989705868062
 30
0.0
  0
POINT
  5
1E8B
330
1D3E
100
AcDbEntity
  8
DEFPOINTS
 62
     0
100
AcDbPoint
 10
7245.753559620297
 20
-387.3989705868061
 30
0.0
  0
ENDBLK
  5
1D40
330
1D3E
100
AcDbEntity
  8
0
100
AcDbBlockEnd
  0
BLOCK
  5
1D71
330
1D70
100
AcDbEntity
  8
0
100
AcDbBlockBegin
  2
*D21
 70
     1
 10
0.0
 20
0.0
 30
0.0
  3
*D21
  1

  0
LINE
  5
1E8C
330
1D70
100
AcDbEntity
  8
KOTIERUNG
 62
     0
370
    -2
100
AcDbLine
 10
7307.919435301982
 20
-387.3989705868062
 30
0.0
 11
7220.753559620297
 21
-387.3989705868061
 31
0.0
  0
LINE
  5
1E8D
330
1D70
100
AcDbEntity
  8
KOTIERUNG
 62
     0
370
    -2
100
AcDbLine
 10
7337.399828452678
 20
412.6010294131938
 30
0.0
 11
7220.753559620297
 21
412.6010294131939
 31
0.0
  0
LINE
  5
1E8E
330
1D70
100
AcDbEntity
  8
KOTIERUNG
 62
     0
370
    -2
100
AcDbLine
 10
7245.753559620297
 20
-362.3989705868061
 30
0.0
 11
7245.753559620297
 21
387.6010294131939
 31
0.0
  0
SOLID
  5
1E8F
330
1D70
100
AcDbEntity
  8
KOTIERUNG
 62
     0
100
AcDbTrace
 10
7241.58689295363
 20
-362.3989705868061
 30
0.0
 11
7249.920226286964
 21
-362.3989705868061
 31
0.0
 12
7245.753559620297
 22
-387.3989705868061
 32
0.0
 13
7245.753559620297
 23
-387.3989705868061
 33
0.0
  0
SOLID
  5
1E90
330
1D70
100
AcDbEntity
  8
KOTIERUNG
 62
     0
100
AcDbTrace
 10
7241.58689295363
 20
387.6010294131939
 30
0.0
 11
7249.920226286964
 21
387.6010294131939
 31
0.0
 12
7245.753559620297
 22
412.6010294131939
 32
0.0
 13
7245.753559620297
 23
412.6010294131939
 33
0.0
  0
MTEXT
  5
1E91
330
1D70
100
AcDbEntity
  8
KOTIERUNG
 62
     0
100
AcDbMText
 10
7225.489234927255
 20
12.60102941319503
 30
0.0
 40
25.0
 41
0.0
 71
     5
 72
     1
  1
\A1;800
  7
VOEST
 11
0.0000000000000001
 21
1.0
 31
0.0
 73
     1
 44
1.0
1001
ACAD
1000
MTEXTBEGIN
1070
    73
1070
     1
1070
    44
1040
1.0
1070
    74
1070
     0
1000
MTEXTEND
  0
POINT
  5
1E92
330
1D70
100
AcDbEntity
  8
DEFPOINTS
 62
     0
100
AcDbPoint
 10
7357.919435301981
 20
-387.3989705868062
 30
0.0
  0
POINT
  5
1E93
330
1D70
100
AcDbEntity
  8
DEFPOINTS
 62
     0
100
AcDbPoint
 10
7387.399828452678
 20
412.6010294131938
 30
0.0
  0
POINT
  5
1E94
330
1D70
100
AcDbEntity
  8
DEFPOINTS
 62
     0
100
AcDbPoint
 10
7245.753559620297
 20
412.6010294131939
 30
0.0
  0
ENDBLK
  5
1D72
330
1D70
100
AcDbEntity
  8
0
100
AcDbBlockEnd
  0
BLOCK
  5
1E1D
330
1E1C
100
AcDbEntity
  8
0
100
AcDbBlockBegin
  2
*D22
 70
     1
 10
0.0
 20
0.0
 30
0.0
  3
*D22
  1

  0
LINE
  5
1E32
330
1E1C
100
AcDbEntity
  8
KOTIERUNG
 62
     0
370
    -2
100
AcDbLine
 10
7288.117635457116
 20
-387.3989705868061
 30
0.0
 11
7263.152461487354
 21
-387.3989705868061
 31
0.0
  0
LINE
  5
1E33
330
1E1C
100
AcDbEntity
  8
KOTIERUNG
 62
     0
370
    -2
100
AcDbLine
 10
7523.228072646936
 20
-167.3911647834892
 30
0.0
 11
7263.152461487354
 21
-167.3911647834891
 31
0.0
  0
LINE
  5
1E34
330
1E1C
100
AcDbEntity
  8
KOTIERUNG
 62
     0
370
    -2
100
AcDbLine
 10
7288.152461487354
 20
-362.3989705868061
 30
0.0
 11
7288.152461487354
 21
-192.3911647834891
 31
0.0
  0
SOLID
  5
1E35
330
1E1C
100
AcDbEntity
  8
KOTIERUNG
 62
     0
100
AcDbTrace
 10
7283.985794820686
 20
-362.3989705868061
 30
0.0
 11
7292.319128154021
 21
-362.3989705868061
 31
0.0
 12
7288.152461487354
 22
-387.3989705868061
 32
0.0
 13
7288.152461487354
 23
-387.3989705868061
 33
0.0
  0
SOLID
  5
1E36
330
1E1C
100
AcDbEntity
  8
KOTIERUNG
 62
     0
100
AcDbTrace
 10
7283.985794820686
 20
-192.3911647834891
 30
0.0
 11
7292.319128154021
 21
-192.3911647834891
 31
0.0
 12
7288.152461487354
 22
-167.3911647834891
 32
0.0
 13
7288.152461487354
 23
-167.3911647834891
 33
0.0
  0
MTEXT
  5
1E37
330
1E1C
100
AcDbEntity
  8
KOTIERUNG
 62
     0
100
AcDbMText
 10
7267.888136794312
 20
-277.3950676851465
 30
0.0
 40
25.0
 41
0.0
 71
     5
 72
     1
  1
\A1;220
  7
VOEST
 11
0.0000000000000001
 21
1.0
 31
0.0
 73
     1
 44
1.0
1001
ACAD
1000
MTEXTBEGIN
1070
    73
1070
     1
1070
    44
1040
1.0
1070
    74
1070
     0
1000
MTEXTEND
  0
POINT
  5
1E38
330
1E1C
100
AcDbEntity
  8
DEFPOINTS
 62
     0
100
AcDbPoint
 10
7338.117635457116
 20
-387.3989705868062
 30
0.0
  0
POINT
  5
1E39
330
1E1C
100
AcDbEntity
  8
DEFPOINTS
 62
     0
100
AcDbPoint
 10
7573.228072646937
 20
-167.3911647834892
 30
0.0
  0
POINT
  5
1E3A
330
1E1C
100
AcDbEntity
  8
DEFPOINTS
 62
     0
100
AcDbPoint
 10
7288.152461487354
 20
-167.3911647834891
 30
0.0
  0
ENDBLK
  5
1E1E
330
1E1C
100
AcDbEntity
  8
0
100
AcDbBlockEnd
  0
ENDSEC
  0
SECTION
  2
ENTITIES
  0
LINE
  5
23E
330
18
100
AcDbEntity
  8
18
  6
STRICHLINIE
100
AcDbLine
 10
7767.744220222202
 20
-361.7692143145021
 30
0.0
 11
7767.744220222202
 21
292.6010294131938
 31
0.0
  0
LINE
  5
23F
330
18
100
AcDbEntity
  8
18
  6
STRICHLINIE
100
AcDbLine
 10
7637.744220222202
 20
-365.0144552552936
 30
0.0
 11
7637.744220222202
 21
292.6010294131938
 31
0.0
  0
LINE
  5
240
330
18
100
AcDbEntity
  8
50
100
AcDbLine
 10
7772.744220222204
 20
-361.6443973552408
 30
0.0
 11
7772.744220222204
 21
292.6010294131938
 31
0.0
  0
LINE
  5
241
330
18
100
AcDbEntity
  8
50
100
AcDbLine
 10
7632.744220222203
 20
-365.1392722145549
 30
0.0
 11
7632.744220222203
 21
292.6010294131938
 31
0.0
  0
LWPOLYLINE
  5
243
330
18
100
AcDbEntity
  8
50
100
AcDbPolyline
 90
        4
 70
     1
 43
0.0
 10
7822.594533920116
 20
-375.4046374945238
 10
7602.663050701131
 20
-380.8948732907643
 10
7602.288716442298
 20
-365.89954488947
 10
7822.220199661281
 20
-360.4093090932296
  0
LINE
  5
246
330
18
100
AcDbEntity
  8
18
  6
STRICHPUNKT
 48
2.5
100
AcDbLine
 10
7682.744220222203
 20
-352.3989705868062
 30
0.0
 11
7682.744220222203
 21
-468.2490091047639
 31
0.0
  0
LINE
  5
248
330
18
100
AcDbEntity
  8
50
100
AcDbLine
 10
7772.744220222204
 20
292.6010294131938
 30
0.0
 11
7632.744220222203
 21
292.6010294131938
 31
0.0
  0
LINE
  5
401
330
18
100
AcDbEntity
  8
50
100
AcDbLine
 10
7632.744220222203
 20
97.60102941319383
 30
0.0
 11
7425.556011492618
 21
152.8903379110402
 31
0.0
  0
LINE
  5
402
330
18
100
AcDbEntity
  8
50
100
AcDbLine
 10
7632.744220222203
 20
362.6010294131938
 30
0.0
 11
7403.514529635248
 21
362.6010294131938
 31
0.0
  0
LINE
  5
408
330
18
100
AcDbEntity
  8
50
100
AcDbLine
 10
7407.718699045874
 20
322.6010294131938
 30
0.0
 11
7358.244220222203
 21
322.6010294131938
 31
0.0
  0
LINE
  5
40B
330
18
100
AcDbEntity
  8
50
100
AcDbLine
 10
7408.244220222202
 20
317.6010294131938
 30
0.0
 11
7425.556011492618
 21
152.8903379110402
 31
0.0
  0
LINE
  5
40D
330
18
100
AcDbEntity
  8
50
100
AcDbLine
 10
7408.244220222202
 20
317.6010294131938
 30
0.0
 11
7403.514529635248
 21
362.6010294131938
 31
0.0
  0
LINE
  5
415
330
18
100
AcDbEntity
  8
50
100
AcDbLine
 10
7632.744220222203
 20
362.6010294131938
 30
0.0
 11
7632.744220222203
 21
97.60102941319383
 31
0.0
  0
LINE
  5
422
330
18
100
AcDbEntity
  8
50
100
AcDbLine
 10
7948.321051267351
 20
-372.2660771757669
 30
0.0
 11
7361.001076945692
 21
-386.8314669118809
 31
0.0
  0
LINE
  5
424
330
18
100
AcDbEntity
  8
50
100
AcDbLine
 10
7338.117635457116
 20
-457.3989705868061
 30
0.0
 11
7185.641001919785
 21
-457.3989705868061
 31
0.0
  0
DIMENSION
  5
B2B
330
18
100
AcDbEntity
  8
KOTIERUNG
100
AcDbDimension
  2
*D0
 10
7198.34139108506
 20
-457.398970586806
 30
0.0
 11
7178.077066392018
 21
-22.39897058680496
 31
0.0
 70
    32
  1
{\H0.875x;\U+2265}<>
 71
     5
 42
870.0
  3
TYPENBLATT
100
AcDbAlignedDimension
 13
7387.399828452678
 23
412.6010294131938
 33
0.0
 14
7338.117635457116
 24
-457.3989705868061
 34
0.0
 50
90.0
100
AcDbRotatedDimension
1001
ACAD
1000
DSTYLE
1002
{
1070
   146
1040
1.0
1070
   272
1070
     0
1070
    47
1040
40.0
1070
    48
1040
40.0
1070
    72
1070
     0
1070
    71
1070
     1
1070
    77
1070
     1
1070
   147
1040
0.075
1002
}
  0
DIMENSION
  5
B9A
330
18
100
AcDbEntity
  8
KOTIERUNG
100
AcDbDimension
  2
*D1
 10
7919.013157376037
 20
412.6010294131938
 30
0.0
 11
7919.013157376037
 21
351.5574869042439
 31
0.0
 12
0.0
 22
77.9696881405589
 32
0.0
 70
   160
 71
     5
 42
-1.0
  3
TYPENBLATT
100
AcDbAlignedDimension
 13
7772.744220222204
 23
292.6010294131938
 33
0.0
 14
7387.399828452678
 24
412.6010294131938
 34
0.0
 50
90.0
100
AcDbRotatedDimension
1001
ACAD
1000
DSTYLE
1002
{
1070
    77
1070
     1
1070
   147
1040
0.075
1002
}
  0
DIMENSION
  5
BE4
330
18
100
AcDbEntity
  8
KOTIERUNG
100
AcDbDimension
  2
*D2
 10
7632.744220222203
 20
-25.62303321089257
 30
0.0
 11
7475.430927839659
 21
-5.358708517850345
 31
0.0
 12
0.0
 22
77.9696881405589
 32
0.0
 70
    32
 71
     5
 42
-1.0
  3
TYPENBLATT
100
AcDbAlignedDimension
 13
7318.117635457117
 23
355.1495994053344
 33
0.0
 14
7632.744220222203
 24
97.60102941319383
 34
0.0
100
AcDbRotatedDimension
1001
ACAD
1000
DSTYLE
1002
{
1070
    77
1070
     1
1070
   147
1040
0.075
1002
}
  0
DIMENSION
  5
BF2
330
18
100
AcDbEntity
  8
KOTIERUNG
100
AcDbDimension
  2
*D3
 10
7318.117635457117
 20
-76.70630751768385
 30
0.0
 11
7415.436871473487
 21
-76.70630751768385
 31
0.0
 12
0.0
 22
77.9696881405589
 32
0.0
 70
   160
 71
     5
 42
-1.0
  3
TYPENBLATT
100
AcDbAlignedDimension
 13
7338.117635457116
 23
-387.3989705868062
 33
0.0
 14
7318.117635457117
 24
127.2632830972209
 34
0.0
100
AcDbRotatedDimension
1001
ACAD
1000
DSTYLE
1002
{
1070
    77
1070
     1
1070
   147
1040
0.075
1002
}
  0
DIMENSION
  5
CB5
330
18
100
AcDbEntity
  8
KOTIERUNG
100
AcDbDimension
  2
*D4
 10
7756.409559645906
 20
412.6010294131938
 30
0.0
 11
7736.145234952863
 21
387.6010294131938
 31
0.0
 12
0.0
 22
77.9696881405589
 32
0.0
 70
    32
 71
     5
 42
-1.0
  3
TYPENBLATT
100
AcDbAlignedDimension
 13
7632.744220222203
 23
362.6010294131938
 33
0.0
 14
7682.446367858263
 24
412.6010294131938
 34
0.0
 50
90.0
100
AcDbRotatedDimension
1001
ACAD
1000
DSTYLE
1002
{
1070
    77
1070
     1
1070
   147
1040
0.075
1002
}
  0
LINE
  5
D01
330
18
100
AcDbEntity
  8
18
  6
STRICHPUNKT
 48
2.5
100
AcDbLine
 10
7568.744220222203
 20
-933.5343303516275
 30
0.0
 11
7848.744220222203
 21
-933.5343303516275
 31
0.0
  0
CIRCLE
  5
D02
330
18
100
AcDbEntity
  8
25
100
AcDbCircle
 10
7678.709961831692
 20
-1073.534330351627
 30
0.0
 40
15.0
  0
LWPOLYLINE
  5
D03
330
18
100
AcDbEntity
  8
25
100
AcDbPolyline
 90
        5
 70
     1
 43
0.0
 10
7598.744220222203
 20
-1143.534330351627
 10
7818.744220222203
 20
-1143.534330351627
 10
7818.744220222203
 20
-723.5343303516274
 10
7598.744220222203
 20
-723.5343303516274
 10
7598.744220222203
 20
-1143.534330351627
  0
ARC
  5
D0F
330
18
100
AcDbEntity
  8
70
100
AcDbCircle
 10
7639.744220222202
 20
-963.560690108707
 30
0.0
 40
11.0
100
AcDbArc
 50
180.0
 51
264.3968516704707
  0
ARC
  5
D11
330
18
100
AcDbEntity
  8
70
100
AcDbCircle
 10
7639.744220222202
 20
-903.5079705945468
 30
0.0
 40
11.0
100
AcDbArc
 50
95.60314832952933
 51
180.0
  0
LINE
  5
D12
330
18
100
AcDbEntity
  8
70
100
AcDbLine
 10
7628.744220222202
 20
-963.5606901087076
 30
0.0
 11
7628.744220222202
 21
-933.5343303516275
 31
0.0
  0
LINE
  5
D16
330
18
100
AcDbEntity
  8
70
100
AcDbLine
 10
7628.744220222202
 20
-903.5079705945472
 30
0.0
 11
7628.744220222202
 21
-933.5343303516275
 31
0.0
  0
CIRCLE
  5
D18
330
18
100
AcDbEntity
  8
25
100
AcDbCircle
 10
7678.709961831692
 20
-793.5343303516271
 30
0.0
 40
15.0
  0
LINE
  5
D1A
330
18
100
AcDbEntity
  8
70
100
AcDbLine
 10
7638.670206775326
 20
-974.5081325093742
 30
0.0
 11
7756.670206775325
 21
-986.0846799889786
 31
0.0
  0
LINE
  5
D1D
330
18
100
AcDbEntity
  8
70
100
AcDbLine
 10
7638.670206775326
 20
-892.5605281938805
 30
0.0
 11
7756.670206775325
 21
-880.9839807142761
 31
0.0
  0
LINE
  5
D1E
330
18
100
AcDbEntity
  8
70
100
AcDbLine
 10
7768.744220222203
 20
-956.0343303516274
 30
0.0
 11
7768.744220222203
 21
-975.1372375883111
 31
0.0
  0
LINE
  5
D21
330
18
100
AcDbEntity
  8
70
100
AcDbLine
 10
7768.744220222203
 20
-911.0343303516273
 30
0.0
 11
7768.744220222203
 21
-891.9314231149428
 31
0.0
  0
ARC
  5
D25
330
18
100
AcDbEntity
  8
70
100
AcDbCircle
 10
7757.744220222203
 20
-891.9314231149424
 30
0.0
 40
11.0
100
AcDbArc
 50
0.0
 51
95.60314832952931
  0
ARC
  5
D27
330
18
100
AcDbEntity
  8
70
100
AcDbCircle
 10
7757.744220222203
 20
-975.1372375883105
 30
0.0
 40
11.0
100
AcDbArc
 50
264.3968516704707
 51
0.0
  0
DIMENSION
  5
DCD
330
18
100
AcDbEntity
  8
KOTIERUNG
100
AcDbDimension
  2
*D5
 10
7818.744220222203
 20
-1271.80606206202
 30
0.0
 11
7708.744220222204
 21
-1251.541737368978
 31
0.0
 70
    32
 71
     5
 42
-1.0
  3
TYPENBLATT
100
AcDbAlignedDimension
 13
7598.744220222203
 23
-1143.534330351627
 33
0.0
 14
7818.744220222203
 24
-1143.534330351627
 34
0.0
100
AcDbRotatedDimension
1001
ACAD
1000
DSTYLE
1002
{
1070
    77
1070
     1
1070
   147
1040
0.075
1002
}
  0
TEXT
  5
DF7
330
18
100
AcDbEntity
  8
KOTIERUNG
100
AcDbText
 10
7451.043738497948
 20
-357.926915792169
 30
0.0
 40
25.0
  1
2,5 %
 50
1.429999999999999
100
AcDbText
  0
LINE
  5
DF9
330
18
100
AcDbEntity
  8
KOTIERUNG
100
AcDbLine
 10
7432.050834579682
 20
-367.9580245716524
 30
0.0
 11
7551.333745056
 21
-364.9803185361561
 31
0.0
  0
LWPOLYLINE
  5
DFA
330
18
100
AcDbEntity
  8
KOTIERUNG
100
AcDbPolyline
 90
        2
 70
     0
 10
7432.050834579682
 20
-367.9580245716524
 40
10.0
 41
0.0
 10
7399.519150250137
 20
-368.7701257551844
 40
0.0
 41
0.0
  0
DIMENSION
  5
E25
330
18
100
AcDbEntity
  8
KOTIERUNG
100
AcDbDimension
  2
*D6
 10
7678.709961831692
 20
-646.3246053416769
 30
0.0
 11
7638.727091026948
 21
-626.0602806486346
 31
0.0
 70
    32
 71
     5
 42
-1.0
  3
TYPENBLATT
100
AcDbAlignedDimension
 13
7598.744220222203
 23
-723.5343303516274
 33
0.0
 14
7678.709961831692
 24
-758.8858649583744
 34
0.0
100
AcDbRotatedDimension
1001
ACAD
1000
DSTYLE
1002
{
1070
    77
1070
     1
1070
   147
1040
0.075
1002
}
  0
DIMENSION
  5
EC8
330
18
100
AcDbEntity
  8
KOTIERUNG
100
AcDbDimension
  2
*D7
 10
7772.744220222204
 20
-25.62303321089257
 30
0.0
 11
7702.744220222204
 21
-5.358708517850345
 31
0.0
 12
0.0
 22
77.9696881405589
 32
0.0
 70
    32
 71
     5
 42
-1.0
  3
TYPENBLATT
100
AcDbAlignedDimension
 13
7632.744220222203
 23
47.60102941319383
 33
0.0
 14
7772.744220222204
 24
47.60102941319383
 34
0.0
100
AcDbRotatedDimension
1001
ACAD
1000
DSTYLE
1002
{
1070
    77
1070
     1
1070
   147
1040
0.075
1002
}
  0
LINE
  5
EEA
330
18
100
AcDbEntity
  8
50
100
AcDbLine
 10
7338.117635457116
 20
-457.3989705868062
 30
0.0
 11
7351.468580139609
 21
-394.7443054271908
 31
0.0
  0
ARC
  5
EEC
330
18
100
AcDbEntity
  8
50
100
AcDbCircle
 10
7361.248998238661
 20
-396.8283931911175
 30
0.0
 40
10.0
100
AcDbArc
 50
91.42062993082772
 51
167.9708812400975
  0
DIMENSION
  5
105F
330
18
100
AcDbEntity
  8
KOTIERUNG
100
AcDbDimension
  2
*D8
 10
7682.744220222203
 20
-275.3189829612848
 30
0.0
 11
7510.43092783966
 21
-255.0546582682425
 31
0.0
 12
0.0
 22
77.9696881405589
 32
0.0
 70
    32
 71
     5
 42
-1.0
  3
TYPENBLATT_M10
100
AcDbAlignedDimension
 13
7338.117635457116
 23
-337.3989705868062
 33
0.0
 14
7682.744220222203
 24
-378.8523167354249
 34
0.0
100
AcDbRotatedDimension
  0
MTEXT
  5
10E0
330
18
100
AcDbEntity
  8
KOTIERUNG
100
AcDbMText
 10
7495.698312492914
 20
470.9395909145314
 30
0.0
 40
25.0
 41
0.0
 71
     4
 72
     1
  1
\A1;
  7
VOEST
 73
     1
 44
1.0
1001
ACAD
1000
MTEXTBEGIN
1070
    73
1070
     1
1070
    44
1040
1.0
1070
    74
1070
     0
1000
MTEXTEND
  0
DIMENSION
  5
1286
330
18
100
AcDbEntity
  8
KOTIERUNG
100
AcDbDimension
  2
*D9
 10
7455.609880275162
 20
-793.5343303516271
 30
0.0
 11
7435.34555558212
 21
-933.5343303516268
 31
0.0
 70
    32
 71
     5
 42
-1.0
  3
TYPENBLATT
100
AcDbAlignedDimension
 13
7644.061496438443
 23
-1073.534330351626
 33
0.0
 14
7644.061496438441
 24
-793.5343303516271
 34
0.0
 50
90.0
100
AcDbRotatedDimension
1001
ACAD
1000
DSTYLE
1002
{
1070
    77
1070
     1
1070
   147
1040
0.075
1002
}
  0
DIMENSION
  5
1292
330
18
100
AcDbEntity
  8
KOTIERUNG
100
AcDbDimension
  2
*D10
 10
7455.609880275162
 20
-1143.534330351627
 30
0.0
 11
7435.34555558212
 21
-1108.534330351626
 31
0.0
 70
    32
 71
     5
 42
-1.0
  3
TYPENBLATT_BESCHR
100
AcDbAlignedDimension
 13
7644.061496438443
 23
-1073.534330351626
 33
0.0
 14
7598.744220222203
 24
-1143.534330351627
 34
0.0
 50
90.0
100
AcDbRotatedDimension
1001
ACAD
1000
DSTYLE
1002
{
1070
   287
1070
     4
1070
    43
1040
0.5
1070
    75
1070
     1
1070
    77
1070
     1
1070
   141
1040
0.09
1070
   279
1070
     1
1002
}
  0
DIMENSION
  5
12B5
330
18
100
AcDbEntity
  8
KOTIERUNG
100
AcDbDimension
  2
*D11
 10
7403.534707940973
 20
-1143.534330351627
 30
0.0
 11
7383.270383247931
 21
-933.5343303516275
 31
0.0
 70
    32
 71
     5
 42
-1.0
  3
TYPENBLATT
100
AcDbAlignedDimension
 13
7598.744220222203
 23
-723.5343303516274
 33
0.0
 14
7598.744220222203
 24
-1143.534330351627
 34
0.0
 50
90.0
100
AcDbRotatedDimension
1001
ACAD
1000
DSTYLE
1002
{
1070
    77
1070
     1
1070
   147
1040
0.075
1002
}
  0
TEXT
  5
1609
330
18
100
AcDbEntity
  8
TEXT
100
AcDbText
 10
6970.022479535725
 20
780.1906914907785
 30
0.0
 40
100.0
  1
KREMSBARRIER 1 RH2
  7
VOESTB
100
AcDbText
  0
LINE
  5
1680
330
18
100
AcDbEntity
  8
70
 48
0.2
100
AcDbLine
 10
7406.339846872382
 20
246.0108719165721
 30
0.0
 11
7409.453284238918
 21
216.3884941059468
 31
0.0
  0
LINE
  5
1683
330
18
100
AcDbEntity
  8
70
 48
0.2
100
AcDbLine
 10
7403.620033404812
 20
203.4992040246197
 30
0.0
 11
7350.768972383921
 21
166.0782269444678
 31
0.0
  0
LINE
  5
1685
330
18
100
AcDbEntity
  8
70
 48
0.2
100
AcDbLine
 10
7356.564572776725
 20
111.777311524344
 30
0.0
 11
7426.371704618576
 21
82.2074388779564
 31
0.0
  0
LINE
  5
1687
330
18
100
AcDbEntity
  8
70
 48
0.2
100
AcDbLine
 10
7343.769071382991
 20
150.6110788468759
 30
0.0
 11
7346.409338832353
 21
125.4906120770142
 31
0.0
  0
LINE
  5
1689
330
18
100
AcDbEntity
  8
70
 48
0.2
100
AcDbLine
 10
7346.327077620305
 20
125.432736280846
 30
0.0
 11
7343.68681017094
 21
150.5532030507076
 31
0.0
  0
ARC
  5
168D
330
18
100
AcDbEntity
  8
70
 48
0.2
100
AcDbCircle
 10
7363.035045462492
 20
127.1888144637424
 30
0.0
 40
16.8
100
AcDbArc
 50
186.0
 51
246.6997544893168
  0
ARC
  5
168F
330
18
100
AcDbEntity
  8
70
 48
0.2
100
AcDbCircle
 10
7360.394778013129
 20
152.3092812336041
 30
0.0
 40
16.8
100
AcDbArc
 50
124.9572175987819
 51
186.0
  0
ARC
  5
1693
330
18
100
AcDbEntity
  8
70
 48
0.2
100
AcDbCircle
 10
7395.529977703763
 20
214.9250956201995
 30
0.0
 40
14.0
100
AcDbArc
 50
305.3002455106831
 51
6.0
  0
LINE
  5
1697
330
18
100
AcDbEntity
  8
70
 48
0.2
100
AcDbLine
 10
7329.743555434212
 20
366.9622455540407
 30
0.0
 11
7391.877311740251
 21
410.3996643494865
 31
0.0
  0
LINE
  5
1698
330
18
100
AcDbEntity
  8
70
 48
0.2
100
AcDbLine
 10
7394.840795103736
 20
287.0280768515261
 30
0.0
 11
7335.364397953128
 21
312.6429623412255
 31
0.0
  0
ARC
  5
169A
330
18
100
AcDbEntity
  8
70
 48
0.2
100
AcDbCircle
 10
7342.009628512783
 20
328.0728330733156
 30
0.0
 40
16.8
100
AcDbArc
 50
186.0
 51
246.6997544893168
  0
ARC
  5
169D
330
18
100
AcDbEntity
  8
70
 48
0.2
100
AcDbCircle
 10
7339.369361063418
 20
353.1932998431772
 30
0.0
 40
16.8
100
AcDbArc
 50
124.9572175987819
 51
186.0
  0
LINE
  5
169E
330
18
100
AcDbEntity
  8
70
 48
0.2
100
AcDbLine
 10
7325.301660670596
 20
326.3167548904192
 30
0.0
 11
7322.661393221231
 21
351.4372216602808
 31
0.0
  0
ARC
  5
16A3
330
18
100
AcDbEntity
  8
70
 48
0.2
100
AcDbCircle
 10
7389.30310297069
 20
274.1698512414501
 30
0.0
 40
14.0
100
AcDbArc
 50
6.0
 51
66.69975448931684
  0
LINE
  5
16A5
330
18
100
AcDbEntity
  8
70
 48
0.2
100
AcDbLine
 10
7406.339846872382
 20
246.0108719165721
 30
0.0
 11
7403.226409505845
 21
275.6332497271974
 31
0.0
  0
LINE
  5
1703
330
18
100
AcDbEntity
  8
70
100
AcDbLine
 10
7357.577666011282
 20
164.9015031037236
 30
0.0
 11
7411.031448203122
 21
200.3978625031568
 31
0.0
  0
ARC
  5
1704
330
18
100
AcDbEntity
  8
70
100
AcDbCircle
 10
7402.926975405003
 20
211.8135324644222
 30
0.0
 40
14.0
100
AcDbArc
 50
305.3725732018999
 51
6.0
  0
LINE
  5
1705
330
18
100
AcDbEntity
  8
70
100
AcDbLine
 10
7413.33255832165
 20
246.745835505881
 30
0.0
 11
7416.850281940158
 21
213.2769309501695
 31
0.0
  0
ARC
  5
1706
330
18
100
AcDbEntity
  8
70
100
AcDbCircle
 10
7395.891528167986
 20
278.7513415758454
 30
0.0
 40
14.0
100
AcDbArc
 50
6.0
 51
66.62742679810015
  0
LINE
  5
1707
330
18
100
AcDbEntity
  8
70
100
AcDbLine
 10
7341.779650645509
 20
315.2095789471007
 30
0.0
 11
7401.445447547216
 21
291.6025664018698
 31
0.0
  0
LINE
  5
1708
330
18
100
AcDbEntity
  8
70
100
AcDbLine
 10
7413.33255832165
 20
246.745835505881
 30
0.0
 11
7409.814834703142
 21
280.2147400615926
 31
0.0
  0
LINE
  5
17F1
330
18
100
AcDbEntity
  8
70
100
AcDbLine
 10
7573.228072646937
 20
-122.6398760894531
 30
0.0
 11
7573.228072646937
 21
-212.1424534775254
 31
0.0
  0
ARC
  5
1901
330
18
100
AcDbEntity
  8
70
100
AcDbCircle
 10
7582.228072646938
 20
-122.6398760894531
 30
0.0
 40
9.0
100
AcDbArc
 50
119.9999999999999
 51
180.0
  0
LINE
  5
1902
330
18
100
AcDbEntity
  8
70
100
AcDbLine
 10
7633.228072646938
 20
-136.3911647834894
 30
0.0
 11
7633.228072646938
 21
-98.39116478348948
 31
0.0
  0
LINE
  5
1904
330
18
100
AcDbEntity
  8
70
100
AcDbLine
 10
7633.228072646938
 20
-236.3911647834895
 30
0.0
 11
7633.228072646938
 21
-198.3911647834895
 31
0.0
  0
LINE
  5
1905
330
18
100
AcDbEntity
  8
70
100
AcDbLine
 10
7619.728072646939
 20
-244.1853934175495
 30
0.0
 11
7577.728072646938
 21
-219.9366821115854
 31
0.0
  0
ARC
  5
1906
330
18
100
AcDbEntity
  8
70
100
AcDbCircle
 10
7624.228072646939
 20
-236.3911647834895
 30
0.0
 40
9.0
100
AcDbArc
 50
239.9999999999999
 51
0.0
  0
ARC
  5
1907
330
18
100
AcDbEntity
  8
70
100
AcDbCircle
 10
7582.228072646938
 20
-212.1424534775254
 30
0.0
 40
9.0
100
AcDbArc
 50
180.0
 51
240.0
  0
LINE
  5
1908
330
18
100
AcDbEntity
  8
70
100
AcDbLine
 10
7619.728072646939
 20
-90.59693614942958
 30
0.0
 11
7577.728072646938
 21
-114.8456474553931
 31
0.0
  0
ARC
  5
1909
330
18
100
AcDbEntity
  8
70
100
AcDbCircle
 10
7624.228072646939
 20
-98.39116478348948
 30
0.0
 40
9.0
100
AcDbArc
 50
0.0
 51
119.9999999999999
  0
CIRCLE
  5
19BA
330
18
100
AcDbEntity
  8
25
100
AcDbCircle
 10
4935.9478366403
 20
-2168.14668298777
 30
0.0
 40
15.0
  0
ARC
  5
19BC
330
18
100
AcDbEntity
  8
70
100
AcDbCircle
 10
5034.344929403616
 20
-2089.11242459726
 30
0.0
 40
11.0
100
AcDbArc
 50
90.0
 51
185.6031483295293
  0
LINE
  5
19BD
330
18
100
AcDbEntity
  8
70
100
AcDbLine
 10
5053.4478366403
 20
-2078.11242459726
 30
0.0
 11
5034.344929403616
 21
-2078.11242459726
 31
0.0
  0
ARC
  5
19BE
330
18
100
AcDbEntity
  8
70
100
AcDbCircle
 10
5045.921476883221
 20
-2207.11242459726
 30
0.0
 40
11.0
100
AcDbArc
 50
185.6031483295293
 51
270.0
  0
LINE
  5
19BF
330
18
100
AcDbEntity
  8
70
100
AcDbLine
 10
5034.974034482553
 20
-2208.186438044137
 30
0.0
 11
5023.397487002949
 21
-2090.186438044137
 31
0.0
  0
LINE
  5
19C0
330
18
100
AcDbEntity
  8
70
100
AcDbLine
 10
5045.921476883221
 20
-2218.11242459726
 30
0.0
 11
5075.9478366403
 21
-2218.11242459726
 31
0.0
  0
ARC
  5
19C1
330
18
100
AcDbEntity
  8
70
100
AcDbCircle
 10
5117.550743876984
 20
-2089.11242459726
 30
0.0
 40
11.0
100
AcDbArc
 50
354.3968516704707
 51
90.0
  0
ARC
  5
19C2
330
18
100
AcDbEntity
  8
70
100
AcDbCircle
 10
5105.974196397381
 20
-2207.11242459726
 30
0.0
 40
11.0
100
AcDbArc
 50
270.0
 51
354.3968516704707
  0
LINE
  5
19C3
330
18
100
AcDbEntity
  8
70
100
AcDbLine
 10
5116.921638798046
 20
-2208.186438044137
 30
0.0
 11
5128.498186277651
 21
-2090.186438044137
 31
0.0
  0
LINE
  5
19C4
330
18
100
AcDbEntity
  8
70
100
AcDbLine
 10
5098.4478366403
 20
-2078.11242459726
 30
0.0
 11
5117.550743876984
 21
-2078.11242459726
 31
0.0
  0
LINE
  5
19C5
330
18
100
AcDbEntity
  8
70
100
AcDbLine
 10
5105.974196397381
 20
-2218.11242459726
 30
0.0
 11
5075.9478366403
 21
-2218.11242459726
 31
0.0
  0
LINE
  5
19C6
330
18
100
AcDbEntity
  8
18
  6
STRICHPUNKT
 48
2.5
100
AcDbLine
 10
5075.9478366403
 20
-2278.11242459726
 30
0.0
 11
5075.9478366403
 21
-1998.11242459726
 31
0.0
  0
CIRCLE
  5
19C7
330
18
100
AcDbEntity
  8
25
100
AcDbCircle
 10
5215.9478366403
 20
-2168.14668298777
 30
0.0
 40
15.0
  0
LWPOLYLINE
  5
19CC
330
18
100
AcDbEntity
  8
25
100
AcDbPolyline
 90
        4
 70
     0
 43
0.0
 10
5285.9478366403
 20
-2218.11242459726
 10
5285.9478366403
 20
-2028.11242459726
 10
4865.9478366403
 20
-2028.11242459726
 10
4865.9478366403
 20
-2218.11242459726
  0
LINE
  5
1A62
330
18
100
AcDbEntity
  8
25
100
AcDbLine
 10
4503.170890634868
 20
-2454.979333079212
 30
0.0
 11
11964.82121657778
 21
-2454.979333079212
 31
0.0
  0
LINE
  5
1A63
330
18
100
AcDbEntity
  8
25
100
AcDbLine
 10
4503.170890634868
 20
-2524.287283756044
 30
0.0
 11
11964.82121657778
 21
-2524.287283756044
 31
0.0
  0
LINE
  5
1B1A
330
18
100
AcDbEntity
  8
25
100
AcDbLine
 10
4503.170890634868
 20
-2218.11242459726
 30
0.0
 11
11964.82121657778
 21
-2218.11242459726
 31
0.0
  0
LINE
  5
1B1B
330
18
100
AcDbEntity
  8
25
100
AcDbLine
 10
4503.170890634868
 20
-2278.11242459726
 30
0.0
 11
11964.82121657778
 21
-2278.11242459726
 31
0.0
  0
LINE
  5
1B35
330
18
100
AcDbEntity
  8
25
100
AcDbLine
 10
5043.9478366403
 20
-2436.76242459726
 30
0.0
 11
5043.947836640298
 21
-2454.979333079212
 31
0.0
  0
LINE
  5
1B36
330
18
100
AcDbEntity
  8
25
100
AcDbLine
 10
5107.9478366403
 20
-2436.76242459726
 30
0.0
 11
5107.9478366403
 21
-2454.979333079212
 31
0.0
  0
ARC
  5
1B38
330
18
100
AcDbEntity
  8
25
100
AcDbCircle
 10
5075.9478366403
 20
-2330.18742459726
 30
0.0
 40
115.425
100
AcDbArc
 50
292.582606644971
 51
70.9064814025576
  0
ARC
  5
1B39
330
18
100
AcDbEntity
  8
25
100
AcDbCircle
 10
5075.9478366403
 20
-2330.18742459726
 30
0.0
 40
115.425
100
AcDbArc
 50
109.0935185974424
 51
247.417393355029
  0
LINE
  5
1B3A
330
18
100
AcDbEntity
  8
25
100
AcDbLine
 10
5031.622900092123
 20
-2436.76242459726
 30
0.0
 11
5120.272773188477
 21
-2436.76242459726
 31
0.0
  0
LINE
  5
1B3B
330
18
100
AcDbEntity
  8
25
100
AcDbLine
 10
5113.704624109576
 20
-2221.11242459726
 30
0.0
 11
5038.191049171024
 21
-2221.11242459726
 31
0.0
  0
ARC
  5
1B3C
330
18
100
AcDbEntity
  8
25
100
AcDbCircle
 10
6342.614502640299
 20
-2330.18742459726
 30
0.0
 40
115.425
100
AcDbArc
 50
109.0935185974424
 51
247.417393355029
  0
ARC
  5
1B3D
330
18
100
AcDbEntity
  8
25
100
AcDbCircle
 10
6342.614502640299
 20
-2330.18742459726
 30
0.0
 40
115.425
100
AcDbArc
 50
292.582606644971
 51
70.9064814025576
  0
LINE
  5
1B3E
330
18
100
AcDbEntity
  8
25
100
AcDbLine
 10
6298.289566092124
 20
-2436.76242459726
 30
0.0
 11
6386.939439188478
 21
-2436.76242459726
 31
0.0
  0
LINE
  5
1B3F
330
18
100
AcDbEntity
  8
25
100
AcDbLine
 10
6310.614502640299
 20
-2436.76242459726
 30
0.0
 11
6310.614502640299
 21
-2454.979333079212
 31
0.0
  0
LINE
  5
1B40
330
18
100
AcDbEntity
  8
25
100
AcDbLine
 10
6374.614502640299
 20
-2436.76242459726
 30
0.0
 11
6374.614502640299
 21
-2454.979333079212
 31
0.0
  0
LWPOLYLINE
  5
1B41
330
18
100
AcDbEntity
  8
25
100
AcDbPolyline
 90
        4
 70
     0
 43
0.0
 10
6552.614502640299
 20
-2218.11242459726
 10
6552.614502640299
 20
-2028.11242459726
 10
6132.614502640299
 20
-2028.11242459726
 10
6132.614502640299
 20
-2218.11242459726
  0
LINE
  5
1B42
330
18
100
AcDbEntity
  8
70
100
AcDbLine
 10
6383.588304798045
 20
-2208.186438044137
 30
0.0
 11
6395.164852277652
 21
-2090.186438044137
 31
0.0
  0
LINE
  5
1B43
330
18
100
AcDbEntity
  8
18
  6
STRICHPUNKT
 48
2.5
100
AcDbLine
 10
6342.614502640299
 20
-2278.11242459726
 30
0.0
 11
6342.614502640299
 21
-1998.11242459726
 31
0.0
  0
LINE
  5
1B44
330
18
100
AcDbEntity
  8
70
100
AcDbLine
 10
6301.640700482552
 20
-2208.186438044137
 30
0.0
 11
6290.064153002949
 21
-2090.186438044137
 31
0.0
  0
CIRCLE
  5
1B45
330
18
100
AcDbEntity
  8
25
100
AcDbCircle
 10
6482.614502640299
 20
-2168.14668298777
 30
0.0
 40
15.0
  0
LINE
  5
1B46
330
18
100
AcDbEntity
  8
25
100
AcDbLine
 10
6380.371290109575
 20
-2221.11242459726
 30
0.0
 11
6304.857715171023
 21
-2221.11242459726
 31
0.0
  0
ARC
  5
1B47
330
18
100
AcDbEntity
  8
70
100
AcDbCircle
 10
6372.64086239738
 20
-2207.11242459726
 30
0.0
 40
11.0
100
AcDbArc
 50
270.0
 51
354.3968516704707
  0
ARC
  5
1B48
330
18
100
AcDbEntity
  8
70
100
AcDbCircle
 10
6312.588142883221
 20
-2207.11242459726
 30
0.0
 40
11.0
100
AcDbArc
 50
185.6031483295293
 51
270.0
  0
LINE
  5
1B49
330
18
100
AcDbEntity
  8
70
100
AcDbLine
 10
6372.64086239738
 20
-2218.11242459726
 30
0.0
 11
6342.614502640299
 21
-2218.11242459726
 31
0.0
  0
LINE
  5
1B4A
330
18
100
AcDbEntity
  8
70
100
AcDbLine
 10
6312.588142883221
 20
-2218.11242459726
 30
0.0
 11
6342.614502640299
 21
-2218.11242459726
 31
0.0
  0
CIRCLE
  5
1B4B
330
18
100
AcDbEntity
  8
25
100
AcDbCircle
 10
6202.614502640299
 20
-2168.14668298777
 30
0.0
 40
15.0
  0
ARC
  5
1B4C
330
18
100
AcDbEntity
  8
70
100
AcDbCircle
 10
6301.011595403616
 20
-2089.11242459726
 30
0.0
 40
11.0
100
AcDbArc
 50
90.0
 51
185.6031483295293
  0
LINE
  5
1B4D
330
18
100
AcDbEntity
  8
70
100
AcDbLine
 10
6365.114502640299
 20
-2078.11242459726
 30
0.0
 11
6384.217409876983
 21
-2078.11242459726
 31
0.0
  0
LINE
  5
1B4E
330
18
100
AcDbEntity
  8
70
100
AcDbLine
 10
6320.114502640299
 20
-2078.11242459726
 30
0.0
 11
6301.011595403616
 21
-2078.11242459726
 31
0.0
  0
ARC
  5
1B4F
330
18
100
AcDbEntity
  8
70
100
AcDbCircle
 10
6384.217409876983
 20
-2089.11242459726
 30
0.0
 40
11.0
100
AcDbArc
 50
354.3968516704707
 51
90.0
  0
ARC
  5
1B50
330
18
100
AcDbEntity
  8
25
100
AcDbCircle
 10
7609.281168640301
 20
-2330.18742459726
 30
0.0
 40
115.425
100
AcDbArc
 50
109.0935185974424
 51
247.417393355029
  0
ARC
  5
1B51
330
18
100
AcDbEntity
  8
25
100
AcDbCircle
 10
7609.281168640301
 20
-2330.18742459726
 30
0.0
 40
115.425
100
AcDbArc
 50
292.582606644971
 51
70.9064814025576
  0
LINE
  5
1B52
330
18
100
AcDbEntity
  8
25
100
AcDbLine
 10
7564.956232092123
 20
-2436.76242459726
 30
0.0
 11
7653.606105188479
 21
-2436.76242459726
 31
0.0
  0
LINE
  5
1B53
330
18
100
AcDbEntity
  8
25
100
AcDbLine
 10
7577.2811686403
 20
-2436.76242459726
 30
0.0
 11
7577.2811686403
 21
-2454.979333079212
 31
0.0
  0
LINE
  5
1B54
330
18
100
AcDbEntity
  8
25
100
AcDbLine
 10
7641.281168640301
 20
-2436.76242459726
 30
0.0
 11
7641.281168640301
 21
-2454.979333079212
 31
0.0
  0
LWPOLYLINE
  5
1B55
330
18
100
AcDbEntity
  8
25
100
AcDbPolyline
 90
        4
 70
     0
 43
0.0
 10
7819.2811686403
 20
-2218.11242459726
 10
7819.2811686403
 20
-2028.11242459726
 10
7399.2811686403
 20
-2028.11242459726
 10
7399.2811686403
 20
-2218.11242459726
  0
LINE
  5
1B56
330
18
100
AcDbEntity
  8
70
100
AcDbLine
 10
7650.254970798048
 20
-2208.186438044137
 30
0.0
 11
7661.831518277651
 21
-2090.186438044137
 31
0.0
  0
LINE
  5
1B57
330
18
100
AcDbEntity
  8
18
  6
STRICHPUNKT
 48
2.5
100
AcDbLine
 10
7609.281168640301
 20
-2278.11242459726
 30
0.0
 11
7609.281168640301
 21
-1998.11242459726
 31
0.0
  0
LINE
  5
1B58
330
18
100
AcDbEntity
  8
70
100
AcDbLine
 10
7568.307366482553
 20
-2208.186438044137
 30
0.0
 11
7556.730819002949
 21
-2090.186438044137
 31
0.0
  0
CIRCLE
  5
1B59
330
18
100
AcDbEntity
  8
25
100
AcDbCircle
 10
7749.2811686403
 20
-2168.14668298777
 30
0.0
 40
15.0
  0
LINE
  5
1B5A
330
18
100
AcDbEntity
  8
25
100
AcDbLine
 10
7647.037956109577
 20
-2221.11242459726
 30
0.0
 11
7571.524381171023
 21
-2221.11242459726
 31
0.0
  0
ARC
  5
1B5B
330
18
100
AcDbEntity
  8
70
100
AcDbCircle
 10
7639.307528397381
 20
-2207.11242459726
 30
0.0
 40
11.0
100
AcDbArc
 50
270.0
 51
354.3968516704707
  0
ARC
  5
1B5C
330
18
100
AcDbEntity
  8
70
100
AcDbCircle
 10
7579.25480888322
 20
-2207.11242459726
 30
0.0
 40
11.0
100
AcDbArc
 50
185.6031483295293
 51
270.0
  0
LINE
  5
1B5D
330
18
100
AcDbEntity
  8
70
100
AcDbLine
 10
7639.307528397381
 20
-2218.11242459726
 30
0.0
 11
7609.281168640301
 21
-2218.11242459726
 31
0.0
  0
LINE
  5
1B5E
330
18
100
AcDbEntity
  8
70
100
AcDbLine
 10
7579.25480888322
 20
-2218.11242459726
 30
0.0
 11
7609.281168640301
 21
-2218.11242459726
 31
0.0
  0
CIRCLE
  5
1B5F
330
18
100
AcDbEntity
  8
25
100
AcDbCircle
 10
7469.2811686403
 20
-2168.14668298777
 30
0.0
 40
15.0
  0
ARC
  5
1B60
330
18
100
AcDbEntity
  8
70
100
AcDbCircle
 10
7567.678261403617
 20
-2089.11242459726
 30
0.0
 40
11.0
100
AcDbArc
 50
90.0
 51
185.6031483295293
  0
LINE
  5
1B61
330
18
100
AcDbEntity
  8
70
100
AcDbLine
 10
7631.7811686403
 20
-2078.11242459726
 30
0.0
 11
7650.884075876984
 21
-2078.11242459726
 31
0.0
  0
LINE
  5
1B62
330
18
100
AcDbEntity
  8
70
100
AcDbLine
 10
7586.7811686403
 20
-2078.11242459726
 30
0.0
 11
7567.678261403617
 21
-2078.11242459726
 31
0.0
  0
ARC
  5
1B63
330
18
100
AcDbEntity
  8
70
100
AcDbCircle
 10
7650.884075876984
 20
-2089.11242459726
 30
0.0
 40
11.0
100
AcDbArc
 50
354.3968516704707
 51
90.0
  0
ARC
  5
1B64
330
18
100
AcDbEntity
  8
25
100
AcDbCircle
 10
8875.947834640301
 20
-2330.18742459726
 30
0.0
 40
115.425
100
AcDbArc
 50
109.0935185974424
 51
247.417393355029
  0
ARC
  5
1B65
330
18
100
AcDbEntity
  8
25
100
AcDbCircle
 10
8875.947834640301
 20
-2330.18742459726
 30
0.0
 40
115.425
100
AcDbArc
 50
292.582606644971
 51
70.9064814025576
  0
LINE
  5
1B66
330
18
100
AcDbEntity
  8
25
100
AcDbLine
 10
8831.622898092122
 20
-2436.76242459726
 30
0.0
 11
8920.272771188477
 21
-2436.76242459726
 31
0.0
  0
LINE
  5
1B67
330
18
100
AcDbEntity
  8
25
100
AcDbLine
 10
8843.947834640301
 20
-2436.76242459726
 30
0.0
 11
8843.947834640299
 21
-2454.979333079212
 31
0.0
  0
LINE
  5
1B68
330
18
100
AcDbEntity
  8
25
100
AcDbLine
 10
8907.947834640301
 20
-2436.76242459726
 30
0.0
 11
8907.947834640301
 21
-2454.979333079212
 31
0.0
  0
LWPOLYLINE
  5
1B69
330
18
100
AcDbEntity
  8
25
100
AcDbPolyline
 90
        4
 70
     0
 43
0.0
 10
9085.9478346403
 20
-2218.11242459726
 10
9085.9478346403
 20
-2028.11242459726
 10
8665.947834640302
 20
-2028.11242459726
 10
8665.947834640302
 20
-2218.11242459726
  0
LINE
  5
1B6A
330
18
100
AcDbEntity
  8
70
100
AcDbLine
 10
8916.921636798049
 20
-2208.186438044137
 30
0.0
 11
8928.49818427765
 21
-2090.186438044137
 31
0.0
  0
LINE
  5
1B6B
330
18
100
AcDbEntity
  8
18
  6
STRICHPUNKT
 48
2.5
100
AcDbLine
 10
8875.947834640301
 20
-2278.11242459726
 30
0.0
 11
8875.947834640301
 21
-1998.11242459726
 31
0.0
  0
LINE
  5
1B6C
330
18
100
AcDbEntity
  8
70
100
AcDbLine
 10
8834.974032482554
 20
-2208.186438044137
 30
0.0
 11
8823.397485002947
 21
-2090.186438044137
 31
0.0
  0
CIRCLE
  5
1B6D
330
18
100
AcDbEntity
  8
25
100
AcDbCircle
 10
9015.947834640302
 20
-2168.14668298777
 30
0.0
 40
15.0
  0
LINE
  5
1B6E
330
18
100
AcDbEntity
  8
25
100
AcDbLine
 10
8913.704622109577
 20
-2221.11242459726
 30
0.0
 11
8838.191047171026
 21
-2221.11242459726
 31
0.0
  0
ARC
  5
1B6F
330
18
100
AcDbEntity
  8
70
100
AcDbCircle
 10
8905.974194397382
 20
-2207.11242459726
 30
0.0
 40
11.0
100
AcDbArc
 50
270.0
 51
354.3968516704707
  0
ARC
  5
1B70
330
18
100
AcDbEntity
  8
70
100
AcDbCircle
 10
8845.921474883219
 20
-2207.11242459726
 30
0.0
 40
11.0
100
AcDbArc
 50
185.6031483295293
 51
270.0
  0
LINE
  5
1B71
330
18
100
AcDbEntity
  8
70
100
AcDbLine
 10
8905.974194397382
 20
-2218.11242459726
 30
0.0
 11
8875.947834640301
 21
-2218.11242459726
 31
0.0
  0
LINE
  5
1B72
330
18
100
AcDbEntity
  8
70
100
AcDbLine
 10
8845.921474883219
 20
-2218.11242459726
 30
0.0
 11
8875.947834640301
 21
-2218.11242459726
 31
0.0
  0
CIRCLE
  5
1B73
330
18
100
AcDbEntity
  8
25
100
AcDbCircle
 10
8735.947834640301
 20
-2168.14668298777
 30
0.0
 40
15.0
  0
ARC
  5
1B74
330
18
100
AcDbEntity
  8
70
100
AcDbCircle
 10
8834.344927403618
 20
-2089.11242459726
 30
0.0
 40
11.0
100
AcDbArc
 50
90.0
 51
185.6031483295293
  0
LINE
  5
1B75
330
18
100
AcDbEntity
  8
70
100
AcDbLine
 10
8898.4478346403
 20
-2078.11242459726
 30
0.0
 11
8917.550741876985
 21
-2078.11242459726
 31
0.0
  0
LINE
  5
1B76
330
18
100
AcDbEntity
  8
70
100
AcDbLine
 10
8853.447834640302
 20
-2078.11242459726
 30
0.0
 11
8834.344927403618
 21
-2078.11242459726
 31
0.0
  0
ARC
  5
1B77
330
18
100
AcDbEntity
  8
70
100
AcDbCircle
 10
8917.550741876985
 20
-2089.11242459726
 30
0.0
 40
11.0
100
AcDbArc
 50
354.3968516704707
 51
90.0
  0
ARC
  5
1B78
330
18
100
AcDbEntity
  8
25
100
AcDbCircle
 10
10142.6145006403
 20
-2330.18742459726
 30
0.0
 40
115.425
100
AcDbArc
 50
109.0935185974424
 51
247.417393355029
  0
ARC
  5
1B79
330
18
100
AcDbEntity
  8
25
100
AcDbCircle
 10
10142.6145006403
 20
-2330.18742459726
 30
0.0
 40
115.425
100
AcDbArc
 50
292.582606644971
 51
70.9064814025576
  0
LINE
  5
1B7A
330
18
100
AcDbEntity
  8
25
100
AcDbLine
 10
10098.28956409212
 20
-2436.76242459726
 30
0.0
 11
10186.93943718848
 21
-2436.76242459726
 31
0.0
  0
LINE
  5
1B7B
330
18
100
AcDbEntity
  8
25
100
AcDbLine
 10
10110.6145006403
 20
-2436.76242459726
 30
0.0
 11
10110.6145006403
 21
-2454.979333079212
 31
0.0
  0
LINE
  5
1B7C
330
18
100
AcDbEntity
  8
25
100
AcDbLine
 10
10174.6145006403
 20
-2436.76242459726
 30
0.0
 11
10174.6145006403
 21
-2454.979333079212
 31
0.0
  0
LWPOLYLINE
  5
1B7D
330
18
100
AcDbEntity
  8
25
100
AcDbPolyline
 90
        4
 70
     0
 43
0.0
 10
10352.6145006403
 20
-2218.11242459726
 10
10352.6145006403
 20
-2028.11242459726
 10
9932.614500640301
 20
-2028.11242459726
 10
9932.614500640301
 20
-2218.11242459726
  0
LINE
  5
1B7E
330
18
100
AcDbEntity
  8
70
100
AcDbLine
 10
10183.58830279805
 20
-2208.186438044137
 30
0.0
 11
10195.16485027765
 21
-2090.186438044137
 31
0.0
  0
LINE
  5
1B7F
330
18
100
AcDbEntity
  8
18
  6
STRICHPUNKT
 48
2.5
100
AcDbLine
 10
10142.6145006403
 20
-2278.11242459726
 30
0.0
 11
10142.6145006403
 21
-1998.11242459726
 31
0.0
  0
LINE
  5
1B80
330
18
100
AcDbEntity
  8
70
100
AcDbLine
 10
10101.64069848255
 20
-2208.186438044137
 30
0.0
 11
10090.06415100295
 21
-2090.186438044137
 31
0.0
  0
CIRCLE
  5
1B81
330
18
100
AcDbEntity
  8
25
100
AcDbCircle
 10
10282.6145006403
 20
-2168.14668298777
 30
0.0
 40
15.0
  0
LINE
  5
1B82
330
18
100
AcDbEntity
  8
25
100
AcDbLine
 10
10180.37128810957
 20
-2221.11242459726
 30
0.0
 11
10104.85771317102
 21
-2221.11242459726
 31
0.0
  0
ARC
  5
1B83
330
18
100
AcDbEntity
  8
70
100
AcDbCircle
 10
10172.64086039738
 20
-2207.11242459726
 30
0.0
 40
11.0
100
AcDbArc
 50
270.0
 51
354.3968516704707
  0
ARC
  5
1B84
330
18
100
AcDbEntity
  8
70
100
AcDbCircle
 10
10112.58814088322
 20
-2207.11242459726
 30
0.0
 40
11.0
100
AcDbArc
 50
185.6031483295293
 51
270.0
  0
LINE
  5
1B85
330
18
100
AcDbEntity
  8
70
100
AcDbLine
 10
10172.64086039738
 20
-2218.11242459726
 30
0.0
 11
10142.6145006403
 21
-2218.11242459726
 31
0.0
  0
LINE
  5
1B86
330
18
100
AcDbEntity
  8
70
100
AcDbLine
 10
10112.58814088322
 20
-2218.11242459726
 30
0.0
 11
10142.6145006403
 21
-2218.11242459726
 31
0.0
  0
CIRCLE
  5
1B87
330
18
100
AcDbEntity
  8
25
100
AcDbCircle
 10
10002.6145006403
 20
-2168.14668298777
 30
0.0
 40
15.0
  0
ARC
  5
1B88
330
18
100
AcDbEntity
  8
70
100
AcDbCircle
 10
10101.01159340361
 20
-2089.11242459726
 30
0.0
 40
11.0
100
AcDbArc
 50
90.0
 51
185.6031483295293
  0
LINE
  5
1B89
330
18
100
AcDbEntity
  8
70
100
AcDbLine
 10
10165.1145006403
 20
-2078.11242459726
 30
0.0
 11
10184.21740787698
 21
-2078.11242459726
 31
0.0
  0
LINE
  5
1B8A
330
18
100
AcDbEntity
  8
70
100
AcDbLine
 10
10120.1145006403
 20
-2078.11242459726
 30
0.0
 11
10101.01159340361
 21
-2078.11242459726
 31
0.0
  0
ARC
  5
1B8B
330
18
100
AcDbEntity
  8
70
100
AcDbCircle
 10
10184.21740787698
 20
-2089.11242459726
 30
0.0
 40
11.0
100
AcDbArc
 50
354.3968516704707
 51
90.0
  0
ARC
  5
1B8C
330
18
100
AcDbEntity
  8
25
100
AcDbCircle
 10
11409.2811666403
 20
-2330.18742459726
 30
0.0
 40
115.425
100
AcDbArc
 50
109.0935185974424
 51
247.417393355029
  0
ARC
  5
1B8D
330
18
100
AcDbEntity
  8
25
100
AcDbCircle
 10
11409.2811666403
 20
-2330.18742459726
 30
0.0
 40
115.425
100
AcDbArc
 50
292.582606644971
 51
70.9064814025576
  0
LINE
  5
1B8E
330
18
100
AcDbEntity
  8
25
100
AcDbLine
 10
11364.95623009212
 20
-2436.76242459726
 30
0.0
 11
11453.60610318848
 21
-2436.76242459726
 31
0.0
  0
LINE
  5
1B8F
330
18
100
AcDbEntity
  8
25
100
AcDbLine
 10
11377.2811666403
 20
-2436.76242459726
 30
0.0
 11
11377.2811666403
 21
-2454.979333079212
 31
0.0
  0
LINE
  5
1B90
330
18
100
AcDbEntity
  8
25
100
AcDbLine
 10
11441.2811666403
 20
-2436.76242459726
 30
0.0
 11
11441.2811666403
 21
-2454.979333079212
 31
0.0
  0
LWPOLYLINE
  5
1B91
330
18
100
AcDbEntity
  8
25
100
AcDbPolyline
 90
        4
 70
     0
 43
0.0
 10
11619.2811666403
 20
-2218.11242459726
 10
11619.2811666403
 20
-2028.11242459726
 10
11199.2811666403
 20
-2028.11242459726
 10
11199.2811666403
 20
-2218.11242459726
  0
LINE
  5
1B92
330
18
100
AcDbEntity
  8
70
100
AcDbLine
 10
11450.25496879804
 20
-2208.186438044137
 30
0.0
 11
11461.83151627765
 21
-2090.186438044137
 31
0.0
  0
LINE
  5
1B93
330
18
100
AcDbEntity
  8
18
  6
STRICHPUNKT
 48
2.5
100
AcDbLine
 10
11409.2811666403
 20
-2278.11242459726
 30
0.0
 11
11409.2811666403
 21
-1998.11242459726
 31
0.0
  0
LINE
  5
1B94
330
18
100
AcDbEntity
  8
70
100
AcDbLine
 10
11368.30736448255
 20
-2208.186438044137
 30
0.0
 11
11356.73081700295
 21
-2090.186438044137
 31
0.0
  0
CIRCLE
  5
1B95
330
18
100
AcDbEntity
  8
25
100
AcDbCircle
 10
11549.2811666403
 20
-2168.14668298777
 30
0.0
 40
15.0
  0
LINE
  5
1B96
330
18
100
AcDbEntity
  8
25
100
AcDbLine
 10
11447.03795410957
 20
-2221.11242459726
 30
0.0
 11
11371.52437917102
 21
-2221.11242459726
 31
0.0
  0
ARC
  5
1B97
330
18
100
AcDbEntity
  8
70
100
AcDbCircle
 10
11439.30752639738
 20
-2207.11242459726
 30
0.0
 40
11.0
100
AcDbArc
 50
270.0
 51
354.3968516704707
  0
ARC
  5
1B98
330
18
100
AcDbEntity
  8
70
100
AcDbCircle
 10
11379.25480688322
 20
-2207.11242459726
 30
0.0
 40
11.0
100
AcDbArc
 50
185.6031483295293
 51
270.0
  0
LINE
  5
1B99
330
18
100
AcDbEntity
  8
70
100
AcDbLine
 10
11439.30752639738
 20
-2218.11242459726
 30
0.0
 11
11409.2811666403
 21
-2218.11242459726
 31
0.0
  0
LINE
  5
1B9A
330
18
100
AcDbEntity
  8
70
100
AcDbLine
 10
11379.25480688322
 20
-2218.11242459726
 30
0.0
 11
11409.2811666403
 21
-2218.11242459726
 31
0.0
  0
CIRCLE
  5
1B9B
330
18
100
AcDbEntity
  8
25
100
AcDbCircle
 10
11269.2811666403
 20
-2168.14668298777
 30
0.0
 40
15.0
  0
ARC
  5
1B9C
330
18
100
AcDbEntity
  8
70
100
AcDbCircle
 10
11367.67825940361
 20
-2089.11242459726
 30
0.0
 40
11.0
100
AcDbArc
 50
90.0
 51
185.6031483295293
  0
LINE
  5
1B9D
330
18
100
AcDbEntity
  8
70
100
AcDbLine
 10
11431.7811666403
 20
-2078.11242459726
 30
0.0
 11
11450.88407387698
 21
-2078.11242459726
 31
0.0
  0
LINE
  5
1B9E
330
18
100
AcDbEntity
  8
70
100
AcDbLine
 10
11386.7811666403
 20
-2078.11242459726
 30
0.0
 11
11367.67825940361
 21
-2078.11242459726
 31
0.0
  0
ARC
  5
1B9F
330
18
100
AcDbEntity
  8
70
100
AcDbCircle
 10
11450.88407387698
 20
-2089.11242459726
 30
0.0
 40
11.0
100
AcDbArc
 50
354.3968516704707
 51
90.0
  0
LINE
  5
1C09
330
18
100
AcDbEntity
  8
25
100
AcDbLine
 10
9982.614500640302
 20
-2454.979333079213
 30
0.0
 11
9982.614500640298
 21
-2524.287283756044
 31
0.0
  0
LINE
  5
1C0A
330
18
100
AcDbEntity
  8
18
  6
STRICHLINIE
100
AcDbLine
 10
10302.6145006403
 20
-2454.979333079213
 30
0.0
 11
10302.6145006403
 21
-2524.287283756044
 31
0.0
  0
LINE
  5
1C0D
330
18
100
AcDbEntity
  8
25
100
AcDbLine
 10
6182.6145006403
 20
-2454.979333079213
 30
0.0
 11
6182.614500640299
 21
-2524.287283756044
 31
0.0
  0
LINE
  5
1C0E
330
18
100
AcDbEntity
  8
18
  6
STRICHLINIE
100
AcDbLine
 10
6502.6145006403
 20
-2454.979333079213
 30
0.0
 11
6502.614500640298
 21
-2524.287283756044
 31
0.0
  0
DIMENSION
  5
1C1F
330
18
100
AcDbEntity
  8
KOTIERUNG
100
AcDbDimension
  2
*D15
 10
10142.6145006403
 20
-1530.965539726159
 30
0.0
 11
8242.614501640298
 21
-1470.172565647033
 31
0.0
 70
    32
 71
     5
 42
3799.999998000001
  3
TYPENBLATT
100
AcDbAlignedDimension
 13
6342.614502640299
 23
-1998.11242459726
 33
0.0
 14
10142.6145006403
 24
-1998.11242459726
 34
0.0
100
AcDbRotatedDimension
1001
ACAD
1000
DSTYLE
1002
{
1070
    40
1040
300.0
1070
    77
1070
     1
1070
   147
1040
0.075
1002
}
  0
DIMENSION
  5
1C65
330
18
100
AcDbEntity
  8
KOTIERUNG
100
AcDbDimension
  2
*D16
 10
7609.281168640301
 20
-1668.35534149464
 30
0.0
 11
6975.947835640299
 21
-1607.562367415513
 31
0.0
 70
    32
 71
     5
 42
1266.666666000001
  3
TYPENBLATT
100
AcDbAlignedDimension
 13
6342.614502640299
 23
-1998.11242459726
 33
0.0
 14
7609.281168640301
 24
-1998.11242459726
 34
0.0
100
AcDbRotatedDimension
1001
ACAD
1000
DSTYLE
1002
{
1070
    40
1040
300.0
1070
    77
1070
     1
1070
   147
1040
0.075
1002
}
  0
DIMENSION
  5
1C73
330
18
100
AcDbEntity
  8
KOTIERUNG
100
AcDbDimension
  2
*D17
 10
8875.947834640301
 20
-1668.35534149464
 30
0.0
 11
8242.614501640302
 21
-1607.562367415513
 31
0.0
 70
    32
 71
     5
 42
1266.666666000001
  3
TYPENBLATT
100
AcDbAlignedDimension
 13
7609.281168640301
 23
-1998.11242459726
 33
0.0
 14
8875.947834640301
 24
-1998.11242459726
 34
0.0
100
AcDbRotatedDimension
1001
ACAD
1000
DSTYLE
1002
{
1070
    40
1040
300.0
1070
    77
1070
     1
1070
   147
1040
0.075
1002
}
  0
DIMENSION
  5
1C81
330
18
100
AcDbEntity
  8
KOTIERUNG
100
AcDbDimension
  2
*D18
 10
10142.6145006403
 20
-1668.35534149464
 30
0.0
 11
9509.281167640301
 21
-1607.562367415513
 31
0.0
 70
    32
 71
     5
 42
1266.666665999999
  3
TYPENBLATT
100
AcDbAlignedDimension
 13
8875.947834640301
 23
-1998.11242459726
 33
0.0
 14
10142.6145006403
 24
-1998.11242459726
 34
0.0
100
AcDbRotatedDimension
1001
ACAD
1000
DSTYLE
1002
{
1070
    40
1040
300.0
1070
    77
1070
     1
1070
   147
1040
0.075
1002
}
  0
DIMENSION
  5
1D3D
330
18
100
AcDbEntity
  8
KOTIERUNG
100
AcDbDimension
  2
*D20
 10
7245.753559620297
 20
-387.3989705868061
 30
0.0
 11
7225.489234927255
 21
-422.3989705868049
 31
0.0
 70
    32
 71
     5
 42
70.0
  3
TYPENBLATT
100
AcDbAlignedDimension
 13
7338.117635457116
 23
-457.3989705868061
 33
0.0
 14
7357.919435301981
 24
-387.3989705868062
 34
0.0
 50
90.0
100
AcDbRotatedDimension
1001
ACAD
1000
DSTYLE
1002
{
1070
    77
1070
     1
1070
   147
1040
0.075
1002
}
  0
DIMENSION
  5
1D6F
330
18
100
AcDbEntity
  8
KOTIERUNG
100
AcDbDimension
  2
*D21
 10
7245.753559620297
 20
412.6010294131939
 30
0.0
 11
7225.489234927255
 21
12.60102941319503
 31
0.0
 70
    32
 71
     5
 42
800.0
  3
TYPENBLATT
100
AcDbAlignedDimension
 13
7357.919435301981
 23
-387.3989705868062
 33
0.0
 14
7387.399828452678
 24
412.6010294131938
 34
0.0
 50
90.0
100
AcDbRotatedDimension
1001
ACAD
1000
DSTYLE
1002
{
1070
    77
1070
     1
1070
   147
1040
0.075
1002
}
  0
DIMENSION
  5
1E1B
330
18
100
AcDbEntity
  8
KOTIERUNG
100
AcDbDimension
  2
*D22
 10
7288.152461487354
 20
-167.3911647834891
 30
0.0
 11
7267.888136794312
 21
-277.3950676851465
 31
0.0
 70
    32
 71
     5
 42
220.007805803317
  3
TYPENBLATT
100
AcDbAlignedDimension
 13
7338.117635457116
 23
-387.3989705868062
 33
0.0
 14
7573.228072646937
 24
-167.3911647834892
 34
0.0
 50
90.0
100
AcDbRotatedDimension
1001
ACAD
1000
DSTYLE
1002
{
1070
    77
1070
     1
1070
   147
1040
0.075
1002
}
  0
HATCH
  5
1E7B
330
18
100
AcDbEntity
  8
18
100
AcDbHatch
 10
0.0
 20
0.0
 30
0.0
210
0.0
220
0.0
230
1.0
  2
ANSI31
 70
     0
 71
     0
 91
        1
 92
        1
 93
        4
 72
     1
 10
7185.641001919787
 20
-457.3989705868062
 11
7185.641001919785
 21
-495.0313632877577
 72
     1
 10
7185.641001919785
 20
-495.0313632877577
 11
7338.11763545712
 21
-495.0313632877578
 72
     1
 10
7338.11763545712
 20
-495.0313632877578
 11
7338.11763545712
 21
-457.3989705868061
 72
     1
 10
7338.11763545712
 20
-457.3989705868061
 11
7185.641001919787
 21
-457.3989705868062
 97
        0
 75
     0
 76
     1
 52
0.0
 41
100.0
 77
     0
 78
     1
 53
45.0
 43
0.0000000000009095
 44
77.9696881405589
 45
-8.838834764831842
 46
8.838834764831844
 79
     0
 98
        1
 10
7241.792131280688
 20
-472.5721119423496
1001
ACAD
1010
0.0
1020
0.0
1030
0.0
  0
LINE
  5
1E7C
330
18
100
AcDbEntity
  8
35
100
AcDbLine
 10
7338.117635457116
 20
-457.3989705868062
 30
0.0
 11
7338.117635457116
 21
-495.0313632877578
 31
0.0
  0
HATCH
  5
1E7D
330
18
100
AcDbEntity
  8
18
100
AcDbHatch
 10
0.0
 20
0.0
 30
0.0
210
0.0
220
0.0
230
1.0
  2
ANSI31
 70
     0
 71
     0
 91
        2
 92
        7
 72
     1
 73
     1
 93
       10
 10
7602.663050701135
 20
-380.8948732907643
 42
0.0
 10
7602.661639560245
 20
-380.8383448792188
 42
0.0
 10
7361.001076945692
 20
-386.8314669118808
 42
0.3470154219377272
 10
7351.468580139611
 20
-394.7443054271908
 42
0.0
 10
7338.11763545712
 20
-457.3989705867988
 42
0.0
 10
7338.117635457116
 20
-495.0313632877578
 42
0.0
 10
7948.321051267351
 20
-495.0313632877578
 42
0.0
 10
7948.321051267349
 20
-372.2660771757669
 42
0.0
 10
7822.59402064448
 20
-375.3840763609665
 42
0.0
 10
7822.594533920116
 20
-375.4046374945239
 42
0.0
 97
        0
 92
      137
 93
        4
 72
     1
 10
7617.828387070606
 20
-529.0762678150334
 11
7659.625794983293
 21
-529.0762678150334
 72
     1
 10
7659.625794983293
 20
-529.0762678150334
 11
7659.625794983293
 21
-567.1049172011179
 72
     1
 10
7659.625794983293
 20
-567.1049172011179
 11
7617.828387070606
 21
-567.1049172011179
 72
     1
 10
7617.828387070606
 20
-567.1049172011179
 11
7617.828387070606
 21
-529.0762678150334
 97
        0
 75
     0
 76
     1
 52
90.0
 41
150.0
 77
     0
 78
     1
 53
135.0
 43
0.0000000000009095
 44
77.9696881405589
 45
-13.25825214724776
 46
-13.25825214724776
 79
     0
 47
0.6096385047179559
 98
        1
 10
7616.480027324154
 20
-436.6604901039054
  0
VIEWPORT
  5
1DF
102
{ACAD_XDICTIONARY
360
1ECF
102
}
330
15
100
AcDbEntity
 67
     1
  8
0
100
AcDbViewport
 10
7.349740877793944
 20
6.132442325673434
 30
0.0
 40
41.32604029687906
 41
26.29527667605893
 68
     1
 69
     1
 12
7.349740877793944
 22
6.132442325673434
 13
0.0
 23
0.0
 14
0.5
 24
0.5
 15
0.5
 25
0.5
 16
0.0
 26
0.0
 36
1.0
 17
0.0
 27
0.0
 37
0.0
 42
50.0
 43
0.0
 44
0.0
 45
26.29527667605893
 50
0.0
 51
0.0
 72
   100
 90
    32800
  1

281
     0
 71
     1
 74
     0
110
0.0
120
0.0
130
0.0
111
1.0
121
0.0
131
0.0
112
0.0
122
1.0
132
0.0
 79
     0
146
0.0
  0
MTEXT
  5
13A5
330
15
100
AcDbEntity
 67
     1
  8
KOTIERUNG
100
AcDbMText
 10
334.574239722046
 20
33.70865160095127
 30
0.0
 40
2.5
 41
0.0
 71
     4
 72
     1
  1
\A1;
  7
VOEST
 73
     1
 44
1.0
1001
ACAD
1000
MTEXTBEGIN
1070
    73
1070
     1
1070
    44
1040
1.0
1070
    74
1070
     0
1000
MTEXTEND
  0
MTEXT
  5
1505
330
15
100
AcDbEntity
 67
     1
  8
TEXT
100
AcDbMText
 10
170.1309310268098
 20
188.4899274501241
 30
0.0
 40
125.0
 41
0.0
 71
     4
 72
     1
  1
\A1;
  7
VOEST
 73
     1
 44
1.0
1001
ACAD
1000
MTEXTBEGIN
1070
    73
1070
     1
1070
    44
1040
1.0
1070
    74
1070
     0
1000
MTEXTEND
  0
MTEXT
  5
1509
330
15
100
AcDbEntity
 67
     1
  8
TEXT
100
AcDbMText
 10
122.2170016261258
 20
214.8213238210264
 30
0.0
 40
2.5
 41
0.0
 71
     4
 72
     1
  1
\A1;
  7
VOEST
 73
     1
 44
1.0
1001
ACAD
1000
MTEXTBEGIN
1070
    73
1070
     1
1070
    44
1040
1.0
1070
    74
1070
     0
1000
MTEXTEND
  0
MTEXT
  5
150D
330
15
100
AcDbEntity
 67
     1
  8
TEXT
100
AcDbMText
 10
122.2170016261258
 20
214.9995195096872
 30
0.0
 40
2.5
 41
0.0
 71
     4
 72
     1
  1
\A1;
  7
VOEST
 73
     1
 44
1.0
1001
ACAD
1000
MTEXTBEGIN
1070
    73
1070
     1
1070
    44
1040
1.0
1070
    74
1070
     0
1000
MTEXTEND
  0
MTEXT
  5
150F
330
15
100
AcDbEntity
 67
     1
  8
TEXT
100
AcDbMText
 10
122.2170016261258
 20
214.9995195096872
 30
0.0
 40
2.5
 41
0.0
 71
     4
 72
     1
  1
\A1;
  7
VOEST
 73
     1
 44
1.0
1001
ACAD
1000
MTEXTBEGIN
1070
    73
1070
     1
1070
    44
1040
1.0
1070
    74
1070
     0
1000
MTEXTEND
  0
MTEXT
  5
1513
330
15
100
AcDbEntity
 67
     1
  8
TEXT
100
AcDbMText
 10
130.9001099666395
 20
219.6788439368279
 30
0.0
 40
2.5
 41
0.0
 71
     4
 72
     1
  1
\A1;
  7
VOEST
 73
     1
 44
1.0
1001
ACAD
1000
MTEXTBEGIN
1070
    73
1070
     1
1070
    44
1040
1.0
1070
    74
1070
     0
1000
MTEXTEND
  0
ENDSEC
  0
SECTION
  2
OBJECTS
  0
DICTIONARY
  5
C
330
0
100
AcDbDictionary
281
     1
  3
ACAD_COLOR
350
1C17
  3
ACAD_GROUP
350
D
  3
ACAD_LAYOUT
350
1612
  3
ACAD_MATERIAL
350
1C16
  3
ACAD_MLEADERSTYLE
350
1D25
  3
ACAD_MLINESTYLE
350
1B
  3
ACAD_PLOTSETTINGS
350
1613
  3
ACAD_PLOTSTYLENAME
350
1610
  3
ACAD_SCALELIST
350
1D03
  3
ACAD_TABLESTYLE
350
1D01
  3
ACAD_VISUALSTYLE
350
1CF0
  3
ACDB_RECOMPOSE_DATA
350
1ECD
  3
ACDBVARIABLEDICTIONARY
350
1109
  3
CONTENTDICTIONARY
350
23
  3
DWGPROPS
350
1ECE
  0
DICTIONARY
  5
1E70
330
2
100
AcDbDictionary
280
     1
281
     1
  3
ACAD_LAYERSTATES
360
1E71
  0
DICTIONARY
  5
1D98
330
E
100
AcDbDictionary
280
     1
281
     1
  3
ADSK_XREC_LAYER_RECONCILED
360
1D99
  0
DICTIONARY
  5
1D9A
330
12F
100
AcDbDictionary
280
     1
281
     1
  3
ADSK_XREC_LAYER_RECONCILED
360
1D9B
  0
DICTIONARY
  5
1D9C
330
224
100
AcDbDictionary
280
     1
281
     1
  3
ADSK_XREC_LAYER_RECONCILED
360
1D9D
  0
DICTIONARY
  5
1D9E
330
226
100
AcDbDictionary
280
     1
281
     1
  3
ADSK_XREC_LAYER_RECONCILED
360
1D9F
  0
DICTIONARY
  5
1DA0
330
425
100
AcDbDictionary
280
     1
281
     1
  3
ADSK_XREC_LAYER_RECONCILED
360
1DA1
  0
DICTIONARY
  5
1DA2
330
14EF
100
AcDbDictionary
280
     1
281
     1
  3
ADSK_XREC_LAYER_RECONCILED
360
1DA3
  0
DICTIONARY
  5
1DA4
330
1647
100
AcDbDictionary
280
     1
281
     1
  3
ADSK_XREC_LAYER_RECONCILED
360
1DA5
  0
DICTIONARY
  5
1DA6
330
1BF1
100
AcDbDictionary
280
     1
281
     1
  3
ADSK_XREC_LAYER_RECONCILED
360
1DA7
  0
DICTIONARY
  5
1E6C
330
1E6B
100
AcDbDictionary
280
     1
281
     1
  0
DICTIONARY
  5
1E6E
330
1E6D
100
AcDbDictionary
280
     1
281
     1
  0
DICTIONARY
  5
1968
330
18
100
AcDbDictionary
280
     1
281
     1
  3
ACAD_LAYOUTSELFREF
360
1969
  0
DICTIONARY
  5
1966
330
15
100
AcDbDictionary
280
     1
281
     1
  3
ACAD_LAYOUTSELFREF
360
1967
  0
DICTIONARY
  5
1ED9
330
1EA3
100
AcDbDictionary
280
     1
281
     1
  3
ACAD_MTEXT_RT
360
1EDA
  0
DICTIONARY
  5
1ECF
330
1DF
100
AcDbDictionary
280
     1
281
     1
  3
ACAD_XREC_ROUNDTRIP
360
1ED0
  0
DICTIONARY
  5
1C17
102
{ACAD_REACTORS
330
C
102
}
330
C
100
AcDbDictionary
281
     1
  0
DICTIONARY
  5
D
102
{ACAD_REACTORS
330
C
102
}
330
C
100
AcDbDictionary
281
     1
  3
*A1
350
1B1
  3
*A10
350
46B
  3
*A2
350
95A
  3
*A3
350
95B
  3
*A4
350
95C
  3
*A5
350
95D
  3
*A6
350
1B2
  3
*A7
350
1C3
  3
*A8
350
1D2
  3
*A9
350
46A
  0
DICTIONARY
  5
1612
102
{ACAD_REACTORS
330
C
102
}
330
C
100
AcDbDictionary
281
     1
  3
Layout1
350
1615
  3
Model
350
1614
  0
DICTIONARY
  5
1C16
102
{ACAD_REACTORS
330
C
102
}
330
C
100
AcDbDictionary
281
     1
  3
ByBlock
350
1CE0
  3
ByLayer
350
1CD8
  3
Global
350
1CE8
  0
DICTIONARY
  5
1D25
102
{ACAD_REACTORS
330
C
102
}
330
C
100
AcDbDictionary
281
     1
  3
Standard
350
1D26
  0
DICTIONARY
  5
1B
102
{ACAD_REACTORS
330
C
102
}
330
C
100
AcDbDictionary
281
     1
  3
STANDARD
350
1C
  0
DICTIONARY
  5
1613
102
{ACAD_REACTORS
330
C
102
}
330
C
100
AcDbDictionary
281
     1
  0
ACDBDICTIONARYWDFLT
  5
1610
102
{ACAD_REACTORS
330
C
102
}
330
C
100
AcDbDictionary
281
     1
  3
Normal
350
1611
100
AcDbDictionaryWithDefault
340
1611
  0
DICTIONARY
  5
1D03
102
{ACAD_REACTORS
330
C
102
}
330
C
100
AcDbDictionary
281
     1
  3
A0
350
1D04
  3
A1
350
1D05
  3
A2
350
1D06
  3
A3
350
1D07
  3
A4
350
1D08
  3
A5
350
1D09
  3
A6
350
1D0A
  3
A7
350
1D0B
  3
A8
350
1D0C
  3
A9
350
1D0D
  3
B0
350
1D0E
  3
B1
350
1D0F
  3
B2
350
1D10
  3
B3
350
1D11
  3
B4
350
1D12
  3
B5
350
1D13
  3
B6
350
1D14
  3
B7
350
1D15
  3
B8
350
1D16
  3
B9
350
1D17
  3
C0
350
1D18
  3
C1
350
1D19
  3
C2
350
1D1A
  3
C3
350
1D1B
  3
C4
350
1D1C
  3
C5
350
1D1D
  3
C6
350
1D1E
  3
C7
350
1D1F
  3
C8
350
1D20
  3
C9
350
1D21
  3
D0
350
1D22
  3
D1
350
1D23
  3
D2
350
1D24
  0
DICTIONARY
  5
1D01
102
{ACAD_REACTORS
330
C
102
}
330
C
100
AcDbDictionary
281
     1
  3
Standard
350
1D02
  0
DICTIONARY
  5
1CF0
102
{ACAD_REACTORS
330
C
102
}
330
C
100
AcDbDictionary
281
     1
  3
2dWireframe
350
1CF6
  3
3D Hidden
350
1CF8
  3
3dWireframe
350
1CF7
  3
Basic
350
1CF5
  3
Brighten
350
1CFC
  3
ColorChange
350
1D00
  3
Conceptual
350
1CF9
  3
Dim
350
1CFB
  3
Facepattern
350
1CFF
  3
Flat
350
1CF1
  3
FlatWithEdges
350
1CF2
  3
Gouraud
350
1CF3
  3
GouraudWithEdges
350
1CF4
  3
Linepattern
350
1CFE
  3
Realistic
350
1CFA
  3
Thicken
350
1CFD
  0
XRECORD
  5
1ECD
102
{ACAD_REACTORS
330
C
102
}
330
C
100
AcDbXrecord
280
     1
 90
        1
330
1D02
  0
DICTIONARY
  5
1109
102
{ACAD_REACTORS
330
C
102
}
330
C
100
AcDbDictionary
281
     1
  3
CANNOSCALE
350
1EC9
  3
CMLEADERSTYLE
350
1EC8
  3
CTABLESTYLE
350
1EC7
  3
DIMASSOC
350
1CD5
  3
INDEXCTL
350
1ECA
  3
PROJECTNAME
350
1CD6
  3
SORTENTS
350
110A
  0
DICTIONARY
  5
23
102
{ACAD_REACTORS
330
C
102
}
330
C
100
AcDbDictionary
281
     1
  0
XRECORD
  5
1ECE
102
{ACAD_REACTORS
330
C
102
}
330
C
100
AcDbXrecord
280
     1
  1
DWGPROPS COOKIE
  2

  3

  4

  6

  7

  8
V498957
  9

300
=
301
=
302
=
303
=
304
=
305
=
306
=
307
=
308
=
309
=
 40
2.343396435185185
 41
2451353.459995197
 42
2454802.331927315
  1

 90
        0
  0
DICTIONARY
  5
1E71
102
{ACAD_REACTORS
330
1E70
102
}
330
1E70
100
AcDbDictionary
281
     1
  0
XRECORD
  5
1D99
102
{ACAD_REACTORS
330
1D98
102
}
330
1D98
100
AcDbXrecord
280
     1
290
     1
  0
XRECORD
  5
1D9B
102
{ACAD_REACTORS
330
1D9A
102
}
330
1D9A
100
AcDbXrecord
280
     1
290
     1
  0
XRECORD
  5
1D9D
102
{ACAD_REACTORS
330
1D9C
102
}
330
1D9C
100
AcDbXrecord
280
     1
290
     1
  0
XRECORD
  5
1D9F
102
{ACAD_REACTORS
330
1D9E
102
}
330
1D9E
100
AcDbXrecord
280
     1
290
     1
  0
XRECORD
  5
1DA1
102
{ACAD_REACTORS
330
1DA0
102
}
330
1DA0
100
AcDbXrecord
280
     1
290
     1
  0
XRECORD
  5
1DA3
102
{ACAD_REACTORS
330
1DA2
102
}
330
1DA2
100
AcDbXrecord
280
     1
290
     1
  0
XRECORD
  5
1DA5
102
{ACAD_REACTORS
330
1DA4
102
}
330
1DA4
100
AcDbXrecord
280
     1
290
     1
  0
XRECORD
  5
1DA7
102
{ACAD_REACTORS
330
1DA6
102
}
330
1DA6
100
AcDbXrecord
280
     1
290
     1
  0
XRECORD
  5
1969
102
{ACAD_REACTORS
330
1968
102
}
330
1968
100
AcDbXrecord
280
     1
340
18
  0
XRECORD
  5
1967
102
{ACAD_REACTORS
330
1966
102
}
330
1966
100
AcDbXrecord
280
     1
340
15
  0
XRECORD
  5
1EDA
102
{ACAD_REACTORS
330
1ED9
102
}
330
1ED9
100
AcDbXrecord
280
     1
 40
37018.0
  1
\A1;{\H0.875x;\U+2265}870±40
  0
XRECORD
  5
1ED0
102
{ACAD_REACTORS
330
1ECF
102
}
330
1ECF
100
AcDbXrecord
280
     1
102
SHADEPLOT
 70
     0
  0
GROUP
  5
1B1
102
{ACAD_REACTORS
330
D
102
}
330
D
100
AcDbGroup
300

 70
     1
 71
     1
  0
GROUP
  5
46B
102
{ACAD_REACTORS
330
D
102
}
330
D
100
AcDbGroup
300

 70
     1
 71
     1
  0
GROUP
  5
95A
102
{ACAD_REACTORS
330
D
102
}
330
D
100
AcDbGroup
300

 70
     1
 71
     1
  0
GROUP
  5
95B
102
{ACAD_REACTORS
330
D
102
}
330
D
100
AcDbGroup
300

 70
     1
 71
     1
  0
GROUP
  5
95C
102
{ACAD_REACTORS
330
D
102
}
330
D
100
AcDbGroup
300

 70
     1
 71
     1
  0
GROUP
  5
95D
102
{ACAD_REACTORS
330
D
102
}
330
D
100
AcDbGroup
300

 70
     1
 71
     1
  0
GROUP
  5
1B2
102
{ACAD_REACTORS
330
D
102
}
330
D
100
AcDbGroup
300

 70
     1
 71
     1
  0
GROUP
  5
1C3
102
{ACAD_REACTORS
330
D
102
}
330
D
100
AcDbGroup
300

 70
     1
 71
     1
  0
GROUP
  5
1D2
102
{ACAD_REACTORS
330
D
102
}
330
D
100
AcDbGroup
300

 70
     1
 71
     1
  0
GROUP
  5
46A
102
{ACAD_REACTORS
330
D
102
}
330
D
100
AcDbGroup
300

 70
     1
 71
     1
  0
LAYOUT
  5
1615
102
{ACAD_XDICTIONARY
360
1ED3
102
}
102
{ACAD_REACTORS
330
1612
102
}
330
1612
100
AcDbPlotSettings
  1

  2
\\VAKF11\Lexmark Optra E312 lex15
  4
A4
  6

 40
6.805083274841308
 41
5.535083293914794
 42
6.974411010742187
 43
7.14373779296875
 44
209.9733276367187
 45
296.9259948730469
 46
0.0
 47
0.0
 48
0.0
 49
0.0
140
0.0
141
0.0
142
1.0
143
1.0
 70
   690
 72
     0
 73
     0
 74
     5
  7
monochrome.ctb
 75
     0
147
1.0
148
0.0
149
0.0
100
AcDbLayout
  1
Layout1
 70
     1
 71
     1
 10
-0.2679166643638311
 20
-0.2179166651147557
 11
7.99874977802667
 21
11.47208313303669
 12
0.0
 22
0.0
 32
0.0
 14
0.3766444902957664
 24
0.669958886431331
 34
0.0
 15
7.215452000454384
 25
10.86620714172036
 35
0.0
146
0.0
 13
0.0
 23
0.0
 33
0.0
 16
1.0
 26
0.0
 36
0.0
 17
0.0
 27
1.0
 37
0.0
 76
     0
330
15
331
1DF
  0
LAYOUT
  5
1614
102
{ACAD_XDICTIONARY
360
1ED1
102
}
102
{ACAD_REACTORS
330
1612
102
}
330
1612
100
AcDbPlotSettings
  1

  2
\\VAKF11\Lexmark Optra E312 lex15
  4

  6

 40
0.0
 41
0.0
 42
0.0
 43
0.0
 44
0.0
 45
0.0
 46
0.0
 47
0.0
 48
0.0
 49
0.0
140
0.0
141
0.0
142
1.0
143
1.0
 70
  1712
 72
     0
 73
     0
 74
     0
  7

 75
     0
147
1.0
148
0.0
149
0.0
100
AcDbLayout
  1
Model
 70
     1
 71
     0
 10
0.0
 20
0.0
 11
12.0
 21
9.0
 12
0.0
 22
0.0
 32
0.0
 14
0.0
 24
0.0
 34
0.0
 15
0.0
 25
0.0
 35
0.0
146
0.0
 13
0.0
 23
0.0
 33
0.0
 16
1.0
 26
0.0
 36
0.0
 17
0.0
 27
1.0
 37
0.0
 76
     0
330
18
331
1CCB
  0
MATERIAL
  5
1CE0
102
{ACAD_XDICTIONARY
360
1CE1
102
}
102
{ACAD_REACTORS
330
1C16
102
}
330
1C16
100
AcDbMaterial
  1
ByBlock
 72
     0
 43
0.0208333333333333
 43
0.0
 43
0.0
 43
0.0
 43
0.0
 43
0.0208333333333333
 43
0.0
 43
0.0
 43
0.0
 43
0.0
 43
1.0
 43
0.0
 43
0.0
 43
0.0
 43
0.0
 43
1.0
 77
     0
 47
0.0208333333333333
 47
0.0
 47
0.0
 47
0.0
 47
0.0
 47
0.0208333333333333
 47
0.0
 47
0.0
 47
0.0
 47
0.0
 47
1.0
 47
0.0
 47
0.0
 47
0.0
 47
0.0
 47
1.0
171
     0
 49
0.0208333333333333
 49
0.0
 49
0.0
 49
0.0
 49
0.0
 49
0.0208333333333333
 49
0.0
 49
0.0
 49
0.0
 49
0.0
 49
1.0
 49
0.0
 49
0.0
 49
0.0
 49
0.0
 49
1.0
175
     0
142
0.0208333333333333
142
0.0
142
0.0
142
0.0
142
0.0
142
0.0208333333333333
142
0.0
142
0.0
142
0.0
142
0.0
142
1.0
142
0.0
142
0.0
142
0.0
142
0.0
142
1.0
179
     0
144
0.0208333333333333
144
0.0
144
0.0
144
0.0
144
0.0
144
0.0208333333333333
144
0.0
144
0.0
144
0.0
144
0.0
144
1.0
144
0.0
144
0.0
144
0.0
144
0.0
144
1.0
147
0.0208333333333333
147
0.0
147
0.0
147
0.0
147
0.0
147
0.0208333333333333
147
0.0
147
0.0
147
0.0
147
0.0
147
1.0
147
0.0
147
0.0
147
0.0
147
0.0
147
1.0
  0
MATERIAL
  5
1CD8
102
{ACAD_XDICTIONARY
360
1CD9
102
}
102
{ACAD_REACTORS
330
1C16
102
}
330
1C16
100
AcDbMaterial
  1
ByLayer
 72
     0
 43
0.0208333333333333
 43
0.0
 43
0.0
 43
0.0
 43
0.0
 43
0.0208333333333333
 43
0.0
 43
0.0
 43
0.0
 43
0.0
 43
1.0
 43
0.0
 43
0.0
 43
0.0
 43
0.0
 43
1.0
 77
     0
 47
0.0208333333333333
 47
0.0
 47
0.0
 47
0.0
 47
0.0
 47
0.0208333333333333
 47
0.0
 47
0.0
 47
0.0
 47
0.0
 47
1.0
 47
0.0
 47
0.0
 47
0.0
 47
0.0
 47
1.0
171
     0
 49
0.0208333333333333
 49
0.0
 49
0.0
 49
0.0
 49
0.0
 49
0.0208333333333333
 49
0.0
 49
0.0
 49
0.0
 49
0.0
 49
1.0
 49
0.0
 49
0.0
 49
0.0
 49
0.0
 49
1.0
175
     0
142
0.0208333333333333
142
0.0
142
0.0
142
0.0
142
0.0
142
0.0208333333333333
142
0.0
142
0.0
142
0.0
142
0.0
142
1.0
142
0.0
142
0.0
142
0.0
142
0.0
142
1.0
179
     0
144
0.0208333333333333
144
0.0
144
0.0
144
0.0
144
0.0
144
0.0208333333333333
144
0.0
144
0.0
144
0.0
144
0.0
144
1.0
144
0.0
144
0.0
144
0.0
144
0.0
144
1.0
147
0.0208333333333333
147
0.0
147
0.0
147
0.0
147
0.0
147
0.0208333333333333
147
0.0
147
0.0
147
0.0
147
0.0
147
1.0
147
0.0
147
0.0
147
0.0
147
0.0
147
1.0
  0
MATERIAL
  5
1CE8
102
{ACAD_XDICTIONARY
360
1CE9
102
}
102
{ACAD_REACTORS
330
1C16
102
}
330
1C16
100
AcDbMaterial
  1
Global
 72
     0
 43
0.0208333333333333
 43
0.0
 43
0.0
 43
0.0
 43
0.0
 43
0.0208333333333333
 43
0.0
 43
0.0
 43
0.0
 43
0.0
 43
1.0
 43
0.0
 43
0.0
 43
0.0
 43
0.0
 43
1.0
 77
     0
 47
0.0208333333333333
 47
0.0
 47
0.0
 47
0.0
 47
0.0
 47
0.0208333333333333
 47
0.0
 47
0.0
 47
0.0
 47
0.0
 47
1.0
 47
0.0
 47
0.0
 47
0.0
 47
0.0
 47
1.0
171
     0
 49
0.0208333333333333
 49
0.0
 49
0.0
 49
0.0
 49
0.0
 49
0.0208333333333333
 49
0.0
 49
0.0
 49
0.0
 49
0.0
 49
1.0
 49
0.0
 49
0.0
 49
0.0
 49
0.0
 49
1.0
175
     0
142
0.0208333333333333
142
0.0
142
0.0
142
0.0
142
0.0
142
0.0208333333333333
142
0.0
142
0.0
142
0.0
142
0.0
142
1.0
142
0.0
142
0.0
142
0.0
142
0.0
142
1.0
179
     0
144
0.0208333333333333
144
0.0
144
0.0
144
0.0
144
0.0
144
0.0208333333333333
144
0.0
144
0.0
144
0.0
144
0.0
144
1.0
144
0.0
144
0.0
144
0.0
144
0.0
144
1.0
147
0.0208333333333333
147
0.0
147
0.0
147
0.0
147
0.0
147
0.0208333333333333
147
0.0
147
0.0
147
0.0
147
0.0
147
1.0
147
0.0
147
0.0
147
0.0
147
0.0
147
1.0
  0
MLEADERSTYLE
  5
1D26
102
{ACAD_REACTORS
330
1D25
102
}
330
1D25
100
AcDbMLeaderStyle
170
     2
171
     1
172
     0
 90
        2
 40
0.0
 41
0.0
173
     1
 91
-1056964608
340
12
 92
       -2
290
     1
 42
0.09
291
     1
 43
0.36
  3
Standard
 44
0.18
300

342
F
174
     1
178
     6
175
     1
176
     0
 93
-1056964608
 45
0.18
292
     0
297
     0
 46
0.18
 94
-1056964608
 47
1.0
 49
1.0
140
1.0
293
     1
141
0.0
294
     1
177
     0
142
1.0
295
     0
296
     0
143
0.125
1001
ACAD_MLEADERVER
1070
     2
  0
MLINESTYLE
  5
1C
102
{ACAD_REACTORS
330
1B
102
}
330
1B
100
AcDbMlineStyle
  2
STANDARD
 70
     0
  3

 62
   256
 51
90.0
 52
90.0
 71
     2
 49
0.5
 62
   256
  6
BYLAYER
 49
-0.5
 62
   256
  6
BYLAYER
  0
ACDBPLACEHOLDER
  5
1611
102
{ACAD_REACTORS
330
1610
102
}
330
1610
  0
SCALE
  5
1D04
102
{ACAD_REACTORS
330
1D03
102
}
330
1D03
100
AcDbScale
 70
     0
300
1:1
140
1.0
141
1.0
290
     1
  0
SCALE
  5
1D05
102
{ACAD_REACTORS
330
1D03
102
}
330
1D03
100
AcDbScale
 70
     0
300
1:2
140
1.0
141
2.0
290
     0
  0
SCALE
  5
1D06
102
{ACAD_REACTORS
330
1D03
102
}
330
1D03
100
AcDbScale
 70
     0
300
1:4
140
1.0
141
4.0
290
     0
  0
SCALE
  5
1D07
102
{ACAD_REACTORS
330
1D03
102
}
330
1D03
100
AcDbScale
 70
     0
300
1:5
140
1.0
141
5.0
290
     0
  0
SCALE
  5
1D08
102
{ACAD_REACTORS
330
1D03
102
}
330
1D03
100
AcDbScale
 70
     0
300
1:8
140
1.0
141
8.0
290
     0
  0
SCALE
  5
1D09
102
{ACAD_REACTORS
330
1D03
102
}
330
1D03
100
AcDbScale
 70
     0
300
1:10
140
1.0
141
10.0
290
     0
  0
SCALE
  5
1D0A
102
{ACAD_REACTORS
330
1D03
102
}
330
1D03
100
AcDbScale
 70
     0
300
1:16
140
1.0
141
16.0
290
     0
  0
SCALE
  5
1D0B
102
{ACAD_REACTORS
330
1D03
102
}
330
1D03
100
AcDbScale
 70
     0
300
1:20
140
1.0
141
20.0
290
     0
  0
SCALE
  5
1D0C
102
{ACAD_REACTORS
330
1D03
102
}
330
1D03
100
AcDbScale
 70
     0
300
1:30
140
1.0
141
30.0
290
     0
  0
SCALE
  5
1D0D
102
{ACAD_REACTORS
330
1D03
102
}
330
1D03
100
AcDbScale
 70
     0
300
1:40
140
1.0
141
40.0
290
     0
  0
SCALE
  5
1D0E
102
{ACAD_REACTORS
330
1D03
102
}
330
1D03
100
AcDbScale
 70
     0
300
1:50
140
1.0
141
50.0
290
     0
  0
SCALE
  5
1D0F
102
{ACAD_REACTORS
330
1D03
102
}
330
1D03
100
AcDbScale
 70
     0
300
1:100
140
1.0
141
100.0
290
     0
  0
SCALE
  5
1D10
102
{ACAD_REACTORS
330
1D03
102
}
330
1D03
100
AcDbScale
 70
     0
300
2:1
140
2.0
141
1.0
290
     0
  0
SCALE
  5
1D11
102
{ACAD_REACTORS
330
1D03
102
}
330
1D03
100
AcDbScale
 70
     0
300
4:1
140
4.0
141
1.0
290
     0
  0
SCALE
  5
1D12
102
{ACAD_REACTORS
330
1D03
102
}
330
1D03
100
AcDbScale
 70
     0
300
8:1
140
8.0
141
1.0
290
     0
  0
SCALE
  5
1D13
102
{ACAD_REACTORS
330
1D03
102
}
330
1D03
100
AcDbScale
 70
     0
300
10:1
140
10.0
141
1.0
290
     0
  0
SCALE
  5
1D14
102
{ACAD_REACTORS
330
1D03
102
}
330
1D03
100
AcDbScale
 70
     0
300
100:1
140
100.0
141
1.0
290
     0
  0
SCALE
  5
1D15
102
{ACAD_REACTORS
330
1D03
102
}
330
1D03
100
AcDbScale
 70
     0
300
1/128" = 1'-0"
140
0.0078125
141
12.0
290
     0
  0
SCALE
  5
1D16
102
{ACAD_REACTORS
330
1D03
102
}
330
1D03
100
AcDbScale
 70
     0
300
1/64" = 1'-0"
140
0.015625
141
12.0
290
     0
  0
SCALE
  5
1D17
102
{ACAD_REACTORS
330
1D03
102
}
330
1D03
100
AcDbScale
 70
     0
300
1/32" = 1'-0"
140
0.03125
141
12.0
290
     0
  0
SCALE
  5
1D18
102
{ACAD_REACTORS
330
1D03
102
}
330
1D03
100
AcDbScale
 70
     0
300
1/16" = 1'-0"
140
0.0625
141
12.0
290
     0
  0
SCALE
  5
1D19
102
{ACAD_REACTORS
330
1D03
102
}
330
1D03
100
AcDbScale
 70
     0
300
3/32" = 1'-0"
140
0.09375
141
12.0
290
     0
  0
SCALE
  5
1D1A
102
{ACAD_REACTORS
330
1D03
102
}
330
1D03
100
AcDbScale
 70
     0
300
1/8" = 1'-0"
140
0.125
141
12.0
290
     0
  0
SCALE
  5
1D1B
102
{ACAD_REACTORS
330
1D03
102
}
330
1D03
100
AcDbScale
 70
     0
300
3/16" = 1'-0"
140
0.1875
141
12.0
290
     0
  0
SCALE
  5
1D1C
102
{ACAD_REACTORS
330
1D03
102
}
330
1D03
100
AcDbScale
 70
     0
300
1/4" = 1'-0"
140
0.25
141
12.0
290
     0
  0
SCALE
  5
1D1D
102
{ACAD_REACTORS
330
1D03
102
}
330
1D03
100
AcDbScale
 70
     0
300
3/8" = 1'-0"
140
0.375
141
12.0
290
     0
  0
SCALE
  5
1D1E
102
{ACAD_REACTORS
330
1D03
102
}
330
1D03
100
AcDbScale
 70
     0
300
1/2" = 1'-0"
140
0.5
141
12.0
290
     0
  0
SCALE
  5
1D1F
102
{ACAD_REACTORS
330
1D03
102
}
330
1D03
100
AcDbScale
 70
     0
300
3/4" = 1'-0"
140
0.75
141
12.0
290
     0
  0
SCALE
  5
1D20
102
{ACAD_REACTORS
330
1D03
102
}
330
1D03
100
AcDbScale
 70
     0
300
1" = 1'-0"
140
1.0
141
12.0
290
     0
  0
SCALE
  5
1D21
102
{ACAD_REACTORS
330
1D03
102
}
330
1D03
100
AcDbScale
 70
     0
300
1-1/2" = 1'-0"
140
1.5
141
12.0
290
     0
  0
SCALE
  5
1D22
102
{ACAD_REACTORS
330
1D03
102
}
330
1D03
100
AcDbScale
 70
     0
300
3" = 1'-0"
140
3.0
141
12.0
290
     0
  0
SCALE
  5
1D23
102
{ACAD_REACTORS
330
1D03
102
}
330
1D03
100
AcDbScale
 70
     0
300
6" = 1'-0"
140
6.0
141
12.0
290
     0
  0
SCALE
  5
1D24
102
{ACAD_REACTORS
330
1D03
102
}
330
1D03
100
AcDbScale
 70
     0
300
1'-0" = 1'-0"
140
12.0
141
12.0
290
     0
  0
TABLESTYLE
  5
1D02
102
{ACAD_XDICTIONARY
360
1ECB
102
}
102
{ACAD_REACTORS
330
1D01
102
}
330
1D01
100
AcDbTableStyle
  3
Standard
 70
     0
 71
     0
 40
0.06
 41
0.06
280
     0
281
     0
  7
STANDARD
140
0.18
170
     2
 62
     0
 63
     7
283
     0
274
    -2
284
     1
 64
     0
275
    -2
285
     1
 65
     0
276
    -2
286
     1
 66
     0
277
    -2
287
     1
 67
     0
278
    -2
288
     1
 68
     0
279
    -2
289
     1
 69
     0
  7
STANDARD
140
0.25
170
     5
 62
     0
 63
     7
283
     0
274
    -2
284
     1
 64
     0
275
    -2
285
     1
 65
     0
276
    -2
286
     1
 66
     0
277
    -2
287
     1
 67
     0
278
    -2
288
     1
 68
     0
279
    -2
289
     1
 69
     0
  7
STANDARD
140
0.18
170
     5
 62
     0
 63
     7
283
     0
274
    -2
284
     1
 64
     0
275
    -2
285
     1
 65
     0
276
    -2
286
     1
 66
     0
277
    -2
287
     1
 67
     0
278
    -2
288
     1
 68
     0
279
    -2
289
     1
 69
     0
  0
VISUALSTYLE
  5
1CF6
102
{ACAD_REACTORS
330
1CF0
102
}
330
1CF0
100
AcDbVisualStyle
  2
2dWireframe
 70
     4
 71
     0
 72
     2
 73
     0
 90
        0
 40
-0.6
 41
-30.0
 62
     5
 63
     7
 74
     1
 91
        4
 64
     7
 65
   257
 75
     1
175
     1
 42
1.0
 92
        0
 66
   257
 43
1.0
 76
     1
 77
     6
 78
     2
 67
     7
 79
     5
170
     0
171
     0
290
     0
174
     0
 93
        1
 44
0.0
173
     0
291
     0
 45
0.0
1001
ACAD
1000
AcDbSavedByObjectVersion
1070
     0
  0
VISUALSTYLE
  5
1CF8
102
{ACAD_REACTORS
330
1CF0
102
}
330
1CF0
100
AcDbVisualStyle
  2
3D Hidden
 70
     6
 71
     1
 72
     2
 73
     2
 90
        0
 40
-0.6
 41
-30.0
 62
     5
 63
     7
 74
     2
 91
        2
 64
     7
 65
   257
 75
     2
175
     1
 42
40.0
 92
        0
 66
   257
 43
1.0
 76
     1
 77
     6
 78
     2
 67
     7
 79
     3
170
     0
171
     0
290
     0
174
     0
 93
        1
 44
0.0
173
     0
291
     0
 45
0.0
1001
ACAD
1000
AcDbSavedByObjectVersion
1070
     0
  0
VISUALSTYLE
  5
1CF7
102
{ACAD_REACTORS
330
1CF0
102
}
330
1CF0
100
AcDbVisualStyle
  2
3dWireframe
 70
     5
 71
     0
 72
     2
 73
     0
 90
        0
 40
-0.6
 41
-30.0
 62
     5
 63
     7
 74
     1
 91
        4
 64
     7
 65
   257
 75
     1
175
     1
 42
1.0
 92
        0
 66
   257
 43
1.0
 76
     1
 77
     6
 78
     2
 67
     7
 79
     5
170
     0
171
     0
290
     0
174
     0
 93
        1
 44
0.0
173
     0
291
     0
 45
0.0
1001
ACAD
1000
AcDbSavedByObjectVersion
1070
     0
  0
VISUALSTYLE
  5
1CF5
102
{ACAD_REACTORS
330
1CF0
102
}
330
1CF0
100
AcDbVisualStyle
  2
Basic
 70
     7
 71
     1
 72
     0
 73
     1
 90
        0
 40
-0.6
 41
-30.0
 62
     5
 63
     7
 74
     0
 91
        4
 64
     7
 65
   257
 75
     1
175
     1
 42
1.0
 92
        8
 66
     7
 43
1.0
 76
     1
 77
     6
 78
     2
 67
     7
 79
     5
170
     0
171
     0
290
     0
174
     0
 93
        1
 44
0.0
173
     0
291
     1
 45
0.0
1001
ACAD
1000
AcDbSavedByObjectVersion
1070
     0
  0
VISUALSTYLE
  5
1CFC
102
{ACAD_REACTORS
330
1CF0
102
}
330
1CF0
100
AcDbVisualStyle
  2
Brighten
 70
    12
 71
     2
 72
     2
 73
     0
 90
        0
 40
-0.6
 41
-30.0
 62
     5
 63
     7
 74
     1
 91
        4
 64
     7
 65
   257
 75
     1
175
     1
 42
1.0
 92
        8
 66
     7
 43
1.0
 76
     1
 77
     6
 78
     2
 67
     7
 79
     5
170
     0
171
     0
290
     0
174
     0
 93
        1
 44
50.0
173
     0
291
     1
 45
0.0
1001
ACAD
1000
AcDbSavedByObjectVersion
1070
     0
  0
VISUALSTYLE
  5
1D00
102
{ACAD_REACTORS
330
1CF0
102
}
330
1CF0
100
AcDbVisualStyle
  2
ColorChange
 70
    16
 71
     2
 72
     2
 73
     3
 90
        0
 40
-0.6
 41
-30.0
 62
     5
 63
     8
 74
     1
 91
        4
 64
     7
 65
   257
 75
     1
175
     1
 42
1.0
 92
        8
 66
     8
 43
1.0
 76
     1
 77
     6
 78
     2
 67
     7
 79
     5
170
     0
171
     0
290
     0
174
     0
 93
        1
 44
0.0
173
     0
291
     1
 45
0.0
1001
ACAD
1000
AcDbSavedByObjectVersion
1070
     0
  0
VISUALSTYLE
  5
1CF9
102
{ACAD_REACTORS
330
1CF0
102
}
330
1CF0
100
AcDbVisualStyle
  2
Conceptual
 70
     9
 71
     3
 72
     2
 73
     0
 90
        0
 40
-0.6
 41
-30.0
 62
     5
 63
     7
 74
     2
 91
        2
 64
     7
 65
   257
 75
     1
175
     1
 42
40.0
 92
        8
 66
     7
 43
1.0
 76
     1
 77
     6
 78
     2
 67
     7
 79
     3
170
     0
171
     0
290
     0
174
     0
 93
        1
 44
0.0
173
     0
291
     0
 45
0.0
1001
ACAD
1000
AcDbSavedByObjectVersion
1070
     0
  0
VISUALSTYLE
  5
1CFB
102
{ACAD_REACTORS
330
1CF0
102
}
330
1CF0
100
AcDbVisualStyle
  2
Dim
 70
    11
 71
     2
 72
     2
 73
     0
 90
        0
 40
-0.6
 41
-30.0
 62
     5
 63
     7
 74
     1
 91
        4
 64
     7
 65
   257
 75
     1
175
     1
 42
1.0
 92
        8
 66
     7
 43
1.0
 76
     1
 77
     6
 78
     2
 67
     7
 79
     5
170
     0
171
     0
290
     0
174
     0
 93
        1
 44
-50.0
173
     0
291
     1
 45
0.0
1001
ACAD
1000
AcDbSavedByObjectVersion
1070
     0
  0
VISUALSTYLE
  5
1CFF
102
{ACAD_REACTORS
330
1CF0
102
}
330
1CF0
100
AcDbVisualStyle
  2
Facepattern
 70
    15
 71
     2
 72
     2
 73
     0
 90
        0
 40
-0.6
 41
-30.0
 62
     5
 63
     7
 74
     1
 91
        4
 64
     7
 65
   257
 75
     1
175
     1
 42
1.0
 92
        8
 66
     7
 43
1.0
 76
     1
 77
     6
 78
     2
 67
     7
 79
     5
170
     0
171
     0
290
     0
174
     0
 93
        1
 44
0.0
173
     0
291
     1
 45
0.0
1001
ACAD
1000
AcDbSavedByObjectVersion
1070
     0
  0
VISUALSTYLE
  5
1CF1
102
{ACAD_REACTORS
330
1CF0
102
}
330
1CF0
100
AcDbVisualStyle
  2
Flat
 70
     0
 71
     2
 72
     1
 73
     1
 90
        2
 40
-0.6
 41
30.0
 62
     5
 63
     7
 74
     0
 91
        4
 64
     7
 65
   257
 75
     1
175
     1
 42
1.0
 92
        8
 66
     7
 43
1.0
 76
     1
 77
     6
 78
     2
 67
     7
 79
     5
170
     0
171
     0
290
     0
174
     0
 93
       13
 44
0.0
173
     0
291
     1
 45
0.0
1001
ACAD
1000
AcDbSavedByObjectVersion
1070
     0
  0
VISUALSTYLE
  5
1CF2
102
{ACAD_REACTORS
330
1CF0
102
}
330
1CF0
100
AcDbVisualStyle
  2
FlatWithEdges
 70
     1
 71
     2
 72
     1
 73
     1
 90
        2
 40
-0.6
 41
30.0
 62
     5
 63
     7
 74
     1
 91
        4
 64
     7
 65
   257
 75
     1
175
     1
 42
1.0
 92
        0
 66
   257
 43
1.0
 76
     1
 77
     6
 78
     2
 67
     7
 79
     5
170
     0
171
     0
290
     0
174
     0
 93
       13
 44
0.0
173
     0
291
     1
 45
0.0
1001
ACAD
1000
AcDbSavedByObjectVersion
1070
     0
  0
VISUALSTYLE
  5
1CF3
102
{ACAD_REACTORS
330
1CF0
102
}
330
1CF0
100
AcDbVisualStyle
  2
Gouraud
 70
     2
 71
     2
 72
     2
 73
     1
 90
        2
 40
-0.6
 41
30.0
 62
     5
 63
     7
 74
     0
 91
        4
 64
     7
 65
   257
 75
     1
175
     1
 42
1.0
 92
        0
 66
     7
 43
1.0
 76
     1
 77
     6
 78
     2
 67
     7
 79
     5
170
     0
171
     0
290
     0
174
     0
 93
       13
 44
0.0
173
     0
291
     1
 45
0.0
1001
ACAD
1000
AcDbSavedByObjectVersion
1070
     0
  0
VISUALSTYLE
  5
1CF4
102
{ACAD_REACTORS
330
1CF0
102
}
330
1CF0
100
AcDbVisualStyle
  2
GouraudWithEdges
 70
     3
 71
     2
 72
     2
 73
     1
 90
        2
 40
-0.6
 41
30.0
 62
     5
 63
     7
 74
     1
 91
        4
 64
     7
 65
   257
 75
     1
175
     1
 42
1.0
 92
        0
 66
   257
 43
1.0
 76
     1
 77
     6
 78
     2
 67
     7
 79
     5
170
     0
171
     0
290
     0
174
     0
 93
       13
 44
0.0
173
     0
291
     1
 45
0.0
1001
ACAD
1000
AcDbSavedByObjectVersion
1070
     0
  0
VISUALSTYLE
  5
1CFE
102
{ACAD_REACTORS
330
1CF0
102
}
330
1CF0
100
AcDbVisualStyle
  2
Linepattern
 70
    14
 71
     2
 72
     2
 73
     0
 90
        0
 40
-0.6
 41
-30.0
 62
     5
 63
     7
 74
     1
 91
        4
 64
     7
 65
   257
 75
     7
175
     7
 42
1.0
 92
        8
 66
     7
 43
1.0
 76
     1
 77
     6
 78
     2
 67
     7
 79
     5
170
     0
171
     0
290
     0
174
     0
 93
        1
 44
0.0
173
     0
291
     1
 45
0.0
1001
ACAD
1000
AcDbSavedByObjectVersion
1070
     0
  0
VISUALSTYLE
  5
1CFA
102
{ACAD_REACTORS
330
1CF0
102
}
330
1CF0
100
AcDbVisualStyle
  2
Realistic
 70
     8
 71
     2
 72
     2
 73
     0
 90
        0
 40
-0.6
 41
-30.0
 62
     5
 63
     7
 74
     1
 91
        0
 64
     7
 65
   257
 75
     1
175
     1
 42
1.0
 92
        8
 66
     8
 43
1.0
 76
     1
 77
     6
 78
     2
 67
     7
 79
     5
170
     0
171
     0
290
     0
174
     0
 93
       13
 44
0.0
173
     0
291
     0
 45
0.0
1001
ACAD
1000
AcDbSavedByObjectVersion
1070
     0
  0
VISUALSTYLE
  5
1CFD
102
{ACAD_REACTORS
330
1CF0
102
}
330
1CF0
100
AcDbVisualStyle
  2
Thicken
 70
    13
 71
     2
 72
     2
 73
     0
 90
        0
 40
-0.6
 41
-30.0
 62
     5
 63
     7
 74
     1
 91
        4
 64
     7
 65
   257
 75
     1
175
     1
 42
1.0
 92
       12
 66
     7
 43
1.0
 76
     1
 77
     6
 78
     2
 67
     7
 79
     5
170
     0
171
     0
290
     0
174
     0
 93
        1
 44
0.0
173
     0
291
     1
 45
0.0
1001
ACAD
1000
AcDbSavedByObjectVersion
1070
     0
  0
DICTIONARYVAR
  5
1EC9
102
{ACAD_REACTORS
330
1109
102
}
330
1109
100
DictionaryVariables
280
     0
  1
1:1
  0
DICTIONARYVAR
  5
1EC8
102
{ACAD_REACTORS
330
1109
102
}
330
1109
100
DictionaryVariables
280
     0
  1
STANDARD
  0
DICTIONARYVAR
  5
1EC7
102
{ACAD_REACTORS
330
1109
102
}
330
1109
100
DictionaryVariables
280
     0
  1
STANDARD
  0
DICTIONARYVAR
  5
1CD5
102
{ACAD_REACTORS
330
1109
102
}
330
1109
100
DictionaryVariables
280
     0
  1
1
  0
DICTIONARYVAR
  5
1ECA
102
{ACAD_REACTORS
330
1109
102
}
330
1109
100
DictionaryVariables
280
     0
  1
0
  0
DICTIONARYVAR
  5
1CD6
102
{ACAD_REACTORS
330
1109
102
}
330
1109
100
DictionaryVariables
280
     0
  1

  0
DICTIONARYVAR
  5
110A
102
{ACAD_REACTORS
330
1109
102
}
330
1109
100
DictionaryVariables
280
     0
  1
96
  0
DICTIONARY
  5
1ED3
330
1615
100
AcDbDictionary
280
     1
281
     1
  3
ACAD_XREC_ROUNDTRIP
360
1ED4
  0
DICTIONARY
  5
1ED1
330
1614
100
AcDbDictionary
280
     1
281
     1
  3
ACAD_XREC_ROUNDTRIP
360
1ED2
  0
DICTIONARY
  5
1CE1
330
1CE0
100
AcDbDictionary
280
     1
281
     1
  3
ACAD_XREC_ROUNDTRIP
360
1ED6
  3
BUMPTILE
360
1CE3
  3
DIFFUSETILE
360
1CE2
  3
OPACITYTILE
360
1CE6
  3
REFLECTIONTILE
360
1CE5
  3
REFRACTIONTILE
360
1CE7
  3
SPECULARTILE
360
1CE4
  0
DICTIONARY
  5
1CD9
330
1CD8
100
AcDbDictionary
280
     1
281
     1
  3
ACAD_XREC_ROUNDTRIP
360
1ED5
  3
BUMPTILE
360
1CDB
  3
DIFFUSETILE
360
1CDA
  3
OPACITYTILE
360
1CDE
  3
REFLECTIONTILE
360
1CDD
  3
REFRACTIONTILE
360
1CDF
  3
SPECULARTILE
360
1CDC
  0
DICTIONARY
  5
1CE9
330
1CE8
100
AcDbDictionary
280
     1
281
     1
  3
ACAD_XREC_ROUNDTRIP
360
1ED7
  3
BUMPTILE
360
1CEB
  3
DIFFUSETILE
360
1CEA
  3
OPACITYTILE
360
1CEE
  3
REFLECTIONTILE
360
1CED
  3
REFRACTIONTILE
360
1CEF
  3
SPECULARTILE
360
1CEC
  0
DICTIONARY
  5
1ECB
330
1D02
100
AcDbDictionary
280
     1
281
     1
  3
ACAD_ROUNDTRIP_2008_TABLESTYLE_CELLSTYLEMAP
360
1ECC
  3
ACAD_XREC_ROUNDTRIP
360
1ED8
  0
XRECORD
  5
1ED4
102
{ACAD_REACTORS
330
1ED3
102
}
330
1ED3
100
AcDbXrecord
280
     1
102
SHADEPLOT
 70
     0
102
SHADEPLOTRESLEVEL
 70
     2
102
SHADEPLOTCUSTOMDPI
 70
   300
  0
XRECORD
  5
1ED2
102
{ACAD_REACTORS
330
1ED1
102
}
330
1ED1
100
AcDbXrecord
280
     1
102
SHADEPLOT
 70
     0
102
SHADEPLOTRESLEVEL
 70
     2
102
SHADEPLOTCUSTOMDPI
 70
   300
  0
XRECORD
  5
1ED6
102
{ACAD_REACTORS
330
1CE1
102
}
330
1CE1
100
AcDbXrecord
280
     1
102
MATERIAL
148
0.0
149
0.0
149
0.0
 93
        0
 94
      127
282
     0
 72
     0
 77
     0
171
     0
175
     0
179
     0
273
     0
  0
XRECORD
  5
1CE3
102
{ACAD_REACTORS
330
1CE1
102
}
330
1CE1
100
AcDbXrecord
280
     1
270
     1
271
     1
  0
XRECORD
  5
1CE2
102
{ACAD_REACTORS
330
1CE1
102
}
330
1CE1
100
AcDbXrecord
280
     1
270
     1
271
     1
  0
XRECORD
  5
1CE6
102
{ACAD_REACTORS
330
1CE1
102
}
330
1CE1
100
AcDbXrecord
280
     1
270
     1
271
     1
  0
XRECORD
  5
1CE5
102
{ACAD_REACTORS
330
1CE1
102
}
330
1CE1
100
AcDbXrecord
280
     1
270
     1
271
     1
  0
XRECORD
  5
1CE7
102
{ACAD_REACTORS
330
1CE1
102
}
330
1CE1
100
AcDbXrecord
280
     1
270
     1
271
     1
  0
XRECORD
  5
1CE4
102
{ACAD_REACTORS
330
1CE1
102
}
330
1CE1
100
AcDbXrecord
280
     1
270
     1
271
     1
  0
XRECORD
  5
1ED5
102
{ACAD_REACTORS
330
1CD9
102
}
330
1CD9
100
AcDbXrecord
280
     1
102
MATERIAL
148
0.0
149
0.0
149
0.0
 93
        0
 94
      127
282
     0
 72
     0
 77
     0
171
     0
175
     0
179
     0
273
     0
  0
XRECORD
  5
1CDB
102
{ACAD_REACTORS
330
1CD9
102
}
330
1CD9
100
AcDbXrecord
280
     1
270
     1
271
     1
  0
XRECORD
  5
1CDA
102
{ACAD_REACTORS
330
1CD9
102
}
330
1CD9
100
AcDbXrecord
280
     1
270
     1
271
     1
  0
XRECORD
  5
1CDE
102
{ACAD_REACTORS
330
1CD9
102
}
330
1CD9
100
AcDbXrecord
280
     1
270
     1
271
     1
  0
XRECORD
  5
1CDD
102
{ACAD_REACTORS
330
1CD9
102
}
330
1CD9
100
AcDbXrecord
280
     1
270
     1
271
     1
  0
XRECORD
  5
1CDF
102
{ACAD_REACTORS
330
1CD9
102
}
330
1CD9
100
AcDbXrecord
280
     1
270
     1
271
     1
  0
XRECORD
  5
1CDC
102
{ACAD_REACTORS
330
1CD9
102
}
330
1CD9
100
AcDbXrecord
280
     1
270
     1
271
     1
  0
XRECORD
  5
1ED7
102
{ACAD_REACTORS
330
1CE9
102
}
330
1CE9
100
AcDbXrecord
280
     1
102
MATERIAL
148
0.0
149
0.0
149
0.0
 93
        0
 94
      127
282
     0
 72
     0
 77
     0
171
     0
175
     0
179
     0
273
     0
  0
XRECORD
  5
1CEB
102
{ACAD_REACTORS
330
1CE9
102
}
330
1CE9
100
AcDbXrecord
280
     1
270
     1
271
     1
  0
XRECORD
  5
1CEA
102
{ACAD_REACTORS
330
1CE9
102
}
330
1CE9
100
AcDbXrecord
280
     1
270
     1
271
     1
  0
XRECORD
  5
1CEE
102
{ACAD_REACTORS
330
1CE9
102
}
330
1CE9
100
AcDbXrecord
280
     1
270
     1
271
     1
  0
XRECORD
  5
1CED
102
{ACAD_REACTORS
330
1CE9
102
}
330
1CE9
100
AcDbXrecord
280
     1
270
     1
271
     1
  0
XRECORD
  5
1CEF
102
{ACAD_REACTORS
330
1CE9
102
}
330
1CE9
100
AcDbXrecord
280
     1
270
     1
271
     1
  0
XRECORD
  5
1CEC
102
{ACAD_REACTORS
330
1CE9
102
}
330
1CE9
100
AcDbXrecord
280
     1
270
     1
271
     1
  0
CELLSTYLEMAP
  5
1ECC
102
{ACAD_REACTORS
330
1ECB
102
}
330
1ECB
100
AcDbCellStyleMap
 90
        3
300
CELLSTYLE
  1
TABLEFORMAT_BEGIN
 90
        5
170
     1
 91
        0
 92
    32768
 62
   257
 93
        1
300
CONTENTFORMAT
  1
CONTENTFORMAT_BEGIN
 90
        0
 91
        0
 92
      512
 93
        0
300

 40
0.0
140
1.0
 94
        5
 62
     0
340
F
144
0.25
309
CONTENTFORMAT_END
171
     0
 94
        0
309
TABLEFORMAT_END
  1
CELLSTYLE_BEGIN
 90
        1
 91
        1
300
_TITLE
309
CELLSTYLE_END
300
CELLSTYLE
  1
TABLEFORMAT_BEGIN
 90
        5
170
     1
 91
        0
 92
        0
 62
   257
 93
        1
300
CONTENTFORMAT
  1
CONTENTFORMAT_BEGIN
 90
        0
 91
        0
 92
      512
 93
        0
300

 40
0.0
140
1.0
 94
        5
 62
     0
340
F
144
0.18
309
CONTENTFORMAT_END
171
     0
 94
        0
309
TABLEFORMAT_END
  1
CELLSTYLE_BEGIN
 90
        2
 91
        1
300
_HEADER
309
CELLSTYLE_END
300
CELLSTYLE
  1
TABLEFORMAT_BEGIN
 90
        5
170
     1
 91
        0
 92
        0
 62
   257
 93
        1
300
CONTENTFORMAT
  1
CONTENTFORMAT_BEGIN
 90
        0
 91
        0
 92
      512
 93
        0
300

 40
0.0
140
1.0
 94
        2
 62
     0
340
F
144
0.18
309
CONTENTFORMAT_END
171
     0
 94
        0
309
TABLEFORMAT_END
  1
CELLSTYLE_BEGIN
 90
        3
 91
        2
300
_DATA
309
CELLSTYLE_END
  0
XRECORD
  5
1ED8
102
{ACAD_REACTORS
330
1ECB
102
}
330
1ECB
100
AcDbXrecord
280
     1
102
ACAD_ROUNDTRIP_PRE2007_TABLESTYLE
 90
      512
 91
        0
  1

 92
      512
 93
        0
  2

 94
      512
 95
        0
  3

  0
ENDSEC
  0
EOF
